  0
SECTION
  2
HEADER
  9
$ACADVER
  1
AC1014
  9
$ACADMAINTVER
 70
     9
  9
$DWGCODEPAGE
  3
ANSI_932
  9
$INSBASE
 10
0.0
 20
0.0
 30
0.0
  9
$EXTMIN
 10
-25.00982591045306
 20
-9.16019772832044
 30
-0.0015258207003583
  9
$EXTMAX
 10
16.28671306940577
 20
33.00785876234186
 30
0.0000000349246037
  9
$LIMMIN
 10
0.0
 20
0.0
  9
$LIMMAX
 10
297.0
 20
210.0
  9
$ORTHOMODE
 70
     0
  9
$REGENMODE
 70
     1
  9
$FILLMODE
 70
     1
  9
$QTEXTMODE
 70
     0
  9
$MIRRTEXT
 70
     1
  9
$DRAGMODE
 70
     2
  9
$LTSCALE
 40
10.0
  9
$OSMODE
 70
   613
  9
$ATTMODE
 70
     1
  9
$TEXTSIZE
 40
3.0
  9
$TRACEWID
 40
1.0
  9
$TEXTSTYLE
  7
YOKO
  9
$CLAYER
  8
240
  9
$CELTYPE
  6
BYLAYER
  9
$CECOLOR
 62
   256
  9
$CELTSCALE
 40
1.0
  9
$DELOBJ
 70
     1
  9
$DISPSILH
 70
     0
  9
$DIMSCALE
 40
1.0
  9
$DIMASZ
 40
2.229999999999999
  9
$DIMEXO
 40
0.5
  9
$DIMDLI
 40
2.5
  9
$DIMRND
 40
0.0
  9
$DIMDLE
 40
0.0
  9
$DIMEXE
 40
1.0
  9
$DIMTP
 40
0.0
  9
$DIMTM
 40
0.0
  9
$DIMTXT
 40
3.0
  9
$DIMCEN
 40
0.0
  9
$DIMTSZ
 40
0.0
  9
$DIMTOL
 70
     0
  9
$DIMLIM
 70
     0
  9
$DIMTIH
 70
     0
  9
$DIMTOH
 70
     0
  9
$DIMSE1
 70
     0
  9
$DIMSE2
 70
     0
  9
$DIMTAD
 70
     3
  9
$DIMZIN
 70
     8
  9
$DIMBLK
  1
OPEN
  9
$DIMASO
 70
     1
  9
$DIMSHO
 70
     1
  9
$DIMPOST
  1

  9
$DIMAPOST
  1

  9
$DIMALT
 70
     0
  9
$DIMALTD
 70
     2
  9
$DIMALTF
 40
25.4
  9
$DIMLFAC
 40
1.0
  9
$DIMTOFL
 70
     1
  9
$DIMTVP
 40
0.0
  9
$DIMTIX
 70
     0
  9
$DIMSOXD
 70
     0
  9
$DIMSAH
 70
     0
  9
$DIMBLK1
  1

  9
$DIMBLK2
  1

  9
$DIMSTYLE
  2
BIGT
  9
$DIMCLRD
 70
   256
  9
$DIMCLRE
 70
   256
  9
$DIMCLRT
 70
    40
  9
$DIMTFAC
 40
1.0
  9
$DIMGAP
 40
1.0
  9
$DIMJUST
 70
     0
  9
$DIMSD1
 70
     0
  9
$DIMSD2
 70
     0
  9
$DIMTOLJ
 70
     1
  9
$DIMTZIN
 70
     8
  9
$DIMALTZ
 70
     0
  9
$DIMALTTZ
 70
     0
  9
$DIMFIT
 70
     2
  9
$DIMUPT
 70
     0
  9
$DIMUNIT
 70
     2
  9
$DIMDEC
 70
     3
  9
$DIMTDEC
 70
     3
  9
$DIMALTU
 70
     2
  9
$DIMALTTD
 70
     2
  9
$DIMTXSTY
  7
STANDARD
  9
$DIMAUNIT
 70
     0
  9
$LUNITS
 70
     2
  9
$LUPREC
 70
     3
  9
$SKETCHINC
 40
1.0
  9
$FILLETRAD
 40
0.0
  9
$AUNITS
 70
     0
  9
$AUPREC
 70
     3
  9
$MENU
  1
.
  9
$ELEVATION
 40
0.0
  9
$PELEVATION
 40
0.0
  9
$THICKNESS
 40
0.0
  9
$LIMCHECK
 70
     0
  9
$BLIPMODE
 70
     0
  9
$CHAMFERA
 40
10.0
  9
$CHAMFERB
 40
10.0
  9
$CHAMFERC
 40
0.0
  9
$CHAMFERD
 40
0.0
  9
$SKPOLY
 70
     0
  9
$TDCREATE
 40
2452879.772846678
  9
$TDUPDATE
 40
2452881.381367187
  9
$TDINDWG
 40
0.0953021759
  9
$TDUSRTIMER
 40
0.0953021759
  9
$USRTIMER
 70
     1
  9
$ANGBASE
 50
0.0
  9
$ANGDIR
 70
     0
  9
$PDMODE
 70
    35
  9
$PDSIZE
 40
2.0
  9
$PLINEWID
 40
0.0
  9
$COORDS
 70
     1
  9
$SPLFRAME
 70
     0
  9
$SPLINETYPE
 70
     6
  9
$SPLINESEGS
 70
     8
  9
$ATTDIA
 70
     0
  9
$ATTREQ
 70
     0
  9
$HANDLING
 70
-16383
  9
$HANDSEED
  5
1FD2
  9
$SURFTAB1
 70
     6
  9
$SURFTAB2
 70
     6
  9
$SURFTYPE
 70
     6
  9
$SURFU
 70
     6
  9
$SURFV
 70
     6
  9
$UCSNAME
  2

  9
$UCSORG
 10
0.0
 20
0.0
 30
0.0
  9
$UCSXDIR
 10
1.0
 20
0.0
 30
0.0
  9
$UCSYDIR
 10
0.0
 20
1.0
 30
0.0
  9
$PUCSNAME
  2

  9
$PUCSORG
 10
0.0
 20
0.0
 30
0.0
  9
$PUCSXDIR
 10
1.0
 20
0.0
 30
0.0
  9
$PUCSYDIR
 10
0.0
 20
1.0
 30
0.0
  9
$USERI1
 70
     1
  9
$USERI2
 70
     0
  9
$USERI3
 70
     0
  9
$USERI4
 70
     0
  9
$USERI5
 70
     0
  9
$USERR1
 40
0.0
  9
$USERR2
 40
0.0
  9
$USERR3
 40
0.0
  9
$USERR4
 40
0.0
  9
$USERR5
 40
0.0
  9
$WORLDVIEW
 70
     1
  9
$SHADEDGE
 70
     3
  9
$SHADEDIF
 70
    70
  9
$TILEMODE
 70
     1
  9
$MAXACTVP
 70
    16
  9
$PINSBASE
 10
0.0
 20
0.0
 30
0.0
  9
$PLIMCHECK
 70
     0
  9
$PEXTMIN
 10
1.000000000000000E+20
 20
1.000000000000000E+20
 30
1.000000000000000E+20
  9
$PEXTMAX
 10
-1.000000000000000E+20
 20
-1.000000000000000E+20
 30
-1.000000000000000E+20
  9
$PLIMMIN
 10
0.0
 20
0.0
  9
$PLIMMAX
 10
420.0
 20
297.0
  9
$UNITMODE
 70
     0
  9
$VISRETAIN
 70
     0
  9
$PLINEGEN
 70
     0
  9
$PSLTSCALE
 70
     1
  9
$TREEDEPTH
 70
  3020
  9
$PICKSTYLE
 70
     0
  9
$CMLSTYLE
  2
STANDARD
  9
$CMLJUST
 70
     0
  9
$CMLSCALE
 40
1.0
  9
$PROXYGRAPHICS
 70
     1
  9
$MEASUREMENT
 70
     1
  0
ENDSEC
  0
SECTION
  2
CLASSES
  0
CLASS
  1
XRECORD
  2
AcDbXrecord
  3
AutoCAD 2000
 90
        0
280
     0
281
     0
  0
CLASS
  1
ACDBDICTIONARYWDFLT
  2
AcDbDictionaryWithDefault
  3
AutoCAD 2000
 90
        0
280
     0
281
     0
  0
CLASS
  1
ACDBPLACEHOLDER
  2
AcDbPlaceHolder
  3
AutoCAD 2000
 90
        0
280
     0
281
     0
  0
CLASS
  1
LAYOUT
  2
AcDbLayout
  3
AutoCAD 2000
 90
        0
280
     0
281
     0
  0
CLASS
  1
DICTIONARYVAR
  2
AcDbDictionaryVar
  3
AutoCAD 2000
 90
        0
280
     0
281
     0
  0
CLASS
  1
LONG_TRANSACTION
  2
AcDbLongTransaction
  3
AutoCAD 2000
 90
        0
280
     0
281
     0
  0
CLASS
  1
LWPOLYLINE
  2
AcDbPolyline
  3
AutoCAD 2000
 90
        0
280
     0
281
     1
  0
CLASS
  1
HATCH
  2
AcDbHatch
  3
AutoCAD 2000
 90
        0
280
     0
281
     1
  0
CLASS
  1
XRECORD
  2
AcDbXrecord
  3
AutoCAD 2000
 90
        0
280
     0
281
     0
  0
ENDSEC
  0
SECTION
  2
TABLES
  0
TABLE
  2
VPORT
  5
8
330
0
100
AcDbSymbolTable
 70
     2
  0
VPORT
  5
1F98
330
8
100
AcDbSymbolTableRecord
100
AcDbViewportTableRecord
  2
*ACTIVE
 70
     0
 10
0.0
 20
0.0
 11
1.0
 21
1.0
 12
-4.361556420523639
 22
11.92383051701071
 13
0.0
 23
0.0
 14
7.0
 24
7.0
 15
7.0
 25
7.0
 16
0.0
 26
0.0
 36
1.0
 17
0.0
 27
0.0
 37
0.0
 40
42.47964311497755
 41
1.419235511713933
 42
50.0
 43
0.0
 44
0.0
 50
0.0
 51
0.0
 71
     0
 72
  2000
 73
     1
 74
     0
 75
     0
 76
     0
 77
     0
 78
     0
  0
ENDTAB
  0
TABLE
  2
LTYPE
  5
5
330
0
100
AcDbSymbolTable
 70
     3
  0
LTYPE
  5
14
330
5
100
AcDbSymbolTableRecord
100
AcDbLinetypeTableRecord
  2
BYBLOCK
 70
     0
  3

 72
    65
 73
     0
 40
0.0
  0
LTYPE
  5
15
330
5
100
AcDbSymbolTableRecord
100
AcDbLinetypeTableRecord
  2
BYLAYER
 70
     0
  3

 72
    65
 73
     0
 40
0.0
  0
LTYPE
  5
16
330
5
100
AcDbSymbolTableRecord
100
AcDbLinetypeTableRecord
  2
CONTINUOUS
 70
     0
  3
Solid line
 72
    65
 73
     0
 40
0.0
  0
LTYPE
  5
258
330
5
100
AcDbSymbolTableRecord
100
AcDbLinetypeTableRecord
  2
CENTER2
 70
     0
  3
___ _ ___ _ ___ _ ___ _ ___ _ ___ _ ___ _ ___ _
 72
    65
 73
     4
 40
1.125
 49
0.75
 74
     0
 49
-0.125
 74
     0
 49
0.125
 74
     0
 49
-0.125
 74
     0
  0
LTYPE
  5
25C
330
5
100
AcDbSymbolTableRecord
100
AcDbLinetypeTableRecord
  2
HIDDEN2
 70
     0
  3
_ _ _ _ _ _ _ _ _ _ _ _ _ _ _ _ _ _ _ _ _ _ _ _
 72
    65
 73
     2
 40
0.1875
 49
0.125
 74
     0
 49
-0.0625
 74
     0
  0
ENDTAB
  0
TABLE
  2
LAYER
  5
2
330
0
100
AcDbSymbolTable
 70
     8
  0
LAYER
  5
F
330
2
100
AcDbSymbolTableRecord
100
AcDbLayerTableRecord
  2
0
 70
     0
 62
     7
  6
CONTINUOUS
  0
LAYER
  5
1AA
330
2
100
AcDbSymbolTableRecord
100
AcDbLayerTableRecord
  2
240
 70
     0
 62
     4
  6
CONTINUOUS
  0
LAYER
  5
1AB
330
2
100
AcDbSymbolTableRecord
100
AcDbLayerTableRecord
  2
241
 70
     0
 62
   211
  6
CONTINUOUS
  0
LAYER
  5
1AD
330
2
100
AcDbSymbolTableRecord
100
AcDbLayerTableRecord
  2
243
 70
     0
 62
   211
  6
HIDDEN2
  0
LAYER
  5
1AF
330
2
100
AcDbSymbolTableRecord
100
AcDbLayerTableRecord
  2
245
 70
     0
 62
     2
  6
CENTER2
  0
LAYER
  5
21E
330
2
100
AcDbSymbolTableRecord
100
AcDbLayerTableRecord
  2
250
 70
     0
 62
     3
  6
CONTINUOUS
  0
LAYER
  5
5C4
330
2
100
AcDbSymbolTableRecord
100
AcDbLayerTableRecord
  2
DEFPOINTS
 70
     0
 62
     7
  6
CONTINUOUS
  0
ENDTAB
  0
TABLE
  2
STYLE
  5
3
330
0
100
AcDbSymbolTable
 70
     2
  0
STYLE
  5
10
330
3
100
AcDbSymbolTableRecord
100
AcDbTextStyleTableRecord
  2
STANDARD
 70
     0
 40
0.0
 41
1.0
 50
0.0
 71
     0
 42
3.0
  3
romans.shx
  4
BIGFONT.SHX
  0
STYLE
  5
339
330
3
100
AcDbSymbolTableRecord
100
AcDbTextStyleTableRecord
  2
YOKO
 70
     0
 40
0.0
 41
1.0
 50
0.0
 71
     0
 42
3.0
  3
romans.shx
  4
extfont.shx
  0
ENDTAB
  0
TABLE
  2
VIEW
  5
6
330
0
100
AcDbSymbolTable
 70
     0
  0
ENDTAB
  0
TABLE
  2
UCS
  5
7
330
0
100
AcDbSymbolTable
 70
     0
  0
ENDTAB
  0
TABLE
  2
APPID
  5
9
330
0
100
AcDbSymbolTable
 70
     6
  0
APPID
  5
11
330
9
100
AcDbSymbolTableRecord
100
AcDbRegAppTableRecord
  2
ACAD
 70
     0
  0
APPID
  5
1B1
330
9
100
AcDbSymbolTableRecord
100
AcDbRegAppTableRecord
  2
GLOBAL
 70
     0
  0
APPID
  5
2A4
330
9
100
AcDbSymbolTableRecord
100
AcDbRegAppTableRecord
  2
DETAIL
 70
     0
  0
APPID
  5
5FD
330
9
100
AcDbSymbolTableRecord
100
AcDbRegAppTableRecord
  2
GRPNAME
 70
     0
  0
APPID
  5
5FE
330
9
100
AcDbSymbolTableRecord
100
AcDbRegAppTableRecord
  2
GPARA
 70
     0
  0
APPID
  5
885
330
9
100
AcDbSymbolTableRecord
100
AcDbRegAppTableRecord
  2
ITEMNAME
 70
     0
  0
ENDTAB
  0
TABLE
  2
DIMSTYLE
  5
A
330
0
100
AcDbSymbolTable
 70
     3
  0
DIMSTYLE
105
48F
330
A
100
AcDbSymbolTableRecord
100
AcDbDimStyleTableRecord
  2
STANDARD
 70
     0
  3

  4

  5

  6

  7

 40
1.0
 41
2.0
 42
2.0
 43
3.75
 44
2.0
 45
0.0
 46
0.0
 47
0.0
 48
0.0
140
4.0
141
0.09
142
0.0
143
25.4
144
1.0
145
0.0
146
1.0
147
1.0
 71
     0
 72
     0
 73
     1
 74
     1
 75
     0
 76
     0
 77
     0
 78
     8
170
     0
171
     2
172
     0
173
     1
174
     0
175
     0
176
   256
177
   256
178
   256
270
     2
271
     3
272
     4
273
     2
274
     2
340
10
275
     0
280
     0
281
     0
282
     0
283
     1
284
     8
285
     0
286
     0
287
     3
288
     0
  0
DIMSTYLE
105
59A
102
{ACAD_REACTORS
330
84D
330
868
102
}
330
A
100
AcDbSymbolTableRecord
100
AcDbDimStyleTableRecord
  2
BIGT
 70
     0
  3

  4

  5
OPEN
  6

  7

 40
1.0
 41
2.229999999999999
 42
0.5
 43
2.5
 44
1.0
 45
0.0
 46
0.0
 47
0.0
 48
0.0
140
3.5
141
0.0
142
0.0
143
25.4
144
1.0
145
0.0
146
1.0
147
1.0
 71
     0
 72
     0
 73
     0
 74
     0
 75
     0
 76
     0
 77
     3
 78
     9
170
     0
171
     2
172
     1
173
     0
174
     0
175
     0
176
   256
177
   256
178
    40
270
     2
271
     3
272
     3
273
     2
274
     2
340
10
275
     0
280
     0
281
     0
282
     0
283
     1
284
     8
285
     0
286
     0
287
     2
288
     0
  0
DIMSTYLE
105
884
102
{ACAD_REACTORS
330
88D
102
}
330
A
100
AcDbSymbolTableRecord
100
AcDbDimStyleTableRecord
  2
BIGT$0
 70
     0
  3

  4

  5
OPEN
  6

  7

 40
1.0
 41
2.229999999999999
 42
0.5
 43
7.0
 44
1.0
 45
0.0
 46
0.0
 47
0.0
 48
0.0
140
2.799999999999999
141
0.0
142
0.0
143
25.4
144
1.0
145
0.0
146
1.0
147
1.0
 71
     0
 72
     0
 73
     0
 74
     0
 75
     0
 76
     0
 77
     3
 78
     9
170
     0
171
     2
172
     1
173
     0
174
     0
175
     0
176
   256
177
   256
178
    40
270
     2
271
     3
272
     3
273
     2
274
     2
340
10
275
     0
280
     0
281
     0
282
     0
283
     1
284
     8
285
     0
286
     0
287
     2
288
     0
  0
ENDTAB
  0
TABLE
  2
BLOCK_RECORD
  5
1
330
0
100
AcDbSymbolTable
 70
     5
  0
BLOCK_RECORD
  5
1A
102
{ACAD_XDICTIONARY
360
1FBC
102
}
330
1
100
AcDbSymbolTableRecord
100
AcDbBlockTableRecord
  2
*MODEL_SPACE
  0
BLOCK_RECORD
  5
17
102
{ACAD_XDICTIONARY
360
1FBA
102
}
330
1
100
AcDbSymbolTableRecord
100
AcDbBlockTableRecord
  2
*PAPER_SPACE
  0
BLOCK_RECORD
  5
594
330
1
100
AcDbSymbolTableRecord
100
AcDbBlockTableRecord
  2
_OPEN
  0
BLOCK_RECORD
  5
84E
330
1
100
AcDbSymbolTableRecord
100
AcDbBlockTableRecord
  2
*D1
  0
BLOCK_RECORD
  5
869
330
1
100
AcDbSymbolTableRecord
100
AcDbBlockTableRecord
  2
*D2
  0
BLOCK_RECORD
  5
88E
330
1
100
AcDbSymbolTableRecord
100
AcDbBlockTableRecord
  2
*D3
  0
BLOCK_RECORD
  5
1ECA
330
1
100
AcDbSymbolTableRecord
100
AcDbBlockTableRecord
  2
A$C58E00183
  0
ENDTAB
  0
ENDSEC
  0
SECTION
  2
BLOCKS
  0
BLOCK
  5
1B
330
1A
100
AcDbEntity
  8
0
100
AcDbBlockBegin
  2
*MODEL_SPACE
 70
     0
 10
0.0
 20
0.0
 30
0.0
  3
*MODEL_SPACE
  1

  0
ENDBLK
  5
1C
330
1A
100
AcDbEntity
  8
0
100
AcDbBlockEnd
  0
BLOCK
  5
18
330
17
100
AcDbEntity
 67
     1
  8
0
100
AcDbBlockBegin
  2
*PAPER_SPACE
 70
     0
 10
0.0
 20
0.0
 30
0.0
  3
*PAPER_SPACE
  1

  0
ENDBLK
  5
19
330
17
100
AcDbEntity
 67
     1
  8
0
100
AcDbBlockEnd
  0
BLOCK
  5
598
330
594
100
AcDbEntity
  8
0
100
AcDbBlockBegin
  2
_OPEN
 70
     0
 10
0.0
 20
0.0
 30
0.0
  3
_OPEN
  1

  0
LINE
  5
595
330
594
100
AcDbEntity
  8
0
  6
BYBLOCK
 62
     0
100
AcDbLine
 10
-1.0
 20
0.1666666666666666
 30
0.0
 11
0.0
 21
0.0
 31
0.0
  0
LINE
  5
596
330
594
100
AcDbEntity
  8
0
  6
BYBLOCK
 62
     0
100
AcDbLine
 10
-1.0
 20
-0.1666666666666666
 30
0.0
 11
0.0
 21
0.0
 31
0.0
  0
LINE
  5
597
330
594
100
AcDbEntity
  8
0
  6
BYBLOCK
 62
     0
100
AcDbLine
 10
0.0
 20
0.0
 30
0.0
 11
-1.0
 21
0.0
 31
0.0
  0
ENDBLK
  5
599
330
594
100
AcDbEntity
  8
0
100
AcDbBlockEnd
  0
BLOCK
  5
858
330
84E
100
AcDbEntity
  8
0
100
AcDbBlockBegin
  2
*D1
 70
     1
 10
0.0
 20
0.0
 30
0.0
  3
*D1
  1

  0
LINE
  5
85C
330
84E
100
AcDbEntity
  8
250
  6
CONTINUOUS
100
AcDbLine
 10
-14.00000000000001
 20
3.949999999999988
 30
0.0
 11
-14.00000000000001
 21
15.0
 31
0.0
  0
LINE
  5
85D
330
84E
100
AcDbEntity
  8
250
  6
CONTINUOUS
100
AcDbLine
 10
-0.0000000000000071
 20
4.49944499999998
 30
0.0
 11
-0.0000000000000064
 21
15.0
 31
0.0
  0
LINE
  5
85E
330
84E
100
AcDbEntity
  8
250
  6
CONTINUOUS
100
AcDbLine
 10
-11.77000000000001
 20
14.0
 30
0.0
 11
-2.230000000000006
 21
14.0
 31
0.0
  0
INSERT
  5
85F
330
84E
100
AcDbEntity
  8
250
  6
CONTINUOUS
100
AcDbBlockReference
  2
_OPEN
 10
-14.00000000000001
 20
14.0
 30
0.0
 41
2.229999999999999
 42
2.229999999999999
 43
2.229999999999999
 50
180.0
  0
INSERT
  5
860
330
84E
100
AcDbEntity
  8
250
  6
CONTINUOUS
100
AcDbBlockReference
  2
_OPEN
 10
-0.0000000000000065
 20
14.0
 30
0.0
 41
2.229999999999999
 42
2.229999999999999
 43
2.229999999999999
  0
MTEXT
  5
861
330
84E
100
AcDbEntity
  8
250
  6
CONTINUOUS
 62
    40
100
AcDbMText
 10
-7.00000000000001
 20
16.5
 30
0.0
 40
3.0
 41
0.0
 71
     5
 72
     1
  1
\A1;14
1001
ACAD
1000
MTEXTBEGIN
1070
    73
1070
     1
1070
    44
1040
1.0
1070
    74
1070
     0
1000
MTEXTEND
  0
POINT
  5
862
330
84E
100
AcDbEntity
  8
DEFPOINTS
  6
CONTINUOUS
 62
     0
100
AcDbPoint
 10
-14.00000000000001
 20
3.449999999999988
 30
0.0
  0
POINT
  5
863
330
84E
100
AcDbEntity
  8
DEFPOINTS
  6
CONTINUOUS
 62
     0
100
AcDbPoint
 10
-0.0000000000000071
 20
3.99944499999998
 30
0.0
  0
POINT
  5
864
330
84E
100
AcDbEntity
  8
DEFPOINTS
  6
CONTINUOUS
 62
     0
100
AcDbPoint
 10
-0.0000000000000065
 20
14.0
 30
0.0
  0
ENDBLK
  5
859
330
84E
100
AcDbEntity
  8
0
100
AcDbBlockEnd
  0
BLOCK
  5
873
330
869
100
AcDbEntity
  8
0
100
AcDbBlockBegin
  2
*D2
 70
     1
 10
0.0
 20
0.0
 30
0.0
  3
*D2
  1

  0
LINE
  5
1FBE
330
869
100
AcDbEntity
  8
250
  6
CONTINUOUS
100
AcDbLine
 10
-3.100000000000008
 20
-4.75
 30
0.0
 11
-22.0
 21
-4.749999999999994
 31
0.0
  0
LINE
  5
1FBF
330
869
100
AcDbEntity
  8
250
  6
CONTINUOUS
100
AcDbLine
 10
-3.100000000000008
 20
4.75
 30
0.0
 11
-22.0
 21
4.750000000000005
 31
0.0
  0
LINE
  5
1FC0
330
869
100
AcDbEntity
  8
250
  6
CONTINUOUS
100
AcDbLine
 10
-21.0
 20
-2.519999999999995
 30
0.0
 11
-21.0
 21
2.520000000000004
 31
0.0
  0
INSERT
  5
1FC1
330
869
100
AcDbEntity
  8
250
  6
CONTINUOUS
100
AcDbBlockReference
  2
_OPEN
 10
-21.0
 20
-4.749999999999995
 30
0.0
 41
2.229999999999999
 42
2.229999999999999
 43
2.229999999999999
 50
270.0
  0
INSERT
  5
1FC2
330
869
100
AcDbEntity
  8
250
  6
CONTINUOUS
100
AcDbBlockReference
  2
_OPEN
 10
-21.0
 20
4.750000000000004
 30
0.0
 41
2.229999999999999
 42
2.229999999999999
 43
2.229999999999999
 50
90.0
  0
MTEXT
  5
1FC3
330
869
100
AcDbEntity
  8
250
  6
CONTINUOUS
 62
    40
100
AcDbMText
 10
-23.5
 20
0.0000000000000016
 30
0.0
 40
3.0
 41
0.0
 71
     5
 72
     1
  1
\A1;{\H3;\U+2205}9.5
 11
0.0000000000000001
 21
1.0
 31
0.0
  0
POINT
  5
1FC4
330
869
100
AcDbEntity
  8
DEFPOINTS
  6
CONTINUOUS
 62
     0
100
AcDbPoint
 10
-2.600000000000008
 20
-4.75
 30
0.0
  0
POINT
  5
1FC5
330
869
100
AcDbEntity
  8
DEFPOINTS
  6
CONTINUOUS
 62
     0
100
AcDbPoint
 10
-2.600000000000008
 20
4.75
 30
0.0
  0
POINT
  5
1FC6
330
869
100
AcDbEntity
  8
DEFPOINTS
  6
CONTINUOUS
 62
     0
100
AcDbPoint
 10
-21.0
 20
4.750000000000004
 30
0.0
  0
ENDBLK
  5
874
330
869
100
AcDbEntity
  8
0
100
AcDbBlockEnd
  0
BLOCK
  5
89A
330
88E
100
AcDbEntity
  8
0
100
AcDbBlockBegin
  2
*D3
 70
     1
 10
0.0
 20
0.0
 30
0.0
  3
*D3
  1

  0
LINE
  5
1FC7
330
88E
100
AcDbEntity
  8
250
100
AcDbLine
 10
0.5
 20
1.5
 30
0.0
 11
15.0
 21
1.499999999999995
 31
0.0
  0
LINE
  5
1FC8
330
88E
100
AcDbEntity
  8
250
100
AcDbLine
 10
0.5000000000000071
 20
-1.5
 30
0.0
 11
15.0
 21
-1.500000000000004
 31
0.0
  0
LINE
  5
1FC9
330
88E
100
AcDbEntity
  8
250
100
AcDbLine
 10
14.0
 20
3.729999999999995
 30
0.0
 11
14.0
 21
5.959999999999995
 31
0.0
  0
LINE
  5
1FCA
330
88E
100
AcDbEntity
  8
250
100
AcDbLine
 10
14.0
 20
-3.730000000000003
 30
0.0
 11
13.99999999999999
 21
-5.960000000000004
 31
0.0
  0
MTEXT
  5
1FCB
330
88E
100
AcDbEntity
  8
250
 62
    40
100
AcDbMText
 10
11.6472980006078
 20
-0.6868435375335338
 30
0.0
 40
2.799999999999999
 41
0.0
 71
     5
 72
     1
  1
\A1;%%c2.75~3
 11
0.0000000000000001
 21
1.0
 31
0.0
  0
LINE
  5
1FCC
330
88E
100
AcDbEntity
  8
250
100
AcDbLine
 10
14.0
 20
1.499999999999996
 30
0.0
 11
14.0
 21
-1.500000000000003
 31
0.0
  0
INSERT
  5
1FCD
330
88E
100
AcDbEntity
  8
250
100
AcDbBlockReference
  2
_OPEN
 10
14.0
 20
1.499999999999996
 30
0.0
 41
2.229999999999999
 42
2.229999999999999
 43
2.229999999999999
 50
270.0
  0
INSERT
  5
1FCE
330
88E
100
AcDbEntity
  8
250
100
AcDbBlockReference
  2
_OPEN
 10
14.0
 20
-1.500000000000003
 30
0.0
 41
2.229999999999999
 42
2.229999999999999
 43
2.229999999999999
 50
90.0
  0
POINT
  5
1FCF
330
88E
100
AcDbEntity
  8
DEFPOINTS
 62
     0
100
AcDbPoint
 10
0.0
 20
1.5
 30
0.0
  0
POINT
  5
1FD0
330
88E
100
AcDbEntity
  8
DEFPOINTS
 62
     0
100
AcDbPoint
 10
0.0000000000000071
 20
-1.5
 30
0.0
  0
POINT
  5
1FD1
330
88E
100
AcDbEntity
  8
DEFPOINTS
 62
     0
100
AcDbPoint
 10
14.0
 20
-1.500000000000003
 30
0.0
  0
ENDBLK
  5
89B
330
88E
100
AcDbEntity
  8
0
100
AcDbBlockEnd
  0
BLOCK
  5
1F8E
330
1ECA
100
AcDbEntity
  8
0
100
AcDbBlockBegin
  2
A$C58E00183
 70
     0
 10
0.0
 20
0.0
 30
0.0
  3
A$C58E00183
  1

  0
LINE
  5
1ECB
330
1ECA
100
AcDbEntity
  8
245
100
AcDbLine
 10
-15.06981300000001
 20
0.0
 30
0.0
 11
0.9163319999999828
 21
0.0
 31
0.0
  0
LINE
  5
1ECC
330
1ECA
100
AcDbEntity
  8
241
100
AcDbLine
 10
-0.0000000000000071
 20
-3.482362999999992
 30
0.0
 11
-1.300000000000011
 21
-4.232918999999981
 31
0.0
  0
LINE
  5
1ECD
330
1ECA
100
AcDbEntity
  8
241
100
AcDbLine
 10
-0.0000000000000071
 20
-3.232362999999992
 30
0.0
 11
-1.300000000000011
 21
-3.982918999999981
 31
0.0
  0
LINE
  5
1ECE
330
1ECA
100
AcDbEntity
  8
240
100
AcDbLine
 10
-2.600000000000008
 20
-4.75
 30
0.0
 11
-13.88623000000001
 21
-3.563768999999979
 31
0.0
  0
LINE
  5
1ECF
330
1ECA
100
AcDbEntity
  8
241
100
AcDbLine
 10
-11.55928100000001
 20
-3.291259999999994
 30
0.0
 11
-2.600000000000008
 21
-4.232918999999981
 31
0.0
  0
LINE
  5
1ED0
330
1ECA
100
AcDbEntity
  8
241
100
AcDbLine
 10
-11.53329200000001
 20
-3.043992000000002
 30
0.0
 11
-2.600000000000008
 21
-3.982918999999981
 31
0.0
  0
LINE
  5
1ED1
330
1ECA
100
AcDbEntity
  8
240
100
AcDbLine
 10
-0.0000000000000071
 20
-3.999443999999982
 30
0.0
 11
-0.0000000000000071
 21
-0.25
 31
0.0
  0
LINE
  5
1ED2
330
1ECA
100
AcDbEntity
  8
241
100
AcDbLine
 10
-1.300000000000011
 20
-4.099999999999994
 30
0.0
 11
-1.300000000000011
 21
-0.25
 31
0.0
  0
LINE
  5
1ED3
330
1ECA
100
AcDbEntity
  8
241
100
AcDbLine
 10
-2.600000000000008
 20
-4.099999999999994
 30
0.0
 11
-2.600000000000008
 21
-0.25
 31
0.0
  0
LINE
  5
1ED4
330
1ECA
100
AcDbEntity
  8
240
100
AcDbLine
 10
-2.600000000000008
 20
-4.099999999999994
 30
0.0
 11
-1.300000000000011
 21
-4.099999999999994
 31
0.0
  0
LINE
  5
1ED5
330
1ECA
100
AcDbEntity
  8
240
100
AcDbLine
 10
-2.600000000000008
 20
-4.75
 30
0.0
 11
-2.600000000000008
 21
-4.099999999999994
 31
0.0
  0
LINE
  5
1ED6
330
1ECA
100
AcDbEntity
  8
240
100
AcDbLine
 10
-1.300000000000011
 20
-4.75
 30
0.0
 11
-1.300000000000011
 21
-4.099999999999994
 31
0.0
  0
LINE
  5
1ED7
330
1ECA
100
AcDbEntity
  8
240
100
AcDbLine
 10
-1.300000000000011
 20
-4.75
 30
0.0
 11
-0.0000000000000071
 21
-3.999443999999982
 31
0.0
  0
LINE
  5
1ED8
330
1ECA
100
AcDbEntity
  8
243
100
AcDbLine
 10
-11.00000000000001
 20
-1.5
 30
0.0
 11
-0.0000000000000071
 21
-1.5
 31
0.0
  0
LINE
  5
1ED9
330
1ECA
100
AcDbEntity
  8
243
100
AcDbLine
 10
-11.00000000000001
 20
1.5
 30
0.0
 11
-0.0000000000000071
 21
1.5
 31
0.0
  0
LINE
  5
1EDA
330
1ECA
100
AcDbEntity
  8
240
100
AcDbLine
 10
-2.600000000000008
 20
4.099999999999994
 30
0.0
 11
-1.300000000000011
 21
4.099999999999994
 31
0.0
  0
LINE
  5
1EDB
330
1ECA
100
AcDbEntity
  8
241
100
AcDbLine
 10
-2.600000000000008
 20
1.988008000000007
 30
0.0
 11
-1.300000000000011
 21
1.988008000000007
 31
0.0
  0
LINE
  5
1EDC
330
1ECA
100
AcDbEntity
  8
241
100
AcDbLine
 10
-2.600000000000008
 20
3.332919999999973
 30
0.0
 11
-1.300000000000011
 21
3.332919999999973
 31
0.0
  0
LINE
  5
1EDD
330
1ECA
100
AcDbEntity
  8
241
100
AcDbLine
 10
-2.600000000000008
 20
3.582919999999973
 30
0.0
 11
-1.300000000000011
 21
3.582919999999973
 31
0.0
  0
LINE
  5
1EDE
330
1ECA
100
AcDbEntity
  8
241
100
AcDbLine
 10
-2.600000000000008
 20
-1.554993999999993
 30
0.0
 11
-1.300000000000011
 21
-1.554993999999993
 31
0.0
  0
LINE
  5
1EDF
330
1ECA
100
AcDbEntity
  8
241
100
AcDbLine
 10
-2.600000000000008
 20
-1.988007000000038
 30
0.0
 11
-1.300000000000011
 21
-1.988007000000038
 31
0.0
  0
LINE
  5
1EE0
330
1ECA
100
AcDbEntity
  8
241
100
AcDbLine
 10
-2.600000000000008
 20
1.554994999999962
 30
0.0
 11
-1.300000000000011
 21
1.554994999999962
 31
0.0
  0
LINE
  5
1EE1
330
1ECA
100
AcDbEntity
  8
241
100
AcDbLine
 10
-11.54289300000001
 20
-0.25
 30
0.0
 11
-0.0000000000000071
 21
-0.25
 31
0.0
  0
LINE
  5
1EE2
330
1ECA
100
AcDbEntity
  8
241
100
AcDbLine
 10
-11.54289300000001
 20
0.25
 30
0.0
 11
-0.0000000000000071
 21
0.25
 31
0.0
  0
LINE
  5
1EE3
330
1ECA
100
AcDbEntity
  8
241
100
AcDbLine
 10
-2.600000000000008
 20
-3.332919000000003
 30
0.0
 11
-1.300000000000011
 21
-3.332919000000003
 31
0.0
  0
LINE
  5
1EE4
330
1ECA
100
AcDbEntity
  8
241
100
AcDbLine
 10
-2.600000000000008
 20
-3.582919000000003
 30
0.0
 11
-1.300000000000011
 21
-3.582919000000003
 31
0.0
  0
LINE
  5
1EE5
330
1ECA
100
AcDbEntity
  8
240
100
AcDbLine
 10
-13.88623000000001
 20
3.563769999999976
 30
0.0
 11
-2.600000000000008
 21
4.75
 31
0.0
  0
LINE
  5
1EE6
330
1ECA
100
AcDbEntity
  8
241
100
AcDbLine
 10
-11.53329200000001
 20
3.043992999999971
 30
0.0
 11
-2.600000000000008
 21
3.982919999999978
 31
0.0
  0
LINE
  5
1EE7
330
1ECA
100
AcDbEntity
  8
241
100
AcDbLine
 10
-14.00000000000001
 20
1.988008000000007
 30
0.0
 11
-2.600000000000008
 21
2.585456999999991
 31
0.0
  0
LINE
  5
1EE8
330
1ECA
100
AcDbEntity
  8
241
100
AcDbLine
 10
-11.55928100000001
 20
3.291260999999991
 30
0.0
 11
-2.600000000000008
 21
4.232919999999978
 31
0.0
  0
LINE
  5
1EE9
330
1ECA
100
AcDbEntity
  8
241
100
AcDbLine
 10
-14.00000000000001
 20
-1.554993999999993
 30
0.0
 11
-2.600000000000008
 21
-2.152443000000005
 31
0.0
  0
LINE
  5
1EEA
330
1ECA
100
AcDbEntity
  8
241
100
AcDbLine
 10
-14.00000000000001
 20
1.554994999999962
 30
0.0
 11
-2.600000000000008
 21
2.152444000000002
 31
0.0
  0
LINE
  5
1EEB
330
1ECA
100
AcDbEntity
  8
241
100
AcDbLine
 10
-14.00000000000001
 20
-1.988007000000038
 30
0.0
 11
-2.600000000000008
 21
-2.585455999999993
 31
0.0
  0
ARC
  5
1EEC
330
1ECA
100
AcDbEntity
  8
241
100
AcDbCircle
 10
-12.25000000000001
 20
0.0
 30
0.0
 40
0.75
100
AcDbArc
 50
19.47122099999984
 51
340.5287790000001
  0
LINE
  5
1EED
330
1ECA
100
AcDbEntity
  8
240
100
AcDbLine
 10
-14.00000000000001
 20
-3.449999999999988
 30
0.0
 11
-14.00000000000001
 21
3.449999999999988
 31
0.0
  0
POLYLINE
  5
1EEE
330
1ECA
100
AcDbEntity
  8
241
100
AcDb3dPolyline
 66
     1
 10
0.0
 20
0.0
 30
0.0
 70
     8
  0
VERTEX
  5
1EEF
330
1EEE
100
AcDbEntity
  8
241
  6
CONTINUOUS
100
AcDbVertex
100
AcDb3dPolylineVertex
 10
-11.55928100000001
 20
-3.291259999999994
 30
0.0
 70
    32
  0
VERTEX
  5
1EF0
330
1EEE
100
AcDbEntity
  8
241
  6
CONTINUOUS
100
AcDbVertex
100
AcDb3dPolylineVertex
 10
-11.58463500000001
 20
-3.317060999999995
 30
0.0
 70
    32
  0
VERTEX
  5
1EF1
330
1EEE
100
AcDbEntity
  8
241
  6
CONTINUOUS
100
AcDbVertex
100
AcDb3dPolylineVertex
 10
-11.61438100000001
 20
-3.341386999999997
 30
0.0
 70
    32
  0
VERTEX
  5
1EF2
330
1EEE
100
AcDbEntity
  8
241
  6
CONTINUOUS
100
AcDbVertex
100
AcDb3dPolylineVertex
 10
-11.64832300000001
 20
-3.364079000000003
 30
0.0
 70
    32
  0
VERTEX
  5
1EF3
330
1EEE
100
AcDbEntity
  8
241
  6
CONTINUOUS
100
AcDbVertex
100
AcDb3dPolylineVertex
 10
-11.68623500000001
 20
-3.384985
 30
0.0
 70
    32
  0
VERTEX
  5
1EF4
330
1EEE
100
AcDbEntity
  8
241
  6
CONTINUOUS
100
AcDbVertex
100
AcDb3dPolylineVertex
 10
-11.72786900000001
 20
-3.40396800000002
 30
0.0
 70
    32
  0
VERTEX
  5
1EF5
330
1EEE
100
AcDbEntity
  8
241
  6
CONTINUOUS
100
AcDbVertex
100
AcDb3dPolylineVertex
 10
-11.77295000000001
 20
-3.420903000000038
 30
0.0
 70
    32
  0
VERTEX
  5
1EF6
330
1EEE
100
AcDbEntity
  8
241
  6
CONTINUOUS
100
AcDbVertex
100
AcDb3dPolylineVertex
 10
-11.82117900000001
 20
-3.435678000000024
 30
0.0
 70
    32
  0
VERTEX
  5
1EF7
330
1EEE
100
AcDbEntity
  8
241
  6
CONTINUOUS
100
AcDbVertex
100
AcDb3dPolylineVertex
 10
-11.872239
 20
-3.448195999999995
 30
0.0
 70
    32
  0
VERTEX
  5
1EF8
330
1EEE
100
AcDbEntity
  8
241
  6
CONTINUOUS
100
AcDbVertex
100
AcDb3dPolylineVertex
 10
-11.92579200000001
 20
-3.45837400000002
 30
0.0
 70
    32
  0
VERTEX
  5
1EF9
330
1EEE
100
AcDbEntity
  8
241
  6
CONTINUOUS
100
AcDbVertex
100
AcDb3dPolylineVertex
 10
-11.98148500000001
 20
-3.466143999999985
 30
0.0
 70
    32
  0
VERTEX
  5
1EFA
330
1EEE
100
AcDbEntity
  8
241
  6
CONTINUOUS
100
AcDbVertex
100
AcDb3dPolylineVertex
 10
-12.03895100000001
 20
-3.47145500000002
 30
0.0
 70
    32
  0
VERTEX
  5
1EFB
330
1EEE
100
AcDbEntity
  8
241
  6
CONTINUOUS
100
AcDbVertex
100
AcDb3dPolylineVertex
 10
-12.09780900000001
 20
-3.474272999999982
 30
0.0
 70
    32
  0
VERTEX
  5
1EFC
330
1EEE
100
AcDbEntity
  8
241
  6
CONTINUOUS
100
AcDbVertex
100
AcDb3dPolylineVertex
 10
-12.15767200000001
 20
-3.474579000000005
 30
0.0
 70
    32
  0
VERTEX
  5
1EFD
330
1EEE
100
AcDbEntity
  8
241
  6
CONTINUOUS
100
AcDbVertex
100
AcDb3dPolylineVertex
 10
-12.21814500000001
 20
-3.472370000000012
 30
0.0
 70
    32
  0
VERTEX
  5
1EFE
330
1EEE
100
AcDbEntity
  8
241
  6
CONTINUOUS
100
AcDbVertex
100
AcDb3dPolylineVertex
 10
-12.27882700000001
 20
-3.467662000000018
 30
0.0
 70
    32
  0
VERTEX
  5
1EFF
330
1EEE
100
AcDbEntity
  8
241
  6
CONTINUOUS
100
AcDbVertex
100
AcDb3dPolylineVertex
 10
-12.33932000000001
 20
-3.460485000000005
 30
0.0
 70
    32
  0
VERTEX
  5
1F00
330
1EEE
100
AcDbEntity
  8
241
  6
CONTINUOUS
100
AcDbVertex
100
AcDb3dPolylineVertex
 10
-12.39922300000001
 20
-3.450887000000022
 30
0.0
 70
    32
  0
VERTEX
  5
1F01
330
1EEE
100
AcDbEntity
  8
241
  6
CONTINUOUS
100
AcDbVertex
100
AcDb3dPolylineVertex
 10
-12.45814100000001
 20
-3.438930999999996
 30
0.0
 70
    32
  0
VERTEX
  5
1F02
330
1EEE
100
AcDbEntity
  8
241
  6
CONTINUOUS
100
AcDbVertex
100
AcDb3dPolylineVertex
 10
-12.51568500000001
 20
-3.424695999999983
 30
0.0
 70
    32
  0
VERTEX
  5
1F03
330
1EEE
100
AcDbEntity
  8
241
  6
CONTINUOUS
100
AcDbVertex
100
AcDb3dPolylineVertex
 10
-12.57147500000001
 20
-3.408276000000029
 30
0.0
 70
    32
  0
VERTEX
  5
1F04
330
1EEE
100
AcDbEntity
  8
241
  6
CONTINUOUS
100
AcDbVertex
100
AcDb3dPolylineVertex
 10
-12.62514400000001
 20
-3.389779000000004
 30
0.0
 70
    32
  0
VERTEX
  5
1F05
330
1EEE
100
AcDbEntity
  8
241
  6
CONTINUOUS
100
AcDbVertex
100
AcDb3dPolylineVertex
 10
-12.67633600000001
 20
-3.369328000000024
 30
0.0
 70
    32
  0
VERTEX
  5
1F06
330
1EEE
100
AcDbEntity
  8
241
  6
CONTINUOUS
100
AcDbVertex
100
AcDb3dPolylineVertex
 10
-12.72471400000001
 20
-3.347057000000035
 30
0.0
 70
    32
  0
VERTEX
  5
1F07
330
1EEE
100
AcDbEntity
  8
241
  6
CONTINUOUS
100
AcDbVertex
100
AcDb3dPolylineVertex
 10
-12.76995900000001
 20
-3.323114000000003
 30
0.0
 70
    32
  0
VERTEX
  5
1F08
330
1EEE
100
AcDbEntity
  8
241
  6
CONTINUOUS
100
AcDbVertex
100
AcDb3dPolylineVertex
 10
-12.81177200000001
 20
-3.297656000000017
 30
0.0
 70
    32
  0
VERTEX
  5
1F09
330
1EEE
100
AcDbEntity
  8
241
  6
CONTINUOUS
100
AcDbVertex
100
AcDb3dPolylineVertex
 10
-12.84987700000001
 20
-3.27085199999999
 30
0.0
 70
    32
  0
VERTEX
  5
1F0A
330
1EEE
100
AcDbEntity
  8
241
  6
CONTINUOUS
100
AcDbVertex
100
AcDb3dPolylineVertex
 10
-12.88402200000001
 20
-3.242878000000018
 30
0.0
 70
    32
  0
VERTEX
  5
1F0B
330
1EEE
100
AcDbEntity
  8
241
  6
CONTINUOUS
100
AcDbVertex
100
AcDb3dPolylineVertex
 10
-12.91398200000001
 20
-3.213919000000004
 30
0.0
 70
    32
  0
VERTEX
  5
1F0C
330
1EEE
100
AcDbEntity
  8
241
  6
CONTINUOUS
100
AcDbVertex
100
AcDb3dPolylineVertex
 10
-12.93956000000001
 20
-3.184167000000002
 30
0.0
 70
    32
  0
VERTEX
  5
1F0D
330
1EEE
100
AcDbEntity
  8
241
  6
CONTINUOUS
100
AcDbVertex
100
AcDb3dPolylineVertex
 10
-12.96058600000001
 20
-3.153817000000003
 30
0.0
 70
    32
  0
VERTEX
  5
1F0E
330
1EEE
100
AcDbEntity
  8
241
  6
CONTINUOUS
100
AcDbVertex
100
AcDb3dPolylineVertex
 10
-12.97692200000001
 20
-3.123070000000012
 30
0.0
 70
    32
  0
VERTEX
  5
1F0F
330
1EEE
100
AcDbEntity
  8
241
  6
CONTINUOUS
100
AcDbVertex
100
AcDb3dPolylineVertex
 10
-12.98845900000001
 20
-3.092128999999999
 30
0.0
 70
    32
  0
VERTEX
  5
1F10
330
1EEE
100
AcDbEntity
  8
241
  6
CONTINUOUS
100
AcDbVertex
100
AcDb3dPolylineVertex
 10
-12.99512300000001
 20
-3.06119799999999
 30
0.0
 70
    32
  0
VERTEX
  5
1F11
330
1EEE
100
AcDbEntity
  8
241
  6
CONTINUOUS
100
AcDbVertex
100
AcDb3dPolylineVertex
 10
-12.99686800000001
 20
-3.030481000000008
 30
0.0
 70
    32
  0
VERTEX
  5
1F12
330
1EEE
100
AcDbEntity
  8
241
  6
CONTINUOUS
100
AcDbVertex
100
AcDb3dPolylineVertex
 10
-12.99368300000001
 20
-3.000180999999997
 30
0.0
 70
    32
  0
VERTEX
  5
1F13
330
1EEE
100
AcDbEntity
  8
241
  6
CONTINUOUS
100
AcDbVertex
100
AcDb3dPolylineVertex
 10
-12.98559
 20
-2.970499000000017
 30
0.0
 70
    32
  0
VERTEX
  5
1F14
330
1EEE
100
AcDbEntity
  8
241
  6
CONTINUOUS
100
AcDbVertex
100
AcDb3dPolylineVertex
 10
-12.97264100000001
 20
-2.941629000000006
 30
0.0
 70
    32
  0
VERTEX
  5
1F15
330
1EEE
100
AcDbEntity
  8
241
  6
CONTINUOUS
100
AcDbVertex
100
AcDb3dPolylineVertex
 10
-12.95492300000001
 20
-2.913762999999988
 30
0.0
 70
    32
  0
VERTEX
  5
1F16
330
1EEE
100
AcDbEntity
  8
241
  6
CONTINUOUS
100
AcDbVertex
100
AcDb3dPolylineVertex
 10
-12.93255100000001
 20
-2.887084000000015
 30
0.0
 70
    32
  0
VERTEX
  5
1F17
330
1EEE
100
AcDbEntity
  8
241
  6
CONTINUOUS
100
AcDbVertex
100
AcDb3dPolylineVertex
 10
-12.90567400000001
 20
-2.861768999999981
 30
0.0
 70
    32
  0
VERTEX
  5
1F18
330
1EEE
100
AcDbEntity
  8
241
  6
CONTINUOUS
100
AcDbVertex
100
AcDb3dPolylineVertex
 10
-12.87447000000001
 20
-2.837985000000003
 30
0.0
 70
    32
  0
VERTEX
  5
1F19
330
1EEE
100
AcDbEntity
  8
241
  6
CONTINUOUS
100
AcDbVertex
100
AcDb3dPolylineVertex
 10
-12.83914300000001
 20
-2.815888000000001
 30
0.0
 70
    32
  0
VERTEX
  5
1F1A
330
1EEE
100
AcDbEntity
  8
241
  6
CONTINUOUS
100
AcDbVertex
100
AcDb3dPolylineVertex
 10
-12.799928
 20
-2.795625000000001
 30
0.0
 70
    32
  0
VERTEX
  5
1F1B
330
1EEE
100
AcDbEntity
  8
241
  6
CONTINUOUS
100
AcDbVertex
100
AcDb3dPolylineVertex
 10
-12.757083
 20
-2.777328000000011
 30
0.0
 70
    32
  0
VERTEX
  5
1F1C
330
1EEE
100
AcDbEntity
  8
241
  6
CONTINUOUS
100
AcDbVertex
100
AcDb3dPolylineVertex
 10
-12.71089100000001
 20
-2.761120000000005
 30
0.0
 70
    32
  0
VERTEX
  5
1F1D
330
1EEE
100
AcDbEntity
  8
241
  6
CONTINUOUS
100
AcDbVertex
100
AcDb3dPolylineVertex
 10
-12.66165700000001
 20
-2.747107000000028
 30
0.0
 70
    32
  0
VERTEX
  5
1F1E
330
1EEE
100
AcDbEntity
  8
241
  6
CONTINUOUS
100
AcDbVertex
100
AcDb3dPolylineVertex
 10
-12.60970500000001
 20
-2.735381000000018
 30
0.0
 70
    32
  0
VERTEX
  5
1F1F
330
1EEE
100
AcDbEntity
  8
241
  6
CONTINUOUS
100
AcDbVertex
100
AcDb3dPolylineVertex
 10
-12.55538000000001
 20
-2.726020000000005
 30
0.0
 70
    32
  0
VERTEX
  5
1F20
330
1EEE
100
AcDbEntity
  8
241
  6
CONTINUOUS
100
AcDbVertex
100
AcDb3dPolylineVertex
 10
-12.49903800000001
 20
-2.719085999999975
 30
0.0
 70
    32
  0
VERTEX
  5
1F21
330
1EEE
100
AcDbEntity
  8
241
  6
CONTINUOUS
100
AcDbVertex
100
AcDb3dPolylineVertex
 10
-12.44105300000001
 20
-2.714625000000012
 30
0.0
 70
    32
  0
VERTEX
  5
1F22
330
1EEE
100
AcDbEntity
  8
241
  6
CONTINUOUS
100
AcDbVertex
100
AcDb3dPolylineVertex
 10
-12.38180700000001
 20
-2.712664999999987
 30
0.0
 70
    32
  0
VERTEX
  5
1F23
330
1EEE
100
AcDbEntity
  8
241
  6
CONTINUOUS
100
AcDbVertex
100
AcDb3dPolylineVertex
 10
-12.32169100000001
 20
-2.713220000000006
 30
0.0
 70
    32
  0
VERTEX
  5
1F24
330
1EEE
100
AcDbEntity
  8
241
  6
CONTINUOUS
100
AcDbVertex
100
AcDb3dPolylineVertex
 10
-12.26110100000001
 20
-2.716285999999996
 30
0.0
 70
    32
  0
VERTEX
  5
1F25
330
1EEE
100
AcDbEntity
  8
241
  6
CONTINUOUS
100
AcDbVertex
100
AcDb3dPolylineVertex
 10
-12.20043900000001
 20
-2.721843000000006
 30
0.0
 70
    32
  0
VERTEX
  5
1F26
330
1EEE
100
AcDbEntity
  8
241
  6
CONTINUOUS
100
AcDbVertex
100
AcDb3dPolylineVertex
 10
-12.14010300000001
 20
-2.729853999999988
 30
0.0
 70
    32
  0
VERTEX
  5
1F27
330
1EEE
100
AcDbEntity
  8
241
  6
CONTINUOUS
100
AcDbVertex
100
AcDb3dPolylineVertex
 10
-12.08049300000001
 20
-2.740266999999988
 30
0.0
 70
    32
  0
VERTEX
  5
1F28
330
1EEE
100
AcDbEntity
  8
241
  6
CONTINUOUS
100
AcDbVertex
100
AcDb3dPolylineVertex
 10
-12.02200100000001
 20
-2.753012000000012
 30
0.0
 70
    32
  0
VERTEX
  5
1F29
330
1EEE
100
AcDbEntity
  8
241
  6
CONTINUOUS
100
AcDbVertex
100
AcDb3dPolylineVertex
 10
-11.965015
 20
-2.768006000000013
 30
0.0
 70
    32
  0
VERTEX
  5
1F2A
330
1EEE
100
AcDbEntity
  8
241
  6
CONTINUOUS
100
AcDbVertex
100
AcDb3dPolylineVertex
 10
-11.90991000000001
 20
-2.785149000000018
 30
0.0
 70
    32
  0
VERTEX
  5
1F2B
330
1EEE
100
AcDbEntity
  8
241
  6
CONTINUOUS
100
AcDbVertex
100
AcDb3dPolylineVertex
 10
-11.85704900000001
 20
-2.804328999999995
 30
0.0
 70
    32
  0
VERTEX
  5
1F2C
330
1EEE
100
AcDbEntity
  8
241
  6
CONTINUOUS
100
AcDbVertex
100
AcDb3dPolylineVertex
 10
-11.80678200000001
 20
-2.825418000000013
 30
0.0
 70
    32
  0
VERTEX
  5
1F2D
330
1EEE
100
AcDbEntity
  8
241
  6
CONTINUOUS
100
AcDbVertex
100
AcDb3dPolylineVertex
 10
-11.75944100000001
 20
-2.848278000000021
 30
0.0
 70
    32
  0
VERTEX
  5
1F2E
330
1EEE
100
AcDbEntity
  8
241
  6
CONTINUOUS
100
AcDbVertex
100
AcDb3dPolylineVertex
 10
-11.71533700000001
 20
-2.872758000000004
 30
0.0
 70
    32
  0
VERTEX
  5
1F2F
330
1EEE
100
AcDbEntity
  8
241
  6
CONTINUOUS
100
AcDbVertex
100
AcDb3dPolylineVertex
 10
-11.67476300000001
 20
-2.898696000000001
 30
0.0
 70
    32
  0
VERTEX
  5
1F30
330
1EEE
100
AcDbEntity
  8
241
  6
CONTINUOUS
100
AcDbVertex
100
AcDb3dPolylineVertex
 10
-11.63798600000001
 20
-2.925920000000019
 30
0.0
 70
    32
  0
VERTEX
  5
1F31
330
1EEE
100
AcDbEntity
  8
241
  6
CONTINUOUS
100
AcDbVertex
100
AcDb3dPolylineVertex
 10
-11.60524800000001
 20
-2.954251999999996
 30
0.0
 70
    32
  0
VERTEX
  5
1F32
330
1EEE
100
AcDbEntity
  8
241
  6
CONTINUOUS
100
AcDbVertex
100
AcDb3dPolylineVertex
 10
-11.57676600000001
 20
-2.98350400000001
 30
0.0
 70
    32
  0
VERTEX
  5
1F33
330
1EEE
100
AcDbEntity
  8
241
  6
CONTINUOUS
100
AcDbVertex
100
AcDb3dPolylineVertex
 10
-11.552728
 20
-3.013483000000007
 30
0.0
 70
    32
  0
VERTEX
  5
1F34
330
1EEE
100
AcDbEntity
  8
241
  6
CONTINUOUS
100
AcDbVertex
100
AcDb3dPolylineVertex
 10
-11.53329200000001
 20
-3.043992000000002
 30
0.0
 70
    32
  0
SEQEND
  5
1F35
330
1EEE
100
AcDbEntity
  8
241
  0
LINE
  5
1F36
330
1ECA
100
AcDbEntity
  8
240
100
AcDbLine
 10
-13.88623000000001
 20
-3.563768999999979
 30
0.0
 11
-14.00000000000001
 21
-3.449999999999988
 31
0.0
  0
POLYLINE
  5
1F37
330
1ECA
100
AcDbEntity
  8
241
100
AcDb3dPolyline
 66
     1
 10
0.0
 20
0.0
 30
0.0
 70
     8
  0
VERTEX
  5
1F38
330
1F37
100
AcDbEntity
  8
241
  6
CONTINUOUS
100
AcDbVertex
100
AcDb3dPolylineVertex
 10
-11.55928100000001
 20
3.291260999999991
 30
0.0
 70
    32
  0
VERTEX
  5
1F39
330
1F37
100
AcDbEntity
  8
241
  6
CONTINUOUS
100
AcDbVertex
100
AcDb3dPolylineVertex
 10
-11.58463500000001
 20
3.317062000000021
 30
0.0
 70
    32
  0
VERTEX
  5
1F3A
330
1F37
100
AcDbEntity
  8
241
  6
CONTINUOUS
100
AcDbVertex
100
AcDb3dPolylineVertex
 10
-11.61438100000001
 20
3.341387999999994
 30
0.0
 70
    32
  0
VERTEX
  5
1F3B
330
1F37
100
AcDbEntity
  8
241
  6
CONTINUOUS
100
AcDbVertex
100
AcDb3dPolylineVertex
 10
-11.64832300000001
 20
3.364079000000003
 30
0.0
 70
    32
  0
VERTEX
  5
1F3C
330
1F37
100
AcDbEntity
  8
241
  6
CONTINUOUS
100
AcDbVertex
100
AcDb3dPolylineVertex
 10
-11.68623500000001
 20
3.384985999999997
 30
0.0
 70
    32
  0
VERTEX
  5
1F3D
330
1F37
100
AcDbEntity
  8
241
  6
CONTINUOUS
100
AcDbVertex
100
AcDb3dPolylineVertex
 10
-11.72786900000001
 20
3.403968999999989
 30
0.0
 70
    32
  0
VERTEX
  5
1F3E
330
1F37
100
AcDbEntity
  8
241
  6
CONTINUOUS
100
AcDbVertex
100
AcDb3dPolylineVertex
 10
-11.77295000000001
 20
3.420904000000007
 30
0.0
 70
    32
  0
VERTEX
  5
1F3F
330
1F37
100
AcDbEntity
  8
241
  6
CONTINUOUS
100
AcDbVertex
100
AcDb3dPolylineVertex
 10
-11.82117900000001
 20
3.435678999999993
 30
0.0
 70
    32
  0
VERTEX
  5
1F40
330
1F37
100
AcDbEntity
  8
241
  6
CONTINUOUS
100
AcDbVertex
100
AcDb3dPolylineVertex
 10
-11.872239
 20
3.448196999999964
 30
0.0
 70
    32
  0
VERTEX
  5
1F41
330
1F37
100
AcDbEntity
  8
241
  6
CONTINUOUS
100
AcDbVertex
100
AcDb3dPolylineVertex
 10
-11.92579200000001
 20
3.458373999999963
 30
0.0
 70
    32
  0
VERTEX
  5
1F42
330
1F37
100
AcDbEntity
  8
241
  6
CONTINUOUS
100
AcDbVertex
100
AcDb3dPolylineVertex
 10
-11.98148500000001
 20
3.466144999999983
 30
0.0
 70
    32
  0
VERTEX
  5
1F43
330
1F37
100
AcDbEntity
  8
241
  6
CONTINUOUS
100
AcDbVertex
100
AcDb3dPolylineVertex
 10
-12.03895100000001
 20
3.471456000000017
 30
0.0
 70
    32
  0
VERTEX
  5
1F44
330
1F37
100
AcDbEntity
  8
241
  6
CONTINUOUS
100
AcDbVertex
100
AcDb3dPolylineVertex
 10
-12.09780900000001
 20
3.474273999999979
 30
0.0
 70
    32
  0
VERTEX
  5
1F45
330
1F37
100
AcDbEntity
  8
241
  6
CONTINUOUS
100
AcDbVertex
100
AcDb3dPolylineVertex
 10
-12.15767200000001
 20
3.474579999999974
 30
0.0
 70
    32
  0
VERTEX
  5
1F46
330
1F37
100
AcDbEntity
  8
241
  6
CONTINUOUS
100
AcDbVertex
100
AcDb3dPolylineVertex
 10
-12.21814500000001
 20
3.472371000000009
 30
0.0
 70
    32
  0
VERTEX
  5
1F47
330
1F37
100
AcDbEntity
  8
241
  6
CONTINUOUS
100
AcDbVertex
100
AcDb3dPolylineVertex
 10
-12.27882700000001
 20
3.467662999999987
 30
0.0
 70
    32
  0
VERTEX
  5
1F48
330
1F37
100
AcDbEntity
  8
241
  6
CONTINUOUS
100
AcDbVertex
100
AcDb3dPolylineVertex
 10
-12.33932000000001
 20
3.460485999999974
 30
0.0
 70
    32
  0
VERTEX
  5
1F49
330
1F37
100
AcDbEntity
  8
241
  6
CONTINUOUS
100
AcDbVertex
100
AcDb3dPolylineVertex
 10
-12.39922300000001
 20
3.450887999999991
 30
0.0
 70
    32
  0
VERTEX
  5
1F4A
330
1F37
100
AcDbEntity
  8
241
  6
CONTINUOUS
100
AcDbVertex
100
AcDb3dPolylineVertex
 10
-12.45814100000001
 20
3.438931999999994
 30
0.0
 70
    32
  0
VERTEX
  5
1F4B
330
1F37
100
AcDbEntity
  8
241
  6
CONTINUOUS
100
AcDbVertex
100
AcDb3dPolylineVertex
 10
-12.51568500000001
 20
3.42469699999998
 30
0.0
 70
    32
  0
VERTEX
  5
1F4C
330
1F37
100
AcDbEntity
  8
241
  6
CONTINUOUS
100
AcDbVertex
100
AcDb3dPolylineVertex
 10
-12.57147500000001
 20
3.408276999999998
 30
0.0
 70
    32
  0
VERTEX
  5
1F4D
330
1F37
100
AcDbEntity
  8
241
  6
CONTINUOUS
100
AcDbVertex
100
AcDb3dPolylineVertex
 10
-12.62514400000001
 20
3.389779999999973
 30
0.0
 70
    32
  0
VERTEX
  5
1F4E
330
1F37
100
AcDbEntity
  8
241
  6
CONTINUOUS
100
AcDbVertex
100
AcDb3dPolylineVertex
 10
-12.67633600000001
 20
3.369328999999993
 30
0.0
 70
    32
  0
VERTEX
  5
1F4F
330
1F37
100
AcDbEntity
  8
241
  6
CONTINUOUS
100
AcDbVertex
100
AcDb3dPolylineVertex
 10
-12.72471400000001
 20
3.347058000000004
 30
0.0
 70
    32
  0
VERTEX
  5
1F50
330
1F37
100
AcDbEntity
  8
241
  6
CONTINUOUS
100
AcDbVertex
100
AcDb3dPolylineVertex
 10
-12.76995900000001
 20
3.323115000000001
 30
0.0
 70
    32
  0
VERTEX
  5
1F51
330
1F37
100
AcDbEntity
  8
241
  6
CONTINUOUS
100
AcDbVertex
100
AcDb3dPolylineVertex
 10
-12.81177200000001
 20
3.297656999999986
 30
0.0
 70
    32
  0
VERTEX
  5
1F52
330
1F37
100
AcDbEntity
  8
241
  6
CONTINUOUS
100
AcDbVertex
100
AcDb3dPolylineVertex
 10
-12.84987700000001
 20
3.270852999999988
 30
0.0
 70
    32
  0
VERTEX
  5
1F53
330
1F37
100
AcDbEntity
  8
241
  6
CONTINUOUS
100
AcDbVertex
100
AcDb3dPolylineVertex
 10
-12.88402200000001
 20
3.242879000000016
 30
0.0
 70
    32
  0
VERTEX
  5
1F54
330
1F37
100
AcDbEntity
  8
241
  6
CONTINUOUS
100
AcDbVertex
100
AcDb3dPolylineVertex
 10
-12.91398200000001
 20
3.213919999999973
 30
0.0
 70
    32
  0
VERTEX
  5
1F55
330
1F37
100
AcDbEntity
  8
241
  6
CONTINUOUS
100
AcDbVertex
100
AcDb3dPolylineVertex
 10
-12.93956000000001
 20
3.184167999999971
 30
0.0
 70
    32
  0
VERTEX
  5
1F56
330
1F37
100
AcDbEntity
  8
241
  6
CONTINUOUS
100
AcDbVertex
100
AcDb3dPolylineVertex
 10
-12.96058600000001
 20
3.153817999999972
 30
0.0
 70
    32
  0
VERTEX
  5
1F57
330
1F37
100
AcDbEntity
  8
241
  6
CONTINUOUS
100
AcDbVertex
100
AcDb3dPolylineVertex
 10
-12.97692200000001
 20
3.12307100000001
 30
0.0
 70
    32
  0
VERTEX
  5
1F58
330
1F37
100
AcDbEntity
  8
241
  6
CONTINUOUS
100
AcDbVertex
100
AcDb3dPolylineVertex
 10
-12.98845900000001
 20
3.092129999999968
 30
0.0
 70
    32
  0
VERTEX
  5
1F59
330
1F37
100
AcDbEntity
  8
241
  6
CONTINUOUS
100
AcDbVertex
100
AcDb3dPolylineVertex
 10
-12.99512300000001
 20
3.061198999999987
 30
0.0
 70
    32
  0
VERTEX
  5
1F5A
330
1F37
100
AcDbEntity
  8
241
  6
CONTINUOUS
100
AcDbVertex
100
AcDb3dPolylineVertex
 10
-12.99686800000001
 20
3.030481999999977
 30
0.0
 70
    32
  0
VERTEX
  5
1F5B
330
1F37
100
AcDbEntity
  8
241
  6
CONTINUOUS
100
AcDbVertex
100
AcDb3dPolylineVertex
 10
-12.99368300000001
 20
3.000181999999995
 30
0.0
 70
    32
  0
VERTEX
  5
1F5C
330
1F37
100
AcDbEntity
  8
241
  6
CONTINUOUS
100
AcDbVertex
100
AcDb3dPolylineVertex
 10
-12.98559
 20
2.970500000000015
 30
0.0
 70
    32
  0
VERTEX
  5
1F5D
330
1F37
100
AcDbEntity
  8
241
  6
CONTINUOUS
100
AcDbVertex
100
AcDb3dPolylineVertex
 10
-12.97264100000001
 20
2.941629999999975
 30
0.0
 70
    32
  0
VERTEX
  5
1F5E
330
1F37
100
AcDbEntity
  8
241
  6
CONTINUOUS
100
AcDbVertex
100
AcDb3dPolylineVertex
 10
-12.95492300000001
 20
2.913764000000014
 30
0.0
 70
    32
  0
VERTEX
  5
1F5F
330
1F37
100
AcDbEntity
  8
241
  6
CONTINUOUS
100
AcDbVertex
100
AcDb3dPolylineVertex
 10
-12.93255100000001
 20
2.887085000000013
 30
0.0
 70
    32
  0
VERTEX
  5
1F60
330
1F37
100
AcDbEntity
  8
241
  6
CONTINUOUS
100
AcDbVertex
100
AcDb3dPolylineVertex
 10
-12.90567400000001
 20
2.861769999999978
 30
0.0
 70
    32
  0
VERTEX
  5
1F61
330
1F37
100
AcDbEntity
  8
241
  6
CONTINUOUS
100
AcDbVertex
100
AcDb3dPolylineVertex
 10
-12.87447000000001
 20
2.837986
 30
0.0
 70
    32
  0
VERTEX
  5
1F62
330
1F37
100
AcDbEntity
  8
241
  6
CONTINUOUS
100
AcDbVertex
100
AcDb3dPolylineVertex
 10
-12.83914300000001
 20
2.815889000000026
 30
0.0
 70
    32
  0
VERTEX
  5
1F63
330
1F37
100
AcDbEntity
  8
241
  6
CONTINUOUS
100
AcDbVertex
100
AcDb3dPolylineVertex
 10
-12.799928
 20
2.795625000000001
 30
0.0
 70
    32
  0
VERTEX
  5
1F64
330
1F37
100
AcDbEntity
  8
241
  6
CONTINUOUS
100
AcDbVertex
100
AcDb3dPolylineVertex
 10
-12.757083
 20
2.777329000000008
 30
0.0
 70
    32
  0
VERTEX
  5
1F65
330
1F37
100
AcDbEntity
  8
241
  6
CONTINUOUS
100
AcDbVertex
100
AcDb3dPolylineVertex
 10
-12.71089100000001
 20
2.761121000000002
 30
0.0
 70
    32
  0
VERTEX
  5
1F66
330
1F37
100
AcDbEntity
  8
241
  6
CONTINUOUS
100
AcDbVertex
100
AcDb3dPolylineVertex
 10
-12.66165700000001
 20
2.747107999999997
 30
0.0
 70
    32
  0
VERTEX
  5
1F67
330
1F37
100
AcDbEntity
  8
241
  6
CONTINUOUS
100
AcDbVertex
100
AcDb3dPolylineVertex
 10
-12.60970500000001
 20
2.735381999999987
 30
0.0
 70
    32
  0
VERTEX
  5
1F68
330
1F37
100
AcDbEntity
  8
241
  6
CONTINUOUS
100
AcDbVertex
100
AcDb3dPolylineVertex
 10
-12.55538000000001
 20
2.726021000000002
 30
0.0
 70
    32
  0
VERTEX
  5
1F69
330
1F37
100
AcDbEntity
  8
241
  6
CONTINUOUS
100
AcDbVertex
100
AcDb3dPolylineVertex
 10
-12.49903800000001
 20
2.719087000000001
 30
0.0
 70
    32
  0
VERTEX
  5
1F6A
330
1F37
100
AcDbEntity
  8
241
  6
CONTINUOUS
100
AcDbVertex
100
AcDb3dPolylineVertex
 10
-12.44105300000001
 20
2.714625000000012
 30
0.0
 70
    32
  0
VERTEX
  5
1F6B
330
1F37
100
AcDbEntity
  8
241
  6
CONTINUOUS
100
AcDbVertex
100
AcDb3dPolylineVertex
 10
-12.38180700000001
 20
2.712665999999956
 30
0.0
 70
    32
  0
VERTEX
  5
1F6C
330
1F37
100
AcDbEntity
  8
241
  6
CONTINUOUS
100
AcDbVertex
100
AcDb3dPolylineVertex
 10
-12.32169100000001
 20
2.713221000000004
 30
0.0
 70
    32
  0
VERTEX
  5
1F6D
330
1F37
100
AcDbEntity
  8
241
  6
CONTINUOUS
100
AcDbVertex
100
AcDb3dPolylineVertex
 10
-12.26110100000001
 20
2.716287000000022
 30
0.0
 70
    32
  0
VERTEX
  5
1F6E
330
1F37
100
AcDbEntity
  8
241
  6
CONTINUOUS
100
AcDbVertex
100
AcDb3dPolylineVertex
 10
-12.20043900000001
 20
2.721844000000004
 30
0.0
 70
    32
  0
VERTEX
  5
1F6F
330
1F37
100
AcDbEntity
  8
241
  6
CONTINUOUS
100
AcDbVertex
100
AcDb3dPolylineVertex
 10
-12.14010300000001
 20
2.729854999999986
 30
0.0
 70
    32
  0
VERTEX
  5
1F70
330
1F37
100
AcDbEntity
  8
241
  6
CONTINUOUS
100
AcDbVertex
100
AcDb3dPolylineVertex
 10
-12.08049300000001
 20
2.740267999999957
 30
0.0
 70
    32
  0
VERTEX
  5
1F71
330
1F37
100
AcDbEntity
  8
241
  6
CONTINUOUS
100
AcDbVertex
100
AcDb3dPolylineVertex
 10
-12.02200100000001
 20
2.753012999999981
 30
0.0
 70
    32
  0
VERTEX
  5
1F72
330
1F37
100
AcDbEntity
  8
241
  6
CONTINUOUS
100
AcDbVertex
100
AcDb3dPolylineVertex
 10
-11.965015
 20
2.768006999999983
 30
0.0
 70
    32
  0
VERTEX
  5
1F73
330
1F37
100
AcDbEntity
  8
241
  6
CONTINUOUS
100
AcDbVertex
100
AcDb3dPolylineVertex
 10
-11.90991000000001
 20
2.785150000000015
 30
0.0
 70
    32
  0
VERTEX
  5
1F74
330
1F37
100
AcDbEntity
  8
241
  6
CONTINUOUS
100
AcDbVertex
100
AcDb3dPolylineVertex
 10
-11.85704900000001
 20
2.804328999999995
 30
0.0
 70
    32
  0
VERTEX
  5
1F75
330
1F37
100
AcDbEntity
  8
241
  6
CONTINUOUS
100
AcDbVertex
100
AcDb3dPolylineVertex
 10
-11.80678200000001
 20
2.825418999999982
 30
0.0
 70
    32
  0
VERTEX
  5
1F76
330
1F37
100
AcDbEntity
  8
241
  6
CONTINUOUS
100
AcDbVertex
100
AcDb3dPolylineVertex
 10
-11.75944100000001
 20
2.848279000000019
 30
0.0
 70
    32
  0
VERTEX
  5
1F77
330
1F37
100
AcDbEntity
  8
241
  6
CONTINUOUS
100
AcDbVertex
100
AcDb3dPolylineVertex
 10
-11.71533700000001
 20
2.872758999999973
 30
0.0
 70
    32
  0
VERTEX
  5
1F78
330
1F37
100
AcDbEntity
  8
241
  6
CONTINUOUS
100
AcDbVertex
100
AcDb3dPolylineVertex
 10
-11.67476300000001
 20
2.898696000000001
 30
0.0
 70
    32
  0
VERTEX
  5
1F79
330
1F37
100
AcDbEntity
  8
241
  6
CONTINUOUS
100
AcDbVertex
100
AcDb3dPolylineVertex
 10
-11.63798600000001
 20
2.925920999999988
 30
0.0
 70
    32
  0
VERTEX
  5
1F7A
330
1F37
100
AcDbEntity
  8
241
  6
CONTINUOUS
100
AcDbVertex
100
AcDb3dPolylineVertex
 10
-11.60524800000001
 20
2.954252999999994
 30
0.0
 70
    32
  0
VERTEX
  5
1F7B
330
1F37
100
AcDbEntity
  8
241
  6
CONTINUOUS
100
AcDbVertex
100
AcDb3dPolylineVertex
 10
-11.57676600000001
 20
2.983504999999979
 30
0.0
 70
    32
  0
VERTEX
  5
1F7C
330
1F37
100
AcDbEntity
  8
241
  6
CONTINUOUS
100
AcDbVertex
100
AcDb3dPolylineVertex
 10
-11.552728
 20
3.013483999999976
 30
0.0
 70
    32
  0
VERTEX
  5
1F7D
330
1F37
100
AcDbEntity
  8
241
  6
CONTINUOUS
100
AcDbVertex
100
AcDb3dPolylineVertex
 10
-11.53329200000001
 20
3.043992999999971
 30
0.0
 70
    32
  0
SEQEND
  5
1F7E
330
1F37
100
AcDbEntity
  8
241
  0
LINE
  5
1F7F
330
1ECA
100
AcDbEntity
  8
240
100
AcDbLine
 10
-14.00000000000001
 20
3.449999999999988
 30
0.0
 11
-13.88623000000001
 21
3.563769999999976
 31
0.0
  0
LINE
  5
1F80
330
1ECA
100
AcDbEntity
  8
241
100
AcDbLine
 10
-2.600000000000008
 20
0.25
 30
0.0
 11
-2.600000000000008
 21
4.099999999999994
 31
0.0
  0
LINE
  5
1F81
330
1ECA
100
AcDbEntity
  8
240
100
AcDbLine
 10
-2.600000000000008
 20
4.099999999999994
 30
0.0
 11
-2.600000000000008
 21
4.75
 31
0.0
  0
LINE
  5
1F82
330
1ECA
100
AcDbEntity
  8
240
100
AcDbLine
 10
-0.0000000000000071
 20
0.25
 30
0.0
 11
-0.0000000000000071
 21
3.99944499999998
 31
0.0
  0
LINE
  5
1F83
330
1ECA
100
AcDbEntity
  8
241
100
AcDbLine
 10
-1.300000000000011
 20
0.25
 30
0.0
 11
-1.300000000000011
 21
4.099999999999994
 31
0.0
  0
LINE
  5
1F84
330
1ECA
100
AcDbEntity
  8
241
100
AcDbLine
 10
-1.000000000000007
 20
-2.136720999999994
 30
0.0
 11
-1.300000000000011
 21
-2.152443000000005
 31
0.0
  0
LINE
  5
1F85
330
1ECA
100
AcDbEntity
  8
241
100
AcDbLine
 10
-1.000000000000007
 20
-2.569734000000039
 30
0.0
 11
-1.300000000000011
 21
-2.585455999999993
 31
0.0
  0
LINE
  5
1F86
330
1ECA
100
AcDbEntity
  8
241
100
AcDbLine
 10
-1.000000000000007
 20
-2.569734000000039
 30
0.0
 11
-1.000000000000007
 21
-2.136720999999994
 31
0.0
  0
LINE
  5
1F87
330
1ECA
100
AcDbEntity
  8
240
100
AcDbLine
 10
-0.0000000000000071
 20
3.99944499999998
 30
0.0
 11
-1.300000000000011
 21
4.75
 31
0.0
  0
LINE
  5
1F88
330
1ECA
100
AcDbEntity
  8
240
100
AcDbLine
 10
-1.300000000000011
 20
4.099999999999994
 30
0.0
 11
-1.300000000000011
 21
4.75
 31
0.0
  0
LINE
  5
1F89
330
1ECA
100
AcDbEntity
  8
241
100
AcDbLine
 10
-1.000000000000007
 20
2.569733999999982
 30
0.0
 11
-1.300000000000011
 21
2.585456999999991
 31
0.0
  0
LINE
  5
1F8A
330
1ECA
100
AcDbEntity
  8
241
100
AcDbLine
 10
-1.000000000000007
 20
2.136721999999963
 30
0.0
 11
-1.300000000000011
 21
2.152444000000002
 31
0.0
  0
LINE
  5
1F8B
330
1ECA
100
AcDbEntity
  8
241
100
AcDbLine
 10
-1.000000000000007
 20
2.569733999999982
 30
0.0
 11
-1.000000000000007
 21
2.136721999999963
 31
0.0
  0
LINE
  5
1F8C
330
1ECA
100
AcDbEntity
  8
241
100
AcDbLine
 10
-0.0000000000000071
 20
3.232364000000018
 30
0.0
 11
-1.300000000000011
 21
3.982919999999978
 31
0.0
  0
LINE
  5
1F8D
330
1ECA
100
AcDbEntity
  8
241
100
AcDbLine
 10
-0.0000000000000071
 20
3.482364000000018
 30
0.0
 11
-1.300000000000011
 21
4.232919999999978
 31
0.0
  0
ENDBLK
  5
1F8F
330
1ECA
100
AcDbEntity
  8
0
100
AcDbBlockEnd
  0
ENDSEC
  0
SECTION
  2
ENTITIES
  0
DIMENSION
  5
84D
330
1A
100
AcDbEntity
  8
250
  6
CONTINUOUS
100
AcDbDimension
  2
*D1
 10
-0.0000000000000065
 20
14.0
 30
0.0
 11
-7.00000000000001
 21
16.5
 31
0.0
 70
    32
  3
BIGT
100
AcDbAlignedDimension
 13
-14.00000000000001
 23
3.449999999999988
 33
0.0
 14
-0.0000000000000071
 24
3.99944499999998
 34
0.0
100
AcDbRotatedDimension
1001
ACAD
1000
DSTYLE
1002
{
1070
    78
1070
     8
1070
   140
1040
3.0
1002
}
  0
DIMENSION
  5
868
330
1A
100
AcDbEntity
  8
250
  6
CONTINUOUS
100
AcDbDimension
  2
*D2
 10
-21.0
 20
4.750000000000004
 30
0.0
 11
-21.0
 21
0.0000000000000013
 31
0.0
 70
   160
  1
{\H3;\U+2205}<>
  3
BIGT
100
AcDbAlignedDimension
 13
-2.600000000000008
 23
-4.75
 33
0.0
 14
-2.600000000000008
 24
4.75
 34
0.0
 50
90.0
100
AcDbRotatedDimension
1001
ACAD
1000
DSTYLE
1002
{
1070
   287
1070
     3
1070
    77
1070
     3
1070
    78
1070
     8
1070
   140
1040
3.0
1070
   145
1040
1.0
1070
   279
1070
     0
1070
   289
1070
     3
1002
}
  0
MTEXT
  5
88C
102
{ACAD_REACTORS
330
8A7
102
}
330
1A
100
AcDbEntity
  8
241
100
AcDbMText
 10
-13.0
 20
28.0
 30
0.0
 40
5.0
 41
0.0
 71
     7
 72
     5
  1
NBC6-3
  7
YOKO
1001
ITEMNAME
1000
DI010
1001
ACAD
1000
MTEXTBEGIN
1070
    73
1070
     1
1070
    44
1040
1.0
1070
    74
1070
     0
1000
MTEXTEND
  0
DIMENSION
  5
88D
330
1A
100
AcDbEntity
  8
250
100
AcDbDimension
  2
*D3
 10
14.0
 20
-1.500000000000003
 30
0.0
 11
11.6472980006078
 21
-0.6868435375335338
 31
0.0
 70
   160
  1
%%c2.75~<>
  3
BIGT$0
100
AcDbAlignedDimension
 13
0.0
 23
1.5
 33
0.0
 14
0.0000000000000071
 24
-1.5
 34
0.0
 50
90.0
100
AcDbRotatedDimension
1001
ACAD
1000
DSTYLE
1002
{
1070
   287
1070
     5
1070
   279
1070
     2
1002
}
  0
INSERT
  5
1F90
330
1A
100
AcDbEntity
  8
240
100
AcDbBlockReference
  2
A$C58E00183
 10
0.0
 20
0.0
 30
0.0
  0
VIEWPORT
  5
22
330
17
100
AcDbEntity
 67
     1
  8
0
100
AcDbViewport
 10
261.5176991150442
 20
148.5
 30
0.0
 40
523.0353982300885
 41
297.0
 68
     1
 69
     1
1001
ACAD
1000
MVIEW
1002
{
1070
    16
1010
0.0
1020
0.0
1030
0.0
1010
0.0
1020
0.0
1030
1.0
1040
0.0
1040
297.0
1040
261.5176991150442
1040
148.5
1040
50.0
1040
0.0
1040
0.0
1070
     0
1070
   100
1070
     1
1070
     1
1070
     0
1070
     0
1070
     0
1070
     0
1040
0.0
1040
0.0
1040
0.0
1040
1.0
1040
1.0
1040
10.0
1040
10.0
1070
     0
1002
{
1002
}
1002
}
  0
ENDSEC
  0
SECTION
  2
OBJECTS
  0
DICTIONARY
  5
C
330
0
100
AcDbDictionary
  3
ACAD_GROUP
350
D
  3
ACAD_LAYOUT
350
565
  3
ACAD_MLINESTYLE
350
E
  3
ACAD_PLOTSETTINGS
350
566
  3
ACAD_PLOTSTYLENAME
350
563
  3
ACDBHEADERROUNDTRIPXREC
350
1F99
  3
ACDBVARIABLEDICTIONARY
350
68E
  3
GRADE_DWG
350
540
  0
DICTIONARY
  5
1FBC
330
1A
100
AcDbDictionary
280
     1
  3
ACAD_LAYOUTSELFREF
360
1FBD
  0
DICTIONARY
  5
1FBA
330
17
100
AcDbDictionary
280
     1
  3
ACAD_LAYOUTSELFREF
360
1FBB
  0
DICTIONARY
  5
D
102
{ACAD_REACTORS
330
C
102
}
330
C
100
AcDbDictionary
  3
00-1-1-1-1
350
8A7
  3
DREC-1
350
5FC
  3
DREC-2
350
654
  3
DREC-3
350
673
  0
DICTIONARY
  5
565
102
{ACAD_REACTORS
330
C
102
}
330
C
100
AcDbDictionary
  0
DICTIONARY
  5
E
102
{ACAD_REACTORS
330
C
102
}
330
C
100
AcDbDictionary
  3
STANDARD
350
13
  0
DICTIONARY
  5
566
102
{ACAD_REACTORS
330
C
102
}
330
C
100
AcDbDictionary
  0
ACDBDICTIONARYWDFLT
  5
563
102
{ACAD_REACTORS
330
C
102
}
330
C
100
AcDbDictionary
281
     1
  3
Normal
350
564
100
AcDbDictionaryWithDefault
340
564
  0
DICTIONARY
  5
1F99
102
{ACAD_REACTORS
330
C
102
}
330
C
100
AcDbDictionary
  3
CEPSNTYPE
350
1FA3
  3
DIMSTYLEDATA
350
1FA7
  3
FINGERPRINTGUID
350
1FA4
  3
HYPERLINKBASE
350
1F9C
  3
INSUNITS
350
1FA2
  3
LAYOUTDICT
350
1F9E
  3
LWETCUNION
350
1FA1
  3
PLOTSETDICT
350
1F9F
  3
PLOTSTYLNAMDICT
350
1FA0
  3
PSVPSCALE
350
1FA6
  3
PUCSBASE
350
1FAA
  3
PUCSORGBACK
350
1FB0
  3
PUCSORGBOTTOM
350
1FAC
  3
PUCSORGFRONT
350
1FAF
  3
PUCSORGLEFT
350
1FAD
  3
PUCSORGRIGHT
350
1FAE
  3
PUCSORGTOP
350
1FAB
  3
PUCSORTHOREF
350
1FA8
  3
PUCSORTHOVIEW
350
1FA9
  3
STYLESHEET
350
1F9D
  3
TSTACKALIGN
350
1F9A
  3
TSTACKSIZE
350
1F9B
  3
UCSBASE
350
1FB3
  3
UCSORGBACK
350
1FB9
  3
UCSORGBOTTOM
350
1FB5
  3
UCSORGFRONT
350
1FB8
  3
UCSORGLEFT
350
1FB6
  3
UCSORGRIGHT
350
1FB7
  3
UCSORGTOP
350
1FB4
  3
UCSORTHOREF
350
1FB1
  3
UCSORTHOVIEW
350
1FB2
  3
VERSIONGUID
350
1FA5
  0
DICTIONARY
  5
68E
102
{ACAD_REACTORS
330
C
102
}
330
C
100
AcDbDictionary
  3
DIMASSOC
350
68F
  0
DICTIONARY
  5
540
102
{ACAD_REACTORS
330
C
102
}
330
C
100
AcDbDictionary
  3
VERSION
350
560
  0
XRECORD
  5
1FBD
102
{ACAD_REACTORS
330
1FBC
102
}
330
1FBC
100
AcDbXrecord
340
1A
  0
XRECORD
  5
1FBB
102
{ACAD_REACTORS
330
1FBA
102
}
330
1FBA
100
AcDbXrecord
340
17
  0
GROUP
  5
8A7
102
{ACAD_REACTORS
330
D
102
}
330
D
100
AcDbGroup
300

 70
     0
 71
     1
340
88C
1001
GRPNAME
1000
DM800
  0
GROUP
  5
5FC
102
{ACAD_REACTORS
330
D
102
}
330
D
100
AcDbGroup
300

 70
     0
 71
     1
1001
GRPNAME
1000
DREC-
1001
GPARA
1000
xsiz
1000
44.182
1000
ysiz
1000
40.677
1000
angl
1000
0
1000
ctyp
1000
0
1000
csiz
1000
5
1000
lfnt
1000
cont
1000
hcnt
1000
hoff
1000
vcnt
1000
voff
1000
opnt
1000
4
1000
dxpt
1000
0
1000
dypt
1000
0
  0
GROUP
  5
654
102
{ACAD_REACTORS
330
D
102
}
330
D
100
AcDbGroup
300

 70
     0
 71
     1
1001
GRPNAME
1000
DREC-
1001
GPARA
1000
xsiz
1000
54.592
1000
ysiz
1000
53.036
1000
angl
1000
0
1000
ctyp
1000
0
1000
csiz
1000
5
1000
lfnt
1000
cont
1000
hcnt
1000
hoff
1000
vcnt
1000
voff
1000
opnt
1000
4
1000
dxpt
1000
0
1000
dypt
1000
0
  0
GROUP
  5
673
102
{ACAD_REACTORS
330
D
102
}
330
D
100
AcDbGroup
300

 70
     0
 71
     1
1001
GRPNAME
1000
DREC-
1001
GPARA
1000
xsiz
1000
30.363
1000
ysiz
1000
36.175
1000
angl
1000
0
1000
ctyp
1000
0
1000
csiz
1000
5
1000
lfnt
1000
cont
1000
hcnt
1000
hoff
1000
vcnt
1000
voff
1000
opnt
1000
4
1000
dxpt
1000
0
1000
dypt
1000
0
  0
MLINESTYLE
  5
13
102
{ACAD_REACTORS
330
E
102
}
330
E
100
AcDbMlineStyle
  2
STANDARD
 70
     0
  3

 62
     0
 51
90.0
 52
90.0
 71
     2
 49
0.5
 62
   256
  6
BYLAYER
 49
-0.5
 62
   256
  6
BYLAYER
  0
ACDBPLACEHOLDER
  5
564
102
{ACAD_REACTORS
330
563
102
}
330
563
100
AcDbPlaceHolder
280
     0
  0
XRECORD
  5
1FA3
102
{ACAD_REACTORS
330
1F99
102
}
330
1F99
100
AcDbXrecord
 90
        0
  0
XRECORD
  5
1FA7
102
{ACAD_REACTORS
330
1F99
102
}
330
1F99
100
AcDbXrecord
1000
DSTYLE
1002
{
1070
    79
 70
     2
1070
   179
 70
     3
1070
   289
 70
     2
1070
   341
340
594
1070
   342
340
594
1070
   371
 70
    -1
1070
   372
 70
    -1
1002
}
  0
XRECORD
  5
1FA4
102
{ACAD_REACTORS
330
1F99
102
}
330
1F99
100
AcDbXrecord
  1
{51294030-9CB4-11D3-8E18-00A0C925D94D}
  0
XRECORD
  5
1F9C
102
{ACAD_REACTORS
330
1F99
102
}
330
1F99
100
AcDbXrecord
  1

  0
XRECORD
  5
1FA2
102
{ACAD_REACTORS
330
1F99
102
}
330
1F99
100
AcDbXrecord
 90
        0
  0
XRECORD
  5
1F9E
102
{ACAD_REACTORS
330
1F99
102
}
330
1F99
100
AcDbXrecord
340
565
  0
XRECORD
  5
1FA1
102
{ACAD_REACTORS
330
1F99
102
}
330
1F99
100
AcDbXrecord
 90
    10781
  0
XRECORD
  5
1F9F
102
{ACAD_REACTORS
330
1F99
102
}
330
1F99
100
AcDbXrecord
340
566
  0
XRECORD
  5
1FA0
102
{ACAD_REACTORS
330
1F99
102
}
330
1F99
100
AcDbXrecord
340
563
  0
XRECORD
  5
1FA6
102
{ACAD_REACTORS
330
1F99
102
}
330
1F99
100
AcDbXrecord
 40
0.0
  0
XRECORD
  5
1FAA
102
{ACAD_REACTORS
330
1F99
102
}
330
1F99
100
AcDbXrecord
340
0
  0
XRECORD
  5
1FB0
102
{ACAD_REACTORS
330
1F99
102
}
330
1F99
100
AcDbXrecord
 10
0.0
 20
0.0
 30
0.0
  0
XRECORD
  5
1FAC
102
{ACAD_REACTORS
330
1F99
102
}
330
1F99
100
AcDbXrecord
 10
0.0
 20
0.0
 30
0.0
  0
XRECORD
  5
1FAF
102
{ACAD_REACTORS
330
1F99
102
}
330
1F99
100
AcDbXrecord
 10
0.0
 20
0.0
 30
0.0
  0
XRECORD
  5
1FAD
102
{ACAD_REACTORS
330
1F99
102
}
330
1F99
100
AcDbXrecord
 10
0.0
 20
0.0
 30
0.0
  0
XRECORD
  5
1FAE
102
{ACAD_REACTORS
330
1F99
102
}
330
1F99
100
AcDbXrecord
 10
0.0
 20
0.0
 30
0.0
  0
XRECORD
  5
1FAB
102
{ACAD_REACTORS
330
1F99
102
}
330
1F99
100
AcDbXrecord
 10
0.0
 20
0.0
 30
0.0
  0
XRECORD
  5
1FA8
102
{ACAD_REACTORS
330
1F99
102
}
330
1F99
100
AcDbXrecord
340
0
  0
XRECORD
  5
1FA9
102
{ACAD_REACTORS
330
1F99
102
}
330
1F99
100
AcDbXrecord
 70
     0
  0
XRECORD
  5
1F9D
102
{ACAD_REACTORS
330
1F99
102
}
330
1F99
100
AcDbXrecord
  1
technical_osaka.ctb
  0
XRECORD
  5
1F9A
102
{ACAD_REACTORS
330
1F99
102
}
330
1F99
100
AcDbXrecord
 90
        1
  0
XRECORD
  5
1F9B
102
{ACAD_REACTORS
330
1F99
102
}
330
1F99
100
AcDbXrecord
 90
       70
  0
XRECORD
  5
1FB3
102
{ACAD_REACTORS
330
1F99
102
}
330
1F99
100
AcDbXrecord
340
0
  0
XRECORD
  5
1FB9
102
{ACAD_REACTORS
330
1F99
102
}
330
1F99
100
AcDbXrecord
 10
0.0
 20
0.0
 30
0.0
  0
XRECORD
  5
1FB5
102
{ACAD_REACTORS
330
1F99
102
}
330
1F99
100
AcDbXrecord
 10
0.0
 20
0.0
 30
0.0
  0
XRECORD
  5
1FB8
102
{ACAD_REACTORS
330
1F99
102
}
330
1F99
100
AcDbXrecord
 10
0.0
 20
0.0
 30
0.0
  0
XRECORD
  5
1FB6
102
{ACAD_REACTORS
330
1F99
102
}
330
1F99
100
AcDbXrecord
 10
0.0
 20
0.0
 30
0.0
  0
XRECORD
  5
1FB7
102
{ACAD_REACTORS
330
1F99
102
}
330
1F99
100
AcDbXrecord
 10
0.0
 20
0.0
 30
0.0
  0
XRECORD
  5
1FB4
102
{ACAD_REACTORS
330
1F99
102
}
330
1F99
100
AcDbXrecord
 10
0.0
 20
0.0
 30
0.0
  0
XRECORD
  5
1FB1
102
{ACAD_REACTORS
330
1F99
102
}
330
1F99
100
AcDbXrecord
340
0
  0
XRECORD
  5
1FB2
102
{ACAD_REACTORS
330
1F99
102
}
330
1F99
100
AcDbXrecord
 70
     0
  0
XRECORD
  5
1FA5
102
{ACAD_REACTORS
330
1F99
102
}
330
1F99
100
AcDbXrecord
  1
{A94E1D42-D9B2-11D7-ADEB-0010B5C7BFCA}
  0
DICTIONARYVAR
  5
68F
102
{ACAD_REACTORS
330
68E
102
}
330
68E
100
DictionaryVariables
280
     0
  1
1
  0
XRECORD
  5
560
102
{ACAD_REACTORS
330
540
102
}
330
540
100
AcDbXrecord
  1
2.0.0
  0
ENDSEC
  0
EOF
