  0
SECTION
  2
HEADER
  9
$ACADVER
  1
AC1009
  9
$DWGCODEPAGE
  3
ansi_932
  9
$INSBASE
 10
0.0
 20
0.0
 30
0.0
  9
$EXTMIN
 10
-49.40336538
 20
-23.19036118
 30
-0.00152582
  9
$EXTMAX
 10
122.02825394
 20
61.00447186
 30
0.00000003
  9
$LIMMIN
 10
0.0
 20
0.0
  9
$LIMMAX
 10
420.0
 20
297.0
  9
$ORTHOMODE
 70
     0
  9
$REGENMODE
 70
     1
  9
$FILLMODE
 70
     1
  9
$QTEXTMODE
 70
     0
  9
$MIRRTEXT
 70
     1
  9
$DRAGMODE
 70
     2
  9
$LTSCALE
 40
10.0
  9
$OSMODE
 70
   511
  9
$ATTMODE
 70
     1
  9
$TEXTSIZE
 40
3.0
  9
$TRACEWID
 40
1.0
  9
$TEXTSTYLE
  7
YOKO
  9
$CLAYER
  8
245
  9
$CELTYPE
  6
BYLAYER
  9
$CECOLOR
 62
   256
  9
$DIMSCALE
 40
1.0
  9
$DIMASZ
 40
2.23
  9
$DIMEXO
 40
0.5
  9
$DIMDLI
 40
2.5
  9
$DIMRND
 40
0.0
  9
$DIMDLE
 40
0.0
  9
$DIMEXE
 40
1.0
  9
$DIMTP
 40
0.0
  9
$DIMTM
 40
0.0
  9
$DIMTXT
 40
2.8
  9
$DIMCEN
 40
0.0
  9
$DIMTSZ
 40
0.0
  9
$DIMTOL
 70
     0
  9
$DIMLIM
 70
     0
  9
$DIMTIH
 70
     0
  9
$DIMTOH
 70
     0
  9
$DIMSE1
 70
     0
  9
$DIMSE2
 70
     0
  9
$DIMTAD
 70
     3
  9
$DIMZIN
 70
     8
  9
$DIMBLK
  1

  9
$DIMASO
 70
     1
  9
$DIMSHO
 70
     1
  9
$DIMPOST
  1

  9
$DIMAPOST
  1

  9
$DIMALT
 70
     0
  9
$DIMALTD
 70
     2
  9
$DIMALTF
 40
25.4
  9
$DIMLFAC
 40
1.0
  9
$DIMTOFL
 70
     1
  9
$DIMTVP
 40
0.0
  9
$DIMTIX
 70
     1
  9
$DIMSOXD
 70
     0
  9
$DIMSAH
 70
     1
  9
$DIMBLK1
  1
OPEN
  9
$DIMBLK2
  1
OPEN
  9
$DIMSTYLE
  2
BIGT
  9
$DIMCLRD
 70
   256
  9
$DIMCLRE
 70
   256
  9
$DIMCLRT
 70
    40
  9
$DIMTFAC
 40
1.0
  9
$DIMGAP
 40
1.0
  9
$LUNITS
 70
     2
  9
$LUPREC
 70
     3
  9
$SKETCHINC
 40
1.0
  9
$FILLETRAD
 40
4.0
  9
$AUNITS
 70
     0
  9
$AUPREC
 70
     3
  9
$MENU
  1
.
  9
$ELEVATION
 40
0.0
  9
$PELEVATION
 40
0.0
  9
$THICKNESS
 40
0.0
  9
$LIMCHECK
 70
     0
  9
$CHAMFERA
 40
10.0
  9
$CHAMFERB
 40
10.0
  9
$SKPOLY
 70
     0
  9
$TDCREATE
 40
2455112.46484772
  9
$TDUPDATE
 40
2455211.368891042
  9
$TDINDWG
 40
0.0381353241
  9
$TDUSRTIMER
 40
2455750.634617882
  9
$USRTIMER
 70
     1
  9
$ANGBASE
 50
0.0
  9
$ANGDIR
 70
     0
  9
$PDMODE
 70
    35
  9
$PDSIZE
 40
-5.0
  9
$PLINEWID
 40
0.0
  9
$COORDS
 70
     1
  9
$SPLFRAME
 70
     0
  9
$SPLINETYPE
 70
     6
  9
$SPLINESEGS
 70
     8
  9
$ATTDIA
 70
     0
  9
$ATTREQ
 70
     1
  9
$HANDLING
 70
     1
  9
$HANDSEED
  5
153A
  9
$SURFTAB1
 70
     6
  9
$SURFTAB2
 70
     6
  9
$SURFTYPE
 70
     6
  9
$SURFU
 70
     6
  9
$SURFV
 70
     6
  9
$UCSNAME
  2

  9
$UCSORG
 10
0.0
 20
0.0
 30
0.0
  9
$UCSXDIR
 10
1.0
 20
0.0
 30
0.0
  9
$UCSYDIR
 10
0.0
 20
1.0
 30
0.0
  9
$PUCSNAME
  2

  9
$PUCSORG
 10
0.0
 20
0.0
 30
0.0
  9
$PUCSXDIR
 10
1.0
 20
0.0
 30
0.0
  9
$PUCSYDIR
 10
0.0
 20
1.0
 30
0.0
  9
$USERI1
 70
     1
  9
$USERI2
 70
     0
  9
$USERI3
 70
     0
  9
$USERI4
 70
     0
  9
$USERI5
 70
     0
  9
$USERR1
 40
0.0
  9
$USERR2
 40
0.0
  9
$USERR3
 40
0.0
  9
$USERR4
 40
0.0
  9
$USERR5
 40
0.0
  9
$WORLDVIEW
 70
     1
  9
$SHADEDGE
 70
     3
  9
$SHADEDIF
 70
    70
  9
$TILEMODE
 70
     1
  9
$MAXACTVP
 70
    16
  9
$PLIMCHECK
 70
     0
  9
$PEXTMIN
 10
1.000000000000000E+20
 20
1.000000000000000E+20
 30
1.000000000000000E+20
  9
$PEXTMAX
 10
-1.000000000000000E+20
 20
-1.000000000000000E+20
 30
-1.000000000000000E+20
  9
$PLIMMIN
 10
0.0
 20
0.0
  9
$PLIMMAX
 10
420.0
 20
297.0
  9
$UNITMODE
 70
     0
  9
$VISRETAIN
 70
     0
  9
$PLINEGEN
 70
     0
  9
$PSLTSCALE
 70
     1
  0
ENDSEC
  0
SECTION
  2
TABLES
  0
TABLE
  2
VPORT
 70
     1
  0
VPORT
  2
*ACTIVE
 70
     0
 10
0.0
 20
0.0
 11
1.0
 21
1.0
 12
111.0116645672796
 22
1.777827203287082
 13
0.0
 23
0.0
 14
7.0
 24
7.0
 15
7.0
 25
7.0
 16
0.0
 26
0.0
 36
1.0
 17
0.0
 27
0.0
 37
0.0
 40
102.0755894914292
 41
1.5
 42
50.0
 43
0.0
 44
0.0
 50
0.0
 51
0.0
 71
    16
 72
  2000
 73
     1
 74
     0
 75
     0
 76
     0
 77
     0
 78
     0
  0
ENDTAB
  0
TABLE
  2
LTYPE
 70
     3
  0
LTYPE
  2
CONTINUOUS
 70
     0
  3
Solid line
 72
    65
 73
     0
 40
0.0
  0
LTYPE
  2
CENTER2
 70
     0
  3
___ _ ___ _ ___ _ ___ _ ___ _ ___ _ ___ _ ___ _
 72
    65
 73
     4
 40
1.125
 49
0.75
 49
-0.125
 49
0.125
 49
-0.125
  0
ENDTAB
  0
TABLE
  2
LAYER
 70
     9
  0
LAYER
  2
0
 70
     0
 62
     7
  6
CONTINUOUS
  0
LAYER
  2
240
 70
     0
 62
     4
  6
CONTINUOUS
  0
LAYER
  2
241
 70
     0
 62
   211
  6
CONTINUOUS
  0
LAYER
  2
245
 70
     0
 62
     2
  6
CENTER2
  0
LAYER
  2
250
 70
     0
 62
     3
  6
CONTINUOUS
  0
LAYER
  2
DEFPOINTS
 70
     0
 62
     7
  6
CONTINUOUS
  0
ENDTAB
  0
TABLE
  2
STYLE
 70
     2
  0
STYLE
  2
STANDARD
 70
     0
 40
0.0
 41
1.0
 50
0.0
 71
     0
 42
3.0
  3
romans.shx
  4
BIGFONT.SHX
  0
STYLE
  2
YOKO
 70
     0
 40
0.0
 41
1.0
 50
0.0
 71
     0
 42
3.0
  3
romans.shx
  4
extfont.shx
  0
ENDTAB
  0
TABLE
  2
VIEW
 70
     0
  0
ENDTAB
  0
TABLE
  2
UCS
 70
     0
  0
ENDTAB
  0
TABLE
  2
APPID
 70
     9
  0
APPID
  2
ACAD
 70
     0
  0
APPID
  2
GLOBAL
 70
     0
  0
APPID
  2
DETAIL
 70
     0
  0
APPID
  2
GRPNAME
 70
     0
  0
APPID
  2
GPARA
 70
     0
  0
APPID
  2
DCO15
 70
     0
  0
APPID
  2
ITEMNAME
 70
     0
  0
APPID
  2
GRADE_0
 70
     0
  0
APPID
  2
CONTENTBLOCKICON
 70
     0
  0
ENDTAB
  0
TABLE
  2
DIMSTYLE
 70
     2
  0
DIMSTYLE
  2
BIGT
 70
     0
  3

  4

  5

  6
OPEN
  7
OPEN
 40
1.0
 41
2.23
 42
0.5
 43
2.5
 44
1.0
 45
0.0
 46
0.0
 47
0.0
 48
0.0
140
2.8
141
0.0
142
0.0
143
25.4
144
1.0
145
0.0
146
1.0
147
1.0
 71
     0
 72
     0
 73
     0
 74
     0
 75
     0
 76
     0
 77
     3
 78
     8
170
     0
171
     2
172
     1
173
     1
174
     1
175
     0
176
   256
177
   256
178
    40
  0
DIMSTYLE
  2
BIGT$0
 70
     0
  3

  4
"
  5
OPEN
  6

  7

 40
1.0
 41
2.23
 42
0.5
 43
7.0
 44
1.0
 45
0.0
 46
0.0
 47
0.1
 48
0.1
140
3.0
141
0.0
142
0.0
143
0.0393701
144
1.0
145
0.0
146
0.71
147
1.0
 71
     0
 72
     0
 73
     0
 74
     0
 75
     0
 76
     0
 77
     3
 78
     8
170
     0
171
     2
172
     1
173
     0
174
     0
175
     0
176
     3
177
     3
178
    40
  0
ENDTAB
  0
ENDSEC
  0
SECTION
  2
BLOCKS
  0
BLOCK
  8
0
  2
$MODEL_SPACE
 70
     0
 10
0.0
 20
0.0
 30
0.0
  3
$MODEL_SPACE
  1

  0
ENDBLK
  5
1C
  8
0
  0
BLOCK
 67
     1
  8
0
  2
$PAPER_SPACE
 70
     0
 10
0.0
 20
0.0
 30
0.0
  3
$PAPER_SPACE
  1

  0
ENDBLK
  5
19
 67
     1
  8
0
  0
BLOCK
  8
0
  2
_OPEN
 70
     0
 10
0.0
 20
0.0
 30
0.0
  3
_OPEN
  1

  0
LINE
  5
595
  8
0
  6
BYBLOCK
 62
     0
 10
-1.0
 20
0.16666667
 30
0.0
 11
0.0
 21
0.0
 31
0.0
  0
LINE
  5
596
  8
0
  6
BYBLOCK
 62
     0
 10
-1.0
 20
-0.16666667
 30
0.0
 11
0.0
 21
0.0
 31
0.0
  0
LINE
  5
597
  8
0
  6
BYBLOCK
 62
     0
 10
0.0
 20
0.0
 30
0.0
 11
-1.0
 21
0.0
 31
0.0
  0
ENDBLK
  5
599
  8
0
  0
BLOCK
  8
0
  2
矢印なし
 70
     0
 10
0.0
 20
0.0
 30
0.0
  3
矢印なし
  1

  0
ENDBLK
  5
6E5
  8
0
  0
BLOCK
  8
0
  2
*D9
 70
     1
 10
0.0
 20
0.0
 30
0.0
  3
*D9
  1

  0
LINE
  5
12F5
  8
250
 62
     3
 10
105.0
 20
12.3
 30
0.0
 11
105.0
 21
27.43939038389738
 31
0.0
  0
LINE
  5
12F6
  8
250
 62
     3
 10
108.8865284571551
 20
6.6
 30
0.0
 11
108.8865284571551
 21
27.43939038389738
 31
0.0
  0
LINE
  5
12F7
  8
250
 62
     3
 10
105.0
 20
26.43939038389738
 30
0.0
 11
108.8865284571551
 21
26.43939038389738
 31
0.0
  0
LINE
  5
12F8
  8
250
 62
     3
 10
102.77
 20
26.43939038389738
 30
0.0
 11
100.54
 21
26.43939038389738
 31
0.0
  0
LINE
  5
12F9
  8
250
 62
     3
 10
111.1165284571551
 20
26.43939038389738
 30
0.0
 11
113.3465284571551
 21
26.43939038389738
 31
0.0
  0
INSERT
  5
12FA
  8
250
 62
     3
  2
_OPEN
 10
105.0
 20
26.43939038389738
 30
0.0
 41
2.23
 42
2.23
 43
2.23
  0
INSERT
  5
12FB
  8
250
 62
     3
  2
_OPEN
 10
108.8865284571551
 20
26.43939038389738
 30
0.0
 41
2.23
 42
2.23
 43
2.23
 50
180.0
  0
TEXT
  5
12FC
  8
250
  6
CONTINUOUS
 62
    40
 10
99.07719280000612
 20
28.93939038389738
 30
0.0
 40
3.0
  1
3.8865
  7
YOKO
  0
POINT
  5
12FD
  8
DEFPOINTS
 62
     0
 10
105.0
 20
11.8
 30
0.0
  0
POINT
  5
13BC
  8
DEFPOINTS
 62
     0
 10
108.8865284571551
 20
6.1
 30
0.0
  0
POINT
  5
13BD
  8
DEFPOINTS
 62
     0
 10
108.8865284571551
 20
26.43939038389738
 30
0.0
  0
ENDBLK
  5
1301
  8
0
  0
BLOCK
  8
0
  2
*D10
 70
     1
 10
0.0
 20
0.0
 30
0.0
  3
*D10
  1

  0
LINE
  5
130E
  8
250
 62
     3
 10
82.1
 20
12.65
 30
0.0
 11
82.1
 21
36.98195127227036
 31
0.0
  0
LINE
  5
130F
  8
250
 62
     3
 10
105.0
 20
12.3
 30
0.0
 11
105.0
 21
36.98195127227036
 31
0.0
  0
LINE
  5
1310
  8
250
 62
     3
 10
84.33
 20
35.98195127227036
 30
0.0
 11
102.77
 21
35.98195127227036
 31
0.0
  0
INSERT
  5
1311
  8
250
 62
     3
  2
_OPEN
 10
82.1
 20
35.98195127227036
 30
0.0
 41
2.23
 42
2.23
 43
2.23
 50
180.0
  0
INSERT
  5
1312
  8
250
 62
     3
  2
_OPEN
 10
105.0
 20
35.98195127227036
 30
0.0
 41
2.23
 42
2.23
 43
2.23
  0
TEXT
  5
1313
  8
250
  6
CONTINUOUS
 62
    40
 10
88.61919642857143
 20
36.98195127227036
 30
0.0
 40
3.0
  1
22.9
  7
YOKO
  0
POINT
  5
1314
  8
DEFPOINTS
 62
     0
 10
82.1
 20
12.15
 30
0.0
  0
POINT
  5
1315
  8
DEFPOINTS
 62
     0
 10
105.0
 20
11.8
 30
0.0
  0
POINT
  5
1316
  8
DEFPOINTS
 62
     0
 10
105.0
 20
35.98195127227036
 30
0.0
  0
ENDBLK
  5
1318
  8
0
  0
BLOCK
  8
0
  2
*D11
 70
     1
 10
0.0
 20
0.0
 30
0.0
  3
*D11
  1

  0
LINE
  5
131D
  8
250
 62
     3
 10
109.3865284571551
 20
6.1
 30
0.0
 11
115.2950298413039
 21
6.1
 31
0.0
  0
LINE
  5
131E
  8
250
 62
     3
 10
109.3865284571551
 20
-6.1
 30
0.0
 11
115.2950298413039
 21
-6.1
 31
0.0
  0
LINE
  5
131F
  8
250
 62
     3
 10
114.2950298413039
 20
3.87
 30
0.0
 11
114.2950298413039
 21
-3.87
 31
0.0
  0
INSERT
  5
1320
  8
250
 62
     3
  2
_OPEN
 10
114.2950298413039
 20
6.1
 30
0.0
 41
2.23
 42
2.23
 43
2.23
 50
90.0
  0
INSERT
  5
1321
  8
250
 62
     3
  2
_OPEN
 10
114.2950298413039
 20
-6.1
 30
0.0
 41
2.23
 42
2.23
 43
2.23
 50
270.0
  0
TEXT
  5
1322
  8
250
  6
CONTINUOUS
 62
    40
 10
119.7950298413039
 20
-6.366071428571431
 30
0.0
 40
3.0
  1
\U+220512.2
 50
90.0
  7
YOKO
  0
POINT
  5
1323
  8
DEFPOINTS
 62
     0
 10
108.8865284571551
 20
6.1
 30
0.0
  0
POINT
  5
1324
  8
DEFPOINTS
 62
     0
 10
108.8865284571551
 20
-6.1
 30
0.0
  0
POINT
  5
1325
  8
DEFPOINTS
 62
     0
 10
114.2950298413039
 20
-6.1
 30
0.0
  0
ENDBLK
  5
1327
  8
0
  0
ENDSEC
  0
SECTION
  2
ENTITIES
  0
INSERT
  5
6E6
  8
245
  2
矢印なし
 10
175.62382697
 20
90.55123572
 30
0.0
  0
LINE
  5
1278
  8
240
  6
CONTINUOUS
 10
84.19992928
 20
12.5
 30
0.0
 11
104.3
 21
12.5
 31
0.0
1001
GRPNAME
1000
PASTMD0T
  0
LINE
  5
127B
  8
240
  6
CONTINUOUS
 10
84.19992928
 20
-12.5
 30
0.0
 11
104.3
 21
-12.5
 31
0.0
1001
GRPNAME
1000
PASTMD0T
  0
LINE
  5
1282
  8
240
  6
CONTINUOUS
 10
82.1
 20
12.15
 30
0.0
 11
82.1
 21
10.5000111
 31
0.0
1001
GRPNAME
1000
PASTMD0T
  0
LINE
  5
1283
  8
241
  6
CONTINUOUS
 10
84.04992928
 20
12.65
 30
0.0
 11
84.04992928
 21
0.0
 31
0.0
1001
GRPNAME
1000
PASTMD0T
  0
LINE
  5
1284
  8
241
  6
CONTINUOUS
 10
85.41414284
 20
12.5
 30
0.0
 11
85.41414284
 21
0.0
 31
0.0
1001
GRPNAME
1000
PASTMD0T
  0
LINE
  5
128D
  8
241
  6
CONTINUOUS
 10
84.04992928
 20
-12.65
 30
0.0
 11
84.04992928
 21
0.0
 31
0.0
1001
GRPNAME
1000
PASTMD0T
  0
LINE
  5
128E
  8
241
  6
CONTINUOUS
 10
85.41414284
 20
-12.5
 30
0.0
 11
85.41414284
 21
0.0
 31
0.0
1001
GRPNAME
1000
PASTMD0T
  0
LINE
  5
128F
  8
240
 10
82.1
 20
-10.5000137
 30
0.0
 11
82.1
 21
0.0
 31
0.0
  0
ARC
  5
1290
  8
240
  6
CONTINUOUS
 10
82.6
 20
-12.15
 30
0.0
 40
0.5
 50
180.00000008
 51
270.00000008
1001
GRPNAME
1000
PASTMD0T
  0
LINE
  5
1291
  8
240
  6
CONTINUOUS
 10
84.04992928
 20
-12.65
 30
0.0
 11
84.19992928
 21
-12.5
 31
0.0
1001
GRPNAME
1000
PASTMD0T
  0
LINE
  5
1292
  8
240
  6
CONTINUOUS
 10
82.6
 20
-12.65
 30
0.0
 11
84.04992928
 21
-12.65
 31
0.0
1001
GRPNAME
1000
PASTMD0T
  0
LINE
  5
1293
  8
240
  6
CONTINUOUS
 10
82.1
 20
-12.15
 30
0.0
 11
82.1
 21
-10.5000137
 31
0.0
1001
GRPNAME
1000
PASTMD0T
  0
LINE
  5
1298
  8
240
 10
82.1
 20
10.5000137
 30
0.0
 11
82.1
 21
0.0
 31
0.0
  0
LINE
  5
12A6
  8
240
  6
CONTINUOUS
 10
84.04992928
 20
12.65
 30
0.0
 11
84.19992928
 21
12.5
 31
0.0
1001
GRPNAME
1000
PASTMD0T
  0
ARC
  5
12A7
  8
240
  6
CONTINUOUS
 10
82.6
 20
12.15
 30
0.0
 40
0.5
 50
89.99999999
 51
179.99999999
1001
GRPNAME
1000
PASTMD0T
  0
LINE
  5
12A8
  8
240
  6
CONTINUOUS
 10
82.6
 20
12.65
 30
0.0
 11
84.04992928
 21
12.65
 31
0.0
1001
GRPNAME
1000
PASTMD0T
  0
LINE
  5
12A9
  8
240
  6
CONTINUOUS
 10
105.0
 20
11.8
 30
0.0
 11
105.0
 21
0.0
 31
0.0
1001
GRPNAME
1000
PASTMD0T
  0
LINE
  5
12AA
  8
240
  6
CONTINUOUS
 10
105.0
 20
-11.8
 30
0.0
 11
105.0
 21
0.0
 31
0.0
1001
GRPNAME
1000
PASTMD0T
  0
ARC
  5
12AB
  8
240
  6
CONTINUOUS
 10
104.3
 20
-11.8
 30
0.0
 40
0.6999999999999887
 50
269.99999997
 51
359.99999997
1001
GRPNAME
1000
PASTMD0T
  0
ARC
  5
12B2
  8
240
  6
CONTINUOUS
 10
104.3
 20
11.8
 30
0.0
 40
0.7000000000000455
 50
0.00000009
 51
90.00000008999999
1001
GRPNAME
1000
PASTMD0T
  0
LINE
  5
12BF
  8
250
  6
CONTINUOUS
 10
104.8
 20
-12.5
 30
0.0
 11
122.0
 21
-12.5
 31
0.0
  0
LINE
  5
12C0
  8
250
  6
CONTINUOUS
 62
     3
 10
104.8
 20
12.5
 30
0.0
 11
122.0
 21
12.5
 31
0.0
  0
LINE
  5
12C1
  8
250
  6
CONTINUOUS
 10
121.0
 20
-10.27
 30
0.0
 11
121.0
 21
10.27
 31
0.0
  0
LINE
  5
12E2
  8
250
  6
BYBLOCK
 10
121.3716666741
 20
-10.27
 30
0.0
 11
121.0
 21
-12.5
 31
0.0
  0
LINE
  5
12E3
  8
250
  6
BYBLOCK
 10
120.6283333259
 20
-10.27
 30
0.0
 11
121.0
 21
-12.5
 31
0.0
  0
LINE
  5
12E4
  8
250
  6
BYBLOCK
 10
121.0
 20
-12.5
 30
0.0
 11
121.0
 21
-10.27
 31
0.0
  0
LINE
  5
12E5
  8
250
  6
BYBLOCK
 10
120.6283333259
 20
10.27
 30
0.0
 11
121.0
 21
12.5
 31
0.0
  0
LINE
  5
12E6
  8
250
  6
BYBLOCK
 10
121.3716666741
 20
10.27
 30
0.0
 11
121.0
 21
12.5
 31
0.0
  0
LINE
  5
12E7
  8
250
  6
BYBLOCK
 10
121.0
 20
12.5
 30
0.0
 11
121.0
 21
10.27
 31
0.0
  0
TEXT
  5
12E8
  8
250
  6
CONTINUOUS
 62
    40
 10
125.4566276596551
 20
-4.223214285714296
 30
0.0
 40
3.0
  1
\U+2205
 50
90.0
  0
TEXT
  5
12E9
  8
250
  6
CONTINUOUS
 62
    40
 10
125.2493045449988
 20
-1.508928571428584
 30
0.0
 40
3.0
  1
25
 50
90.0
  0
DIMENSION
  5
12F1
  8
250
  2
*D9
 10
108.8865284571551
 20
26.43939038389738
 30
0.0
 11
106.9432642285775
 21
30.43939038389738
 31
0.0
 70
    32
  3
BIGT$0
 13
105.0
 23
11.8
 33
0.0
 14
108.8865284571551
 24
6.1
 34
0.0
1001
ACAD
1000
DSTYLE
1002
{
1070
   287
1070
     5
1070
   279
1070
     2
1002
}
  0
LINE
  5
1302
  8
245
 10
108.8865284571551
 20
-6.1
 30
0.0
 11
108.8865284571551
 21
6.1
 31
0.0
  0
LINE
  5
1307
  8
240
 10
105.0
 20
9.6
 30
0.0
 11
108.8865284571551
 21
6.1
 31
0.0
  0
LINE
  5
1308
  8
240
 10
105.0
 20
-9.6
 30
0.0
 11
108.8865284571551
 21
-6.1
 31
0.0
  0
LINE
  5
1309
  8
240
 10
108.8865284571551
 20
6.1
 30
0.0
 11
108.8865284571551
 21
-6.1
 31
0.0
  0
DIMENSION
  5
130A
  8
250
  2
*D10
 10
105.0
 20
35.98195127227036
 30
0.0
 11
93.55
 21
38.48195127227036
 31
0.0
 70
    32
  3
BIGT$0
 13
82.1
 23
12.15
 33
0.0
 14
105.0
 24
11.8
 34
0.0
1001
ACAD
1000
DSTYLE
1002
{
1070
   287
1070
     5
1070
   279
1070
     2
1002
}
  0
DIMENSION
  5
1319
  8
250
  2
*D11
 10
114.2950298413039
 20
-6.1
 30
0.0
 11
118.2950298413039
 21
0.0
 31
0.0
 70
    32
  1
\U+220512.2
  3
BIGT$0
 13
108.8865284571551
 23
6.1
 33
0.0
 14
108.8865284571551
 24
-6.1
 34
0.0
 50
90.0
1001
ACAD
1000
DSTYLE
1002
{
1070
   287
1070
     5
1070
   279
1070
     2
1002
}
  0
VIEWPORT
  5
22
 67
     1
  8
0
 10
261.51769912
 20
148.5
 30
0.0
 40
523.03539823
 41
297.0
 68
     1
 69
    -1
1001
ACAD
1000
MVIEW
1002
{
1070
    16
1010
0.0
1020
0.0
1030
0.0
1020
0.0
1030
0.0
1010
0.0
1020
0.0
1030
1.0
1020
0.0
1030
1.0
1040
0.0
1040
297.0
1040
261.51769912
1040
148.5
1040
50.0
1040
0.0
1040
0.0
1070
     0
1070
   100
1070
     1
1070
     1
1070
     0
1070
     0
1070
     0
1070
     0
1040
0.0
1040
0.0
1040
0.0
1040
1.0
1040
1.0
1040
10.0
1040
10.0
1070
     0
1002
{
1002
}
1002
}
  0
ENDSEC
  0
EOF
