  0
SECTION
  2
HEADER
  9
$ACADVER
  1
AC1015
  9
$ACADMAINTVER
 70
     6
  9
$DWGCODEPAGE
  3
ANSI_1252
  9
$INSBASE
 10
0.0
 20
0.0
 30
0.0
  9
$EXTMIN
 10
0.0
 20
0.0
 30
0.0
  9
$EXTMAX
 10
1117.6
 20
863.6
 30
0.0
  9
$LIMMIN
 10
0.0
 20
0.0
  9
$LIMMAX
 10
1117.6
 20
863.6
  9
$ORTHOMODE
 70
     0
  9
$REGENMODE
 70
     1
  9
$FILLMODE
 70
     1
  9
$QTEXTMODE
 70
     0
  9
$MIRRTEXT
 70
     1
  9
$LTSCALE
 40
1.0
  9
$ATTMODE
 70
     1
  9
$TEXTSIZE
 40
3.5
  9
$TRACEWID
 40
1.0
  9
$TEXTSTYLE
  7
Standard
  9
$CLAYER
  8
0
  9
$CELTYPE
  6
ByLayer
  9
$CECOLOR
 62
   256
  9
$CELTSCALE
 40
1.0
  9
$DISPSILH
 70
     0
  9
$DIMSCALE
 40
1.0
  9
$DIMASZ
 40
3.556
  9
$DIMEXO
 40
1.0
  9
$DIMDLI
 40
3.75
  9
$DIMRND
 40
0.0
  9
$DIMDLE
 40
0.0
  9
$DIMEXE
 40
1.0
  9
$DIMTP
 40
0.0
  9
$DIMTM
 40
0.0
  9
$DIMTXT
 40
3.5
  9
$DIMCEN
 40
2.5
  9
$DIMTSZ
 40
0.0
  9
$DIMTOL
 70
     0
  9
$DIMLIM
 70
     0
  9
$DIMTIH
 70
     1
  9
$DIMTOH
 70
     1
  9
$DIMSE1
 70
     0
  9
$DIMSE2
 70
     0
  9
$DIMTAD
 70
     1
  9
$DIMZIN
 70
     1
  9
$DIMBLK
  1

  9
$DIMASO
 70
     1
  9
$DIMSHO
 70
     1
  9
$DIMPOST
  1

  9
$DIMAPOST
  1

  9
$DIMALT
 70
     0
  9
$DIMALTD
 70
     3
  9
$DIMALTF
 40
0.0393700787
  9
$DIMLFAC
 40
1.0
  9
$DIMTOFL
 70
     1
  9
$DIMTVP
 40
0.0
  9
$DIMTIX
 70
     0
  9
$DIMSOXD
 70
     0
  9
$DIMSAH
 70
     0
  9
$DIMBLK1
  1

  9
$DIMBLK2
  1

  9
$DIMSTYLE
  2
ISO-25
  9
$DIMCLRD
 70
     0
  9
$DIMCLRE
 70
     0
  9
$DIMCLRT
 70
     0
  9
$DIMTFAC
 40
1.0
  9
$DIMGAP
 40
1.524
  9
$DIMJUST
 70
     0
  9
$DIMSD1
 70
     0
  9
$DIMSD2
 70
     0
  9
$DIMTOLJ
 70
     0
  9
$DIMTZIN
 70
     1
  9
$DIMALTZ
 70
     0
  9
$DIMALTTZ
 70
     0
  9
$DIMUPT
 70
     0
  9
$DIMDEC
 70
     4
  9
$DIMTDEC
 70
     4
  9
$DIMALTU
 70
     2
  9
$DIMALTTD
 70
     3
  9
$DIMTXSTY
  7
Standard
  9
$DIMAUNIT
 70
     0
  9
$DIMADEC
 70
     0
  9
$DIMALTRND
 40
0.0
  9
$DIMAZIN
 70
     0
  9
$DIMDSEP
 70
    44
  9
$DIMATFIT
 70
     3
  9
$DIMFRAC
 70
     0
  9
$DIMLDRBLK
  1

  9
$DIMLUNIT
 70
     2
  9
$DIMLWD
 70
    -2
  9
$DIMLWE
 70
    -2
  9
$DIMTMOVE
 70
     0
  9
$LUNITS
 70
     2
  9
$LUPREC
 70
     4
  9
$SKETCHINC
 40
1.0
  9
$FILLETRAD
 40
10.0
  9
$AUNITS
 70
     0
  9
$AUPREC
 70
     0
  9
$MENU
  1
.
  9
$ELEVATION
 40
0.0
  9
$PELEVATION
 40
0.0
  9
$THICKNESS
 40
0.0
  9
$LIMCHECK
 70
     0
  9
$CHAMFERA
 40
0.0
  9
$CHAMFERB
 40
0.0
  9
$CHAMFERC
 40
0.0
  9
$CHAMFERD
 40
0.0
  9
$SKPOLY
 70
     0
  9
$TDCREATE
 40
2458814.650407685
  9
$TDUCREATE
 40
2458814.608741018
  9
$TDUPDATE
 40
2458814.650408322
  9
$TDUUPDATE
 40
2458814.608741655
  9
$TDINDWG
 40
0.0000000116
  9
$TDUSRTIMER
 40
0.0000000116
  9
$USRTIMER
 70
     1
  9
$ANGBASE
 50
0.0
  9
$ANGDIR
 70
     0
  9
$PDMODE
 70
     0
  9
$PDSIZE
 40
-1.0
  9
$PLINEWID
 40
0.0
  9
$SPLFRAME
 70
     0
  9
$SPLINETYPE
 70
     6
  9
$SPLINESEGS
 70
     8
  9
$HANDSEED
  5
119
  9
$SURFTAB1
 70
     6
  9
$SURFTAB2
 70
     6
  9
$SURFTYPE
 70
     6
  9
$SURFU
 70
     6
  9
$SURFV
 70
     6
  9
$UCSBASE
  2

  9
$UCSNAME
  2

  9
$UCSORG
 10
0.0
 20
0.0
 30
0.0
  9
$UCSXDIR
 10
1.0
 20
0.0
 30
0.0
  9
$UCSYDIR
 10
0.0
 20
1.0
 30
0.0
  9
$UCSORTHOREF
  2

  9
$UCSORTHOVIEW
 70
     0
  9
$UCSORGTOP
 10
0.0
 20
0.0
 30
0.0
  9
$UCSORGBOTTOM
 10
0.0
 20
0.0
 30
0.0
  9
$UCSORGLEFT
 10
0.0
 20
0.0
 30
0.0
  9
$UCSORGRIGHT
 10
0.0
 20
0.0
 30
0.0
  9
$UCSORGFRONT
 10
0.0
 20
0.0
 30
0.0
  9
$UCSORGBACK
 10
0.0
 20
0.0
 30
0.0
  9
$PUCSBASE
  2

  9
$PUCSNAME
  2

  9
$PUCSORG
 10
0.0
 20
0.0
 30
0.0
  9
$PUCSXDIR
 10
1.0
 20
0.0
 30
0.0
  9
$PUCSYDIR
 10
0.0
 20
1.0
 30
0.0
  9
$PUCSORTHOREF
  2

  9
$PUCSORTHOVIEW
 70
     0
  9
$PUCSORGTOP
 10
0.0
 20
0.0
 30
0.0
  9
$PUCSORGBOTTOM
 10
0.0
 20
0.0
 30
0.0
  9
$PUCSORGLEFT
 10
0.0
 20
0.0
 30
0.0
  9
$PUCSORGRIGHT
 10
0.0
 20
0.0
 30
0.0
  9
$PUCSORGFRONT
 10
0.0
 20
0.0
 30
0.0
  9
$PUCSORGBACK
 10
0.0
 20
0.0
 30
0.0
  9
$USERI1
 70
     0
  9
$USERI2
 70
     0
  9
$USERI3
 70
     0
  9
$USERI4
 70
     0
  9
$USERI5
 70
     0
  9
$USERR1
 40
0.0
  9
$USERR2
 40
0.0
  9
$USERR3
 40
0.0
  9
$USERR4
 40
0.0
  9
$USERR5
 40
0.0
  9
$WORLDVIEW
 70
     1
  9
$SHADEDGE
 70
     3
  9
$SHADEDIF
 70
    70
  9
$TILEMODE
 70
     1
  9
$MAXACTVP
 70
    64
  9
$PINSBASE
 10
0.0
 20
0.0
 30
0.0
  9
$PLIMCHECK
 70
     0
  9
$PEXTMIN
 10
1.0000000000E+20
 20
1.0000000000E+20
 30
1.0000000000E+20
  9
$PEXTMAX
 10
-1.0000000000E+20
 20
-1.0000000000E+20
 30
-1.0000000000E+20
  9
$PLIMMIN
 10
0.0
 20
0.0
  9
$PLIMMAX
 10
420.0
 20
297.0
  9
$UNITMODE
 70
     0
  9
$VISRETAIN
 70
     1
  9
$PLINEGEN
 70
     0
  9
$PSLTSCALE
 70
     1
  9
$TREEDEPTH
 70
  3020
  9
$CMLSTYLE
  2
Standard
  9
$CMLJUST
 70
     0
  9
$CMLSCALE
 40
20.0
  9
$PROXYGRAPHICS
 70
     1
  9
$MEASUREMENT
 70
     1
  9
$CELWEIGHT
370
    -1
  9
$ENDCAPS
280
     0
  9
$JOINSTYLE
280
     0
  9
$LWDISPLAY
290
     1
  9
$INSUNITS
 70
     4
  9
$HYPERLINKBASE
  1

  9
$STYLESHEET
  1

  9
$XEDIT
290
     1
  9
$CEPSNTYPE
380
     0
  9
$PSTYLEMODE
290
     1
  9
$FINGERPRINTGUID
  2
{c8bc9ab1-fc38-4f46-b67a-ea171b46ae85}
  9
$VERSIONGUID
  2
{FAEB1C32-E019-11D5-929B-00C0DF256EC4}
  9
$EXTNAMES
290
     1
  9
$PSVPSCALE
 40
0.0
  9
$OLESTARTUP
290
     0
  0
ENDSEC
  0
SECTION
  2
CLASSES
  0
CLASS
  1
ACDBDICTIONARYWDFLT
  2
AcDbDictionaryWithDefault
  3
ObjectDBX Classes
 90
        0
280
     0
281
     0
  0
CLASS
  1
VISUALSTYLE
  2
AcDbVisualStyle
  3
ObjectDBX Classes
 90
     4095
280
     0
281
     0
  0
CLASS
  1
MATERIAL
  2
AcDbMaterial
  3
ObjectDBX Classes
 90
     1153
280
     0
281
     0
  0
CLASS
  1
SCALE
  2
AcDbScale
  3
ObjectDBX Classes
 90
     1153
280
     0
281
     0
  0
CLASS
  1
TABLESTYLE
  2
AcDbTableStyle
  3
ObjectDBX Classes
 90
     4095
280
     0
281
     0
  0
CLASS
  1
MLEADERSTYLE
  2
AcDbMLeaderStyle
  3
ACDB_MLEADERSTYLE_CLASS
 90
     4095
280
     0
281
     0
  0
CLASS
  1
SUN
  2
AcDbSun
  3
SCENEOE
 90
     1153
280
     0
281
     0
  0
CLASS
  1
ACDBPLACEHOLDER
  2
AcDbPlaceHolder
  3
ObjectDBX Classes
 90
        0
280
     0
281
     0
  0
CLASS
  1
LAYOUT
  2
AcDbLayout
  3
ObjectDBX Classes
 90
        0
280
     0
281
     0
  0
ENDSEC
  0
SECTION
  2
TABLES
  0
TABLE
  2
VPORT
  5
8
330
0
100
AcDbSymbolTable
 70
     1
  0
VPORT
  5
29
330
8
100
AcDbSymbolTableRecord
100
AcDbViewportTableRecord
  2
*Active
 70
     0
 10
0.0
 20
0.0
 11
1.0
 21
1.0
 12
558.8
 22
431.8
 13
0.0
 23
0.0
 14
10.0
 24
10.0
 15
10.0
 25
10.0
 16
0.0
 26
0.0
 36
1.0
 17
0.0
 27
0.0
 37
0.0
 40
863.6
 41
1.2941176471
 42
50.0
 43
0.0
 44
0.0
 50
0.0
 51
0.0
 71
     0
 72
  2000
 73
     1
 74
     3
 75
     0
 76
     0
 77
     0
 78
     0
281
     0
 65
     1
110
0.0
120
0.0
130
0.0
111
1.0
121
0.0
131
0.0
112
0.0
122
1.0
132
0.0
 79
     0
146
0.0
  0
ENDTAB
  0
TABLE
  2
LTYPE
  5
5
330
0
100
AcDbSymbolTable
 70
     6
  0
LTYPE
  5
14
330
5
100
AcDbSymbolTableRecord
100
AcDbLinetypeTableRecord
  2
ByBlock
 70
     0
  3

 72
    65
 73
     0
 40
0.0
  0
LTYPE
  5
15
330
5
100
AcDbSymbolTableRecord
100
AcDbLinetypeTableRecord
  2
ByLayer
 70
     0
  3

 72
    65
 73
     0
 40
0.0
  0
LTYPE
  5
16
330
5
100
AcDbSymbolTableRecord
100
AcDbLinetypeTableRecord
  2
Continuous
 70
     0
  3
Solid line
 72
    65
 73
     0
 40
0.0
  0
LTYPE
  5
6E
330
5
100
AcDbSymbolTableRecord
100
AcDbLinetypeTableRecord
  2
HIDDEN
 70
     0
  3
Hidden __ __ __ __ __ __ __ __ __ __ __ __ __ __
 72
    65
 73
     2
 40
1.905
 49
1.27
 74
     0
 49
-0.635
 74
     0
  0
LTYPE
  5
6F
330
5
100
AcDbSymbolTableRecord
100
AcDbLinetypeTableRecord
  2
PHANTOM
 70
     0
  3
Phantom ______  __  __  ______  __  __  ______
 72
    65
 73
     6
 40
12.7
 49
6.35
 74
     0
 49
-1.27
 74
     0
 49
1.27
 74
     0
 49
-1.27
 74
     0
 49
1.27
 74
     0
 49
-1.27
 74
     0
  0
LTYPE
  5
70
330
5
100
AcDbSymbolTableRecord
100
AcDbLinetypeTableRecord
  2
CENTER
 70
     0
  3
Center ____ _ ____ _ ____ _ ____ _ ____ _ ____
 72
    65
 73
     4
 40
10.16
 49
6.35
 74
     0
 49
-1.27
 74
     0
 49
1.27
 74
     0
 49
-1.27
 74
     0
  0
LTYPE
  5
71
330
5
100
AcDbSymbolTableRecord
100
AcDbLinetypeTableRecord
  2
CENTERX2
 70
     0
  3
Center (2x) ________  __  ________  __  _____
 72
    65
 73
     4
 40
20.32
 49
12.7
 74
     0
 49
-2.54
 74
     0
 49
2.54
 74
     0
 49
-2.54
 74
     0
  0
LTYPE
  5
72
330
5
100
AcDbSymbolTableRecord
100
AcDbLinetypeTableRecord
  2
DOT2
 70
     0
  3
Dot (.5x) ........................................
 72
    65
 73
     2
 40
0.635
 49
0.0
 74
     0
 49
-0.635
 74
     0
  0
ENDTAB
  0
TABLE
  2
LAYER
  5
2
330
0
100
AcDbSymbolTable
 70
     7
  0
LAYER
  5
10
330
2
100
AcDbSymbolTableRecord
100
AcDbLayerTableRecord
  2
0
 70
     0
 62
     7
  6
Continuous
370
    -3
390
F
  0
LAYER
  5
73
330
2
100
AcDbSymbolTableRecord
100
AcDbLayerTableRecord
  2
AUFNAHME
 70
     0
 62
     7
  6
Continuous
370
    25
390
F
  0
LAYER
  5
74
330
2
100
AcDbSymbolTableRecord
100
AcDbLayerTableRecord
  2
MASS
 70
     0
 62
     4
  6
Continuous
370
    -3
390
F
  0
LAYER
  5
75
330
2
100
AcDbSymbolTableRecord
100
AcDbLayerTableRecord
  2
EW
 70
     0
 62
     1
  6
HIDDEN
370
    -3
390
F
  0
LAYER
  5
76
330
2
100
AcDbSymbolTableRecord
100
AcDbLayerTableRecord
  2
UNSICHT
 70
     0
 62
     4
  6
CENTERX2
370
    -3
390
F
  0
LAYER
  5
77
330
2
100
AcDbSymbolTableRecord
100
AcDbLayerTableRecord
  2
TEXT
 70
     0
 62
     7
  6
Continuous
370
    -3
390
F
  0
LAYER
  5
78
330
2
100
AcDbSymbolTableRecord
100
AcDbLayerTableRecord
  2
ZAPFEN
 70
     0
 62
     4
  6
Continuous
370
    -3
390
F
  0
ENDTAB
  0
TABLE
  2
STYLE
  5
3
330
0
100
AcDbSymbolTable
 70
     3
  0
STYLE
  5
11
330
3
100
AcDbSymbolTableRecord
100
AcDbTextStyleTableRecord
  2
Standard
 70
     0
 40
0.0
 41
1.0
 50
0.0
 71
     0
 42
3.5
  3
txt
  4

  0
STYLE
  5
DA
330
3
100
AcDbSymbolTableRecord
100
AcDbTextStyleTableRecord
  2
SLDTEXTSTYLE0
 70
     0
 40
0.0
 41
0.75
 50
0.0
 71
     0
 42
3.5
  3
TXT
  4

  0
STYLE
  5
116
330
3
100
AcDbSymbolTableRecord
100
AcDbTextStyleTableRecord
  2
SLDTEXTSTYLE1
 70
     0
 40
0.0
 41
0.6944444444
 50
0.0
 71
     0
 42
3.5
  3
TXT
  4

  0
ENDTAB
  0
TABLE
  2
VIEW
  5
6
330
0
100
AcDbSymbolTable
 70
     0
  0
ENDTAB
  0
TABLE
  2
UCS
  5
7
330
0
100
AcDbSymbolTable
 70
     0
  0
ENDTAB
  0
TABLE
  2
APPID
  5
9
330
0
100
AcDbSymbolTable
 70
     1
  0
APPID
  5
12
330
9
100
AcDbSymbolTableRecord
100
AcDbRegAppTableRecord
  2
ACAD
 70
     0
  0
ENDTAB
  0
TABLE
  2
DIMSTYLE
  5
A
330
0
100
AcDbSymbolTable
 70
     5
100
AcDbDimStyleTable
  0
DIMSTYLE
105
27
330
A
100
AcDbSymbolTableRecord
100
AcDbDimStyleTableRecord
  2
ISO-25
 70
     0
 41
2.5
 42
0.625
 43
3.75
 44
1.25
 73
     0
 74
     0
 77
     1
 78
     8
140
2.5
141
2.5
143
0.0393700787
147
0.625
171
     3
172
     1
178
     0
271
     2
272
     2
274
     3
278
    44
283
     0
284
     8
340
11
  0
DIMSTYLE
105
DB
102
{ACAD_REACTORS
330
D9
330
F7
102
}
330
A
100
AcDbSymbolTableRecord
100
AcDbDimStyleTableRecord
  2
SLDDIMSTYLE0
 70
     0
 41
3.556
 44
0.0
 45
0.000000001
 73
     0
 74
     0
 77
     1
 78
    12
 79
     3
140
3.5
147
0.875
173
     1
178
     0
271
     0
276
     2
284
    12
340
DA
341
DC
343
DC
344
DC
  0
DIMSTYLE
105
ED
102
{ACAD_REACTORS
330
EC
102
}
330
A
100
AcDbSymbolTableRecord
100
AcDbDimStyleTableRecord
  2
SLDDIMSTYLE1
 70
     0
 41
3.556
 44
0.0
 45
0.000000001
 73
     0
 74
     0
 77
     1
 78
    12
 79
     3
140
3.5
147
0.875
173
     1
178
     0
276
     2
284
    12
340
DA
341
DC
343
DC
344
DC
  0
DIMSTYLE
105
103
102
{ACAD_REACTORS
330
102
102
}
330
A
100
AcDbSymbolTableRecord
100
AcDbDimStyleTableRecord
  2
SLDDIMSTYLE2
 70
     0
 41
3.556
 44
0.0
 45
0.000000001
 73
     0
 74
     0
 77
     1
 78
    12
 79
     3
140
3.5
147
0.875
173
     1
178
     0
271
     1
276
     2
284
    12
340
DA
341
DC
343
DC
344
DC
  0
DIMSTYLE
105
10E
102
{ACAD_REACTORS
330
10D
102
}
330
A
100
AcDbSymbolTableRecord
100
AcDbDimStyleTableRecord
  2
SLDDIMSTYLE3
 70
     0
 41
3.556
 44
0.0
 45
0.000000001
 73
     0
 74
     0
 76
     1
 77
     1
 78
    12
 79
     3
140
3.5
147
0.875
173
     1
178
     0
276
     2
282
     1
284
    12
340
DA
341
DC
343
DC
344
DC
  0
ENDTAB
  0
TABLE
  2
BLOCK_RECORD
  5
1
330
0
100
AcDbSymbolTable
 70
     7
  0
BLOCK_RECORD
  5
1F
330
1
100
AcDbSymbolTableRecord
100
AcDbBlockTableRecord
  2
*Model_Space
340
22
  0
BLOCK_RECORD
  5
1B
330
1
100
AcDbSymbolTableRecord
100
AcDbBlockTableRecord
  2
*Paper_Space
340
1E
  0
BLOCK_RECORD
  5
23
330
1
100
AcDbSymbolTableRecord
100
AcDbBlockTableRecord
  2
*Paper_Space0
340
26
  0
BLOCK_RECORD
  5
DC
330
1
100
AcDbSymbolTableRecord
100
AcDbBlockTableRecord
  2
_Closed
340
0
102
{BLKREFS
331
E6
331
E7
331
F1
331
F2
331
FB
331
FC
331
107
331
108
331
112
102
}
  0
BLOCK_RECORD
  5
E3
330
1
100
AcDbSymbolTableRecord
100
AcDbBlockTableRecord
  2
_D
340
0
  0
BLOCK_RECORD
  5
EE
330
1
100
AcDbSymbolTableRecord
100
AcDbBlockTableRecord
  2
_D_1
340
0
  0
BLOCK_RECORD
  5
F8
330
1
100
AcDbSymbolTableRecord
100
AcDbBlockTableRecord
  2
_D_2
340
0
  0
BLOCK_RECORD
  5
104
330
1
100
AcDbSymbolTableRecord
100
AcDbBlockTableRecord
  2
_D_3
340
0
  0
BLOCK_RECORD
  5
10F
330
1
100
AcDbSymbolTableRecord
100
AcDbBlockTableRecord
  2
_D_4
340
0
  0
ENDTAB
  0
ENDSEC
  0
SECTION
  2
BLOCKS
  0
BLOCK
  5
20
330
1F
100
AcDbEntity
  8
0
100
AcDbBlockBegin
  2
*Model_Space
 70
     0
 10
0.0
 20
0.0
 30
0.0
  3
*Model_Space
  1

  0
ENDBLK
  5
21
330
1F
100
AcDbEntity
  8
0
100
AcDbBlockEnd
  0
BLOCK
  5
1C
330
1B
100
AcDbEntity
 67
     1
  8
0
100
AcDbBlockBegin
  2
*Paper_Space
 70
     0
 10
0.0
 20
0.0
 30
0.0
  3
*Paper_Space
  1

  0
ENDBLK
  5
1D
330
1B
100
AcDbEntity
 67
     1
  8
0
100
AcDbBlockEnd
  0
BLOCK
  5
24
330
23
100
AcDbEntity
  8
0
100
AcDbBlockBegin
  2
*Paper_Space0
 70
     0
 10
0.0
 20
0.0
 30
0.0
  3
*Paper_Space0
  1

  0
ENDBLK
  5
25
330
23
100
AcDbEntity
  8
0
100
AcDbBlockEnd
  0
BLOCK
  5
DD
330
DC
100
AcDbEntity
  8
0
100
AcDbBlockBegin
  2
_Closed
 70
     0
 10
0.0
 20
0.0
 30
0.0
  3
_Closed
  1

  0
LINE
  5
DF
330
DC
100
AcDbEntity
  8
0
  6
ByBlock
 62
     0
370
    -2
100
AcDbLine
 10
-1.0
 20
0.166667
 30
0.0
 11
0.0
 21
0.0
 31
0.0
  0
LINE
  5
E0
330
DC
100
AcDbEntity
  8
0
  6
ByBlock
 62
     0
370
    -2
100
AcDbLine
 10
0.0
 20
0.0
 30
0.0
 11
-1.0
 21
-0.166667
 31
0.0
  0
LINE
  5
E1
330
DC
100
AcDbEntity
  8
0
  6
ByBlock
 62
     0
370
    -2
100
AcDbLine
 10
-1.0
 20
0.166667
 30
0.0
 11
-1.0
 21
-0.166667
 31
0.0
  0
LINE
  5
E2
330
DC
100
AcDbEntity
  8
0
  6
ByBlock
 62
     0
370
    -2
100
AcDbLine
 10
0.0
 20
0.0
 30
0.0
 11
-1.0
 21
0.0
 31
0.0
  0
ENDBLK
  5
DE
330
DC
100
AcDbEntity
  8
0
100
AcDbBlockEnd
  0
BLOCK
  5
E4
330
E3
100
AcDbEntity
  8
0
100
AcDbBlockBegin
  2
_D
 70
     0
 10
0.0
 20
0.0
 30
0.0
  3
_D
  1

  0
INSERT
  5
E6
330
E3
100
AcDbEntity
  8
MASS
100
AcDbBlockReference
  2
_Closed
 10
240.002256027
 20
65.1412603978
 30
0.0
 41
3.556
 42
3.556
 50
0.0
  0
INSERT
  5
E7
330
E3
100
AcDbEntity
  8
MASS
100
AcDbBlockReference
  2
_Closed
 10
0.002256027
 20
65.1412603978
 30
0.0
 41
3.556
 42
3.556
 50
180.0
  0
LINE
  5
E8
330
E3
100
AcDbEntity
  8
MASS
100
AcDbLine
 10
240.002256027
 20
50.5836807783
 30
0.0
 11
240.002256027
 21
66.1412603978
 31
0.0
  0
LINE
  5
E9
330
E3
100
AcDbEntity
  8
MASS
100
AcDbLine
 10
0.002256027
 20
45.5046807783
 30
0.0
 11
0.002256027
 21
66.1412603978
 31
0.0
  0
LINE
  5
EA
330
E3
100
AcDbEntity
  8
MASS
100
AcDbLine
 10
240.002256027
 20
65.1412603978
 30
0.0
 11
0.002256027
 21
65.1412603978
 31
0.0
  0
MTEXT
  5
EB
330
E3
100
AcDbEntity
  8
MASS
100
AcDbMText
 10
126.0979350031
 20
69.6529973123
 30
0.0
 40
3.5
 41
0.0
 71
     1
 72
     1
  1
240
  7
SLDTEXTSTYLE0
 73
     1
 44
1.0
  0
ENDBLK
  5
E5
330
E3
100
AcDbEntity
  8
0
100
AcDbBlockEnd
  0
BLOCK
  5
EF
330
EE
100
AcDbEntity
  8
0
100
AcDbBlockBegin
  2
_D_1
 70
     0
 10
0.0
 20
0.0
 30
0.0
  3
_D_1
  1

  0
INSERT
  5
F1
330
EE
100
AcDbEntity
  8
MASS
100
AcDbBlockReference
  2
_Closed
 10
-63.6216181946
 20
23.0046807783
 30
0.0
 41
3.556
 42
3.556
 50
90.0
  0
INSERT
  5
F2
330
EE
100
AcDbEntity
  8
MASS
100
AcDbBlockReference
  2
_Closed
 10
-63.6216181946
 20
-22.9953192217
 30
0.0
 41
3.556
 42
3.556
 50
270.0
  0
LINE
  5
F3
330
EE
100
AcDbEntity
  8
MASS
100
AcDbLine
 10
-44.997743973
 20
23.0046807783
 30
0.0
 11
-64.6216181946
 21
23.0046807783
 31
0.0
  0
LINE
  5
F4
330
EE
100
AcDbEntity
  8
MASS
100
AcDbLine
 10
-44.997743973
 20
-22.9953192217
 30
0.0
 11
-64.6216181946
 21
-22.9953192217
 31
0.0
  0
LINE
  5
F5
330
EE
100
AcDbEntity
  8
MASS
100
AcDbLine
 10
-63.6216181946
 20
23.0046807783
 30
0.0
 11
-63.6216181946
 21
-22.9953192217
 31
0.0
  0
MTEXT
  5
F6
330
EE
100
AcDbEntity
  8
MASS
100
AcDbMText
 10
-68.1333551092
 20
-3.0094776768
 30
0.0
 40
3.5
 41
0.0
 71
     1
 72
     1
  1
CKB7
  7
SLDTEXTSTYLE0
 11
-7.044195017643634E-15
 21
1.0
 31
0.0
 73
     1
 44
1.0
  0
ENDBLK
  5
F0
330
EE
100
AcDbEntity
  8
0
100
AcDbBlockEnd
  0
BLOCK
  5
F9
330
F8
100
AcDbEntity
  8
0
100
AcDbBlockBegin
  2
_D_2
 70
     0
 10
0.0
 20
0.0
 30
0.0
  3
_D_2
  1

  0
INSERT
  5
FB
330
F8
100
AcDbEntity
  8
MASS
100
AcDbBlockReference
  2
_Closed
 10
-73.7573433327
 20
45.0046807783
 30
0.0
 41
3.556
 42
3.556
 50
90.0
  0
INSERT
  5
FC
330
F8
100
AcDbEntity
  8
MASS
100
AcDbBlockReference
  2
_Closed
 10
-73.7573433327
 20
-44.9953192217
 30
0.0
 41
3.556
 42
3.556
 50
270.0
  0
LINE
  5
FD
330
F8
100
AcDbEntity
  8
MASS
100
AcDbLine
 10
-0.497743973
 20
45.0046807783
 30
0.0
 11
-74.7573433327
 21
45.0046807783
 31
0.0
  0
LINE
  5
FE
330
F8
100
AcDbEntity
  8
MASS
100
AcDbLine
 10
-0.497743973
 20
-44.9953192217
 30
0.0
 11
-74.7573433327
 21
-44.9953192217
 31
0.0
  0
LINE
  5
FF
330
F8
100
AcDbEntity
  8
MASS
100
AcDbLine
 10
-73.7573433327
 20
45.0046807783
 30
0.0
 11
-73.7573433327
 21
-44.9953192217
 31
0.0
  0
MTEXT
  5
100
330
F8
100
AcDbEntity
  8
MASS
100
AcDbMText
 10
-78.2690804219
 20
-7.2603967154
 30
0.0
 40
3.5
 41
0.0
 71
     1
 72
     1
  1
%%c
  7
SLDTEXTSTYLE0
 11
-7.044195017643634E-15
 21
1.0
 31
0.0
 73
     1
 44
1.0
  0
MTEXT
  5
101
330
F8
100
AcDbEntity
  8
MASS
100
AcDbMText
 10
-78.3225525986
 20
-1.9819593171
 30
0.0
 40
3.5
 41
0.0
 71
     1
 72
     1
  1
90
  7
SLDTEXTSTYLE0
 11
-7.044195017643634E-15
 21
1.0
 31
0.0
 73
     1
 44
1.0
  0
ENDBLK
  5
FA
330
F8
100
AcDbEntity
  8
0
100
AcDbBlockEnd
  0
BLOCK
  5
105
330
104
100
AcDbEntity
  8
0
100
AcDbBlockBegin
  2
_D_3
 70
     0
 10
0.0
 20
0.0
 30
0.0
  3
_D_3
  1

  0
INSERT
  5
107
330
104
100
AcDbEntity
  8
MASS
100
AcDbBlockReference
  2
_Closed
 10
0.002256027
 20
-68.3436614871
 30
0.0
 41
3.556
 42
3.556
 50
180.0
  0
INSERT
  5
108
330
104
100
AcDbEntity
  8
MASS
100
AcDbBlockReference
  2
_Closed
 10
236.198256027
 20
-68.3436614871
 30
0.0
 41
3.556
 42
3.556
 50
0.0
  0
LINE
  5
109
330
104
100
AcDbEntity
  8
MASS
100
AcDbLine
 10
0.002256027
 20
-45.4953192217
 30
0.0
 11
0.002256027
 21
-69.3436614871
 31
0.0
  0
LINE
  5
10A
330
104
100
AcDbEntity
  8
MASS
100
AcDbLine
 10
236.198256027
 20
-41.7853192217
 30
0.0
 11
236.198256027
 21
-69.3436614871
 31
0.0
  0
LINE
  5
10B
330
104
100
AcDbEntity
  8
MASS
100
AcDbLine
 10
0.002256027
 20
-68.3436614871
 30
0.0
 11
236.198256027
 21
-68.3436614871
 31
0.0
  0
MTEXT
  5
10C
330
104
100
AcDbEntity
  8
MASS
100
AcDbMText
 10
124.1583514333
 20
-63.8319245725
 30
0.0
 40
3.5
 41
0.0
 71
     1
 72
     1
  1
236.2
  7
SLDTEXTSTYLE0
 73
     1
 44
1.0
  0
ENDBLK
  5
106
330
104
100
AcDbEntity
  8
0
100
AcDbBlockEnd
  0
BLOCK
  5
110
330
10F
100
AcDbEntity
  8
0
100
AcDbBlockBegin
  2
_D_4
 70
     0
 10
0.0
 20
0.0
 30
0.0
  3
_D_4
  1

  0
INSERT
  5
112
330
10F
100
AcDbEntity
  8
MASS
100
AcDbBlockReference
  2
_Closed
 10
257.3138441882
 20
49.9401491048
 30
0.0
 41
3.556
 42
3.556
 50
90.0
  0
LINE
  5
113
330
10F
100
AcDbEntity
  8
MASS
100
AcDbLine
 10
240.8211114881
 20
49.9401491048
 30
0.0
 11
258.3138441882
 21
49.9401491048
 31
0.0
  0
LINE
  5
114
330
10F
100
AcDbEntity
  8
MASS
100
AcDbLine
 10
257.3138441882
 20
49.9401491048
 30
0.0
 11
257.3138441882
 21
9.5735592653
 31
0.0
  0
MTEXT
  5
115
330
10F
100
AcDbEntity
  8
MASS
100
AcDbMText
 10
252.802107099
 20
9.5735592653
 30
0.0
 40
3.5
 41
0.0
 71
     1
 72
     1
  1
%%c
  7
SLDTEXTSTYLE0
 11
-7.044195017643634E-15
 21
1.0
 31
0.0
 73
     1
 44
1.0
  0
MTEXT
  5
117
330
10F
100
AcDbEntity
  8
MASS
100
AcDbMText
 10
252.7486349224
 20
14.8519966636
 30
0.0
 40
3.5
 41
0.0
 71
     1
 72
     1
  1
100 - 203
  7
SLDTEXTSTYLE1
 11
-7.044195017643634E-15
 21
1.0
 31
0.0
 73
     1
 44
1.0
  0
ENDBLK
  5
111
330
10F
100
AcDbEntity
  8
0
100
AcDbBlockEnd
  0
ENDSEC
  0
SECTION
  2
ENTITIES
  0
LINE
  5
79
330
1F
100
AcDbEntity
  8
AUFNAHME
  6
Continuous
370
    18
100
AcDbLine
 10
177.504256027
 20
45.0046807783
 30
0.0
 11
177.504256027
 21
-44.9953192217
 31
0.0
  0
LINE
  5
7A
330
1F
100
AcDbEntity
  8
AUFNAHME
  6
Continuous
370
    18
100
AcDbLine
 10
177.504256027
 20
-44.9953192217
 30
0.0
 11
0.502256027
 21
-44.9953192217
 31
0.0
  0
LINE
  5
7B
330
1F
100
AcDbEntity
  8
AUFNAHME
  6
Continuous
370
    18
100
AcDbLine
 10
0.502256027
 20
-44.9953192217
 30
0.0
 11
0.002256027
 21
-44.4953192217
 31
0.0
  0
LINE
  5
7C
330
1F
100
AcDbEntity
  8
AUFNAHME
  6
Continuous
370
    18
100
AcDbLine
 10
0.002256027
 20
44.5046807783
 30
0.0
 11
0.002256027
 21
-44.4953192217
 31
0.0
  0
LINE
  5
7D
330
1F
100
AcDbEntity
  8
AUFNAHME
  6
Continuous
370
    18
100
AcDbLine
 10
0.002256027
 20
44.5046807783
 30
0.0
 11
0.502256027
 21
45.0046807783
 31
0.0
  0
LINE
  5
7E
330
1F
100
AcDbEntity
  8
AUFNAHME
  6
Continuous
370
    18
100
AcDbLine
 10
0.502256027
 20
45.0046807783
 30
0.0
 11
189.656256027
 21
45.0046807783
 31
0.0
  0
LINE
  5
7F
330
1F
100
AcDbEntity
  8
AUFNAHME
  6
Continuous
370
    18
100
AcDbLine
 10
189.656256027
 20
45.0046807783
 30
0.0
 11
191.366256027
 21
41.1636807783
 31
0.0
  0
LINE
  5
80
330
1F
100
AcDbEntity
  8
AUFNAHME
  6
Continuous
370
    18
100
AcDbLine
 10
191.366256027
 20
41.1636807783
 30
0.0
 11
236.198256027
 21
36.4521855823
 31
0.0
  0
LINE
  5
81
330
1F
100
AcDbEntity
  8
AUFNAHME
  6
Continuous
370
    18
100
AcDbLine
 10
236.198256027
 20
36.4521855823
 30
0.0
 11
236.198256027
 21
-40.7853192217
 31
0.0
  0
LINE
  5
82
330
1F
100
AcDbEntity
  8
AUFNAHME
  6
Continuous
370
    18
100
AcDbLine
 10
236.198256027
 20
-40.7853192217
 30
0.0
 11
235.588256027
 21
-41.3953192217
 31
0.0
  0
LINE
  5
83
330
1F
100
AcDbEntity
  8
AUFNAHME
  6
Continuous
370
    18
100
AcDbLine
 10
196.504256027
 20
-41.3953192217
 30
0.0
 11
194.425256027
 21
-44.9953192217
 31
0.0
  0
LINE
  5
84
330
1F
100
AcDbEntity
  8
AUFNAHME
  6
Continuous
370
    18
100
AcDbLine
 10
194.425256027
 20
-44.9953192217
 30
0.0
 11
177.504256027
 21
-44.9953192217
 31
0.0
  0
LINE
  5
85
330
1F
100
AcDbEntity
  8
AUFNAHME
  6
Continuous
370
    18
100
AcDbLine
 10
188.679256027
 20
31.1296807783
 30
0.0
 11
188.679256027
 21
-31.1203192217
 31
0.0
  0
LINE
  5
86
330
1F
100
AcDbEntity
  8
AUFNAHME
  6
Continuous
370
    18
100
AcDbLine
 10
188.679256027
 20
-31.1203192217
 30
0.0
 11
234.698256027
 21
-31.1203192217
 31
0.0
  0
LINE
  5
87
330
1F
100
AcDbEntity
  8
AUFNAHME
  6
Continuous
370
    18
100
AcDbLine
 10
188.679256027
 20
31.1296807783
 30
0.0
 11
234.698256027
 21
31.1296807783
 31
0.0
  0
LINE
  5
88
330
1F
100
AcDbEntity
  8
UNSICHT
  6
CENTERX2
370
    18
100
AcDbLine
 10
237.708256027
 20
0.0046807783
 30
0.0
 11
-52.8491309227
 21
0.0046807783
 31
0.0
  0
LINE
  5
89
330
1F
100
AcDbEntity
  8
AUFNAHME
  6
Continuous
370
    18
100
AcDbLine
 10
232.458256027
 20
-41.3953192217
 30
0.0
 11
221.262256027
 21
-44.3953192217
 31
0.0
  0
LINE
  5
8A
330
1F
100
AcDbEntity
  8
AUFNAHME
  6
Continuous
370
    18
100
AcDbLine
 10
221.262256027
 20
-44.3953192217
 30
0.0
 11
208.754256027
 21
-44.3953192217
 31
0.0
  0
LINE
  5
8B
330
1F
100
AcDbEntity
  8
AUFNAHME
  6
Continuous
370
    18
100
AcDbLine
 10
208.754256027
 20
-44.3953192217
 30
0.0
 11
197.558256027
 21
-41.3953192217
 31
0.0
  0
LINE
  5
8C
330
1F
100
AcDbEntity
  8
AUFNAHME
  6
Continuous
370
    18
100
AcDbLine
 10
197.558256027
 20
-41.3953192217
 30
0.0
 11
197.008256027
 21
-41.3953192217
 31
0.0
  0
LINE
  5
8D
330
1F
100
AcDbEntity
  8
AUFNAHME
  6
Continuous
370
    18
100
AcDbLine
 10
234.698256027
 20
-31.1203192217
 30
0.0
 11
236.198256027
 21
-32.6203192217
 31
0.0
  0
LINE
  5
8E
330
1F
100
AcDbEntity
  8
AUFNAHME
  6
Continuous
370
    18
100
AcDbLine
 10
234.698256027
 20
-31.1203192217
 30
0.0
 11
234.698256027
 21
31.1296807783
 31
0.0
  0
LINE
  5
8F
330
1F
100
AcDbEntity
  8
AUFNAHME
  6
Continuous
370
    18
100
AcDbLine
 10
234.698256027
 20
31.1296807783
 30
0.0
 11
236.198256027
 21
32.6296807783
 31
0.0
  0
LINE
  5
90
330
1F
100
AcDbEntity
  8
EW
  6
HIDDEN
370
    18
100
AcDbLine
 10
-1.997743973
 20
-10.9953192217
 30
0.0
 11
-49.997743973
 21
-10.9953192217
 31
0.0
  0
LINE
  5
91
330
1F
100
AcDbEntity
  8
EW
  6
HIDDEN
370
    18
100
AcDbLine
 10
-1.997743973
 20
0.0046807783
 30
0.0
 11
-1.997743973
 21
-10.9953192217
 31
0.0
  0
LINE
  5
92
330
1F
100
AcDbEntity
  8
EW
  6
HIDDEN
370
    18
100
AcDbLine
 10
-1.997743973
 20
-10.9953192217
 30
0.0
 11
4.353256027
 21
0.0046807783
 31
0.0
  0
LINE
  5
93
330
1F
100
AcDbEntity
  8
EW
  6
HIDDEN
370
    18
100
AcDbLine
 10
-1.997743973
 20
11.0046807783
 30
0.0
 11
4.353256027
 21
0.0046807783
 31
0.0
  0
LINE
  5
94
330
1F
100
AcDbEntity
  8
EW
  6
HIDDEN
370
    18
100
AcDbLine
 10
-1.997743973
 20
0.0046807783
 30
0.0
 11
-1.997743973
 21
11.0046807783
 31
0.0
  0
LINE
  5
95
330
1F
100
AcDbEntity
  8
EW
  6
HIDDEN
370
    18
100
AcDbLine
 10
-1.997743973
 20
11.0046807783
 30
0.0
 11
-49.997743973
 21
11.0046807783
 31
0.0
  0
LINE
  5
96
330
1F
100
AcDbEntity
  8
ZAPFEN
100
AcDbLine
 10
-0.426743973
 20
-22.7123192217
 30
0.0
 11
-1.482743973
 21
-22.9953192217
 31
0.0
  0
LINE
  5
97
330
1F
100
AcDbEntity
  8
AUFNAHME
  6
Continuous
370
    18
100
AcDbLine
 10
-0.426743973
 20
22.7216807783
 30
0.0
 11
-1.482743973
 21
23.0046807783
 31
0.0
  0
LINE
  5
98
330
1F
100
AcDbEntity
  8
ZAPFEN
100
AcDbLine
 10
-1.482743973
 20
23.0046807783
 30
0.0
 11
-1.482743973
 21
-22.9953192217
 31
0.0
  0
LINE
  5
99
330
1F
100
AcDbEntity
  8
ZAPFEN
100
AcDbLine
 10
-43.997743973
 20
23.0046807783
 30
0.0
 11
-1.482743973
 21
23.0046807783
 31
0.0
  0
LINE
  5
9A
330
1F
100
AcDbEntity
  8
ZAPFEN
100
AcDbLine
 10
-49.997743973
 20
21.8046807783
 30
0.0
 11
-49.997743973
 21
-21.7953192217
 31
0.0
  0
LINE
  5
9B
330
1F
100
AcDbEntity
  8
ZAPFEN
100
AcDbLine
 10
-43.997743973
 20
23.0046807783
 30
0.0
 11
-43.997743973
 21
-22.9953192217
 31
0.0
  0
LINE
  5
9C
330
1F
100
AcDbEntity
  8
ZAPFEN
100
AcDbLine
 10
-48.589743973
 20
22.9866807783
 30
0.0
 11
-46.610743973
 21
22.6376807783
 31
0.0
  0
LINE
  5
9D
330
1F
100
AcDbEntity
  8
ZAPFEN
100
AcDbLine
 10
-43.997743973
 20
23.0046807783
 30
0.0
 11
-46.610743973
 21
22.6376807783
 31
0.0
  0
LINE
  5
9E
330
1F
100
AcDbEntity
  8
ZAPFEN
100
AcDbLine
 10
-43.997743973
 20
-22.9953192217
 30
0.0
 11
-1.482743973
 21
-22.9953192217
 31
0.0
  0
LINE
  5
9F
330
1F
100
AcDbEntity
  8
ZAPFEN
100
AcDbLine
 10
-43.997743973
 20
-22.9953192217
 30
0.0
 11
-46.610743973
 21
-22.6283192217
 31
0.0
  0
LINE
  5
A0
330
1F
100
AcDbEntity
  8
ZAPFEN
100
AcDbLine
 10
-48.589743973
 20
-22.9773192217
 30
0.0
 11
-46.610743973
 21
-22.6283192217
 31
0.0
  0
LINE
  5
A1
330
1F
100
AcDbEntity
  8
ZAPFEN
100
AcDbLine
 10
-46.610743973
 20
22.6376807783
 30
0.0
 11
-46.610743973
 21
-22.6283192217
 31
0.0
  0
LINE
  5
A2
330
1F
100
AcDbEntity
  8
EW
  6
HIDDEN
370
    18
100
AcDbLine
 10
200.008256027
 20
40.2556807783
 30
0.0
 11
200.008256027
 21
-36.7453192217
 31
0.0
  0
LINE
  5
A3
330
1F
100
AcDbEntity
  8
EW
  6
HIDDEN
370
    18
100
AcDbLine
 10
197.508256027
 20
-36.7453192217
 30
0.0
 11
232.508256027
 21
-36.7453192217
 31
0.0
  0
LINE
  5
A4
330
1F
100
AcDbEntity
  8
EW
  6
HIDDEN
370
    18
100
AcDbLine
 10
197.508256027
 20
-41.3953192217
 30
0.0
 11
197.508256027
 21
-36.7453192217
 31
0.0
  0
LINE
  5
A5
330
1F
100
AcDbEntity
  8
AUFNAHME
  6
Continuous
370
    18
100
AcDbLine
 10
235.588256027
 20
-41.3953192217
 30
0.0
 11
196.504256027
 21
-41.3953192217
 31
0.0
  0
LINE
  5
A6
330
1F
100
AcDbEntity
  8
EW
  6
HIDDEN
370
    18
100
AcDbLine
 10
232.508256027
 20
-36.7453192217
 30
0.0
 11
232.508256027
 21
-41.3953192217
 31
0.0
  0
LINE
  5
A7
330
1F
100
AcDbEntity
  8
EW
  6
HIDDEN
370
    18
100
AcDbLine
 10
230.008256027
 20
-36.7453192217
 30
0.0
 11
230.008256027
 21
36.5036807783
 31
0.0
  0
LINE
  5
A8
330
1F
100
AcDbEntity
  8
EW
  6
HIDDEN
370
    18
100
AcDbLine
 10
235.708256027
 20
36.5036807783
 30
0.0
 11
215.182256027
 21
36.5036807783
 31
0.0
  0
LINE
  5
A9
330
1F
100
AcDbEntity
  8
EW
  6
HIDDEN
370
    18
100
AcDbLine
 10
215.182256027
 20
36.5036807783
 30
0.0
 11
215.182256027
 21
38.6606807783
 31
0.0
  0
LINE
  5
AA
330
1F
100
AcDbEntity
  8
UNSICHT
  6
CENTERX2
370
    18
100
AcDbLine
 10
215.008256027
 20
49.6686807783
 30
0.0
 11
215.008256027
 21
-48.1143192217
 31
0.0
  0
LINE
  5
AB
330
1F
100
AcDbEntity
  8
AUFNAHME
  6
Continuous
370
    18
100
AcDbLine
 10
228.503256027
 20
47.7366807783
 30
0.0
 11
238.524256027
 21
49.5036807783
 31
0.0
  0
LINE
  5
AC
330
1F
100
AcDbEntity
  8
AUFNAHME
  6
Continuous
370
    18
100
AcDbLine
 10
204.003256027
 20
47.0046807783
 30
0.0
 11
208.503256027
 21
47.0046807783
 31
0.0
  0
LINE
  5
AD
330
1F
100
AcDbEntity
  8
AUFNAHME
  6
Continuous
370
    18
100
AcDbLine
 10
230.003256027
 20
37.5046807783
 30
0.0
 11
230.003256027
 21
44.0046807783
 31
0.0
  0
LINE
  5
AE
330
1F
100
AcDbEntity
  8
AUFNAHME
  6
Continuous
370
    18
100
AcDbLine
 10
201.003256027
 20
40.1506807783
 30
0.0
 11
201.003256027
 21
44.0046807783
 31
0.0
  0
LINE
  5
AF
330
1F
100
AcDbEntity
  8
AUFNAHME
  6
Continuous
370
    18
100
AcDbLine
 10
222.503256027
 20
47.0046807783
 30
0.0
 11
227.003256027
 21
47.0046807783
 31
0.0
  0
LINE
  5
B0
330
1F
100
AcDbEntity
  8
AUFNAHME
  6
Continuous
370
    18
100
AcDbLine
 10
237.479256027
 20
37.5046807783
 30
0.0
 11
239.057256027
 21
39.0026807783
 31
0.0
  0
LINE
  5
B1
330
1F
100
AcDbEntity
  8
AUFNAHME
  6
Continuous
370
    18
100
AcDbLine
 10
226.180256027
 20
37.5046807783
 30
0.0
 11
237.479256027
 21
37.5046807783
 31
0.0
  0
LINE
  5
B2
330
1F
100
AcDbEntity
  8
AUFNAHME
  6
Continuous
370
    18
100
AcDbLine
 10
227.985256027
 20
46.8396807783
 30
0.0
 11
228.503256027
 21
47.7366807783
 31
0.0
  0
LINE
  5
B3
330
1F
100
AcDbEntity
  8
AUFNAHME
  6
Continuous
370
    18
100
AcDbLine
 10
240.002256027
 20
49.5836807783
 30
0.0
 11
239.499256027
 21
39.9836807783
 31
0.0
  0
LINE
  5
B4
330
1F
100
AcDbEntity
  8
AUFNAHME
  6
Continuous
370
    18
100
AcDbLine
 10
238.882256027
 20
39.6696807783
 30
0.0
 11
230.820256027
 21
44.9046807783
 31
0.0
  0
LINE
  5
B5
330
1F
100
AcDbEntity
  8
AUFNAHME
  6
Continuous
370
    18
100
AcDbLine
 10
230.856256027
 20
45.5966807783
 30
0.0
 11
239.421256027
 21
49.9606807783
 31
0.0
  0
LINE
  5
B6
330
1F
100
AcDbEntity
  8
AUFNAHME
  6
Continuous
370
    18
100
AcDbLine
 10
239.087256027
 20
39.5776807783
 30
0.0
 11
239.057256027
 21
39.0026807783
 31
0.0
  0
LINE
  5
B7
330
1F
100
AcDbEntity
  8
AUFNAHME
  6
Continuous
370
    18
100
AcDbLine
 10
231.543256027
 20
43.6116807783
 30
0.0
 11
232.923256027
 21
43.5396807783
 31
0.0
  0
LINE
  5
B8
330
1F
100
AcDbEntity
  8
AUFNAHME
  6
Continuous
370
    18
100
AcDbLine
 10
231.711256027
 20
46.8076807783
 30
0.0
 11
233.090256027
 21
46.7346807783
 31
0.0
  0
LINE
  5
B9
330
1F
100
AcDbEntity
  8
AUFNAHME
  6
Continuous
370
    18
100
AcDbLine
 10
238.024256027
 20
49.2486807783
 30
0.0
 11
237.946256027
 21
49.4016807783
 31
0.0
  0
LINE
  5
BA
330
1F
100
AcDbEntity
  8
AUFNAHME
  6
Continuous
370
    18
100
AcDbLine
 10
217.8950073729
 20
21.0046807783
 30
0.0
 11
216.4516316999
 21
23.5046807784
 31
0.0
  0
LINE
  5
BB
330
1F
100
AcDbEntity
  8
AUFNAHME
  6
Continuous
370
    18
100
AcDbLine
 10
216.4516316999
 20
23.5046807784
 30
0.0
 11
213.5648803539
 21
23.5046807784
 31
0.0
  0
LINE
  5
BC
330
1F
100
AcDbEntity
  8
AUFNAHME
  6
Continuous
370
    18
100
AcDbLine
 10
213.5648803539
 20
23.5046807784
 30
0.0
 11
212.121504681
 21
21.0046807783
 31
0.0
  0
LINE
  5
BD
330
1F
100
AcDbEntity
  8
AUFNAHME
  6
Continuous
370
    18
100
AcDbLine
 10
212.121504681
 20
21.0046807783
 30
0.0
 11
213.5648803539
 21
18.5046807783
 31
0.0
  0
LINE
  5
BE
330
1F
100
AcDbEntity
  8
AUFNAHME
  6
Continuous
370
    18
100
AcDbLine
 10
213.5648803539
 20
18.5046807783
 30
0.0
 11
216.4516316999
 21
18.5046807783
 31
0.0
  0
LINE
  5
BF
330
1F
100
AcDbEntity
  8
AUFNAHME
  6
Continuous
370
    18
100
AcDbLine
 10
216.4516316999
 20
18.5046807783
 30
0.0
 11
217.8950073729
 21
21.0046807783
 31
0.0
  0
LINE
  5
C0
330
1F
100
AcDbEntity
  8
AUFNAHME
  6
Continuous
370
    18
100
AcDbLine
 10
217.8950073729
 20
-5.9953192217
 30
0.0
 11
216.4516316999
 21
-3.4953192216
 31
0.0
  0
LINE
  5
C1
330
1F
100
AcDbEntity
  8
AUFNAHME
  6
Continuous
370
    18
100
AcDbLine
 10
216.4516316999
 20
-3.4953192216
 30
0.0
 11
213.5648803539
 21
-3.4953192216
 31
0.0
  0
LINE
  5
C2
330
1F
100
AcDbEntity
  8
AUFNAHME
  6
Continuous
370
    18
100
AcDbLine
 10
213.5648803539
 20
-3.4953192216
 30
0.0
 11
212.121504681
 21
-5.9953192217
 31
0.0
  0
LINE
  5
C3
330
1F
100
AcDbEntity
  8
AUFNAHME
  6
Continuous
370
    18
100
AcDbLine
 10
212.121504681
 20
-5.9953192217
 30
0.0
 11
213.5648803539
 21
-8.4953192217
 31
0.0
  0
LINE
  5
C4
330
1F
100
AcDbEntity
  8
AUFNAHME
  6
Continuous
370
    18
100
AcDbLine
 10
213.5648803539
 20
-8.4953192217
 30
0.0
 11
216.4516316999
 21
-8.4953192217
 31
0.0
  0
LINE
  5
C5
330
1F
100
AcDbEntity
  8
AUFNAHME
  6
Continuous
370
    18
100
AcDbLine
 10
216.4516316999
 20
-8.4953192217
 30
0.0
 11
217.8950073729
 21
-5.9953192217
 31
0.0
  0
ARC
  5
C6
330
1F
100
AcDbEntity
  8
AUFNAHME
  6
Continuous
370
    18
100
AcDbCircle
 10
252.211256027
 20
0.0046807783
 30
0.0
 40
70.7459999999999
100
AcDbArc
 50
153.899169922
 51
206.100831389
  0
ARC
  5
C7
330
1F
100
AcDbEntity
  8
AUFNAHME
  6
Continuous
370
    18
100
AcDbCircle
 10
283.599256027
 20
2.5726807783
 30
0.0
 40
96.12499999999991
100
AcDbArc
 50
207.21941707
 51
207.336294493
  0
CIRCLE
  5
C8
330
1F
100
AcDbEntity
  8
AUFNAHME
  6
Continuous
370
    18
100
AcDbCircle
 10
215.008256027
 20
-5.9953192217
 30
0.0
 40
4.099999999999966
  0
CIRCLE
  5
C9
330
1F
100
AcDbEntity
  8
AUFNAHME
  6
Continuous
370
    18
100
AcDbCircle
 10
215.008256027
 20
21.0046807783
 30
0.0
 40
4.099999999999966
  0
ARC
  5
CA
330
1F
100
AcDbEntity
  8
ZAPFEN
100
AcDbCircle
 10
-0.297743973
 20
-23.1953192217
 30
0.0
 40
0.500000000000027
100
AcDbArc
 50
53.129400015
 51
105.000243187
  0
CIRCLE
  5
CB
330
1F
100
AcDbEntity
  8
ZAPFEN
100
AcDbCircle
 10
-18.197743973
 20
0.0046807783
 30
0.0
 40
7.499999999999952
  0
ARC
  5
CC
330
1F
100
AcDbEntity
  8
AUFNAHME
  6
Continuous
370
    18
100
AcDbCircle
 10
-0.297743973
 20
23.2046807783
 30
0.0
 40
0.5000000000000235
100
AcDbArc
 50
254.999756813
 51
306.870599985
  0
ARC
  5
CD
330
1F
100
AcDbEntity
  8
ZAPFEN
100
AcDbCircle
 10
-48.797743973
 20
21.8046807783
 30
0.0
 40
1.199999999999982
100
AcDbArc
 50
79.999576807
 51
180.0
  0
ARC
  5
CE
330
1F
100
AcDbEntity
  8
ZAPFEN
100
AcDbCircle
 10
-48.797743973
 20
-21.7953192217
 30
0.0
 40
1.200000000000004
100
AcDbArc
 50
180.0
 51
279.999983311
  0
CIRCLE
  5
CF
330
1F
100
AcDbEntity
  8
AUFNAHME
  6
Continuous
370
    18
100
AcDbCircle
 10
236.580256027
 20
44.9496807783
 30
0.0
 40
2.120000000000118
  0
ARC
  5
D0
330
1F
100
AcDbEntity
  8
AUFNAHME
  6
Continuous
370
    18
100
AcDbCircle
 10
215.503256027
 20
94.6046807783
 30
0.0
 40
50.65400000000009
100
AcDbArc
 50
256.021238565
 51
284.034497738
  0
ARC
  5
D1
330
1F
100
AcDbEntity
  8
AUFNAHME
  6
Continuous
370
    18
100
AcDbCircle
 10
204.003256027
 20
44.0046807783
 30
0.0
 40
3.0
100
AcDbArc
 50
90.0
 51
180.0
  0
ARC
  5
D2
330
1F
100
AcDbEntity
  8
AUFNAHME
  6
Continuous
370
    18
100
AcDbCircle
 10
215.503256027
 20
107.4576807783
 30
0.0
 40
60.85700000000005
100
AcDbArc
 50
263.394953211
 51
270.0
  0
ARC
  5
D3
330
1F
100
AcDbEntity
  8
AUFNAHME
  6
Continuous
370
    18
100
AcDbCircle
 10
215.503256027
 20
107.4576807783
 30
0.0
 40
60.85300000000008
100
AcDbArc
 50
270.0
 51
276.605068027
  0
ARC
  5
D4
330
1F
100
AcDbEntity
  8
AUFNAHME
  6
Continuous
370
    18
100
AcDbCircle
 10
227.003256027
 20
44.0046807783
 30
0.0
 40
3.0
100
AcDbArc
 50
0.0
 51
90.0
  0
ARC
  5
D5
330
1F
100
AcDbEntity
  8
AUFNAHME
  6
Continuous
370
    18
100
AcDbCircle
 10
239.100256027
 20
40.0046807783
 30
0.0
 40
0.4000000000000593
100
AcDbArc
 50
236.999891996
 51
357.000002861
  0
ARC
  5
D6
330
1F
100
AcDbEntity
  8
AUFNAHME
  6
Continuous
370
    18
100
AcDbCircle
 10
239.603256027
 20
49.6046807783
 30
0.0
 40
0.4000000000001065
100
AcDbArc
 50
357.000002861
 51
117.000049353
  0
ARC
  5
D7
330
1F
100
AcDbEntity
  8
AUFNAHME
  6
Continuous
370
    18
100
AcDbCircle
 10
231.038256027
 20
45.2406807783
 30
0.0
 40
0.39999999999999
100
AcDbArc
 50
117.000017166
 51
236.999988556
  0
ARC
  5
D8
330
1F
100
AcDbEntity
  8
AUFNAHME
  6
Continuous
370
    18
100
AcDbCircle
 10
231.627256027
 20
45.2096807783
 30
0.0
 40
1.600000000000045
100
AcDbArc
 50
87.000003532
 51
267.000002861
  0
DIMENSION
  5
D9
330
1F
100
AcDbEntity
  8
MASS
100
AcDbDimension
  2
_D
 10
0.002256027
 20
65.1412603978
 30
0.0
 11
129.977101677
 21
65.1412603978
 31
0.0
 70
   160
  1
<>
 71
     2
 42
-1.0
  3
SLDDIMSTYLE0
100
AcDbAlignedDimension
 13
240.002256027
 23
49.5836807783
 33
0.0
 14
0.002256027
 24
44.5046807783
 34
0.0
100
AcDbRotatedDimension
  0
DIMENSION
  5
EC
330
1F
100
AcDbEntity
  8
MASS
100
AcDbDimension
  2
_D_1
 10
-63.6216181946
 20
-22.9953192217
 30
0.0
 11
-63.6216181946
 21
2.896772651
 31
0.0
 70
   160
  1
CKB7
 71
     2
 42
-1.0
  3
SLDDIMSTYLE1
100
AcDbAlignedDimension
 13
-43.997743973
 23
23.0046807783
 33
0.0
 14
-43.997743973
 24
-22.9953192217
 34
0.0
 50
90.0
100
AcDbRotatedDimension
  0
DIMENSION
  5
F7
330
1F
100
AcDbEntity
  8
MASS
100
AcDbDimension
  2
_D_2
 10
-73.7573433327
 20
-44.9953192217
 30
0.0
 11
-73.7573433327
 21
-2.0350665899
 31
0.0
 70
   160
  1
%%c<>
 71
     2
 42
-1.0
  3
SLDDIMSTYLE0
100
AcDbAlignedDimension
 13
0.502256027
 23
45.0046807783
 33
0.0
 14
0.502256027
 24
-44.9953192217
 34
0.0
 50
90.0
100
AcDbRotatedDimension
  0
DIMENSION
  5
102
330
1F
100
AcDbEntity
  8
MASS
100
AcDbDimension
  2
_D_3
 10
236.198256027
 20
-68.3436614871
 30
0.0
 11
129.977101677
 21
-68.3436614871
 31
0.0
 70
   160
  1
<>
 71
     2
 42
-1.0
  3
SLDDIMSTYLE2
100
AcDbAlignedDimension
 13
0.002256027
 23
-44.4953192217
 33
0.0
 14
236.198256027
 24
-40.7853192217
 34
0.0
 50
0.0
100
AcDbRotatedDimension
  0
DIMENSION
  5
10D
330
1F
100
AcDbEntity
  8
MASS
100
AcDbDimension
  2
_D_4
 10
257.3138441882
 20
0.0046807783
 30
0.0
 11
257.3138441882
 21
22.0395149548
 31
0.0
 70
   160
  1
%%c100 - 203
 71
     2
 42
-1.0
  3
SLDDIMSTYLE3
100
AcDbAlignedDimension
 13
239.8211114881
 23
49.9401491048
 33
0.0
 14
237.708256027
 24
0.0046807783
 34
0.0
 50
90.0
100
AcDbRotatedDimension
  0
MTEXT
  5
118
330
1F
100
AcDbEntity
  8
TEXT
100
AcDbMText
 10
5.6387935396
 20
-35.8474382909
 30
0.0
 40
5.0
 41
0.0
 71
     1
 72
     1
  1
807.187
  7
SLDTEXTSTYLE0
 73
     1
 44
1.0
  0
ENDSEC
  0
SECTION
  2
OBJECTS
  0
DICTIONARY
  5
C
330
0
100
AcDbDictionary
281
     1
  3
ACAD_GROUP
350
D
  3
ACAD_LAYOUT
350
1A
  3
ACAD_MLINESTYLE
350
17
  3
ACAD_PLOTSETTINGS
350
19
  3
ACAD_PLOTSTYLENAME
350
E
  3
ACAD_SCALELIST
350
47
  0
DICTIONARY
  5
D
102
{ACAD_REACTORS
330
C
102
}
330
C
100
AcDbDictionary
281
     1
  0
DICTIONARY
  5
1A
102
{ACAD_REACTORS
330
C
102
}
330
C
100
AcDbDictionary
281
     1
  3
Layout1
350
1E
  3
Layout2
350
26
  3
Model
350
22
  0
DICTIONARY
  5
17
102
{ACAD_REACTORS
330
C
102
}
330
C
100
AcDbDictionary
281
     1
  3
Standard
350
18
  0
DICTIONARY
  5
19
102
{ACAD_REACTORS
330
C
102
}
330
C
100
AcDbDictionary
281
     1
  0
ACDBDICTIONARYWDFLT
  5
E
102
{ACAD_REACTORS
330
C
102
}
330
C
100
AcDbDictionary
281
     1
  3
Normal
350
F
100
AcDbDictionaryWithDefault
340
F
  0
DICTIONARY
  5
47
102
{ACAD_REACTORS
330
C
102
}
330
C
100
AcDbDictionary
281
     1
  3
A0
350
48
  3
A1
350
49
  3
A2
350
4A
  3
A3
350
4B
  3
A4
350
4C
  3
A5
350
4D
  3
A6
350
4E
  3
A7
350
4F
  3
A8
350
50
  3
A9
350
51
  3
B0
350
52
  3
B1
350
53
  3
B2
350
54
  3
B3
350
55
  3
B4
350
56
  3
B5
350
57
  3
B6
350
58
  3
B7
350
59
  3
B8
350
5A
  3
B9
350
5B
  3
C0
350
5C
  3
C1
350
5D
  3
C2
350
5E
  3
C3
350
5F
  3
C4
350
60
  3
C5
350
61
  3
C6
350
62
  3
C7
350
63
  3
C8
350
64
  3
C9
350
65
  3
D0
350
66
  3
D1
350
67
  3
D2
350
68
  0
LAYOUT
  5
1E
102
{ACAD_REACTORS
330
1A
102
}
330
1A
100
AcDbPlotSettings
  1

  2
none_device
  4

  6

 40
0.0
 41
0.0
 42
0.0
 43
0.0
 44
0.0
 45
0.0
 46
0.0
 47
0.0
 48
0.0
 49
0.0
140
0.0
141
0.0
142
1.0
143
1.0
 70
   688
 72
     1
 73
     0
 74
     5
  7

 75
    16
147
1.0
148
0.0
149
0.0
100
AcDbLayout
  1
Layout1
 70
     1
 71
     1
 10
0.0
 20
0.0
 11
420.0
 21
297.0
 12
0.0
 22
0.0
 32
0.0
 14
1.0000000000E+20
 24
1.0000000000E+20
 34
1.0000000000E+20
 15
-1.0000000000E+20
 25
-1.0000000000E+20
 35
-1.0000000000E+20
146
0.0
 13
0.0
 23
0.0
 33
0.0
 16
1.0
 26
0.0
 36
0.0
 17
0.0
 27
1.0
 37
0.0
 76
     0
330
1B
  0
LAYOUT
  5
26
102
{ACAD_REACTORS
330
1A
102
}
330
1A
100
AcDbPlotSettings
  1

  2
none_device
  4

  6

 40
0.0
 41
0.0
 42
0.0
 43
0.0
 44
0.0
 45
0.0
 46
0.0
 47
0.0
 48
0.0
 49
0.0
140
0.0
141
0.0
142
1.0
143
1.0
 70
   688
 72
     1
 73
     0
 74
     5
  7

 75
    16
147
1.0
148
0.0
149
0.0
100
AcDbLayout
  1
Layout2
 70
     1
 71
     2
 10
0.0
 20
0.0
 11
0.0
 21
0.0
 12
0.0
 22
0.0
 32
0.0
 14
0.0
 24
0.0
 34
0.0
 15
0.0
 25
0.0
 35
0.0
146
0.0
 13
0.0
 23
0.0
 33
0.0
 16
1.0
 26
0.0
 36
0.0
 17
0.0
 27
1.0
 37
0.0
 76
     0
330
23
  0
LAYOUT
  5
22
102
{ACAD_REACTORS
330
1A
102
}
330
1A
100
AcDbPlotSettings
  1

  2
none_device
  4
Letter_(8.50_x_11.00_Inches)
  6

 40
6.35
 41
6.35
 42
6.35000508
 43
6.35000508
 44
215.9
 45
279.4
 46
0.0
 47
0.0
 48
0.0
 49
0.0
140
0.0
141
0.0
142
1.0
143
1.0
 70
  1712
 72
     1
 73
     0
 74
     0
  7

 75
     0
147
1.0
148
0.0
149
0.0
100
AcDbLayout
  1
Model
 70
     1
 71
     0
 10
0.0
 20
0.0
 11
1117.6
 21
863.6
 12
0.0
 22
0.0
 32
0.0
 14
0.0
 24
0.0
 34
0.0
 15
1117.6
 25
863.6
 35
0.0
146
0.0
 13
0.0
 23
0.0
 33
0.0
 16
1.0
 26
0.0
 36
0.0
 17
0.0
 27
1.0
 37
0.0
 76
     0
330
1F
331
29
  0
MLINESTYLE
  5
18
102
{ACAD_REACTORS
330
17
102
}
330
17
100
AcDbMlineStyle
  2
Standard
 70
     0
  3

 62
   256
 51
90.0
 52
90.0
 71
     2
 49
0.5
 62
   256
  6
BYLAYER
 49
-0.5
 62
   256
  6
BYLAYER
  0
ACDBPLACEHOLDER
  5
F
102
{ACAD_REACTORS
330
E
102
}
330
E
  0
SCALE
  5
48
102
{ACAD_REACTORS
330
47
102
}
330
47
100
AcDbScale
 70
     0
300
1:1
140
1.0
141
1.0
290
     1
  0
SCALE
  5
49
102
{ACAD_REACTORS
330
47
102
}
330
47
100
AcDbScale
 70
     0
300
1:2
140
1.0
141
2.0
290
     0
  0
SCALE
  5
4A
102
{ACAD_REACTORS
330
47
102
}
330
47
100
AcDbScale
 70
     0
300
1:4
140
1.0
141
4.0
290
     0
  0
SCALE
  5
4B
102
{ACAD_REACTORS
330
47
102
}
330
47
100
AcDbScale
 70
     0
300
1:5
140
1.0
141
5.0
290
     0
  0
SCALE
  5
4C
102
{ACAD_REACTORS
330
47
102
}
330
47
100
AcDbScale
 70
     0
300
1:8
140
1.0
141
8.0
290
     0
  0
SCALE
  5
4D
102
{ACAD_REACTORS
330
47
102
}
330
47
100
AcDbScale
 70
     0
300
1:10
140
1.0
141
10.0
290
     0
  0
SCALE
  5
4E
102
{ACAD_REACTORS
330
47
102
}
330
47
100
AcDbScale
 70
     0
300
1:16
140
1.0
141
16.0
290
     0
  0
SCALE
  5
4F
102
{ACAD_REACTORS
330
47
102
}
330
47
100
AcDbScale
 70
     0
300
1:20
140
1.0
141
20.0
290
     0
  0
SCALE
  5
50
102
{ACAD_REACTORS
330
47
102
}
330
47
100
AcDbScale
 70
     0
300
1:30
140
1.0
141
30.0
290
     0
  0
SCALE
  5
51
102
{ACAD_REACTORS
330
47
102
}
330
47
100
AcDbScale
 70
     0
300
1:40
140
1.0
141
40.0
290
     0
  0
SCALE
  5
52
102
{ACAD_REACTORS
330
47
102
}
330
47
100
AcDbScale
 70
     0
300
1:50
140
1.0
141
50.0
290
     0
  0
SCALE
  5
53
102
{ACAD_REACTORS
330
47
102
}
330
47
100
AcDbScale
 70
     0
300
1:100
140
1.0
141
100.0
290
     0
  0
SCALE
  5
54
102
{ACAD_REACTORS
330
47
102
}
330
47
100
AcDbScale
 70
     0
300
2:1
140
2.0
141
1.0
290
     0
  0
SCALE
  5
55
102
{ACAD_REACTORS
330
47
102
}
330
47
100
AcDbScale
 70
     0
300
4:1
140
4.0
141
1.0
290
     0
  0
SCALE
  5
56
102
{ACAD_REACTORS
330
47
102
}
330
47
100
AcDbScale
 70
     0
300
8:1
140
8.0
141
1.0
290
     0
  0
SCALE
  5
57
102
{ACAD_REACTORS
330
47
102
}
330
47
100
AcDbScale
 70
     0
300
10:1
140
10.0
141
1.0
290
     0
  0
SCALE
  5
58
102
{ACAD_REACTORS
330
47
102
}
330
47
100
AcDbScale
 70
     0
300
100:1
140
100.0
141
1.0
290
     0
  0
SCALE
  5
59
102
{ACAD_REACTORS
330
47
102
}
330
47
100
AcDbScale
 70
     0
300
1/128" = 1'-0"
140
0.0078125
141
12.0
290
     0
  0
SCALE
  5
5A
102
{ACAD_REACTORS
330
47
102
}
330
47
100
AcDbScale
 70
     0
300
1/64" = 1'-0"
140
0.015625
141
12.0
290
     0
  0
SCALE
  5
5B
102
{ACAD_REACTORS
330
47
102
}
330
47
100
AcDbScale
 70
     0
300
1/32" = 1'-0"
140
0.03125
141
12.0
290
     0
  0
SCALE
  5
5C
102
{ACAD_REACTORS
330
47
102
}
330
47
100
AcDbScale
 70
     0
300
1/16" = 1'-0"
140
0.0625
141
12.0
290
     0
  0
SCALE
  5
5D
102
{ACAD_REACTORS
330
47
102
}
330
47
100
AcDbScale
 70
     0
300
3/32" = 1'-0"
140
0.09375
141
12.0
290
     0
  0
SCALE
  5
5E
102
{ACAD_REACTORS
330
47
102
}
330
47
100
AcDbScale
 70
     0
300
1/8" = 1'-0"
140
0.125
141
12.0
290
     0
  0
SCALE
  5
5F
102
{ACAD_REACTORS
330
47
102
}
330
47
100
AcDbScale
 70
     0
300
3/16" = 1'-0"
140
0.1875
141
12.0
290
     0
  0
SCALE
  5
60
102
{ACAD_REACTORS
330
47
102
}
330
47
100
AcDbScale
 70
     0
300
1/4" = 1'-0"
140
0.25
141
12.0
290
     0
  0
SCALE
  5
61
102
{ACAD_REACTORS
330
47
102
}
330
47
100
AcDbScale
 70
     0
300
3/8" = 1'-0"
140
0.375
141
12.0
290
     0
  0
SCALE
  5
62
102
{ACAD_REACTORS
330
47
102
}
330
47
100
AcDbScale
 70
     0
300
1/2" = 1'-0"
140
0.5
141
12.0
290
     0
  0
SCALE
  5
63
102
{ACAD_REACTORS
330
47
102
}
330
47
100
AcDbScale
 70
     0
300
3/4" = 1'-0"
140
0.75
141
12.0
290
     0
  0
SCALE
  5
64
102
{ACAD_REACTORS
330
47
102
}
330
47
100
AcDbScale
 70
     0
300
1" = 1'-0"
140
1.0
141
12.0
290
     0
  0
SCALE
  5
65
102
{ACAD_REACTORS
330
47
102
}
330
47
100
AcDbScale
 70
     0
300
1-1/2" = 1'-0"
140
1.5
141
12.0
290
     0
  0
SCALE
  5
66
102
{ACAD_REACTORS
330
47
102
}
330
47
100
AcDbScale
 70
     0
300
3" = 1'-0"
140
3.0
141
12.0
290
     0
  0
SCALE
  5
67
102
{ACAD_REACTORS
330
47
102
}
330
47
100
AcDbScale
 70
     0
300
6" = 1'-0"
140
6.0
141
12.0
290
     0
  0
SCALE
  5
68
102
{ACAD_REACTORS
330
47
102
}
330
47
100
AcDbScale
 70
     0
300
1'-0" = 1'-0"
140
12.0
141
12.0
290
     0
  0
ENDSEC
  0
EOF
