  0
SECTION
  2
HEADER
  9
$ACADVER
  1
AC1015
  9
$ACADMAINTVER
 70
     6
  9
$DWGCODEPAGE
  3
ANSI_1252
  9
$INSBASE
 10
0.0
 20
0.0
 30
0.0
  9
$EXTMIN
 10
0.0
 20
0.0
 30
0.0
  9
$EXTMAX
 10
420.0
 20
297.0
 30
0.0
  9
$LIMMIN
 10
0.0
 20
0.0
  9
$LIMMAX
 10
420.0
 20
297.0
  9
$ORTHOMODE
 70
     0
  9
$REGENMODE
 70
     1
  9
$FILLMODE
 70
     1
  9
$QTEXTMODE
 70
     0
  9
$MIRRTEXT
 70
     1
  9
$LTSCALE
 40
1.0
  9
$ATTMODE
 70
     1
  9
$TEXTSIZE
 40
3.5
  9
$TRACEWID
 40
1.0
  9
$TEXTSTYLE
  7
Standard
  9
$CLAYER
  8
0
  9
$CELTYPE
  6
ByLayer
  9
$CECOLOR
 62
   256
  9
$CELTSCALE
 40
1.0
  9
$DISPSILH
 70
     0
  9
$DIMSCALE
 40
1.0
  9
$DIMASZ
 40
3.5
  9
$DIMEXO
 40
0.0
  9
$DIMDLI
 40
3.75
  9
$DIMRND
 40
0.0
  9
$DIMDLE
 40
0.0
  9
$DIMEXE
 40
1.0
  9
$DIMTP
 40
0.0
  9
$DIMTM
 40
0.0
  9
$DIMTXT
 40
3.5
  9
$DIMCEN
 40
2.5
  9
$DIMTSZ
 40
0.0
  9
$DIMTOL
 70
     0
  9
$DIMLIM
 70
     0
  9
$DIMTIH
 70
     1
  9
$DIMTOH
 70
     1
  9
$DIMSE1
 70
     0
  9
$DIMSE2
 70
     0
  9
$DIMTAD
 70
     1
  9
$DIMZIN
 70
     0
  9
$DIMBLK
  1

  9
$DIMASO
 70
     1
  9
$DIMSHO
 70
     1
  9
$DIMPOST
  1

  9
$DIMAPOST
  1

  9
$DIMALT
 70
     0
  9
$DIMALTD
 70
     3
  9
$DIMALTF
 40
0.0393700787
  9
$DIMLFAC
 40
1.0
  9
$DIMTOFL
 70
     1
  9
$DIMTVP
 40
0.0
  9
$DIMTIX
 70
     0
  9
$DIMSOXD
 70
     0
  9
$DIMSAH
 70
     0
  9
$DIMBLK1
  1

  9
$DIMBLK2
  1

  9
$DIMSTYLE
  2
ISO-25
  9
$DIMCLRD
 70
     0
  9
$DIMCLRE
 70
     0
  9
$DIMCLRT
 70
     0
  9
$DIMTFAC
 40
1.0
  9
$DIMGAP
 40
1.5
  9
$DIMJUST
 70
     0
  9
$DIMSD1
 70
     0
  9
$DIMSD2
 70
     0
  9
$DIMTOLJ
 70
     0
  9
$DIMTZIN
 70
     0
  9
$DIMALTZ
 70
     0
  9
$DIMALTTZ
 70
     0
  9
$DIMUPT
 70
     0
  9
$DIMDEC
 70
     2
  9
$DIMTDEC
 70
     3
  9
$DIMALTU
 70
     2
  9
$DIMALTTD
 70
     3
  9
$DIMTXSTY
  7
Standard
  9
$DIMAUNIT
 70
     0
  9
$DIMADEC
 70
     2
  9
$DIMALTRND
 40
0.0
  9
$DIMAZIN
 70
     0
  9
$DIMDSEP
 70
    44
  9
$DIMATFIT
 70
     3
  9
$DIMFRAC
 70
     0
  9
$DIMLDRBLK
  1

  9
$DIMLUNIT
 70
     2
  9
$DIMLWD
 70
    -2
  9
$DIMLWE
 70
    -2
  9
$DIMTMOVE
 70
     0
  9
$LUNITS
 70
     2
  9
$LUPREC
 70
     2
  9
$SKETCHINC
 40
1.0
  9
$FILLETRAD
 40
10.0
  9
$AUNITS
 70
     0
  9
$AUPREC
 70
     2
  9
$MENU
  1
.
  9
$ELEVATION
 40
0.0
  9
$PELEVATION
 40
0.0
  9
$THICKNESS
 40
0.0
  9
$LIMCHECK
 70
     0
  9
$CHAMFERA
 40
0.0
  9
$CHAMFERB
 40
0.0
  9
$CHAMFERC
 40
0.0
  9
$CHAMFERD
 40
0.0
  9
$SKPOLY
 70
     0
  9
$TDCREATE
 40
2458646.439860683
  9
$TDUCREATE
 40
2458646.356527349
  9
$TDUPDATE
 40
2458646.439861134
  9
$TDUUPDATE
 40
2458646.356527801
  9
$TDINDWG
 40
0.0000000116
  9
$TDUSRTIMER
 40
0.0000000116
  9
$USRTIMER
 70
     1
  9
$ANGBASE
 50
0.0
  9
$ANGDIR
 70
     0
  9
$PDMODE
 70
     0
  9
$PDSIZE
 40
-1.0
  9
$PLINEWID
 40
0.0
  9
$SPLFRAME
 70
     0
  9
$SPLINETYPE
 70
     6
  9
$SPLINESEGS
 70
     8
  9
$HANDSEED
  5
196
  9
$SURFTAB1
 70
     6
  9
$SURFTAB2
 70
     6
  9
$SURFTYPE
 70
     6
  9
$SURFU
 70
     6
  9
$SURFV
 70
     6
  9
$UCSBASE
  2

  9
$UCSNAME
  2

  9
$UCSORG
 10
0.0
 20
0.0
 30
0.0
  9
$UCSXDIR
 10
1.0
 20
0.0
 30
0.0
  9
$UCSYDIR
 10
0.0
 20
1.0
 30
0.0
  9
$UCSORTHOREF
  2

  9
$UCSORTHOVIEW
 70
     0
  9
$UCSORGTOP
 10
0.0
 20
0.0
 30
0.0
  9
$UCSORGBOTTOM
 10
0.0
 20
0.0
 30
0.0
  9
$UCSORGLEFT
 10
0.0
 20
0.0
 30
0.0
  9
$UCSORGRIGHT
 10
0.0
 20
0.0
 30
0.0
  9
$UCSORGFRONT
 10
0.0
 20
0.0
 30
0.0
  9
$UCSORGBACK
 10
0.0
 20
0.0
 30
0.0
  9
$PUCSBASE
  2

  9
$PUCSNAME
  2

  9
$PUCSORG
 10
0.0
 20
0.0
 30
0.0
  9
$PUCSXDIR
 10
1.0
 20
0.0
 30
0.0
  9
$PUCSYDIR
 10
0.0
 20
1.0
 30
0.0
  9
$PUCSORTHOREF
  2

  9
$PUCSORTHOVIEW
 70
     0
  9
$PUCSORGTOP
 10
0.0
 20
0.0
 30
0.0
  9
$PUCSORGBOTTOM
 10
0.0
 20
0.0
 30
0.0
  9
$PUCSORGLEFT
 10
0.0
 20
0.0
 30
0.0
  9
$PUCSORGRIGHT
 10
0.0
 20
0.0
 30
0.0
  9
$PUCSORGFRONT
 10
0.0
 20
0.0
 30
0.0
  9
$PUCSORGBACK
 10
0.0
 20
0.0
 30
0.0
  9
$USERI1
 70
     0
  9
$USERI2
 70
     0
  9
$USERI3
 70
     0
  9
$USERI4
 70
     0
  9
$USERI5
 70
     0
  9
$USERR1
 40
0.0
  9
$USERR2
 40
0.0
  9
$USERR3
 40
0.0
  9
$USERR4
 40
0.0
  9
$USERR5
 40
0.0
  9
$WORLDVIEW
 70
     1
  9
$SHADEDGE
 70
     3
  9
$SHADEDIF
 70
    70
  9
$TILEMODE
 70
     1
  9
$MAXACTVP
 70
    64
  9
$PINSBASE
 10
0.0
 20
0.0
 30
0.0
  9
$PLIMCHECK
 70
     0
  9
$PEXTMIN
 10
1.0000000000E+20
 20
1.0000000000E+20
 30
1.0000000000E+20
  9
$PEXTMAX
 10
-1.0000000000E+20
 20
-1.0000000000E+20
 30
-1.0000000000E+20
  9
$PLIMMIN
 10
0.0
 20
0.0
  9
$PLIMMAX
 10
420.0
 20
297.0
  9
$UNITMODE
 70
     0
  9
$VISRETAIN
 70
     1
  9
$PLINEGEN
 70
     0
  9
$PSLTSCALE
 70
     1
  9
$TREEDEPTH
 70
  3020
  9
$CMLSTYLE
  2
Standard
  9
$CMLJUST
 70
     0
  9
$CMLSCALE
 40
20.0
  9
$PROXYGRAPHICS
 70
     1
  9
$MEASUREMENT
 70
     1
  9
$CELWEIGHT
370
    -1
  9
$ENDCAPS
280
     0
  9
$JOINSTYLE
280
     0
  9
$LWDISPLAY
290
     1
  9
$INSUNITS
 70
     4
  9
$HYPERLINKBASE
  1

  9
$STYLESHEET
  1

  9
$XEDIT
290
     1
  9
$CEPSNTYPE
380
     0
  9
$PSTYLEMODE
290
     1
  9
$FINGERPRINTGUID
  2
{EF4A91C2-B8B2-4758-8DEC-E4C75CFCDC5E}
  9
$VERSIONGUID
  2
{FAEB1C32-E019-11D5-929B-00C0DF256EC4}
  9
$EXTNAMES
290
     1
  9
$PSVPSCALE
 40
0.0
  9
$OLESTARTUP
290
     0
  0
ENDSEC
  0
SECTION
  2
CLASSES
  0
CLASS
  1
ACDBDICTIONARYWDFLT
  2
AcDbDictionaryWithDefault
  3
ObjectDBX Classes
 90
        0
280
     0
281
     0
  0
CLASS
  1
VISUALSTYLE
  2
AcDbVisualStyle
  3
ObjectDBX Classes
 90
     4095
280
     0
281
     0
  0
CLASS
  1
MATERIAL
  2
AcDbMaterial
  3
ObjectDBX Classes
 90
     1153
280
     0
281
     0
  0
CLASS
  1
SCALE
  2
AcDbScale
  3
ObjectDBX Classes
 90
     1153
280
     0
281
     0
  0
CLASS
  1
TABLESTYLE
  2
AcDbTableStyle
  3
ObjectDBX Classes
 90
     4095
280
     0
281
     0
  0
CLASS
  1
MLEADERSTYLE
  2
AcDbMLeaderStyle
  3
ACDB_MLEADERSTYLE_CLASS
 90
     4095
280
     0
281
     0
  0
CLASS
  1
SUN
  2
AcDbSun
  3
SCENEOE
 90
     1153
280
     0
281
     0
  0
CLASS
  1
ACDBPLACEHOLDER
  2
AcDbPlaceHolder
  3
ObjectDBX Classes
 90
        0
280
     0
281
     0
  0
CLASS
  1
LAYOUT
  2
AcDbLayout
  3
ObjectDBX Classes
 90
        0
280
     0
281
     0
  0
ENDSEC
  0
SECTION
  2
TABLES
  0
TABLE
  2
VPORT
  5
8
330
0
100
AcDbSymbolTable
 70
     1
  0
VPORT
  5
29
330
8
100
AcDbSymbolTableRecord
100
AcDbViewportTableRecord
  2
*Active
 70
     0
 10
0.0
 20
0.0
 11
1.0
 21
1.0
 12
210.0
 22
148.5
 13
0.0
 23
0.0
 14
10.0
 24
10.0
 15
10.0
 25
10.0
 16
0.0
 26
0.0
 36
1.0
 17
0.0
 27
0.0
 37
0.0
 40
297.0
 41
1.4141414141
 42
50.0
 43
0.0
 44
0.0
 50
0.0
 51
0.0
 71
     0
 72
  2000
 73
     1
 74
     3
 75
     0
 76
     0
 77
     0
 78
     0
281
     0
 65
     1
110
0.0
120
0.0
130
0.0
111
1.0
121
0.0
131
0.0
112
0.0
122
1.0
132
0.0
 79
     0
146
0.0
  0
ENDTAB
  0
TABLE
  2
LTYPE
  5
5
330
0
100
AcDbSymbolTable
 70
     6
  0
LTYPE
  5
14
330
5
100
AcDbSymbolTableRecord
100
AcDbLinetypeTableRecord
  2
ByBlock
 70
     0
  3

 72
    65
 73
     0
 40
0.0
  0
LTYPE
  5
15
330
5
100
AcDbSymbolTableRecord
100
AcDbLinetypeTableRecord
  2
ByLayer
 70
     0
  3

 72
    65
 73
     0
 40
0.0
  0
LTYPE
  5
16
330
5
100
AcDbSymbolTableRecord
100
AcDbLinetypeTableRecord
  2
Continuous
 70
     0
  3
Solid line
 72
    65
 73
     0
 40
0.0
  0
LTYPE
  5
6E
330
5
100
AcDbSymbolTableRecord
100
AcDbLinetypeTableRecord
  2
HIDDEN
 70
     0
  3
Hidden __ __ __ __ __ __ __ __ __ __ __ __ __ __
 72
    65
 73
     2
 40
1.905
 49
1.27
 74
     0
 49
-0.635
 74
     0
  0
LTYPE
  5
6F
330
5
100
AcDbSymbolTableRecord
100
AcDbLinetypeTableRecord
  2
PHANTOM
 70
     0
  3
Phantom ______  __  __  ______  __  __  ______
 72
    65
 73
     6
 40
12.7
 49
6.35
 74
     0
 49
-1.27
 74
     0
 49
1.27
 74
     0
 49
-1.27
 74
     0
 49
1.27
 74
     0
 49
-1.27
 74
     0
  0
LTYPE
  5
70
330
5
100
AcDbSymbolTableRecord
100
AcDbLinetypeTableRecord
  2
CENTER
 70
     0
  3
Center ____ _ ____ _ ____ _ ____ _ ____ _ ____
 72
    65
 73
     4
 40
10.16
 49
6.35
 74
     0
 49
-1.27
 74
     0
 49
1.27
 74
     0
 49
-1.27
 74
     0
  0
LTYPE
  5
71
330
5
100
AcDbSymbolTableRecord
100
AcDbLinetypeTableRecord
  2
CENTERX2
 70
     0
  3
Center (2x) ________  __  ________  __  _____
 72
    65
 73
     4
 40
20.32
 49
12.7
 74
     0
 49
-2.54
 74
     0
 49
2.54
 74
     0
 49
-2.54
 74
     0
  0
LTYPE
  5
72
330
5
100
AcDbSymbolTableRecord
100
AcDbLinetypeTableRecord
  2
DOT2
 70
     0
  3
Dot (.5x) ........................................
 72
    65
 73
     2
 40
0.635
 49
0.0
 74
     0
 49
-0.635
 74
     0
  0
ENDTAB
  0
TABLE
  2
LAYER
  5
2
330
0
100
AcDbSymbolTable
 70
     7
  0
LAYER
  5
10
330
2
100
AcDbSymbolTableRecord
100
AcDbLayerTableRecord
  2
0
 70
     0
 62
     7
  6
Continuous
370
    -3
390
F
  0
LAYER
  5
73
330
2
100
AcDbSymbolTableRecord
100
AcDbLayerTableRecord
  2
AUFNAHME
 70
     0
 62
     7
  6
Continuous
370
    25
390
F
  0
LAYER
  5
74
330
2
100
AcDbSymbolTableRecord
100
AcDbLayerTableRecord
  2
MASS
 70
     0
 62
     4
  6
Continuous
370
    -3
390
F
  0
LAYER
  5
75
330
2
100
AcDbSymbolTableRecord
100
AcDbLayerTableRecord
  2
EW
 70
     0
 62
     1
  6
HIDDEN
370
    -3
390
F
  0
LAYER
  5
76
330
2
100
AcDbSymbolTableRecord
100
AcDbLayerTableRecord
  2
UNSICHT
 70
     0
 62
     4
  6
CENTER
370
    -3
390
F
  0
LAYER
  5
77
330
2
100
AcDbSymbolTableRecord
100
AcDbLayerTableRecord
  2
TEXT
 70
     0
 62
     7
  6
Continuous
370
    -3
390
F
  0
LAYER
  5
78
330
2
100
AcDbSymbolTableRecord
100
AcDbLayerTableRecord
  2
ZAPFEN
 70
     0
 62
     4
  6
Continuous
370
    -3
390
F
  0
ENDTAB
  0
TABLE
  2
STYLE
  5
3
330
0
100
AcDbSymbolTable
 70
     2
  0
STYLE
  5
11
330
3
100
AcDbSymbolTableRecord
100
AcDbTextStyleTableRecord
  2
Standard
 70
     0
 40
0.0
 41
1.0
 50
0.0
 71
     0
 42
3.5
  3
txt
  4

  0
STYLE
  5
16A
330
3
100
AcDbSymbolTableRecord
100
AcDbTextStyleTableRecord
  2
SLDTEXTSTYLE0
 70
     0
 40
0.0
 41
0.605
 50
0.0
 71
     0
 42
3.5
  3
TXT
  4

  0
ENDTAB
  0
TABLE
  2
VIEW
  5
6
330
0
100
AcDbSymbolTable
 70
     0
  0
ENDTAB
  0
TABLE
  2
UCS
  5
7
330
0
100
AcDbSymbolTable
 70
     0
  0
ENDTAB
  0
TABLE
  2
APPID
  5
9
330
0
100
AcDbSymbolTable
 70
     1
  0
APPID
  5
12
330
9
100
AcDbSymbolTableRecord
100
AcDbRegAppTableRecord
  2
ACAD
 70
     0
  0
ENDTAB
  0
TABLE
  2
DIMSTYLE
  5
A
330
0
100
AcDbSymbolTable
 70
     3
100
AcDbDimStyleTable
  0
DIMSTYLE
105
27
330
A
100
AcDbSymbolTableRecord
100
AcDbDimStyleTableRecord
  2
ISO-25
 70
     0
 41
2.5
 42
0.625
 43
3.75
 44
1.25
 73
     0
 74
     0
 77
     1
 78
     8
140
2.5
141
2.5
143
0.0393700787
147
0.625
171
     3
172
     1
178
     0
271
     2
272
     2
274
     3
278
    44
283
     0
284
     8
340
11
  0
DIMSTYLE
105
16B
102
{ACAD_REACTORS
330
169
102
}
330
A
100
AcDbSymbolTableRecord
100
AcDbDimStyleTableRecord
  2
SLDDIMSTYLE0
 70
     0
 41
3.5
 44
0.0
 45
0.000000001
 73
     0
 74
     0
 77
     1
 78
    12
 79
     3
140
3.5
147
0.875
173
     1
178
     0
271
     0
272
     3
276
     2
284
    12
340
16A
  0
DIMSTYLE
105
176
102
{ACAD_REACTORS
330
175
330
181
330
18B
102
}
330
A
100
AcDbSymbolTableRecord
100
AcDbDimStyleTableRecord
  2
SLDDIMSTYLE1
 70
     0
 41
3.5
 44
0.0
 45
0.000000001
 73
     0
 74
     0
 77
     1
 78
    12
 79
     3
140
3.5
147
0.875
173
     1
178
     0
271
     2
272
     3
276
     2
284
    12
340
16A
  0
ENDTAB
  0
TABLE
  2
BLOCK_RECORD
  5
1
330
0
100
AcDbSymbolTable
 70
     5
  0
BLOCK_RECORD
  5
1F
330
1
100
AcDbSymbolTableRecord
100
AcDbBlockTableRecord
  2
*Model_Space
340
22
  0
BLOCK_RECORD
  5
1B
330
1
100
AcDbSymbolTableRecord
100
AcDbBlockTableRecord
  2
*Paper_Space
340
1E
  0
BLOCK_RECORD
  5
23
330
1
100
AcDbSymbolTableRecord
100
AcDbBlockTableRecord
  2
*Paper_Space0
340
26
  0
BLOCK_RECORD
  5
16C
330
1
100
AcDbSymbolTableRecord
100
AcDbBlockTableRecord
  2
_D
340
0
  0
BLOCK_RECORD
  5
177
330
1
100
AcDbSymbolTableRecord
100
AcDbBlockTableRecord
  2
_D_1
340
0
  0
BLOCK_RECORD
  5
182
330
1
100
AcDbSymbolTableRecord
100
AcDbBlockTableRecord
  2
_D_2
340
0
  0
BLOCK_RECORD
  5
18C
330
1
100
AcDbSymbolTableRecord
100
AcDbBlockTableRecord
  2
_D_3
340
0
  0
ENDTAB
  0
ENDSEC
  0
SECTION
  2
BLOCKS
  0
BLOCK
  5
20
330
1F
100
AcDbEntity
  8
0
100
AcDbBlockBegin
  2
*Model_Space
 70
     0
 10
0.0
 20
0.0
 30
0.0
  3
*Model_Space
  1

  0
ENDBLK
  5
21
330
1F
100
AcDbEntity
  8
0
100
AcDbBlockEnd
  0
BLOCK
  5
1C
330
1B
100
AcDbEntity
 67
     1
  8
0
100
AcDbBlockBegin
  2
*Paper_Space
 70
     0
 10
0.0
 20
0.0
 30
0.0
  3
*Paper_Space
  1

  0
ENDBLK
  5
1D
330
1B
100
AcDbEntity
 67
     1
  8
0
100
AcDbBlockEnd
  0
BLOCK
  5
24
330
23
100
AcDbEntity
  8
0
100
AcDbBlockBegin
  2
*Paper_Space0
 70
     0
 10
0.0
 20
0.0
 30
0.0
  3
*Paper_Space0
  1

  0
ENDBLK
  5
25
330
23
100
AcDbEntity
  8
0
100
AcDbBlockEnd
  0
BLOCK
  5
16D
330
16C
100
AcDbEntity
  8
0
100
AcDbBlockBegin
  2
_D
 70
     0
 10
0.0
 20
0.0
 30
0.0
  3
_D
  1

  0
SOLID
  5
16F
330
16C
100
AcDbEntity
  8
MASS
100
AcDbTrace
 10
159.8400024223
 20
25.9620833424
 30
0.0
 11
156.3400024223
 21
26.4120833424
 31
0.0
 12
156.3400024223
 22
25.5120833424
 32
0.0
 13
156.3400024223
 23
25.5120833424
 33
0.0
  0
SOLID
  5
170
330
16C
100
AcDbEntity
  8
MASS
100
AcDbTrace
 10
0.0
 20
25.9620833424
 30
0.0
 11
3.5
 21
25.5120833424
 31
0.0
 12
3.5
 22
26.4120833424
 32
0.0
 13
3.5
 23
26.4120833424
 33
0.0
  0
LINE
  5
171
330
16C
100
AcDbEntity
  8
MASS
100
AcDbLine
 10
159.8400024223
 20
17.3529924495
 30
0.0
 11
159.8400024223
 21
26.9620833424
 31
0.0
  0
LINE
  5
172
330
16C
100
AcDbEntity
  8
MASS
100
AcDbLine
 10
0.0
 20
16.2000006437
 30
0.0
 11
0.0
 21
26.9620833424
 31
0.0
  0
LINE
  5
173
330
16C
100
AcDbEntity
  8
MASS
100
AcDbLine
 10
159.8400024223
 20
25.9620833424
 30
0.0
 11
0.0
 21
25.9620833424
 31
0.0
  0
MTEXT
  5
174
330
16C
100
AcDbEntity
  8
MASS
100
AcDbMText
 10
76.6314597563
 20
30.4738201988
 30
0.0
 40
3.5
 41
0.0
 71
     1
 72
     1
  1
160
  7
SLDTEXTSTYLE0
 73
     1
 44
1.0
  0
ENDBLK
  5
16E
330
16C
100
AcDbEntity
  8
0
100
AcDbBlockEnd
  0
BLOCK
  5
178
330
177
100
AcDbEntity
  8
0
100
AcDbBlockBegin
  2
_D_1
 70
     0
 10
0.0
 20
0.0
 30
0.0
  3
_D_1
  1

  0
SOLID
  5
17A
330
177
100
AcDbEntity
  8
MASS
100
AcDbTrace
 10
-39.4734475534
 20
-16.8480003477
 30
0.0
 11
-39.0234475534
 21
-13.3480003477
 31
0.0
 12
-39.9234475534
 22
-13.3480003477
 32
0.0
 13
-39.9234475534
 23
-13.3480003477
 33
0.0
  0
SOLID
  5
17B
330
177
100
AcDbEntity
  8
MASS
100
AcDbTrace
 10
-39.4734475534
 20
16.8480003476
 30
0.0
 11
-39.9234475534
 21
13.3480003476
 31
0.0
 12
-39.0234475534
 22
13.3480003476
 32
0.0
 13
-39.0234475534
 23
13.3480003476
 33
0.0
  0
LINE
  5
17C
330
177
100
AcDbEntity
  8
MASS
100
AcDbLine
 10
0.6479916572
 20
-16.8480003477
 30
0.0
 11
-40.4734475534
 21
-16.8480003477
 31
0.0
  0
LINE
  5
17D
330
177
100
AcDbEntity
  8
MASS
100
AcDbLine
 10
0.6479916572
 20
16.8480003476
 30
0.0
 11
-40.4734475534
 21
16.8480003476
 31
0.0
  0
LINE
  5
17E
330
177
100
AcDbEntity
  8
MASS
100
AcDbLine
 10
-39.4734475534
 20
-16.8480003477
 30
0.0
 11
-39.4734475534
 21
16.8480003476
 31
0.0
  0
MTEXT
  5
17F
330
177
100
AcDbEntity
  8
MASS
100
AcDbMText
 10
-43.9851848754
 20
-4.7784722411
 30
0.0
 40
3.5
 41
0.0
 71
     1
 72
     1
  1
%%c
  7
SLDTEXTSTYLE0
 11
6.123233995736766E-17
 21
1.0
 31
0.0
 73
     1
 44
1.0
  0
MTEXT
  5
180
330
177
100
AcDbEntity
  8
MASS
100
AcDbMText
 10
-43.9851848754
 20
0.393750146
 30
0.0
 40
3.5
 41
0.0
 71
     1
 72
     1
  1
31
  7
SLDTEXTSTYLE0
 11
6.123233995736766E-17
 21
1.0
 31
0.0
 73
     1
 44
1.0
  0
ENDBLK
  5
179
330
177
100
AcDbEntity
  8
0
100
AcDbBlockEnd
  0
BLOCK
  5
183
330
182
100
AcDbEntity
  8
0
100
AcDbBlockBegin
  2
_D_2
 70
     0
 10
0.0
 20
0.0
 30
0.0
  3
_D_2
  1

  0
SOLID
  5
185
330
182
100
AcDbEntity
  8
MASS
100
AcDbTrace
 10
-29.8872338406
 20
9.5039999486
 30
0.0
 11
-30.3372338406
 21
6.0039999486
 31
0.0
 12
-29.4372338406
 22
6.0039999486
 32
0.0
 13
-29.4372338406
 23
6.0039999486
 33
0.0
  0
SOLID
  5
186
330
182
100
AcDbEntity
  8
MASS
100
AcDbTrace
 10
-29.8872338406
 20
-9.5039999485
 30
0.0
 11
-29.4372338406
 21
-6.0039999485
 31
0.0
 12
-30.3372338406
 22
-6.0039999485
 32
0.0
 13
-30.3372338406
 23
-6.0039999485
 33
0.0
  0
LINE
  5
187
330
182
100
AcDbEntity
  8
MASS
100
AcDbLine
 10
-16.848001957
 20
9.5039999486
 30
0.0
 11
-30.8872338406
 21
9.5039999486
 31
0.0
  0
LINE
  5
188
330
182
100
AcDbEntity
  8
MASS
100
AcDbLine
 10
-16.848001957
 20
-9.5039999485
 30
0.0
 11
-30.8872338406
 21
-9.5039999485
 31
0.0
  0
LINE
  5
189
330
182
100
AcDbEntity
  8
MASS
100
AcDbLine
 10
-29.8872338406
 20
9.5039999486
 30
0.0
 11
-29.8872338406
 21
-9.5039999485
 31
0.0
  0
MTEXT
  5
18A
330
182
100
AcDbEntity
  8
MASS
100
AcDbMText
 10
-34.398970697
 20
-5.1479167305
 30
0.0
 40
3.5
 41
0.0
 71
     1
 72
     1
  1
CKB3
  7
SLDTEXTSTYLE0
 11
-4.379659758543259E-15
 21
1.0
 31
0.0
 73
     1
 44
1.0
  0
ENDBLK
  5
184
330
182
100
AcDbEntity
  8
0
100
AcDbBlockEnd
  0
BLOCK
  5
18D
330
18C
100
AcDbEntity
  8
0
100
AcDbBlockBegin
  2
_D_3
 70
     0
 10
0.0
 20
0.0
 30
0.0
  3
_D_3
  1

  0
SOLID
  5
18F
330
18C
100
AcDbEntity
  8
MASS
100
AcDbTrace
 10
0.0
 20
-29.0404798689
 30
0.0
 11
3.5
 21
-29.4904798689
 31
0.0
 12
3.5
 22
-28.5904798689
 32
0.0
 13
3.5
 23
-28.5904798689
 33
0.0
  0
SOLID
  5
190
330
18C
100
AcDbEntity
  8
MASS
100
AcDbTrace
 10
156.3951868062
 20
-29.0404798689
 30
0.0
 11
152.8951868062
 21
-28.5904798689
 31
0.0
 12
152.8951868062
 22
-29.4904798689
 32
0.0
 13
152.8951868062
 23
-29.4904798689
 33
0.0
  0
LINE
  5
191
330
18C
100
AcDbEntity
  8
MASS
100
AcDbLine
 10
0.0
 20
-16.2000006437
 30
0.0
 11
0.0
 21
-30.0404798689
 31
0.0
  0
LINE
  5
192
330
18C
100
AcDbEntity
  8
MASS
100
AcDbLine
 10
156.3951868062
 20
-12.3120000065
 30
0.0
 11
156.3951868062
 21
-30.0404798689
 31
0.0
  0
LINE
  5
193
330
18C
100
AcDbEntity
  8
MASS
100
AcDbLine
 10
0.0
 20
-29.0404798689
 30
0.0
 11
156.3951868062
 21
-29.0404798689
 31
0.0
  0
MTEXT
  5
194
330
18C
100
AcDbEntity
  8
MASS
100
AcDbMText
 10
74.9090519483
 20
-24.5287430126
 30
0.0
 40
3.5
 41
0.0
 71
     1
 72
     1
  1
155
  7
SLDTEXTSTYLE0
 73
     1
 44
1.0
  0
ENDBLK
  5
18E
330
18C
100
AcDbEntity
  8
0
100
AcDbBlockEnd
  0
ENDSEC
  0
SECTION
  2
ENTITIES
  0
LINE
  5
79
330
1F
100
AcDbEntity
  8
ZAPFEN
100
AcDbLine
 10
-20.7360022649
 20
8.9856002468
 30
0.0
 11
-20.7360022649
 21
-8.9855997532
 31
0.0
  0
LINE
  5
7A
330
1F
100
AcDbEntity
  8
EW
  6
HIDDEN
370
    18
100
AcDbLine
 10
-20.7360022649
 20
-3.7318474983
 30
0.0
 11
-2.3417005425
 21
-3.7318474983
 31
0.0
  0
LINE
  5
7B
330
1F
100
AcDbEntity
  8
ZAPFEN
100
AcDbLine
 10
-1.5120062829
 20
9.2515064477
 30
0.0
 11
-1.5120024719
 21
9.4699935181
 31
0.0
  0
LINE
  5
7C
330
1F
100
AcDbEntity
  8
ZAPFEN
100
AcDbLine
 10
-8.8560024719
 20
9.4699935181
 30
0.0
 11
-8.856001854
 21
9.2533507347
 31
0.0
  0
LINE
  5
7D
330
1F
100
AcDbEntity
  8
EW
  6
HIDDEN
370
    18
100
AcDbLine
 10
145.5708623765
 20
10.4739119019
 30
0.0
 11
138.6588903944
 21
10.4543994962
 31
0.0
  0
LINE
  5
7E
330
1F
100
AcDbEntity
  8
EW
  6
HIDDEN
370
    18
100
AcDbLine
 10
152.4719199572
 20
10.4933934964
 30
0.0
 11
145.5708623765
 21
10.4739119019
 31
0.0
  0
LINE
  5
7F
330
1F
100
AcDbEntity
  8
ZAPFEN
100
AcDbLine
 10
-1.5120027272
 20
-9.4699934477
 30
0.0
 11
-1.5120027272
 21
-9.2530829364
 31
0.0
  0
LINE
  5
80
330
1F
100
AcDbEntity
  8
ZAPFEN
100
AcDbLine
 10
-8.8560024305
 20
-9.2558694834
 30
0.0
 11
-8.8560024305
 21
-9.4699934477
 31
0.0
  0
LINE
  5
81
330
1F
100
AcDbEntity
  8
ZAPFEN
100
AcDbLine
 10
-1.6046063511
 20
9.8155946235
 30
0.0
 11
-2.3600177765
 21
11.1240000128
 31
0.0
  0
LINE
  5
82
330
1F
100
AcDbEntity
  8
ZAPFEN
100
AcDbLine
 10
-8.0079903603
 20
11.1240000129
 30
0.0
 11
-8.7633992253
 21
9.815593528
 31
0.0
  0
LINE
  5
83
330
1F
100
AcDbEntity
  8
ZAPFEN
100
AcDbLine
 10
-8.7633992253
 20
-9.815593528
 30
0.0
 11
-8.0079903603
 21
-11.1240000129
 31
0.0
  0
LINE
  5
84
330
1F
100
AcDbEntity
  8
ZAPFEN
100
AcDbLine
 10
-2.3600177765
 20
-11.1240000128
 30
0.0
 11
-1.6046063511
 21
-9.8155946235
 31
0.0
  0
LINE
  5
85
330
1F
100
AcDbEntity
  8
EW
  6
HIDDEN
370
    18
100
AcDbLine
 10
136.9222496431
 20
-12.9600001575
 30
0.0
 11
154.2195285837
 21
-12.9600001575
 31
0.0
  0
LINE
  5
86
330
1F
100
AcDbEntity
  8
EW
  6
HIDDEN
370
    18
100
AcDbLine
 10
152.6603667753
 20
-12.9600001575
 30
0.0
 11
152.6603667753
 21
10.4550721112
 31
0.0
  0
LINE
  5
87
330
1F
100
AcDbEntity
  8
EW
  6
HIDDEN
370
    18
100
AcDbLine
 10
138.6588903944
 20
10.4543994962
 30
0.0
 11
138.6588903944
 21
-12.960093455
 31
0.0
  0
LINE
  5
88
330
1F
100
AcDbEntity
  8
AUFNAHME
  6
Continuous
370
    18
100
AcDbLine
 10
0.6479916572
 20
-16.8480003477
 30
0.0
 11
23.8882480088
 21
-16.8480003477
 31
0.0
  0
LINE
  5
89
330
1F
100
AcDbEntity
  8
AUFNAHME
  6
Continuous
370
    18
100
AcDbLine
 10
119.1567855467
 20
16.8480003476
 30
0.0
 11
44.6740525933
 21
16.8480003476
 31
0.0
  0
LINE
  5
8A
330
1F
100
AcDbEntity
  8
AUFNAHME
  6
Continuous
370
    18
100
AcDbLine
 10
119.1567855467
 20
-16.8480003477
 30
0.0
 11
119.2431855445
 21
-16.7616004943
 31
0.0
  0
LINE
  5
8B
330
1F
100
AcDbEntity
  8
AUFNAHME
  6
Continuous
370
    18
100
AcDbLine
 10
119.2431855445
 20
16.7616004944
 30
0.0
 11
119.1567855467
 21
16.8480003476
 31
0.0
  0
LINE
  5
8C
330
1F
100
AcDbEntity
  8
AUFNAHME
  6
Continuous
370
    18
100
AcDbLine
 10
0.6479916572
 20
16.8480003476
 30
0.0
 11
0.0
 21
16.2000006437
 31
0.0
  0
LINE
  5
8D
330
1F
100
AcDbEntity
  8
AUFNAHME
  6
Continuous
370
    18
100
AcDbLine
 10
0.0
 20
-16.2000006437
 30
0.0
 11
0.6479916572
 21
-16.8480003477
 31
0.0
  0
LINE
  5
8E
330
1F
100
AcDbEntity
  8
ZAPFEN
100
AcDbLine
 10
-16.848001957
 20
-9.5039999485
 30
0.0
 11
-9.5506124496
 21
-9.5039999485
 31
0.0
  0
LINE
  5
8F
330
1F
100
AcDbEntity
  8
ZAPFEN
100
AcDbLine
 10
-9.5520157814
 20
9.5039999486
 30
0.0
 11
-16.848001957
 21
9.5039999486
 31
0.0
  0
LINE
  5
90
330
1F
100
AcDbEntity
  8
ZAPFEN
100
AcDbLine
 10
-0.8043665886
 20
-9.4736134708
 30
0.0
 11
-0.3278122994
 21
-9.345920043
 31
0.0
  0
LINE
  5
91
330
1F
100
AcDbEntity
  8
ZAPFEN
100
AcDbLine
 10
-0.3278122994
 20
9.3459200431
 30
0.0
 11
-0.8043665886
 21
9.4736134708
 31
0.0
  0
LINE
  5
92
330
1F
100
AcDbEntity
  8
ZAPFEN
100
AcDbLine
 10
-16.848001957
 20
9.5039999486
 30
0.0
 11
-18.6978378296
 21
9.24402228
 31
0.0
  0
LINE
  5
93
330
1F
100
AcDbEntity
  8
ZAPFEN
100
AcDbLine
 10
-18.6978378296
 20
-9.24402228
 30
0.0
 11
-16.848001957
 21
-9.5039999485
 31
0.0
  0
LINE
  5
94
330
1F
100
AcDbEntity
  8
ZAPFEN
100
AcDbLine
 10
-20.1275837398
 20
-9.4961239155
 30
0.0
 11
-18.6978378296
 21
-9.24402228
 31
0.0
  0
LINE
  5
95
330
1F
100
AcDbEntity
  8
ZAPFEN
100
AcDbLine
 10
-18.6978378296
 20
9.24402228
 30
0.0
 11
-20.1275837399
 21
9.4961239154
 31
0.0
  0
LINE
  5
96
330
1F
100
AcDbEntity
  8
AUFNAHME
  6
Continuous
370
    18
100
AcDbLine
 10
138.7093024497
 20
12.4943438172
 30
0.0
 11
138.6116855984
 21
12.54429245
 31
0.0
  0
LINE
  5
97
330
1F
100
AcDbEntity
  8
ZAPFEN
100
AcDbLine
 10
148.4893403297
 20
16.2130812406
 30
0.0
 11
147.4095859771
 21
16.5023993253
 31
0.0
  0
LINE
  5
98
330
1F
100
AcDbEntity
  8
ZAPFEN
100
AcDbLine
 10
143.7807857042
 20
16.5023993253
 30
0.0
 11
142.696814919
 21
16.2119514942
 31
0.0
  0
LINE
  5
99
330
1F
100
AcDbEntity
  8
EW
  6
HIDDEN
370
    18
100
AcDbLine
 10
136.9222496431
 20
-12.9600001575
 30
0.0
 11
136.9222496431
 21
-13.910400957
 31
0.0
  0
LINE
  5
9A
330
1F
100
AcDbEntity
  8
ZAPFEN
100
AcDbLine
 10
138.9423858767
 20
15.5453898311
 30
0.0
 11
138.9423858767
 21
12.9599997103
 31
0.0
  0
LINE
  5
9B
330
1F
100
AcDbEntity
  8
ZAPFEN
100
AcDbLine
 10
141.7095391057
 20
16.415999736
 30
0.0
 11
139.8254342578
 21
16.415999736
 31
0.0
  0
LINE
  5
9C
330
1F
100
AcDbEntity
  8
ZAPFEN
100
AcDbLine
 10
151.3839858085
 20
16.415999736
 30
0.0
 11
149.485538771
 21
16.415999736
 31
0.0
  0
LINE
  5
9D
330
1F
100
AcDbEntity
  8
AUFNAHME
  6
Continuous
370
    18
100
AcDbLine
 10
137.0610249286
 20
-13.9104005098
 30
0.0
 11
137.0681976919
 21
-13.9175716639
 31
0.0
  0
LINE
  5
9E
330
1F
100
AcDbEntity
  8
AUFNAHME
  6
Continuous
370
    18
100
AcDbLine
 10
137.0681976919
 20
-13.9175716639
 30
0.0
 11
142.8132705336
 21
-15.4569606185
 31
0.0
  0
LINE
  5
9F
330
1F
100
AcDbEntity
  8
AUFNAHME
  6
Continuous
370
    18
100
AcDbLine
 10
148.3770995383
 20
-15.4569606185
 30
0.0
 11
154.12217238
 21
-13.9175716639
 31
0.0
  0
LINE
  5
A0
330
1F
100
AcDbEntity
  8
AUFNAHME
  6
Continuous
370
    18
100
AcDbLine
 10
152.4974173298
 20
10.4641633299
 30
0.0
 11
152.2479783287
 21
10.7136015263
 31
0.0
  0
LINE
  5
A1
330
1F
100
AcDbEntity
  8
AUFNAHME
  6
Continuous
370
    18
100
AcDbLine
 10
119.3295855424
 20
-16.8480003477
 30
0.0
 11
120.2799855938
 21
-16.8480003477
 31
0.0
  0
LINE
  5
A2
330
1F
100
AcDbEntity
  8
AUFNAHME
  6
Continuous
370
    18
100
AcDbLine
 10
120.2799855938
 20
16.8480003476
 30
0.0
 11
119.3295855424
 21
16.8480003476
 31
0.0
  0
LINE
  5
A3
330
1F
100
AcDbEntity
  8
AUFNAHME
  6
Continuous
370
    18
100
AcDbLine
 10
119.3295855424
 20
16.8480003476
 30
0.0
 11
119.2431855445
 21
16.7616004944
 31
0.0
  0
LINE
  5
A4
330
1F
100
AcDbEntity
  8
AUFNAHME
  6
Continuous
370
    18
100
AcDbLine
 10
119.2431855445
 20
-16.7616004943
 30
0.0
 11
119.3295855424
 21
-16.8480003477
 31
0.0
  0
LINE
  5
A5
330
1F
100
AcDbEntity
  8
AUFNAHME
  6
Continuous
370
    18
100
AcDbLine
 10
120.9982901442
 20
-16.4159999194
 30
0.0
 11
135.0765770952
 21
-16.4159999194
 31
0.0
  0
LINE
  5
A6
330
1F
100
AcDbEntity
  8
AUFNAHME
  6
Continuous
370
    18
100
AcDbLine
 10
122.6046629548
 20
16.4159999161
 30
0.0
 11
120.9982920983
 21
16.4159999161
 31
0.0
  0
LINE
  5
A7
330
1F
100
AcDbEntity
  8
AUFNAHME
  6
Continuous
370
    18
100
AcDbLine
 10
155.4723481183
 20
-13.9104005099
 30
0.0
 11
156.3951868062
 21
-12.3120000065
 31
0.0
  0
LINE
  5
A8
330
1F
100
AcDbEntity
  8
AUFNAHME
  6
Continuous
370
    18
100
AcDbLine
 10
120.2799855938
 20
-16.8480003477
 30
0.0
 11
120.5095373207
 21
-16.6184482184
 31
0.0
  0
LINE
  5
A9
330
1F
100
AcDbEntity
  8
AUFNAHME
  6
Continuous
370
    18
100
AcDbLine
 10
120.5095372373
 20
16.6184482598
 30
0.0
 11
120.2799855938
 21
16.8480003476
 31
0.0
  0
LINE
  5
AA
330
1F
100
AcDbEntity
  8
EW
  6
HIDDEN
370
    18
100
AcDbLine
 10
154.2195285837
 20
-13.910400957
 30
0.0
 11
154.2195285837
 21
-12.9600001575
 31
0.0
  0
LINE
  5
AB
330
1F
100
AcDbEntity
  8
EW
  6
HIDDEN
370
    18
100
AcDbLine
 10
-2.3417005425
 20
3.7318474983
 30
0.0
 11
-20.6676868992
 21
3.7318474983
 31
0.0
  0
LINE
  5
AC
330
1F
100
AcDbEntity
  8
EW
  6
HIDDEN
370
    18
100
AcDbLine
 10
-2.3417005425
 20
3.7318474983
 30
0.0
 11
-2.3417005425
 21
-3.7318474983
 31
0.0
  0
LINE
  5
AD
330
1F
100
AcDbEntity
  8
ZAPFEN
100
AcDbLine
 10
-2.9586137119
 20
11.4695999812
 30
0.0
 11
-7.4093936267
 21
11.4695999812
 31
0.0
  0
LINE
  5
AE
330
1F
100
AcDbEntity
  8
ZAPFEN
100
AcDbLine
 10
-2.9586137119
 20
-11.4695999812
 30
0.0
 11
-7.4093936267
 21
-11.4695999812
 31
0.0
  0
LINE
  5
AF
330
1F
100
AcDbEntity
  8
UNSICHT
  6
CENTER
370
    18
100
AcDbLine
 10
-23.8497958512
 20
0.0
 30
0.0
 11
161.6431994283
 21
0.0
 31
0.0
  0
LINE
  5
B0
330
1F
100
AcDbEntity
  8
UNSICHT
  6
CENTER
370
    18
100
AcDbLine
 10
145.595185036
 20
-16.0902933778
 30
0.0
 11
145.595185036
 21
17.6790105171
 31
0.0
  0
LINE
  5
B1
330
1F
100
AcDbEntity
  8
EW
  6
HIDDEN
370
    18
100
AcDbLine
 10
-2.3417005425
 20
3.7318474983
 30
0.0
 11
-0.66706093
 21
0.0
 31
0.0
  0
LINE
  5
B2
330
1F
100
AcDbEntity
  8
EW
  6
HIDDEN
370
    18
100
AcDbLine
 10
-0.66706093
 20
0.0
 30
0.0
 11
-2.3417005425
 21
-3.7318474983
 31
0.0
  0
LINE
  5
B3
330
1F
100
AcDbEntity
  8
AUFNAHME
  6
Continuous
370
    18
100
AcDbLine
 10
23.8882480088
 20
16.8480003476
 30
0.0
 11
44.6740525933
 21
16.8480003476
 31
0.0
  0
LINE
  5
B4
330
1F
100
AcDbEntity
  8
AUFNAHME
  6
Continuous
370
    18
100
AcDbLine
 10
44.6740525933
 20
-16.8480003477
 30
0.0
 11
119.1567855467
 21
-16.8480003477
 31
0.0
  0
LINE
  5
B5
330
1F
100
AcDbEntity
  8
AUFNAHME
  6
Continuous
370
    18
100
AcDbLine
 10
23.8882480088
 20
16.8480003476
 30
0.0
 11
0.6479916572
 21
16.8480003476
 31
0.0
  0
LINE
  5
B6
330
1F
100
AcDbEntity
  8
AUFNAHME
  6
Continuous
370
    18
100
AcDbLine
 10
23.8882480088
 20
-16.8480003477
 30
0.0
 11
44.6740525933
 21
-16.8480003477
 31
0.0
  0
LINE
  5
B7
330
1F
100
AcDbEntity
  8
AUFNAHME
  6
Continuous
370
    18
100
AcDbLine
 10
0.6479916572
 20
-16.8480003477
 30
0.0
 11
0.6479916572
 21
16.8480003476
 31
0.0
  0
LINE
  5
B8
330
1F
100
AcDbEntity
  8
AUFNAHME
  6
Continuous
370
    18
100
AcDbLine
 10
119.1567855467
 20
-16.8480003477
 30
0.0
 11
119.1567855467
 21
16.8480003476
 31
0.0
  0
LINE
  5
B9
330
1F
100
AcDbEntity
  8
AUFNAHME
  6
Continuous
370
    18
100
AcDbLine
 10
119.2431855445
 20
-16.7616004943
 30
0.0
 11
119.2431855445
 21
16.7616004944
 31
0.0
  0
LINE
  5
BA
330
1F
100
AcDbEntity
  8
AUFNAHME
  6
Continuous
370
    18
100
AcDbLine
 10
0.0
 20
-16.2000006437
 30
0.0
 11
0.0
 21
16.2000006437
 31
0.0
  0
LINE
  5
BB
330
1F
100
AcDbEntity
  8
ZAPFEN
100
AcDbLine
 10
-0.9177789688
 20
9.4503909051
 30
0.0
 11
-0.9177789688
 21
-9.4503909051
 31
0.0
  0
LINE
  5
BC
330
1F
100
AcDbEntity
  8
ZAPFEN
100
AcDbLine
 10
-0.8061561584
 20
-9.4669564962
 30
0.0
 11
-0.8174986839
 21
-9.4652200342
 31
0.0
  0
LINE
  5
BD
330
1F
100
AcDbEntity
  8
ZAPFEN
100
AcDbLine
 10
-0.8174986839
 20
-9.4652200342
 30
0.0
 11
-0.9177789688
 21
-9.4503909051
 31
0.0
  0
LINE
  5
BE
330
1F
100
AcDbEntity
  8
ZAPFEN
100
AcDbLine
 10
-0.9177789688
 20
9.4503909051
 30
0.0
 11
-0.7993583679
 21
9.4679969251
 31
0.0
  0
LINE
  5
BF
330
1F
100
AcDbEntity
  8
ZAPFEN
100
AcDbLine
 10
-0.7993583679
 20
9.4679969251
 30
0.0
 11
-0.8061561584
 21
9.4669564962
 31
0.0
  0
LINE
  5
C0
330
1F
100
AcDbEntity
  8
ZAPFEN
100
AcDbLine
 10
-18.6978378296
 20
-9.24402228
 30
0.0
 11
-18.6978378296
 21
9.24402228
 31
0.0
  0
LINE
  5
C1
330
1F
100
AcDbEntity
  8
AUFNAHME
  6
Continuous
370
    18
100
AcDbLine
 10
139.4927461987
 20
11.2997721434
 30
0.0
 11
139.3889929896
 21
11.4888292551
 31
0.0
  0
LINE
  5
C2
330
1F
100
AcDbEntity
  8
AUFNAHME
  6
Continuous
370
    18
100
AcDbLine
 10
139.3889929896
 20
11.4888292551
 30
0.0
 11
139.3192512636
 21
11.5791622997
 31
0.0
  0
LINE
  5
C3
330
1F
100
AcDbEntity
  8
AUFNAHME
  6
Continuous
370
    18
100
AcDbLine
 10
139.3192512636
 20
11.5791622997
 30
0.0
 11
139.2897153144
 21
11.5627447664
 31
0.0
  0
LINE
  5
C4
330
1F
100
AcDbEntity
  8
AUFNAHME
  6
Continuous
370
    18
100
AcDbLine
 10
139.2897153144
 20
11.5627447664
 30
0.0
 11
139.3030131702
 21
11.4410363137
 31
0.0
  0
LINE
  5
C5
330
1F
100
AcDbEntity
  8
AUFNAHME
  6
Continuous
370
    18
100
AcDbLine
 10
139.3030131702
 20
11.4410363137
 30
0.0
 11
139.357961977
 21
11.2248499989
 31
0.0
  0
LINE
  5
C6
330
1F
100
AcDbEntity
  8
AUFNAHME
  6
Continuous
370
    18
100
AcDbLine
 10
139.357961977
 20
11.2248499989
 30
0.0
 11
139.4496774321
 21
10.9333947301
 31
0.0
  0
LINE
  5
C7
330
1F
100
AcDbEntity
  8
AUFNAHME
  6
Continuous
370
    18
100
AcDbLine
 10
139.4496774321
 20
10.9333947301
 30
0.0
 11
139.4954257255
 21
10.7999422252
 31
0.0
  0
LINE
  5
C8
330
1F
100
AcDbEntity
  8
AUFNAHME
  6
Continuous
370
    18
100
AcDbLine
 10
139.5206486826
 20
11.207570672
 30
0.0
 11
139.4233472591
 21
11.383990556
 31
0.0
  0
LINE
  5
C9
330
1F
100
AcDbEntity
  8
AUFNAHME
  6
Continuous
370
    18
100
AcDbLine
 10
139.4233472591
 20
11.383990556
 30
0.0
 11
139.3601506596
 21
11.4619132876
 31
0.0
  0
LINE
  5
CA
330
1F
100
AcDbEntity
  8
AUFNAHME
  6
Continuous
370
    18
100
AcDbLine
 10
139.3601506596
 20
11.4619132876
 30
0.0
 11
139.337245131
 21
11.4337106645
 31
0.0
  0
LINE
  5
CB
330
1F
100
AcDbEntity
  8
AUFNAHME
  6
Continuous
370
    18
100
AcDbLine
 10
139.337245131
 20
11.4337106645
 30
0.0
 11
139.3568740731
 21
11.302144289
 31
0.0
  0
LINE
  5
CC
330
1F
100
AcDbEntity
  8
AUFNAHME
  6
Continuous
370
    18
100
AcDbLine
 10
139.3568740731
 20
11.302144289
 30
0.0
 11
139.4171159511
 21
11.080091983
 31
0.0
  0
LINE
  5
CD
330
1F
100
AcDbEntity
  8
AUFNAHME
  6
Continuous
370
    18
100
AcDbLine
 10
139.4171159511
 20
11.080091983
 30
0.0
 11
139.5083711391
 21
10.8000001609
 31
0.0
  0
LINE
  5
CE
330
1F
100
AcDbEntity
  8
AUFNAHME
  6
Continuous
370
    18
100
AcDbLine
 10
139.7559594159
 20
10.6872379481
 30
0.0
 11
139.6425325518
 21
10.9499216973
 31
0.0
  0
LINE
  5
CF
330
1F
100
AcDbEntity
  8
AUFNAHME
  6
Continuous
370
    18
100
AcDbLine
 10
139.6425325518
 20
10.9499216973
 30
0.0
 11
139.5206486826
 21
11.207570672
 31
0.0
  0
LINE
  5
D0
330
1F
100
AcDbEntity
  8
AUFNAHME
  6
Continuous
370
    18
100
AcDbLine
 10
139.9864083772
 20
10.6271996499
 30
0.0
 11
139.9142059927
 21
10.7985131442
 31
0.0
  0
LINE
  5
D1
330
1F
100
AcDbEntity
  8
AUFNAHME
  6
Continuous
370
    18
100
AcDbLine
 10
139.9142059927
 20
10.7985131442
 30
0.0
 11
139.6871510987
 21
11.273786366
 31
0.0
  0
LINE
  5
D2
330
1F
100
AcDbEntity
  8
AUFNAHME
  6
Continuous
370
    18
100
AcDbLine
 10
139.6871510987
 20
11.273786366
 30
0.0
 11
139.4428217058
 21
11.6985171139
 31
0.0
  0
LINE
  5
D3
330
1F
100
AcDbEntity
  8
AUFNAHME
  6
Continuous
370
    18
100
AcDbLine
 10
139.4428217058
 20
11.6985171139
 30
0.0
 11
139.1926440244
 21
12.0528430939
 31
0.0
  0
LINE
  5
D4
330
1F
100
AcDbEntity
  8
AUFNAHME
  6
Continuous
370
    18
100
AcDbLine
 10
139.1926440244
 20
12.0528430939
 30
0.0
 11
138.9483146315
 21
12.3201987147
 31
0.0
  0
LINE
  5
D5
330
1F
100
AcDbEntity
  8
AUFNAHME
  6
Continuous
370
    18
100
AcDbLine
 10
138.9483146315
 20
12.3201987147
 30
0.0
 11
138.7212581282
 21
12.4880803228
 31
0.0
  0
LINE
  5
D6
330
1F
100
AcDbEntity
  8
AUFNAHME
  6
Continuous
370
    18
100
AcDbLine
 10
138.5254949575
 20
11.4537435471
 30
0.0
 11
138.5470196848
 21
11.5865539313
 31
0.0
  0
LINE
  5
D7
330
1F
100
AcDbEntity
  8
AUFNAHME
  6
Continuous
370
    18
100
AcDbLine
 10
138.5470196848
 20
11.5865539313
 30
0.0
 11
138.6267295723
 21
11.7552192807
 31
0.0
  0
LINE
  5
D8
330
1F
100
AcDbEntity
  8
AUFNAHME
  6
Continuous
370
    18
100
AcDbLine
 10
138.6267295723
 20
11.7552192807
 30
0.0
 11
138.75353154
 21
11.8174116612
 31
0.0
  0
LINE
  5
D9
330
1F
100
AcDbEntity
  8
AUFNAHME
  6
Continuous
370
    18
100
AcDbLine
 10
138.75353154
 20
11.8174116612
 30
0.0
 11
138.8415565197
 21
11.8039895625
 31
0.0
  0
LINE
  5
DA
330
1F
100
AcDbEntity
  8
AUFNAHME
  6
Continuous
370
    18
100
AcDbLine
 10
144.8469396477
 20
-1.2960000113
 30
0.0
 11
144.0986934548
 21
0.0
 31
0.0
  0
LINE
  5
DB
330
1F
100
AcDbEntity
  8
AUFNAHME
  6
Continuous
370
    18
100
AcDbLine
 10
144.8469396477
 20
-1.2960000113
 30
0.0
 11
146.3434304242
 21
-1.2960000113
 31
0.0
  0
LINE
  5
DC
330
1F
100
AcDbEntity
  8
AUFNAHME
  6
Continuous
370
    18
100
AcDbLine
 10
147.0916766172
 20
0.0
 30
0.0
 11
146.3434304242
 21
-1.2960000113
 31
0.0
  0
LINE
  5
DD
330
1F
100
AcDbEntity
  8
AUFNAHME
  6
Continuous
370
    18
100
AcDbLine
 10
146.3434304242
 20
1.2960000112
 30
0.0
 11
147.0916766172
 21
0.0
 31
0.0
  0
LINE
  5
DE
330
1F
100
AcDbEntity
  8
AUFNAHME
  6
Continuous
370
    18
100
AcDbLine
 10
146.3434304242
 20
1.2960000112
 30
0.0
 11
144.8469396477
 21
1.2960000112
 31
0.0
  0
LINE
  5
DF
330
1F
100
AcDbEntity
  8
AUFNAHME
  6
Continuous
370
    18
100
AcDbLine
 10
144.8469396477
 20
1.2960000112
 30
0.0
 11
144.0986934548
 21
0.0
 31
0.0
  0
LINE
  5
E0
330
1F
100
AcDbEntity
  8
ZAPFEN
100
AcDbLine
 10
143.7807857042
 20
16.5023993253
 30
0.0
 11
147.4095859771
 21
16.5023993253
 31
0.0
  0
LINE
  5
E1
330
1F
100
AcDbEntity
  8
ZAPFEN
100
AcDbLine
 10
159.4053236293
 20
9.058843915
 30
0.0
 11
159.8400024223
 21
17.3529924495
 31
0.0
  0
LINE
  5
E2
330
1F
100
AcDbEntity
  8
ZAPFEN
100
AcDbLine
 10
151.9063662534
 20
13.3106025159
 30
0.0
 11
158.871969547
 21
8.7870866729
 31
0.0
  0
LINE
  5
E3
330
1F
100
AcDbEntity
  8
ZAPFEN
100
AcDbLine
 10
159.3379759922
 20
17.6790105171
 30
0.0
 11
151.9376941799
 21
13.9083789368
 31
0.0
  0
LINE
  5
E4
330
1F
100
AcDbEntity
  8
ZAPFEN
100
AcDbLine
 10
152.2479855445
 20
15.552
 30
0.0
 11
152.2436583286
 21
15.6381754876
 31
0.0
  0
LINE
  5
E5
330
1F
100
AcDbEntity
  8
ZAPFEN
100
AcDbLine
 10
152.2436583286
 20
15.6381754876
 30
0.0
 11
152.2324381118
 21
15.7137574553
 31
0.0
  0
LINE
  5
E6
330
1F
100
AcDbEntity
  8
ZAPFEN
100
AcDbLine
 10
152.2324381118
 20
15.7137574553
 30
0.0
 11
152.202626968
 21
15.8210624457
 31
0.0
  0
LINE
  5
E7
330
1F
100
AcDbEntity
  8
ZAPFEN
100
AcDbLine
 10
152.202626968
 20
15.8210624457
 30
0.0
 11
152.1304841285
 21
15.956033349
 31
0.0
  0
LINE
  5
E8
330
1F
100
AcDbEntity
  8
ZAPFEN
100
AcDbLine
 10
152.1304841285
 20
15.956033349
 30
0.0
 11
151.9481411224
 21
16.075780034
 31
0.0
  0
LINE
  5
E9
330
1F
100
AcDbEntity
  8
ZAPFEN
100
AcDbLine
 10
151.9481411224
 20
16.075780034
 30
0.0
 11
151.7546776776
 21
16.0494514703
 31
0.0
  0
LINE
  5
EA
330
1F
100
AcDbEntity
  8
ZAPFEN
100
AcDbLine
 10
151.7546776776
 20
16.0494514703
 30
0.0
 11
151.5655658489
 21
15.8928270935
 31
0.0
  0
LINE
  5
EB
330
1F
100
AcDbEntity
  8
ZAPFEN
100
AcDbLine
 10
151.5655658489
 20
15.8928270935
 30
0.0
 11
151.4853667264
 21
15.7744435071
 31
0.0
  0
LINE
  5
EC
330
1F
100
AcDbEntity
  8
ZAPFEN
100
AcDbLine
 10
151.4853667264
 20
15.7744435071
 30
0.0
 11
151.4018298631
 21
15.5762245058
 31
0.0
  0
LINE
  5
ED
330
1F
100
AcDbEntity
  8
ZAPFEN
100
AcDbLine
 10
151.4018298631
 20
15.5762245058
 30
0.0
 11
151.3762769942
 21
15.473842442
 31
0.0
  0
LINE
  5
EE
330
1F
100
AcDbEntity
  8
ZAPFEN
100
AcDbLine
 10
151.3762769942
 20
15.473842442
 30
0.0
 11
151.359070087
 21
15.3464434147
 31
0.0
  0
LINE
  5
EF
330
1F
100
AcDbEntity
  8
ZAPFEN
100
AcDbLine
 10
151.359070087
 20
15.3464434147
 30
0.0
 11
151.3566786294
 21
15.2802856564
 31
0.0
  0
LINE
  5
F0
330
1F
100
AcDbEntity
  8
ZAPFEN
100
AcDbLine
 10
151.3566774946
 20
13.0045069097
 30
0.0
 11
151.3566774946
 21
10.7698258101
 31
0.0
  0
LINE
  5
F1
330
1F
100
AcDbEntity
  8
ZAPFEN
100
AcDbLine
 10
151.3566786294
 20
15.2802856564
 30
0.0
 11
151.3566786294
 21
14.1416605711
 31
0.0
  0
LINE
  5
F2
330
1F
100
AcDbEntity
  8
ZAPFEN
100
AcDbLine
 10
152.9391865037
 20
16.415999736
 30
0.0
 11
151.3839858085
 21
16.415999736
 31
0.0
  0
LINE
  5
F3
330
1F
100
AcDbEntity
  8
ZAPFEN
100
AcDbLine
 10
152.2479841952
 20
14.9053933024
 30
0.0
 11
152.2479855445
 21
15.552
 31
0.0
  0
LINE
  5
F4
330
1F
100
AcDbEntity
  8
ZAPFEN
100
AcDbLine
 10
152.2479783287
 20
10.7136015263
 30
0.0
 11
152.2479783287
 21
12.240773287
 31
0.0
  0
LINE
  5
F5
330
1F
100
AcDbEntity
  8
ZAPFEN
100
AcDbLine
 10
157.8087152486
 20
17.1790788174
 30
0.0
 11
158.6492948775
 21
17.3281103969
 31
0.0
  0
LINE
  5
F6
330
1F
100
AcDbEntity
  8
ZAPFEN
100
AcDbLine
 10
157.7640438578
 20
17.2667535202
 30
0.0
 11
152.9391865037
 21
16.415999736
 31
0.0
  0
LINE
  5
F7
330
1F
100
AcDbEntity
  8
ZAPFEN
100
AcDbLine
 10
153.8677897859
 20
14.8918166938
 30
0.0
 11
152.6890863854
 21
14.9535887703
 31
0.0
  0
LINE
  5
F8
330
1F
100
AcDbEntity
  8
ZAPFEN
100
AcDbLine
 10
157.7640438578
 20
17.2667535202
 30
0.0
 11
157.9216805003
 21
16.9573719757
 31
0.0
  0
LINE
  5
F9
330
1F
100
AcDbEntity
  8
ZAPFEN
100
AcDbLine
 10
156.8300651555
 20
8.4672001004
 30
0.0
 11
159.0500136857
 21
8.4672001004
 31
0.0
  0
LINE
  5
FA
330
1F
100
AcDbEntity
  8
ZAPFEN
100
AcDbLine
 10
152.9391803731
 20
10.7136015263
 30
0.0
 11
154.1279536476
 21
10.0272628631
 31
0.0
  0
LINE
  5
FB
330
1F
100
AcDbEntity
  8
ZAPFEN
100
AcDbLine
 10
156.3951868062
 20
8.7182773947
 30
0.0
 11
156.8300651555
 21
8.4672001004
 31
0.0
  0
LINE
  5
FC
330
1F
100
AcDbEntity
  8
ZAPFEN
100
AcDbLine
 10
152.5443896045
 20
12.1925762447
 30
0.0
 11
153.7230920411
 21
12.1308034141
 31
0.0
  0
LINE
  5
FD
330
1F
100
AcDbEntity
  8
ZAPFEN
100
AcDbLine
 10
159.0625760798
 20
8.7069268227
 30
0.0
 11
159.0216831212
 21
8.7334839105
 31
0.0
  0
LINE
  5
FE
330
1F
100
AcDbEntity
  8
ZAPFEN
100
AcDbLine
 10
159.0500136857
 20
8.4672001004
 30
0.0
 11
159.0625760798
 21
8.7069268227
 31
0.0
  0
LINE
  5
FF
330
1F
100
AcDbEntity
  8
ZAPFEN
100
AcDbLine
 10
152.2479783287
 20
10.7136015263
 30
0.0
 11
152.9391803731
 21
10.7136015263
 31
0.0
  0
LINE
  5
100
330
1F
100
AcDbEntity
  8
ZAPFEN
100
AcDbLine
 10
159.0493796115
 20
8.731500417
 30
0.0
 11
159.0625760798
 21
8.7069268227
 31
0.0
  0
LINE
  5
101
330
1F
100
AcDbEntity
  8
AUFNAHME
  6
Continuous
370
    18
100
AcDbLine
 10
154.12217238
 20
-13.9175716639
 30
0.0
 11
137.0681976919
 21
-13.9175716639
 31
0.0
  0
LINE
  5
102
330
1F
100
AcDbEntity
  8
AUFNAHME
  6
Continuous
370
    18
100
AcDbLine
 10
148.3770995383
 20
-15.4569606185
 30
0.0
 11
142.8132705336
 21
-15.4569606185
 31
0.0
  0
LINE
  5
103
330
1F
100
AcDbEntity
  8
ZAPFEN
100
AcDbLine
 10
152.2479783287
 20
10.7136015263
 30
0.0
 11
152.1849088659
 21
10.7134357658
 31
0.0
  0
LINE
  5
104
330
1F
100
AcDbEntity
  8
ZAPFEN
100
AcDbLine
 10
152.1849088659
 20
10.7134357658
 30
0.0
 11
151.9968913784
 21
10.7129441169
 31
0.0
  0
LINE
  5
105
330
1F
100
AcDbEntity
  8
ZAPFEN
100
AcDbLine
 10
151.9968913784
 20
10.7129441169
 30
0.0
 11
151.6874792566
 21
10.7121338215
 31
0.0
  0
LINE
  5
106
330
1F
100
AcDbEntity
  8
ZAPFEN
100
AcDbLine
 10
151.6874792566
 20
10.7121338215
 30
0.0
 11
151.5730980625
 21
10.7118344869
 31
0.0
  0
LINE
  5
107
330
1F
100
AcDbEntity
  8
ZAPFEN
100
AcDbLine
 10
152.2479783287
 20
10.7136015263
 30
0.0
 11
151.566503047
 21
10.7136015263
 31
0.0
  0
LINE
  5
108
330
1F
100
AcDbEntity
  8
AUFNAHME
  6
Continuous
370
    18
100
AcDbLine
 10
119.3295855424
 20
-16.8480003477
 30
0.0
 11
119.3295855424
 21
16.8480003476
 31
0.0
  0
LINE
  5
109
330
1F
100
AcDbEntity
  8
AUFNAHME
  6
Continuous
370
    18
100
AcDbLine
 10
149.6534265524
 20
11.2262090742
 30
0.0
 11
150.9134510064
 21
10.8885863078
 31
0.0
  0
LINE
  5
10A
330
1F
100
AcDbEntity
  8
AUFNAHME
  6
Continuous
370
    18
100
AcDbLine
 10
150.9134510064
 20
10.8885863078
 30
0.0
 11
152.2049443773
 21
10.5425314358
 31
0.0
  0
LINE
  5
10B
330
1F
100
AcDbEntity
  8
AUFNAHME
  6
Continuous
370
    18
100
AcDbLine
 10
152.2049443773
 20
10.5425314358
 30
0.0
 11
153.5269086604
 21
10.188312471
 31
0.0
  0
LINE
  5
10C
330
1F
100
AcDbEntity
  8
AUFNAHME
  6
Continuous
370
    18
100
AcDbLine
 10
153.5269086604
 20
-13.910400957
 30
0.0
 11
136.9222496431
 21
-13.910400957
 31
0.0
  0
LINE
  5
10D
330
1F
100
AcDbEntity
  8
AUFNAHME
  6
Continuous
370
    18
100
AcDbLine
 10
136.3236524786
 20
-14.2560012913
 30
0.0
 11
135.9751825612
 21
-14.859569818
 31
0.0
  0
LINE
  5
10E
330
1F
100
AcDbEntity
  8
AUFNAHME
  6
Continuous
370
    18
100
AcDbLine
 10
135.9751825612
 20
-14.859569818
 30
0.0
 11
135.6813326161
 21
-15.3685318531
 31
0.0
  0
LINE
  5
10F
330
1F
100
AcDbEntity
  8
AUFNAHME
  6
Continuous
370
    18
100
AcDbLine
 10
135.6813326161
 20
-15.3685318531
 30
0.0
 11
135.4439764302
 21
-15.7796452941
 31
0.0
  0
LINE
  5
110
330
1F
100
AcDbEntity
  8
AUFNAHME
  6
Continuous
370
    18
100
AcDbLine
 10
135.4439764302
 20
-15.7796452941
 30
0.0
 11
135.2646235506
 21
-16.0902933778
 31
0.0
  0
LINE
  5
111
330
1F
100
AcDbEntity
  8
AUFNAHME
  6
Continuous
370
    18
100
AcDbLine
 10
135.2646235506
 20
-16.0902933778
 30
0.0
 11
135.1444182079
 21
-16.298496634
 31
0.0
  0
LINE
  5
112
330
1F
100
AcDbEntity
  8
AUFNAHME
  6
Continuous
370
    18
100
AcDbLine
 10
135.1444182079
 20
-16.298496634
 30
0.0
 11
135.0841232221
 21
-16.4029305877
 31
0.0
  0
LINE
  5
113
330
1F
100
AcDbEntity
  8
AUFNAHME
  6
Continuous
370
    18
100
AcDbLine
 10
135.0841232221
 20
-16.4029305877
 30
0.0
 11
135.0765770952
 21
-16.4159999194
 31
0.0
  0
LINE
  5
114
330
1F
100
AcDbEntity
  8
AUFNAHME
  6
Continuous
370
    18
100
AcDbLine
 10
122.6046629548
 20
16.4159999161
 30
0.0
 11
122.63364107
 21
16.3658082781
 31
0.0
  0
LINE
  5
115
330
1F
100
AcDbEntity
  8
AUFNAHME
  6
Continuous
370
    18
100
AcDbLine
 10
122.63364107
 20
16.3658082781
 30
0.0
 11
122.720398599
 21
16.215540731
 31
0.0
  0
LINE
  5
116
330
1F
100
AcDbEntity
  8
AUFNAHME
  6
Continuous
370
    18
100
AcDbLine
 10
122.720398599
 20
16.215540731
 30
0.0
 11
122.8644046559
 21
15.9661146074
 31
0.0
  0
LINE
  5
117
330
1F
100
AcDbEntity
  8
AUFNAHME
  6
Continuous
370
    18
100
AcDbLine
 10
122.8644046559
 20
15.9661146074
 30
0.0
 11
123.0647789486
 21
15.6190555322
 31
0.0
  0
LINE
  5
118
330
1F
100
AcDbEntity
  8
AUFNAHME
  6
Continuous
370
    18
100
AcDbLine
 10
123.0647789486
 20
15.6190555322
 30
0.0
 11
123.3202963694
 21
15.1764878302
 31
0.0
  0
LINE
  5
119
330
1F
100
AcDbEntity
  8
AUFNAHME
  6
Continuous
370
    18
100
AcDbLine
 10
123.3202963694
 20
15.1764878302
 30
0.0
 11
123.6293938681
 21
14.6411151558
 31
0.0
  0
LINE
  5
11A
330
1F
100
AcDbEntity
  8
AUFNAHME
  6
Continuous
370
    18
100
AcDbLine
 10
123.6293938681
 20
14.6411151558
 30
0.0
 11
123.9901816919
 21
14.0162124902
 31
0.0
  0
LINE
  5
11B
330
1F
100
AcDbEntity
  8
AUFNAHME
  6
Continuous
370
    18
100
AcDbLine
 10
123.9901816919
 20
14.0162124902
 30
0.0
 11
124.4004534557
 21
13.3056003718
 31
0.0
  0
LINE
  5
11C
330
1F
100
AcDbEntity
  8
AUFNAHME
  6
Continuous
370
    18
100
AcDbLine
 10
124.9990508472
 20
12.9599997103
 30
0.0
 11
138.832443202
 21
12.9599997103
 31
0.0
  0
LINE
  5
11D
330
1F
100
AcDbEntity
  8
AUFNAHME
  6
Continuous
370
    18
100
AcDbLine
 10
138.832443202
 20
12.9599997103
 30
0.0
 11
138.6919233447
 21
12.8666395247
 31
0.0
  0
LINE
  5
11E
330
1F
100
AcDbEntity
  8
AUFNAHME
  6
Continuous
370
    18
100
AcDbLine
 10
138.6919233447
 20
12.8666395247
 30
0.0
 11
138.3423553352
 21
12.5148643255
 31
0.0
  0
LINE
  5
11F
330
1F
100
AcDbEntity
  8
AUFNAHME
  6
Continuous
370
    18
100
AcDbLine
 10
138.3423553352
 20
12.5148643255
 30
0.0
 11
138.217033947
 21
12.1700237095
 31
0.0
  0
LINE
  5
120
330
1F
100
AcDbEntity
  8
AUFNAHME
  6
Continuous
370
    18
100
AcDbLine
 10
138.217033947
 20
12.1700237095
 30
0.0
 11
138.2765934711
 21
11.8039367794
 31
0.0
  0
LINE
  5
121
330
1F
100
AcDbEntity
  8
AUFNAHME
  6
Continuous
370
    18
100
AcDbLine
 10
138.2765934711
 20
11.8039367794
 30
0.0
 11
138.4931233769
 21
11.4701828062
 31
0.0
  0
LINE
  5
122
330
1F
100
AcDbEntity
  8
AUFNAHME
  6
Continuous
370
    18
100
AcDbLine
 10
138.4931233769
 20
11.4701828062
 30
0.0
 11
139.0507176165
 21
11.0215696692
 31
0.0
  0
LINE
  5
123
330
1F
100
AcDbEntity
  8
AUFNAHME
  6
Continuous
370
    18
100
AcDbLine
 10
139.0507176165
 20
11.0215696692
 30
0.0
 11
139.6207648163
 21
10.7313543856
 31
0.0
  0
LINE
  5
124
330
1F
100
AcDbEntity
  8
AUFNAHME
  6
Continuous
370
    18
100
AcDbLine
 10
139.6207648163
 20
10.7313543856
 30
0.0
 11
140.2440002208
 21
10.5037732422
 31
0.0
  0
LINE
  5
125
330
1F
100
AcDbEntity
  8
AUFNAHME
  6
Continuous
370
    18
100
AcDbLine
 10
140.2440002208
 20
10.5037732422
 30
0.0
 11
141.4826271777
 21
10.2123034894
 31
0.0
  0
LINE
  5
126
330
1F
100
AcDbEntity
  8
AUFNAHME
  6
Continuous
370
    18
100
AcDbLine
 10
141.4826271777
 20
10.2123034894
 30
0.0
 11
142.7662734037
 21
10.063448131
 31
0.0
  0
LINE
  5
127
330
1F
100
AcDbEntity
  8
AUFNAHME
  6
Continuous
370
    18
100
AcDbLine
 10
142.7662734037
 20
10.063448131
 30
0.0
 11
144.952548409
 21
10.0626394451
 31
0.0
  0
LINE
  5
128
330
1F
100
AcDbEntity
  8
AUFNAHME
  6
Continuous
370
    18
100
AcDbLine
 10
144.952548409
 20
10.0626394451
 30
0.0
 11
147.107338572
 21
10.3505107462
 31
0.0
  0
LINE
  5
129
330
1F
100
AcDbEntity
  8
AUFNAHME
  6
Continuous
370
    18
100
AcDbLine
 10
147.107338572
 20
10.3505107462
 30
0.0
 11
148.1251886135
 21
10.5989085138
 31
0.0
  0
LINE
  5
12A
330
1F
100
AcDbEntity
  8
AUFNAHME
  6
Continuous
370
    18
100
AcDbLine
 10
148.1251886135
 20
10.5989085138
 30
0.0
 11
149.0889170414
 21
10.9412361681
 31
0.0
  0
LINE
  5
12B
330
1F
100
AcDbEntity
  8
AUFNAHME
  6
Continuous
370
    18
100
AcDbLine
 10
149.0889170414
 20
10.9412361681
 30
0.0
 11
149.6534265524
 21
11.2262090742
 31
0.0
  0
LINE
  5
12C
330
1F
100
AcDbEntity
  8
AUFNAHME
  6
Continuous
370
    18
100
AcDbLine
 10
154.2751548533
 20
-13.910400957
 30
0.0
 11
153.5269086604
 21
-13.910400957
 31
0.0
  0
LINE
  5
12D
330
1F
100
AcDbEntity
  8
AUFNAHME
  6
Continuous
370
    18
100
AcDbLine
 10
153.5269086604
 20
10.188312471
 30
0.0
 11
153.7489247566
 21
10.1288237571
 31
0.0
  0
LINE
  5
12E
330
1F
100
AcDbEntity
  8
AUFNAHME
  6
Continuous
370
    18
100
AcDbLine
 10
153.7489247566
 20
10.1288237571
 30
0.0
 11
153.9621185308
 21
10.0716983377
 31
0.0
  0
LINE
  5
12F
330
1F
100
AcDbEntity
  8
AUFNAHME
  6
Continuous
370
    18
100
AcDbLine
 10
153.9621185308
 20
10.0716983377
 30
0.0
 11
154.1342841621
 21
10.0255662205
 31
0.0
  0
LINE
  5
130
330
1F
100
AcDbEntity
  8
AUFNAHME
  6
Continuous
370
    18
100
AcDbLine
 10
154.1342841621
 20
10.0255662205
 30
0.0
 11
154.2751548533
 21
9.9878202974
 31
0.0
  0
LINE
  5
131
330
1F
100
AcDbEntity
  8
AUFNAHME
  6
Continuous
370
    18
100
AcDbLine
 10
154.2751548533
 20
-13.910400957
 30
0.0
 11
155.4705617671
 21
-13.910400957
 31
0.0
  0
LINE
  5
132
330
1F
100
AcDbEntity
  8
AUFNAHME
  6
Continuous
370
    18
100
AcDbLine
 10
154.2751548533
 20
9.9878202974
 30
0.0
 11
155.369731093
 21
9.6945295929
 31
0.0
  0
LINE
  5
133
330
1F
100
AcDbEntity
  8
AUFNAHME
  6
Continuous
370
    18
100
AcDbLine
 10
155.369731093
 20
9.6945295929
 30
0.0
 11
156.3951868062
 21
9.4197598099
 31
0.0
  0
LINE
  5
134
330
1F
100
AcDbEntity
  8
AUFNAHME
  6
Continuous
370
    18
100
AcDbLine
 10
156.3951868062
 20
-12.3120000065
 30
0.0
 11
156.3951868062
 21
9.4197598099
 31
0.0
  0
LINE
  5
135
330
1F
100
AcDbEntity
  8
AUFNAHME
  6
Continuous
370
    18
100
AcDbLine
 10
138.832443202
 20
12.9599997103
 30
0.0
 11
143.1828295831
 21
12.9599997103
 31
0.0
  0
LINE
  5
136
330
1F
100
AcDbEntity
  8
AUFNAHME
  6
Continuous
370
    18
100
AcDbLine
 10
143.1828295831
 20
12.9599997103
 30
0.0
 11
143.8846370821
 21
12.7719516455
 31
0.0
  0
LINE
  5
137
330
1F
100
AcDbEntity
  8
AUFNAHME
  6
Continuous
370
    18
100
AcDbLine
 10
143.8846370821
 20
12.7719516455
 30
0.0
 11
144.6199088935
 21
12.574935615
 31
0.0
  0
LINE
  5
138
330
1F
100
AcDbEntity
  8
AUFNAHME
  6
Continuous
370
    18
100
AcDbLine
 10
144.6199088935
 20
12.574935615
 30
0.0
 11
145.3692413812
 21
12.3741529583
 31
0.0
  0
LINE
  5
139
330
1F
100
AcDbEntity
  8
AUFNAHME
  6
Continuous
370
    18
100
AcDbLine
 10
145.3692413812
 20
12.3741529583
 30
0.0
 11
146.1128511076
 21
12.1749031841
 31
0.0
  0
LINE
  5
13A
330
1F
100
AcDbEntity
  8
AUFNAHME
  6
Continuous
370
    18
100
AcDbLine
 10
146.1128511076
 20
12.1749031841
 30
0.0
 11
148.2227003679
 21
11.6095708339
 31
0.0
  0
LINE
  5
13B
330
1F
100
AcDbEntity
  8
AUFNAHME
  6
Continuous
370
    18
100
AcDbLine
 10
148.1169070249
 20
11.6379179657
 30
0.0
 11
148.6505046134
 21
11.4949414729
 31
0.0
  0
LINE
  5
13C
330
1F
100
AcDbEntity
  8
AUFNAHME
  6
Continuous
370
    18
100
AcDbLine
 10
148.6505046134
 20
11.4949414729
 30
0.0
 11
149.0917623286
 21
11.3767059445
 31
0.0
  0
LINE
  5
13D
330
1F
100
AcDbEntity
  8
AUFNAHME
  6
Continuous
370
    18
100
AcDbLine
 10
149.0917623286
 20
11.3767059445
 30
0.0
 11
149.4290383105
 21
11.2863334715
 31
0.0
  0
LINE
  5
13E
330
1F
100
AcDbEntity
  8
AUFNAHME
  6
Continuous
370
    18
100
AcDbLine
 10
149.4290383105
 20
11.2863334715
 30
0.0
 11
149.6534265524
 21
11.2262090742
 31
0.0
  0
LINE
  5
13F
330
1F
100
AcDbEntity
  8
AUFNAHME
  6
Continuous
370
    18
100
AcDbLine
 10
138.6993037109
 20
12.4994598628
 30
0.0
 11
138.5032315498
 21
12.5916782319
 31
0.0
  0
LINE
  5
140
330
1F
100
AcDbEntity
  8
ZAPFEN
100
AcDbLine
 10
142.9362326508
 20
16.164671123
 30
0.0
 11
148.2008784061
 21
16.164671123
 31
0.0
  0
LINE
  5
141
330
1F
100
AcDbEntity
  8
AUFNAHME
  6
Continuous
370
    18
100
AcDbLine
 10
153.5269086604
 20
-13.910400957
 30
0.0
 11
153.5269086604
 21
10.188312471
 31
0.0
  0
LINE
  5
142
330
1F
100
AcDbEntity
  8
AUFNAHME
  6
Continuous
370
    18
100
AcDbLine
 10
154.2751548533
 20
-13.910400957
 30
0.0
 11
154.2751548533
 21
9.9878202974
 31
0.0
  0
ARC
  5
143
330
1F
100
AcDbEntity
  8
ZAPFEN
100
AcDbCircle
 10
-2.2032024719
 20
9.4699935181
 30
0.0
 40
0.6912000000000057
100
AcDbArc
 50
0.0
 51
30.0001058097
  0
ARC
  5
144
330
1F
100
AcDbEntity
  8
ZAPFEN
100
AcDbCircle
 10
-8.1648024719
 20
9.4699935181
 30
0.0
 40
0.6912000000000251
100
AcDbArc
 50
149.9999990546
 51
180.0
  0
ARC
  5
145
330
1F
100
AcDbEntity
  8
ZAPFEN
100
AcDbCircle
 10
-2.2032008218
 20
-9.4699944708
 30
0.0
 40
0.6911980945351762
100
AcDbArc
 50
329.9998941903
 51
0.0000848123
  0
ARC
  5
146
330
1F
100
AcDbEntity
  8
ZAPFEN
100
AcDbCircle
 10
-8.1648027395
 20
-9.4699936726
 30
0.0
 40
0.6911996910336305
100
AcDbArc
 50
179.9999813574
 51
210.0000009454
  0
ARC
  5
147
330
1F
100
AcDbEntity
  8
ZAPFEN
100
AcDbCircle
 10
-2.9586137119
 20
10.7784013763
 30
0.0
 40
0.6911986049377535
100
AcDbArc
 50
29.9999362575
 51
90.0
  0
ARC
  5
148
330
1F
100
AcDbEntity
  8
ZAPFEN
100
AcDbCircle
 10
-7.4093936267
 20
10.7783999938
 30
0.0
 40
0.6911999874533219
100
AcDbArc
 50
90.0
 51
149.9999975719
  0
ARC
  5
149
330
1F
100
AcDbEntity
  8
ZAPFEN
100
AcDbCircle
 10
-2.9586137119
 20
-10.7784013762
 30
0.0
 40
0.6911986049809453
100
AcDbArc
 50
270.0
 51
330.0000637363
  0
ARC
  5
14A
330
1F
100
AcDbEntity
  8
ZAPFEN
100
AcDbCircle
 10
-7.4093936267
 20
-10.7783999937
 30
0.0
 40
0.6911999874965336
100
AcDbArc
 50
210.0000024343
 51
270.0
  0
ARC
  5
14B
330
1F
100
AcDbEntity
  8
ZAPFEN
100
AcDbCircle
 10
-0.2160024719
 20
-9.7631999999
 30
0.0
 40
0.4319999999737417
100
AcDbArc
 50
60.0
 51
105.0000000067
  0
ARC
  5
14C
330
1F
100
AcDbEntity
  8
ZAPFEN
100
AcDbCircle
 10
-0.2160024719
 20
9.7632
 30
0.0
 40
0.4319999999737505
100
AcDbArc
 50
254.9999999933
 51
300.0
  0
ARC
  5
14D
330
1F
100
AcDbEntity
  8
ZAPFEN
100
AcDbCircle
 10
-20.2176025154
 20
-8.9855997532
 30
0.0
 40
0.518399749440006
100
AcDbArc
 50
180.0
 51
279.9999555364
  0
ARC
  5
14E
330
1F
100
AcDbEntity
  8
ZAPFEN
100
AcDbCircle
 10
-20.2176025154
 20
8.9855997531
 30
0.0
 40
0.5183997494402283
100
AcDbArc
 50
80.0000444686
 51
179.999945441
  0
ARC
  5
14F
330
1F
100
AcDbEntity
  8
AUFNAHME
  6
Continuous
370
    18
100
AcDbCircle
 10
138.1681666656
 20
9.7516382026
 30
0.0
 40
2.160000000058464
100
AcDbArc
 50
57.9081642183
 51
71.8349995959
  0
ARC
  5
150
330
1F
100
AcDbEntity
  8
ZAPFEN
100
AcDbCircle
 10
139.7741023284
 20
15.5873353634
 30
0.0
 40
0.8237477629551639
100
AcDbArc
 50
86.4177778228
 51
182.8664428705
  0
ARC
  5
151
330
1F
100
AcDbEntity
  8
AUFNAHME
  6
Continuous
370
    18
100
AcDbCircle
 10
120.9982901442
 20
-17.1072001852
 30
0.0
 40
0.6912002658528031
100
AcDbArc
 50
90.0
 51
135.0000502147
  0
ARC
  5
152
330
1F
100
AcDbEntity
  8
AUFNAHME
  6
Continuous
370
    18
100
AcDbCircle
 10
120.9982901055
 20
17.1072001819
 30
0.0
 40
0.6912002658556724
100
AcDbArc
 50
224.9999445557
 51
270.0001651908
  0
CIRCLE
  5
153
330
1F
100
AcDbEntity
  8
ZAPFEN
100
AcDbCircle
 10
-8.3376024719
 20
0.0
 30
0.0
 40
2.592
  0
ARC
  5
154
330
1F
100
AcDbEntity
  8
ZAPFEN
100
AcDbCircle
 10
-5.1867111726
 20
-20.8215915308
 30
0.0
 40
12.14610990522554
100
AcDbArc
 50
69.4230543182
 51
111.0562220674
  0
ARC
  5
155
330
1F
100
AcDbEntity
  8
ZAPFEN
100
AcDbCircle
 10
-5.1867235606
 20
20.8240364995
 30
0.0
 40
12.14840327099462
100
AcDbArc
 50
248.9409125465
 51
290.5729475465
  0
ARC
  5
156
330
1F
100
AcDbEntity
  8
AUFNAHME
  6
Continuous
370
    18
100
AcDbCircle
 10
130.4278859435
 20
6.8506146992
 30
0.0
 40
10.09785588179868
100
AcDbArc
 50
22.2877442357
 51
26.1424361301
  0
CIRCLE
  5
157
330
1F
100
AcDbEntity
  8
AUFNAHME
  6
Continuous
370
    18
100
AcDbCircle
 10
145.5951855445
 20
0.0
 30
0.0
 40
2.030399999999979
  0
CIRCLE
  5
158
330
1F
100
AcDbEntity
  8
AUFNAHME
  6
Continuous
370
    18
100
AcDbCircle
 10
145.5951855445
 20
0.0
 30
0.0
 40
2.591999999999911
  0
CIRCLE
  5
159
330
1F
100
AcDbEntity
  8
ZAPFEN
100
AcDbCircle
 10
156.7582549976
 20
13.3560349227
 30
0.0
 40
1.490399999999912
  0
ARC
  5
15A
330
1F
100
AcDbEntity
  8
ZAPFEN
100
AcDbCircle
 10
159.0601969691
 20
9.0769314744
 30
0.0
 40
0.3456003058194114
100
AcDbArc
 50
236.9999989995
 51
356.9999606587
  0
ARC
  5
15B
330
1F
100
AcDbEntity
  8
ZAPFEN
100
AcDbCircle
 10
152.0945932526
 20
13.600447141
 30
0.0
 40
0.3455999275173719
100
AcDbArc
 50
116.9999979317
 51
237.0000418641
  0
ARC
  5
15C
330
1F
100
AcDbEntity
  8
ZAPFEN
100
AcDbCircle
 10
159.4948753698
 20
17.3710781231
 30
0.0
 40
0.345600598916621
100
AcDbArc
 50
357.0002762839
 51
116.9999979549
  0
ARC
  5
15D
330
1F
100
AcDbEntity
  8
ZAPFEN
100
AcDbCircle
 10
151.3839858085
 20
15.552
 30
0.0
 40
0.8639997360479903
100
AcDbArc
 50
0.0
 51
90.0
  0
ARC
  5
15E
330
1F
100
AcDbEntity
  8
ZAPFEN
100
AcDbCircle
 10
152.6167384649
 20
13.5730824828
 30
0.0
 40
1.382400749162031
100
AcDbArc
 50
155.7136269026
 51
204.2862587366
  0
ARC
  5
15F
330
1F
100
AcDbEntity
  8
ZAPFEN
100
AcDbCircle
 10
145.5975389383
 20
32.5588963233
 30
0.0
 40
16.60450700639505
100
AcDbArc
 50
256.4582830127
 51
283.5417169873
  0
ARC
  5
160
330
1F
100
AcDbEntity
  8
ZAPFEN
100
AcDbCircle
 10
152.6167384649
 20
13.5730824828
 30
0.0
 40
1.382400749162018
100
AcDbArc
 50
105.4709154488
 51
155.7136269026
  0
ARC
  5
161
330
1F
100
AcDbEntity
  8
ZAPFEN
100
AcDbCircle
 10
152.6167384649
 20
13.5730824828
 30
0.0
 40
1.382400749162032
100
AcDbArc
 50
204.2862587366
 51
254.5288322607
  0
ARC
  5
162
330
1F
100
AcDbEntity
  8
ZAPFEN
100
AcDbCircle
 10
152.6167384649
 20
13.5730824828
 30
0.0
 40
1.382400749162031
100
AcDbArc
 50
87.0000558059
 51
105.4709154488
  0
ARC
  5
163
330
1F
100
AcDbEntity
  8
AUFNAHME
  6
Continuous
370
    18
100
AcDbCircle
 10
152.6167384649
 20
13.5730824828
 30
0.0
 40
1.382400749162033
100
AcDbArc
 50
254.5288322607
 51
267.0000168002
  0
ARC
  5
164
330
1F
100
AcDbEntity
  8
AUFNAHME
  6
Continuous
370
    18
100
AcDbCircle
 10
136.9222493581
 20
-14.6016008313
 30
0.0
 40
0.6911998742880511
100
AcDbArc
 50
89.9999763798
 51
150.0000380099
  0
ARC
  5
165
330
1F
100
AcDbEntity
  8
AUFNAHME
  6
Continuous
370
    18
100
AcDbCircle
 10
124.9990508472
 20
13.6512001441
 30
0.0
 40
0.6912004338204384
100
AcDbArc
 50
209.9999574385
 51
270.0
  0
ARC
  5
166
330
1F
100
AcDbEntity
  8
AUFNAHME
  6
Continuous
370
    18
100
AcDbCircle
 10
136.2057638983
 20
9.5317570778
 30
0.0
 40
4.042569419118763
100
AcDbArc
 50
14.6792425035
 51
53.6950695889
  0
ARC
  5
167
330
1F
100
AcDbEntity
  8
ZAPFEN
100
AcDbCircle
 10
145.58032767
 20
35.0750711683
 30
0.0
 40
20.62037254435205
100
AcDbArc
 50
251.2816486496
 51
286.2678652482
  0
ARC
  5
168
330
1F
100
AcDbEntity
  8
ZAPFEN
100
AcDbCircle
 10
145.5956064609
 20
30.5005084648
 30
0.0
 40
15.22756453288649
100
AcDbArc
 50
247.7331261905
 51
292.3414312708
  0
DIMENSION
  5
169
330
1F
100
AcDbEntity
  8
MASS
100
AcDbDimension
  2
_D
 10
0.0
 20
25.9620833424
 30
0.0
 11
79.9200012112
 21
25.9620833424
 31
0.0
 70
   160
  1
<>
 71
     2
 42
-1.0
  3
SLDDIMSTYLE0
100
AcDbAlignedDimension
 13
159.8400024223
 23
17.3529924495
 33
0.0
 14
0.0
 24
16.2000006437
 34
0.0
 50
0.0
100
AcDbRotatedDimension
  0
DIMENSION
  5
175
330
1F
100
AcDbEntity
  8
MASS
100
AcDbDimension
  2
_D_1
 10
-39.4734475534
 20
16.8480003476
 30
0.0
 11
-39.4734475534
 21
0.0
 31
0.0
 70
   160
  1
%%c<>
 71
     2
 42
-1.0
  3
SLDDIMSTYLE1
100
AcDbAlignedDimension
 13
0.6479916572
 23
-16.8480003477
 33
0.0
 14
0.6479916572
 24
16.8480003476
 34
0.0
 50
90.0
100
AcDbRotatedDimension
  0
DIMENSION
  5
181
330
1F
100
AcDbEntity
  8
MASS
100
AcDbDimension
  2
_D_2
 10
-29.8872338406
 20
-9.5039999485
 30
0.0
 11
-29.8872338406
 21
0.0
 31
0.0
 70
   160
  1
CKB3
 71
     2
 42
-1.0
  3
SLDDIMSTYLE1
100
AcDbAlignedDimension
 13
-16.848001957
 23
9.5039999486
 33
0.0
 14
-16.848001957
 24
-9.5039999485
 34
0.0
 50
90.0
100
AcDbRotatedDimension
  0
DIMENSION
  5
18B
330
1F
100
AcDbEntity
  8
MASS
100
AcDbDimension
  2
_D_3
 10
156.3951868062
 20
-29.0404798689
 30
0.0
 11
78.1975934031
 21
-29.0404798689
 31
0.0
 70
   160
  1
155
 71
     2
 42
-1.0
  3
SLDDIMSTYLE1
100
AcDbAlignedDimension
 13
0.0
 23
-16.2000006437
 33
0.0
 14
156.3951868062
 24
-12.3120000065
 34
0.0
 50
0.0
100
AcDbRotatedDimension
  0
MTEXT
  5
195
330
1F
100
AcDbEntity
  8
TEXT
100
AcDbMText
 10
99.5212761541
 20
-9.8419482919
 30
0.0
 40
3.5
 41
0.0
 71
     1
 72
     1
  1
807.016
  7
SLDTEXTSTYLE0
 73
     1
 44
1.0
  0
ENDSEC
  0
SECTION
  2
OBJECTS
  0
DICTIONARY
  5
C
330
0
100
AcDbDictionary
281
     1
  3
ACAD_GROUP
350
D
  3
ACAD_LAYOUT
350
1A
  3
ACAD_MLINESTYLE
350
17
  3
ACAD_PLOTSETTINGS
350
19
  3
ACAD_PLOTSTYLENAME
350
E
  3
ACAD_SCALELIST
350
47
  0
DICTIONARY
  5
D
102
{ACAD_REACTORS
330
C
102
}
330
C
100
AcDbDictionary
281
     1
  0
DICTIONARY
  5
1A
102
{ACAD_REACTORS
330
C
102
}
330
C
100
AcDbDictionary
281
     1
  3
Layout1
350
1E
  3
Layout2
350
26
  3
Model
350
22
  0
DICTIONARY
  5
17
102
{ACAD_REACTORS
330
C
102
}
330
C
100
AcDbDictionary
281
     1
  3
Standard
350
18
  0
DICTIONARY
  5
19
102
{ACAD_REACTORS
330
C
102
}
330
C
100
AcDbDictionary
281
     1
  0
ACDBDICTIONARYWDFLT
  5
E
102
{ACAD_REACTORS
330
C
102
}
330
C
100
AcDbDictionary
281
     1
  3
Normal
350
F
100
AcDbDictionaryWithDefault
340
F
  0
DICTIONARY
  5
47
102
{ACAD_REACTORS
330
C
102
}
330
C
100
AcDbDictionary
281
     1
  3
A0
350
48
  3
A1
350
49
  3
A2
350
4A
  3
A3
350
4B
  3
A4
350
4C
  3
A5
350
4D
  3
A6
350
4E
  3
A7
350
4F
  3
A8
350
50
  3
A9
350
51
  3
B0
350
52
  3
B1
350
53
  3
B2
350
54
  3
B3
350
55
  3
B4
350
56
  3
B5
350
57
  3
B6
350
58
  3
B7
350
59
  3
B8
350
5A
  3
B9
350
5B
  3
C0
350
5C
  3
C1
350
5D
  3
C2
350
5E
  3
C3
350
5F
  3
C4
350
60
  3
C5
350
61
  3
C6
350
62
  3
C7
350
63
  3
C8
350
64
  3
C9
350
65
  3
D0
350
66
  3
D1
350
67
  3
D2
350
68
  0
LAYOUT
  5
1E
102
{ACAD_REACTORS
330
1A
102
}
330
1A
100
AcDbPlotSettings
  1

  2
none_device
  4

  6

 40
0.0
 41
0.0
 42
0.0
 43
0.0
 44
0.0
 45
0.0
 46
0.0
 47
0.0
 48
0.0
 49
0.0
140
0.0
141
0.0
142
1.0
143
1.0
 70
   688
 72
     1
 73
     0
 74
     5
  7

 75
    16
147
1.0
148
0.0
149
0.0
100
AcDbLayout
  1
Layout1
 70
     1
 71
     1
 10
0.0
 20
0.0
 11
420.0
 21
297.0
 12
0.0
 22
0.0
 32
0.0
 14
1.0000000000E+20
 24
1.0000000000E+20
 34
1.0000000000E+20
 15
-1.0000000000E+20
 25
-1.0000000000E+20
 35
-1.0000000000E+20
146
0.0
 13
0.0
 23
0.0
 33
0.0
 16
1.0
 26
0.0
 36
0.0
 17
0.0
 27
1.0
 37
0.0
 76
     0
330
1B
  0
LAYOUT
  5
26
102
{ACAD_REACTORS
330
1A
102
}
330
1A
100
AcDbPlotSettings
  1

  2
none_device
  4

  6

 40
0.0
 41
0.0
 42
0.0
 43
0.0
 44
0.0
 45
0.0
 46
0.0
 47
0.0
 48
0.0
 49
0.0
140
0.0
141
0.0
142
1.0
143
1.0
 70
   688
 72
     1
 73
     0
 74
     5
  7

 75
    16
147
1.0
148
0.0
149
0.0
100
AcDbLayout
  1
Layout2
 70
     1
 71
     2
 10
0.0
 20
0.0
 11
0.0
 21
0.0
 12
0.0
 22
0.0
 32
0.0
 14
0.0
 24
0.0
 34
0.0
 15
0.0
 25
0.0
 35
0.0
146
0.0
 13
0.0
 23
0.0
 33
0.0
 16
1.0
 26
0.0
 36
0.0
 17
0.0
 27
1.0
 37
0.0
 76
     0
330
23
  0
LAYOUT
  5
22
102
{ACAD_REACTORS
330
1A
102
}
330
1A
100
AcDbPlotSettings
  1

  2
none_device
  4
Letter_(8.50_x_11.00_Inches)
  6

 40
6.35
 41
6.35
 42
6.35000508
 43
6.35000508
 44
215.9
 45
279.4
 46
0.0
 47
0.0
 48
0.0
 49
0.0
140
0.0
141
0.0
142
1.0
143
1.0
 70
  1712
 72
     1
 73
     0
 74
     0
  7

 75
     0
147
1.0
148
0.0
149
0.0
100
AcDbLayout
  1
Model
 70
     1
 71
     0
 10
0.0
 20
0.0
 11
420.0
 21
297.0
 12
0.0
 22
0.0
 32
0.0
 14
0.0
 24
0.0
 34
0.0
 15
420.0
 25
297.0
 35
0.0
146
0.0
 13
0.0
 23
0.0
 33
0.0
 16
1.0
 26
0.0
 36
0.0
 17
0.0
 27
1.0
 37
0.0
 76
     0
330
1F
331
29
  0
MLINESTYLE
  5
18
102
{ACAD_REACTORS
330
17
102
}
330
17
100
AcDbMlineStyle
  2
Standard
 70
     0
  3

 62
   256
 51
90.0
 52
90.0
 71
     2
 49
0.5
 62
   256
  6
BYLAYER
 49
-0.5
 62
   256
  6
BYLAYER
  0
ACDBPLACEHOLDER
  5
F
102
{ACAD_REACTORS
330
E
102
}
330
E
  0
SCALE
  5
48
102
{ACAD_REACTORS
330
47
102
}
330
47
100
AcDbScale
 70
     0
300
1:1
140
1.0
141
1.0
290
     1
  0
SCALE
  5
49
102
{ACAD_REACTORS
330
47
102
}
330
47
100
AcDbScale
 70
     0
300
1:2
140
1.0
141
2.0
290
     0
  0
SCALE
  5
4A
102
{ACAD_REACTORS
330
47
102
}
330
47
100
AcDbScale
 70
     0
300
1:4
140
1.0
141
4.0
290
     0
  0
SCALE
  5
4B
102
{ACAD_REACTORS
330
47
102
}
330
47
100
AcDbScale
 70
     0
300
1:5
140
1.0
141
5.0
290
     0
  0
SCALE
  5
4C
102
{ACAD_REACTORS
330
47
102
}
330
47
100
AcDbScale
 70
     0
300
1:8
140
1.0
141
8.0
290
     0
  0
SCALE
  5
4D
102
{ACAD_REACTORS
330
47
102
}
330
47
100
AcDbScale
 70
     0
300
1:10
140
1.0
141
10.0
290
     0
  0
SCALE
  5
4E
102
{ACAD_REACTORS
330
47
102
}
330
47
100
AcDbScale
 70
     0
300
1:16
140
1.0
141
16.0
290
     0
  0
SCALE
  5
4F
102
{ACAD_REACTORS
330
47
102
}
330
47
100
AcDbScale
 70
     0
300
1:20
140
1.0
141
20.0
290
     0
  0
SCALE
  5
50
102
{ACAD_REACTORS
330
47
102
}
330
47
100
AcDbScale
 70
     0
300
1:30
140
1.0
141
30.0
290
     0
  0
SCALE
  5
51
102
{ACAD_REACTORS
330
47
102
}
330
47
100
AcDbScale
 70
     0
300
1:40
140
1.0
141
40.0
290
     0
  0
SCALE
  5
52
102
{ACAD_REACTORS
330
47
102
}
330
47
100
AcDbScale
 70
     0
300
1:50
140
1.0
141
50.0
290
     0
  0
SCALE
  5
53
102
{ACAD_REACTORS
330
47
102
}
330
47
100
AcDbScale
 70
     0
300
1:100
140
1.0
141
100.0
290
     0
  0
SCALE
  5
54
102
{ACAD_REACTORS
330
47
102
}
330
47
100
AcDbScale
 70
     0
300
2:1
140
2.0
141
1.0
290
     0
  0
SCALE
  5
55
102
{ACAD_REACTORS
330
47
102
}
330
47
100
AcDbScale
 70
     0
300
4:1
140
4.0
141
1.0
290
     0
  0
SCALE
  5
56
102
{ACAD_REACTORS
330
47
102
}
330
47
100
AcDbScale
 70
     0
300
8:1
140
8.0
141
1.0
290
     0
  0
SCALE
  5
57
102
{ACAD_REACTORS
330
47
102
}
330
47
100
AcDbScale
 70
     0
300
10:1
140
10.0
141
1.0
290
     0
  0
SCALE
  5
58
102
{ACAD_REACTORS
330
47
102
}
330
47
100
AcDbScale
 70
     0
300
100:1
140
100.0
141
1.0
290
     0
  0
SCALE
  5
59
102
{ACAD_REACTORS
330
47
102
}
330
47
100
AcDbScale
 70
     0
300
1/128" = 1'-0"
140
0.0078125
141
12.0
290
     0
  0
SCALE
  5
5A
102
{ACAD_REACTORS
330
47
102
}
330
47
100
AcDbScale
 70
     0
300
1/64" = 1'-0"
140
0.015625
141
12.0
290
     0
  0
SCALE
  5
5B
102
{ACAD_REACTORS
330
47
102
}
330
47
100
AcDbScale
 70
     0
300
1/32" = 1'-0"
140
0.03125
141
12.0
290
     0
  0
SCALE
  5
5C
102
{ACAD_REACTORS
330
47
102
}
330
47
100
AcDbScale
 70
     0
300
1/16" = 1'-0"
140
0.0625
141
12.0
290
     0
  0
SCALE
  5
5D
102
{ACAD_REACTORS
330
47
102
}
330
47
100
AcDbScale
 70
     0
300
3/32" = 1'-0"
140
0.09375
141
12.0
290
     0
  0
SCALE
  5
5E
102
{ACAD_REACTORS
330
47
102
}
330
47
100
AcDbScale
 70
     0
300
1/8" = 1'-0"
140
0.125
141
12.0
290
     0
  0
SCALE
  5
5F
102
{ACAD_REACTORS
330
47
102
}
330
47
100
AcDbScale
 70
     0
300
3/16" = 1'-0"
140
0.1875
141
12.0
290
     0
  0
SCALE
  5
60
102
{ACAD_REACTORS
330
47
102
}
330
47
100
AcDbScale
 70
     0
300
1/4" = 1'-0"
140
0.25
141
12.0
290
     0
  0
SCALE
  5
61
102
{ACAD_REACTORS
330
47
102
}
330
47
100
AcDbScale
 70
     0
300
3/8" = 1'-0"
140
0.375
141
12.0
290
     0
  0
SCALE
  5
62
102
{ACAD_REACTORS
330
47
102
}
330
47
100
AcDbScale
 70
     0
300
1/2" = 1'-0"
140
0.5
141
12.0
290
     0
  0
SCALE
  5
63
102
{ACAD_REACTORS
330
47
102
}
330
47
100
AcDbScale
 70
     0
300
3/4" = 1'-0"
140
0.75
141
12.0
290
     0
  0
SCALE
  5
64
102
{ACAD_REACTORS
330
47
102
}
330
47
100
AcDbScale
 70
     0
300
1" = 1'-0"
140
1.0
141
12.0
290
     0
  0
SCALE
  5
65
102
{ACAD_REACTORS
330
47
102
}
330
47
100
AcDbScale
 70
     0
300
1-1/2" = 1'-0"
140
1.5
141
12.0
290
     0
  0
SCALE
  5
66
102
{ACAD_REACTORS
330
47
102
}
330
47
100
AcDbScale
 70
     0
300
3" = 1'-0"
140
3.0
141
12.0
290
     0
  0
SCALE
  5
67
102
{ACAD_REACTORS
330
47
102
}
330
47
100
AcDbScale
 70
     0
300
6" = 1'-0"
140
6.0
141
12.0
290
     0
  0
SCALE
  5
68
102
{ACAD_REACTORS
330
47
102
}
330
47
100
AcDbScale
 70
     0
300
1'-0" = 1'-0"
140
12.0
141
12.0
290
     0
  0
ENDSEC
  0
EOF
