  0
SECTION
  2
HEADER
  9
$ACADVER
  1
AC1014
  9
$ACADMAINTVER
 70
     9
  9
$DWGCODEPAGE
  3
ANSI_1252
  9
$INSBASE
 10
0.0
 20
0.0
 30
0.0
  9
$EXTMIN
 10
0.0
 20
0.0
 30
0.0
  9
$EXTMAX
 10
420.0
 20
297.0
 30
0.0
  9
$LIMMIN
 10
0.0
 20
0.0
  9
$LIMMAX
 10
420.0
 20
297.0
  9
$ORTHOMODE
 70
     0
  9
$REGENMODE
 70
     1
  9
$FILLMODE
 70
     1
  9
$QTEXTMODE
 70
     0
  9
$MIRRTEXT
 70
     1
  9
$DRAGMODE
 70
     2
  9
$LTSCALE
 40
1.0
  9
$OSMODE
 70
    37
  9
$ATTMODE
 70
     1
  9
$TEXTSIZE
 40
3.5
  9
$TRACEWID
 40
1.0
  9
$TEXTSTYLE
  7
STANDARD
  9
$CLAYER
  8
0
  9
$CELTYPE
  6
BYLAYER
  9
$CECOLOR
 62
   256
  9
$CELTSCALE
 40
1.0
  9
$DELOBJ
 70
     1
  9
$DISPSILH
 70
     0
  9
$DIMSCALE
 40
1.0
  9
$DIMASZ
 40
3.5
  9
$DIMEXO
 40
0.0
  9
$DIMDLI
 40
3.75
  9
$DIMRND
 40
0.0
  9
$DIMDLE
 40
0.0
  9
$DIMEXE
 40
1.0
  9
$DIMTP
 40
0.0
  9
$DIMTM
 40
0.0
  9
$DIMTXT
 40
3.5
  9
$DIMCEN
 40
2.5
  9
$DIMTSZ
 40
0.0
  9
$DIMTOL
 70
     0
  9
$DIMLIM
 70
     0
  9
$DIMTIH
 70
     1
  9
$DIMTOH
 70
     1
  9
$DIMSE1
 70
     0
  9
$DIMSE2
 70
     0
  9
$DIMTAD
 70
     1
  9
$DIMZIN
 70
     0
  9
$DIMBLK
  1

  9
$DIMASO
 70
     1
  9
$DIMSHO
 70
     1
  9
$DIMPOST
  1

  9
$DIMAPOST
  1

  9
$DIMALT
 70
     0
  9
$DIMALTD
 70
     3
  9
$DIMALTF
 40
0.0393700787
  9
$DIMLFAC
 40
1.0
  9
$DIMTOFL
 70
     1
  9
$DIMTVP
 40
0.0
  9
$DIMTIX
 70
     0
  9
$DIMSOXD
 70
     0
  9
$DIMSAH
 70
     0
  9
$DIMBLK1
  1

  9
$DIMBLK2
  1

  9
$DIMSTYLE
  2
ISO-25
  9
$DIMCLRD
 70
     0
  9
$DIMCLRE
 70
     0
  9
$DIMCLRT
 70
     0
  9
$DIMTFAC
 40
1.0
  9
$DIMGAP
 40
1.5
  9
$DIMJUST
 70
     0
  9
$DIMSD1
 70
     0
  9
$DIMSD2
 70
     0
  9
$DIMTOLJ
 70
     0
  9
$DIMTZIN
 70
     0
  9
$DIMALTZ
 70
     0
  9
$DIMALTTZ
 70
     0
  9
$DIMFIT
 70
     3
  9
$DIMUPT
 70
     0
  9
$DIMUNIT
 70
     2
  9
$DIMDEC
 70
     2
  9
$DIMTDEC
 70
     3
  9
$DIMALTU
 70
     2
  9
$DIMALTTD
 70
     3
  9
$DIMTXSTY
  7
STANDARD
  9
$DIMAUNIT
 70
     0
  9
$LUNITS
 70
     2
  9
$LUPREC
 70
     2
  9
$SKETCHINC
 40
1.0
  9
$FILLETRAD
 40
10.0
  9
$AUNITS
 70
     0
  9
$AUPREC
 70
     2
  9
$MENU
  1
.
  9
$ELEVATION
 40
0.0
  9
$PELEVATION
 40
0.0
  9
$THICKNESS
 40
0.0
  9
$LIMCHECK
 70
     0
  9
$CHAMFERA
 40
0.0
  9
$CHAMFERB
 40
0.0
  9
$CHAMFERC
 40
0.0
  9
$CHAMFERD
 40
0.0
  9
$SKPOLY
 70
     0
  9
$TDCREATE
 40
2458100.623269282
  9
$TDUPDATE
 40
2458100.623269641
  9
$TDINDWG
 40
0.0000000116
  9
$TDUSRTIMER
 40
0.0000000116
  9
$USRTIMER
 70
     1
  9
$ANGBASE
 50
0.0
  9
$ANGDIR
 70
     0
  9
$PDMODE
 70
     0
  9
$PDSIZE
 40
-1.0
  9
$PLINEWID
 40
0.0
  9
$COORDS
 70
     1
  9
$SPLFRAME
 70
     0
  9
$SPLINETYPE
 70
     6
  9
$SPLINESEGS
 70
     8
  9
$ATTDIA
 70
     0
  9
$ATTREQ
 70
     1
  9
$HANDLING
 70
     1
  9
$HANDSEED
  5
207
  9
$SURFTAB1
 70
     6
  9
$SURFTAB2
 70
     6
  9
$SURFTYPE
 70
     6
  9
$SURFU
 70
     6
  9
$SURFV
 70
     6
  9
$UCSNAME
  2

  9
$UCSORG
 10
0.0
 20
0.0
 30
0.0
  9
$UCSXDIR
 10
1.0
 20
0.0
 30
0.0
  9
$UCSYDIR
 10
0.0
 20
1.0
 30
0.0
  9
$PUCSNAME
  2

  9
$PUCSORG
 10
0.0
 20
0.0
 30
0.0
  9
$PUCSXDIR
 10
1.0
 20
0.0
 30
0.0
  9
$PUCSYDIR
 10
0.0
 20
1.0
 30
0.0
  9
$USERI1
 70
     0
  9
$USERI2
 70
     0
  9
$USERI3
 70
     0
  9
$USERI4
 70
     0
  9
$USERI5
 70
     0
  9
$USERR1
 40
0.0
  9
$USERR2
 40
0.0
  9
$USERR3
 40
0.0
  9
$USERR4
 40
0.0
  9
$USERR5
 40
0.0
  9
$WORLDVIEW
 70
     1
  9
$SHADEDGE
 70
     3
  9
$SHADEDIF
 70
    70
  9
$TILEMODE
 70
     1
  9
$MAXACTVP
 70
    64
  9
$PINSBASE
 10
0.0
 20
0.0
 30
0.0
  9
$PLIMCHECK
 70
     0
  9
$PEXTMIN
 10
1.0000000000E+20
 20
1.0000000000E+20
 30
1.0000000000E+20
  9
$PEXTMAX
 10
-1.0000000000E+20
 20
-1.0000000000E+20
 30
-1.0000000000E+20
  9
$PLIMMIN
 10
0.0
 20
0.0
  9
$PLIMMAX
 10
420.0
 20
297.0
  9
$UNITMODE
 70
     0
  9
$VISRETAIN
 70
     1
  9
$PLINEGEN
 70
     0
  9
$PSLTSCALE
 70
     1
  9
$TREEDEPTH
 70
  3020
  9
$PICKSTYLE
 70
     1
  9
$CMLSTYLE
  2
STANDARD
  9
$CMLJUST
 70
     0
  9
$CMLSCALE
 40
20.0
  9
$PROXYGRAPHICS
 70
     1
  9
$MEASUREMENT
 70
     1
  0
ENDSEC
  0
SECTION
  2
CLASSES
  0
CLASS
  1
ACDBDICTIONARYWDFLT
  2
AcDbDictionaryWithDefault
  3
ObjectDBX Classes
 90
        0
280
     0
281
     0
  0
CLASS
  1
VISUALSTYLE
  2
AcDbVisualStyle
  3
ObjectDBX Classes
 90
     4095
280
     0
281
     0
  0
CLASS
  1
MATERIAL
  2
AcDbMaterial
  3
ObjectDBX Classes
 90
     1153
280
     0
281
     0
  0
CLASS
  1
SCALE
  2
AcDbScale
  3
ObjectDBX Classes
 90
     1153
280
     0
281
     0
  0
CLASS
  1
TABLESTYLE
  2
AcDbTableStyle
  3
ObjectDBX Classes
 90
     4095
280
     0
281
     0
  0
CLASS
  1
MLEADERSTYLE
  2
AcDbMLeaderStyle
  3
ACDB_MLEADERSTYLE_CLASS
 90
     4095
280
     0
281
     0
  0
CLASS
  1
SUN
  2
AcDbSun
  3
SCENEOE
 90
     1153
280
     0
281
     0
  0
CLASS
  1
XRECORD
  2
AcDbXrecord
  3
ObjectDBX Classes
 90
        0
280
     0
281
     0
  0
CLASS
  1
LWPOLYLINE
  2
AcDbPolyline
  3
ObjectDBX Classes
 90
        0
280
     0
281
     1
  0
CLASS
  1
HATCH
  2
AcDbHatch
  3
ObjectDBX Classes
 90
        0
280
     0
281
     1
  0
ENDSEC
  0
SECTION
  2
TABLES
  0
TABLE
  2
VPORT
  5
8
330
0
100
AcDbSymbolTable
 70
     1
  0
VPORT
  5
29
330
8
100
AcDbSymbolTableRecord
100
AcDbViewportTableRecord
  2
*ACTIVE
 70
     0
 10
0.0
 20
0.0
 11
1.0
 21
1.0
 12
210.0
 22
148.5
 13
0.0
 23
0.0
 14
10.0
 24
10.0
 15
10.0
 25
10.0
 16
0.0
 26
0.0
 36
1.0
 17
0.0
 27
0.0
 37
0.0
 40
297.0
 41
1.4141414141
 42
50.0
 43
0.0
 44
0.0
 50
0.0
 51
0.0
 71
     0
 72
  2000
 73
     1
 74
     3
 75
     0
 76
     0
 77
     0
 78
     0
  0
ENDTAB
  0
TABLE
  2
LTYPE
  5
5
330
0
100
AcDbSymbolTable
 70
     6
  0
LTYPE
  5
14
330
5
100
AcDbSymbolTableRecord
100
AcDbLinetypeTableRecord
  2
BYBLOCK
 70
     0
  3

 72
    65
 73
     0
 40
0.0
  0
LTYPE
  5
15
330
5
100
AcDbSymbolTableRecord
100
AcDbLinetypeTableRecord
  2
BYLAYER
 70
     0
  3

 72
    65
 73
     0
 40
0.0
  0
LTYPE
  5
16
330
5
100
AcDbSymbolTableRecord
100
AcDbLinetypeTableRecord
  2
CONTINUOUS
 70
     0
  3
Solid line
 72
    65
 73
     0
 40
0.0
  0
LTYPE
  5
6E
330
5
100
AcDbSymbolTableRecord
100
AcDbLinetypeTableRecord
  2
HIDDEN
 70
     0
  3
Hidden __ __ __ __ __ __ __ __ __ __ __ __ __ __
 72
    65
 73
     2
 40
1.905
 49
1.27
 74
     0
 49
-0.635
 74
     0
  0
LTYPE
  5
6F
330
5
100
AcDbSymbolTableRecord
100
AcDbLinetypeTableRecord
  2
PHANTOM
 70
     0
  3
Phantom ______  __  __  ______  __  __  ______
 72
    65
 73
     6
 40
12.7
 49
6.35
 74
     0
 49
-1.27
 74
     0
 49
1.27
 74
     0
 49
-1.27
 74
     0
 49
1.27
 74
     0
 49
-1.27
 74
     0
  0
LTYPE
  5
70
330
5
100
AcDbSymbolTableRecord
100
AcDbLinetypeTableRecord
  2
CENTER
 70
     0
  3
Center ____ _ ____ _ ____ _ ____ _ ____ _ ____
 72
    65
 73
     4
 40
10.16
 49
6.35
 74
     0
 49
-1.27
 74
     0
 49
1.27
 74
     0
 49
-1.27
 74
     0
  0
LTYPE
  5
71
330
5
100
AcDbSymbolTableRecord
100
AcDbLinetypeTableRecord
  2
CENTERX2
 70
     0
  3
Center (2x) ________  __  ________  __  _____
 72
    65
 73
     4
 40
20.32
 49
12.7
 74
     0
 49
-2.54
 74
     0
 49
2.54
 74
     0
 49
-2.54
 74
     0
  0
LTYPE
  5
72
330
5
100
AcDbSymbolTableRecord
100
AcDbLinetypeTableRecord
  2
DOT2
 70
     0
  3
Dot (.5x) ........................................
 72
    65
 73
     2
 40
0.635
 49
0.0
 74
     0
 49
-0.635
 74
     0
  0
ENDTAB
  0
TABLE
  2
LAYER
  5
2
330
0
100
AcDbSymbolTable
 70
     7
  0
LAYER
  5
10
330
2
100
AcDbSymbolTableRecord
100
AcDbLayerTableRecord
  2
0
 70
     0
 62
     7
  6
CONTINUOUS
  0
LAYER
  5
73
330
2
100
AcDbSymbolTableRecord
100
AcDbLayerTableRecord
  2
AUFNAHME
 70
     0
 62
     7
  6
CONTINUOUS
  0
LAYER
  5
74
330
2
100
AcDbSymbolTableRecord
100
AcDbLayerTableRecord
  2
MASS
 70
     0
 62
     4
  6
CONTINUOUS
  0
LAYER
  5
75
330
2
100
AcDbSymbolTableRecord
100
AcDbLayerTableRecord
  2
EW
 70
     0
 62
     1
  6
HIDDEN
  0
LAYER
  5
76
330
2
100
AcDbSymbolTableRecord
100
AcDbLayerTableRecord
  2
UNSICHT
 70
     0
 62
     4
  6
CENTER
  0
LAYER
  5
77
330
2
100
AcDbSymbolTableRecord
100
AcDbLayerTableRecord
  2
TEXT
 70
     0
 62
     7
  6
CONTINUOUS
  0
LAYER
  5
78
330
2
100
AcDbSymbolTableRecord
100
AcDbLayerTableRecord
  2
ZAPFEN
 70
     0
 62
     4
  6
CONTINUOUS
  0
ENDTAB
  0
TABLE
  2
STYLE
  5
3
330
0
100
AcDbSymbolTable
 70
     2
  0
STYLE
  5
11
330
3
100
AcDbSymbolTableRecord
100
AcDbTextStyleTableRecord
  2
STANDARD
 70
     0
 40
0.0
 41
1.0
 50
0.0
 71
     0
 42
3.5
  3
txt
  4

  0
STYLE
  5
1CF
330
3
100
AcDbSymbolTableRecord
100
AcDbTextStyleTableRecord
  2
SLDTEXTSTYLE0
 70
     0
 40
0.0
 41
0.605
 50
0.0
 71
     0
 42
3.5
  3
TXT
  4

  0
ENDTAB
  0
TABLE
  2
VIEW
  5
6
330
0
100
AcDbSymbolTable
 70
     0
  0
ENDTAB
  0
TABLE
  2
UCS
  5
7
330
0
100
AcDbSymbolTable
 70
     0
  0
ENDTAB
  0
TABLE
  2
APPID
  5
9
330
0
100
AcDbSymbolTable
 70
     1
  0
APPID
  5
12
330
9
100
AcDbSymbolTableRecord
100
AcDbRegAppTableRecord
  2
ACAD
 70
     0
  0
ENDTAB
  0
TABLE
  2
DIMSTYLE
  5
A
330
0
100
AcDbSymbolTable
 70
     4
  0
DIMSTYLE
105
27
330
A
100
AcDbSymbolTableRecord
100
AcDbDimStyleTableRecord
  2
ISO-25
 70
     0
  3

  4

  5

  6

  7

 40
1.0
 41
2.5
 42
0.625
 43
3.75
 44
1.25
 45
0.0
 46
0.0
 47
0.0
 48
0.0
140
2.5
141
2.5
142
0.0
143
0.0393700787
144
1.0
145
0.0
146
1.0
147
0.625
 71
     0
 72
     0
 73
     0
 74
     0
 75
     0
 76
     0
 77
     1
 78
     8
170
     0
171
     3
172
     1
173
     0
174
     0
175
     0
176
     0
177
     0
178
     0
270
     2
271
     2
272
     2
273
     2
274
     3
340
11
275
     0
280
     0
281
     0
282
     0
283
     0
284
     8
285
     0
286
     0
287
     3
288
     0
  0
DIMSTYLE
105
1D0
102
{ACAD_REACTORS
330
1CE
330
1DB
330
1FC
102
}
330
A
100
AcDbSymbolTableRecord
100
AcDbDimStyleTableRecord
  2
SLDDIMSTYLE0
 70
     0
  3

  4

  5

  6

  7

 40
1.0
 41
3.5
 42
0.0625
 43
0.38
 44
0.0
 45
0.000000001
 46
0.0
 47
0.0
 48
0.0
140
3.5
141
0.09
142
0.0
143
25.4
144
1.0
145
0.0
146
1.0
147
0.875
 71
     0
 72
     0
 73
     0
 74
     0
 75
     0
 76
     0
 77
     1
 78
    12
170
     0
171
     2
172
     0
173
     1
174
     0
175
     0
176
     0
177
     0
178
     0
270
     2
271
     2
272
     3
273
     2
274
     2
340
1CF
275
     0
280
     0
281
     0
282
     0
283
     1
284
    12
285
     0
286
     0
287
     3
288
     0
  0
DIMSTYLE
105
1E7
102
{ACAD_REACTORS
330
1E6
102
}
330
A
100
AcDbSymbolTableRecord
100
AcDbDimStyleTableRecord
  2
SLDDIMSTYLE1
 70
     0
  3

  4

  5

  6

  7

 40
1.0
 41
3.5
 42
0.0625
 43
0.38
 44
0.0
 45
0.000000001
 46
0.0
 47
0.0
 48
0.0
140
3.5
141
0.09
142
0.0
143
25.4
144
1.0
145
0.0
146
1.0
147
0.875
 71
     0
 72
     0
 73
     0
 74
     0
 75
     0
 76
     1
 77
     1
 78
    12
170
     0
171
     2
172
     0
173
     1
174
     0
175
     0
176
     0
177
     0
178
     0
270
     2
271
     2
272
     3
273
     2
274
     2
340
1CF
275
     0
280
     0
281
     0
282
     1
283
     1
284
    12
285
     0
286
     0
287
     3
288
     0
  0
DIMSTYLE
105
1F2
102
{ACAD_REACTORS
330
1F1
102
}
330
A
100
AcDbSymbolTableRecord
100
AcDbDimStyleTableRecord
  2
SLDDIMSTYLE2
 70
     0
  3

  4

  5

  6

  7

 40
1.0
 41
3.5
 42
0.0625
 43
0.38
 44
0.0
 45
0.000000001
 46
0.0
 47
0.0
 48
0.0
140
3.5
141
0.09
142
0.0
143
25.4
144
1.0
145
0.0
146
1.0
147
0.875
 71
     0
 72
     0
 73
     0
 74
     0
 75
     0
 76
     0
 77
     1
 78
    12
170
     0
171
     2
172
     0
173
     1
174
     0
175
     0
176
     0
177
     0
178
     0
270
     2
271
     0
272
     3
273
     2
274
     2
340
1CF
275
     0
280
     0
281
     0
282
     0
283
     1
284
    12
285
     0
286
     0
287
     3
288
     0
  0
ENDTAB
  0
TABLE
  2
BLOCK_RECORD
  5
1
330
0
100
AcDbSymbolTable
 70
     6
  0
BLOCK_RECORD
  5
1F
330
1
100
AcDbSymbolTableRecord
100
AcDbBlockTableRecord
  2
*MODEL_SPACE
  0
BLOCK_RECORD
  5
1B
330
1
100
AcDbSymbolTableRecord
100
AcDbBlockTableRecord
  2
*PAPER_SPACE
  0
BLOCK_RECORD
  5
23
330
1
100
AcDbSymbolTableRecord
100
AcDbBlockTableRecord
  2
*PAPER_SPACE0
  0
BLOCK_RECORD
  5
1D1
330
1
100
AcDbSymbolTableRecord
100
AcDbBlockTableRecord
  2
_D
  0
BLOCK_RECORD
  5
1DC
330
1
100
AcDbSymbolTableRecord
100
AcDbBlockTableRecord
  2
_D_1
  0
BLOCK_RECORD
  5
1E8
330
1
100
AcDbSymbolTableRecord
100
AcDbBlockTableRecord
  2
_D_2
  0
BLOCK_RECORD
  5
1F3
330
1
100
AcDbSymbolTableRecord
100
AcDbBlockTableRecord
  2
_D_3
  0
BLOCK_RECORD
  5
1FD
330
1
100
AcDbSymbolTableRecord
100
AcDbBlockTableRecord
  2
_D_4
  0
ENDTAB
  0
ENDSEC
  0
SECTION
  2
BLOCKS
  0
BLOCK
  5
20
330
1F
100
AcDbEntity
  8
0
100
AcDbBlockBegin
  2
*MODEL_SPACE
 70
     0
 10
0.0
 20
0.0
 30
0.0
  3
*MODEL_SPACE
  1

  0
ENDBLK
  5
21
330
1F
100
AcDbEntity
  8
0
100
AcDbBlockEnd
  0
BLOCK
  5
1C
330
1B
100
AcDbEntity
 67
     1
  8
0
100
AcDbBlockBegin
  2
*PAPER_SPACE
 70
     0
 10
0.0
 20
0.0
 30
0.0
  3
*PAPER_SPACE
  1

  0
ENDBLK
  5
1D
330
1B
100
AcDbEntity
 67
     1
  8
0
100
AcDbBlockEnd
  0
BLOCK
  5
24
330
23
100
AcDbEntity
  8
0
100
AcDbBlockBegin
  2
*PAPER_SPACE0
 70
     0
 10
0.0
 20
0.0
 30
0.0
  3
*PAPER_SPACE0
  1

  0
ENDBLK
  5
25
330
23
100
AcDbEntity
  8
0
100
AcDbBlockEnd
  0
BLOCK
  5
1D2
330
1D1
100
AcDbEntity
  8
0
100
AcDbBlockBegin
  2
_D
 70
     0
 10
0.0
 20
0.0
 30
0.0
  3
_D
  1

  0
SOLID
  5
1D4
330
1D1
100
AcDbEntity
  8
MASS
100
AcDbTrace
 10
-52.208695814
 20
17.9999992252
 30
0.0
 11
-52.658695814
 21
14.4999992252
 31
0.0
 12
-51.758695814
 22
14.4999992252
 32
0.0
 13
-51.758695814
 23
14.4999992252
 33
0.0
  0
SOLID
  5
1D5
330
1D1
100
AcDbEntity
  8
MASS
100
AcDbTrace
 10
-52.208695814
 20
-17.9999992252
 30
0.0
 11
-51.758695814
 21
-14.4999992252
 31
0.0
 12
-52.658695814
 22
-14.4999992252
 32
0.0
 13
-52.658695814
 23
-14.4999992252
 33
0.0
  0
LINE
  5
1D6
330
1D1
100
AcDbEntity
  8
MASS
100
AcDbLine
 10
-34.9999964237
 20
17.9999992252
 30
0.0
 11
-53.208695814
 21
17.9999992252
 31
0.0
  0
LINE
  5
1D7
330
1D1
100
AcDbEntity
  8
MASS
100
AcDbLine
 10
-34.9999964237
 20
-17.9999992252
 30
0.0
 11
-53.208695814
 21
-17.9999992252
 31
0.0
  0
LINE
  5
1D8
330
1D1
100
AcDbEntity
  8
MASS
100
AcDbLine
 10
-52.208695814
 20
17.9999992252
 30
0.0
 11
-52.208695814
 21
-17.9999992252
 31
0.0
  0
MTEXT
  5
1D9
330
1D1
100
AcDbEntity
  8
MASS
100
AcDbMText
 10
-56.7204331361
 20
-4.778472241
 30
0.0
 40
3.5
 41
0.0
 71
     1
 72
     1
  1
%%c
  7
SLDTEXTSTYLE0
 11
-7.044195017643634E-15
 21
1.0
 31
0.0
  0
MTEXT
  5
1DA
330
1D1
100
AcDbEntity
  8
MASS
100
AcDbMText
 10
-56.7204331361
 20
0.393750146
 30
0.0
 40
3.5
 41
0.0
 71
     1
 72
     1
  1
36
  7
SLDTEXTSTYLE0
 11
-7.044195017643634E-15
 21
1.0
 31
0.0
  0
ENDBLK
  5
1D3
330
1D1
100
AcDbEntity
  8
0
100
AcDbBlockEnd
  0
BLOCK
  5
1DD
330
1DC
100
AcDbEntity
  8
0
100
AcDbBlockBegin
  2
_D_1
 70
     0
 10
0.0
 20
0.0
 30
0.0
  3
_D_1
  1

  0
SOLID
  5
1DF
330
1DC
100
AcDbEntity
  8
MASS
100
AcDbTrace
 10
-68.6467019005
 20
31.995690621
 30
0.0
 11
-69.0967019005
 21
28.495690621
 31
0.0
 12
-68.1967019005
 22
28.495690621
 32
0.0
 13
-68.1967019005
 23
28.495690621
 33
0.0
  0
SOLID
  5
1E0
330
1DC
100
AcDbEntity
  8
MASS
100
AcDbTrace
 10
-68.6467019005
 20
-32.00000152
 30
0.0
 11
-68.1967019005
 21
-28.50000152
 31
0.0
 12
-69.0967019005
 22
-28.50000152
 32
0.0
 13
-69.0967019005
 23
-28.50000152
 33
0.0
  0
LINE
  5
1E1
330
1DC
100
AcDbEntity
  8
MASS
100
AcDbLine
 10
0.9050414802
 20
31.995690621
 30
0.0
 11
-69.6467019005
 21
31.995690621
 31
0.0
  0
LINE
  5
1E2
330
1DC
100
AcDbEntity
  8
MASS
100
AcDbLine
 10
1.0000020267
 20
-32.0000015199
 30
0.0
 11
-69.6467019005
 21
-32.00000152
 31
0.0
  0
LINE
  5
1E3
330
1DC
100
AcDbEntity
  8
MASS
100
AcDbLine
 10
-68.6467019005
 20
31.995690621
 30
0.0
 11
-68.6467019005
 21
-32.00000152
 31
0.0
  0
MTEXT
  5
1E4
330
1DC
100
AcDbEntity
  8
MASS
100
AcDbMText
 10
-73.1584392225
 20
-4.7806276905
 30
0.0
 40
3.5
 41
0.0
 71
     1
 72
     1
  1
%%c
  7
SLDTEXTSTYLE0
 11
-7.044195017643634E-15
 21
1.0
 31
0.0
  0
MTEXT
  5
1E5
330
1DC
100
AcDbEntity
  8
MASS
100
AcDbMText
 10
-73.1584392225
 20
0.3915946966
 30
0.0
 40
3.5
 41
0.0
 71
     1
 72
     1
  1
64
  7
SLDTEXTSTYLE0
 11
-7.044195017643634E-15
 21
1.0
 31
0.0
  0
ENDBLK
  5
1DE
330
1DC
100
AcDbEntity
  8
0
100
AcDbBlockEnd
  0
BLOCK
  5
1E9
330
1E8
100
AcDbEntity
  8
0
100
AcDbBlockBegin
  2
_D_2
 70
     0
 10
0.0
 20
0.0
 30
0.0
  3
_D_2
  1

  0
SOLID
  5
1EB
330
1E8
100
AcDbEntity
  8
MASS
100
AcDbTrace
 10
254.2671228813
 20
33.9566616314
 30
0.0
 11
253.8171228813
 21
30.4566616314
 31
0.0
 12
254.7171228813
 22
30.4566616314
 32
0.0
 13
254.7171228813
 23
30.4566616314
 33
0.0
  0
LINE
  5
1EC
330
1E8
100
AcDbEntity
  8
MASS
100
AcDbLine
 10
239.6369833742
 20
33.9566616314
 30
0.0
 11
255.2671228813
 21
33.9566616314
 31
0.0
  0
LINE
  5
1ED
330
1E8
100
AcDbEntity
  8
MASS
100
AcDbLine
 10
254.2671228813
 20
0.0
 30
0.0
 11
254.2671228813
 21
33.9566616314
 31
0.0
  0
LINE
  5
1EE
330
1E8
100
AcDbEntity
  8
MASS
100
AcDbLine
 10
254.2671228813
 20
33.9566616314
 30
0.0
 11
254.2671228813
 21
-13.4967079897
 31
0.0
  0
MTEXT
  5
1EF
330
1E8
100
AcDbEntity
  8
MASS
100
AcDbMText
 10
249.7553860249
 20
-13.4967079897
 30
0.0
 40
3.5
 41
0.0
 71
     1
 72
     1
  1
%%c
  7
SLDTEXTSTYLE0
 11
-7.044195017643634E-15
 21
1.0
 31
0.0
  0
MTEXT
  5
1F0
330
1E8
100
AcDbEntity
  8
MASS
100
AcDbMText
 10
249.7553860249
 20
-8.3244856026
 30
0.0
 40
3.5
 41
0.0
 71
     1
 72
     1
  1
68 - 150
  7
SLDTEXTSTYLE0
 11
-7.044195017643634E-15
 21
1.0
 31
0.0
  0
ENDBLK
  5
1EA
330
1E8
100
AcDbEntity
  8
0
100
AcDbBlockEnd
  0
BLOCK
  5
1F4
330
1F3
100
AcDbEntity
  8
0
100
AcDbBlockBegin
  2
_D_3
 70
     0
 10
0.0
 20
0.0
 30
0.0
  3
_D_3
  1

  0
SOLID
  5
1F6
330
1F3
100
AcDbEntity
  8
MASS
100
AcDbTrace
 10
240.2180294871
 20
48.6401997025
 30
0.0
 11
236.7180294871
 21
49.0901997025
 31
0.0
 12
236.7180294871
 22
48.1901997025
 32
0.0
 13
236.7180294871
 23
48.1901997025
 33
0.0
  0
SOLID
  5
1F7
330
1F3
100
AcDbEntity
  8
MASS
100
AcDbTrace
 10
0.0
 20
48.6401997025
 30
0.0
 11
3.5
 21
48.1901997025
 31
0.0
 12
3.5
 22
49.0901997025
 32
0.0
 13
3.5
 23
49.0901997025
 33
0.0
  0
LINE
  5
1F8
330
1F3
100
AcDbEntity
  8
MASS
100
AcDbLine
 10
240.2180294871
 20
33.5793244039
 30
0.0
 11
240.2180294871
 21
49.6401997025
 31
0.0
  0
LINE
  5
1F9
330
1F3
100
AcDbEntity
  8
MASS
100
AcDbLine
 10
0.0
 20
30.9999994933
 30
0.0
 11
0.0
 21
49.6401997025
 31
0.0
  0
LINE
  5
1FA
330
1F3
100
AcDbEntity
  8
MASS
100
AcDbLine
 10
240.2180294871
 20
48.6401997025
 30
0.0
 11
0.0
 21
48.6401997025
 31
0.0
  0
MTEXT
  5
1FB
330
1F3
100
AcDbEntity
  8
MASS
100
AcDbMText
 10
116.8204732887
 20
53.1519365588
 30
0.0
 40
3.5
 41
0.0
 71
     1
 72
     1
  1
240
  7
SLDTEXTSTYLE0
  0
ENDBLK
  5
1F5
330
1F3
100
AcDbEntity
  8
0
100
AcDbBlockEnd
  0
BLOCK
  5
1FE
330
1FD
100
AcDbEntity
  8
0
100
AcDbBlockBegin
  2
_D_4
 70
     0
 10
0.0
 20
0.0
 30
0.0
  3
_D_4
  1

  0
SOLID
  5
200
330
1FD
100
AcDbEntity
  8
MASS
100
AcDbTrace
 10
236.4235256447
 20
-42.0014333404
 30
0.0
 11
232.9235256447
 21
-41.5514333404
 31
0.0
 12
232.9235256447
 22
-42.4514333404
 32
0.0
 13
232.9235256447
 23
-42.4514333404
 33
0.0
  0
SOLID
  5
201
330
1FD
100
AcDbEntity
  8
MASS
100
AcDbTrace
 10
0.0
 20
-42.0014333404
 30
0.0
 11
3.5
 21
-42.4514333404
 31
0.0
 12
3.5
 22
-41.5514333404
 32
0.0
 13
3.5
 23
-41.5514333404
 33
0.0
  0
LINE
  5
202
330
1FD
100
AcDbEntity
  8
MASS
100
AcDbLine
 10
236.4235256447
 20
-25.0000003726
 30
0.0
 11
236.4235256447
 21
-43.0014333404
 31
0.0
  0
LINE
  5
203
330
1FD
100
AcDbEntity
  8
MASS
100
AcDbLine
 10
0.0
 20
-30.9999994933
 30
0.0
 11
0.0
 21
-43.0014333404
 31
0.0
  0
LINE
  5
204
330
1FD
100
AcDbEntity
  8
MASS
100
AcDbLine
 10
236.4235256447
 20
-42.0014333404
 30
0.0
 11
0.0
 21
-42.0014333404
 31
0.0
  0
MTEXT
  5
205
330
1FD
100
AcDbEntity
  8
MASS
100
AcDbMText
 10
113.2777350313
 20
-37.489696484
 30
0.0
 40
3.5
 41
0.0
 71
     1
 72
     1
  1
236.2
  7
SLDTEXTSTYLE0
  0
ENDBLK
  5
1FF
330
1FD
100
AcDbEntity
  8
0
100
AcDbBlockEnd
  0
ENDSEC
  0
SECTION
  2
ENTITIES
  0
LINE
  5
79
330
1F
100
AcDbEntity
  8
UNSICHT
  6
CENTER
100
AcDbLine
 10
-39.9999983311
 20
0.0
 30
0.0
 11
259.994504616
 21
0.0
 31
0.0
  0
LINE
  5
7A
330
1F
100
AcDbEntity
  8
EW
  6
HIDDEN
100
AcDbLine
 10
200.7307156838
 20
-21.7971782985
 30
0.0
 11
200.7307156838
 21
-24.7991792711
 31
0.0
  0
LINE
  5
7B
330
1F
100
AcDbEntity
  8
AUFNAHME
  6
CONTINUOUS
100
AcDbLine
 10
172.22352654
 20
31.8999998271
 30
0.0
 11
172.1285659936
 21
31.995690621
 31
0.0
  0
LINE
  5
7C
330
1F
100
AcDbEntity
  8
ZAPFEN
100
AcDbLine
 10
-2.0349979056
 20
17.6317486912
 30
0.0
 11
-2.0349979056
 21
17.7820511163
 31
0.0
  0
LINE
  5
7D
330
1F
100
AcDbEntity
  8
ZAPFEN
100
AcDbLine
 10
-15.9649984292
 20
17.7820511162
 30
0.0
 11
-15.9649984292
 21
17.6285449416
 31
0.0
  0
LINE
  5
7E
330
1F
100
AcDbEntity
  8
ZAPFEN
100
AcDbLine
 10
-2.0349979056
 20
-17.7820511163
 30
0.0
 11
-2.0349979056
 21
-17.6261533052
 31
0.0
  0
LINE
  5
7F
330
1F
100
AcDbEntity
  8
ZAPFEN
100
AcDbLine
 10
-15.9649984292
 20
-17.6313649864
 30
0.0
 11
-15.9649984292
 21
-17.7820511162
 31
0.0
  0
LINE
  5
80
330
1F
100
AcDbEntity
  8
ZAPFEN
100
AcDbLine
 10
-2.1689726984
 20
18.2820504111
 30
0.0
 11
-3.7381798029
 21
20.9999997168
 31
0.0
  0
LINE
  5
81
330
1F
100
AcDbEntity
  8
ZAPFEN
100
AcDbLine
 10
-14.2618119717
 20
20.9999997169
 30
0.0
 11
-15.8310232894
 21
18.2820515791
 31
0.0
  0
LINE
  5
82
330
1F
100
AcDbEntity
  8
ZAPFEN
100
AcDbLine
 10
-15.8310232894
 20
-18.2820515791
 30
0.0
 11
-14.2618119717
 21
-20.9999997169
 31
0.0
  0
LINE
  5
83
330
1F
100
AcDbEntity
  8
ZAPFEN
100
AcDbLine
 10
-3.7381798029
 20
-20.9999997168
 30
0.0
 11
-2.1689726984
 21
-18.2820504111
 31
0.0
  0
LINE
  5
84
330
1F
100
AcDbEntity
  8
ZAPFEN
100
AcDbLine
 10
-39.9999983311
 20
17.0
 30
0.0
 11
-39.9999983311
 21
-17.0000000001
 31
0.0
  0
LINE
  5
85
330
1F
100
AcDbEntity
  8
AUFNAHME
  6
CONTINUOUS
100
AcDbLine
 10
1.0000020266
 20
32.0000015199
 30
0.0
 11
0.0
 21
30.9999994933
 31
0.0
  0
LINE
  5
86
330
1F
100
AcDbEntity
  8
AUFNAHME
  6
CONTINUOUS
100
AcDbLine
 10
0.0
 20
-30.9999994933
 30
0.0
 11
1.0000020266
 21
-32.0000015199
 31
0.0
  0
LINE
  5
87
330
1F
100
AcDbEntity
  8
AUFNAHME
  6
CONTINUOUS
100
AcDbLine
 10
1.0000020267
 20
-32.0000015199
 30
0.0
 11
65.0830696344
 21
-32.0000015199
 31
0.0
  0
LINE
  5
88
330
1F
100
AcDbEntity
  8
AUFNAHME
  6
CONTINUOUS
100
AcDbLine
 10
172.1285659936
 20
31.995690621
 30
0.0
 11
91.0026136536
 21
31.995690621
 31
0.0
  0
LINE
  5
89
330
1F
100
AcDbEntity
  8
ZAPFEN
100
AcDbLine
 10
-0.9963512421
 20
-17.8689491004
 30
0.0
 11
-0.429407846
 21
-17.7170370849
 31
0.0
  0
LINE
  5
8A
330
1F
100
AcDbEntity
  8
ZAPFEN
100
AcDbLine
 10
-0.4294078537
 20
17.7170370868
 30
0.0
 11
-0.9963512421
 21
17.8689491004
 31
0.0
  0
LINE
  5
8B
330
1F
100
AcDbEntity
  8
ZAPFEN
100
AcDbLine
 10
-34.9999964237
 20
-17.9999992252
 30
0.0
 11
-17.0654952526
 21
-17.9999992252
 31
0.0
  0
LINE
  5
8C
330
1F
100
AcDbEntity
  8
ZAPFEN
100
AcDbLine
 10
-17.0582979918
 20
17.9999992252
 30
0.0
 11
-34.9999964237
 21
17.9999992252
 31
0.0
  0
LINE
  5
8D
330
1F
100
AcDbEntity
  8
ZAPFEN
100
AcDbLine
 10
-34.9999964237
 20
17.9999992252
 30
0.0
 11
-37.1771901846
 21
17.6940150558
 31
0.0
  0
LINE
  5
8E
330
1F
100
AcDbEntity
  8
ZAPFEN
100
AcDbLine
 10
-37.1771901846
 20
-17.694015056
 30
0.0
 11
-34.9999964237
 21
-17.9999992252
 31
0.0
  0
LINE
  5
8F
330
1F
100
AcDbEntity
  8
ZAPFEN
100
AcDbLine
 10
-38.8263494011
 20
-17.9848076204
 30
0.0
 11
-37.1771901846
 21
-17.694015056
 31
0.0
  0
LINE
  5
90
330
1F
100
AcDbEntity
  8
ZAPFEN
100
AcDbLine
 10
-37.1771901846
 20
17.6940150558
 30
0.0
 11
-38.8263501534
 21
17.984807753
 31
0.0
  0
LINE
  5
91
330
1F
100
AcDbEntity
  8
AUFNAHME
  6
CONTINUOUS
100
AcDbLine
 10
203.0435367699
 20
23.0069663375
 30
0.0
 11
202.9377813662
 21
23.0643544345
 31
0.0
  0
LINE
  5
92
330
1F
100
AcDbEntity
  8
ZAPFEN
100
AcDbLine
 10
221.3985021437
 20
30.6511912495
 30
0.0
 11
219.7235259439
 21
31.0999993235
 31
0.0
  0
LINE
  5
93
330
1F
100
AcDbEntity
  8
ZAPFEN
100
AcDbLine
 10
211.7235283579
 20
31.0999993235
 30
0.0
 11
210.0500348235
 21
30.6515879929
 31
0.0
  0
LINE
  5
94
330
1F
100
AcDbEntity
  8
ZAPFEN
100
AcDbLine
 10
201.2485261287
 20
27.9553923756
 30
0.0
 11
201.2485261287
 21
26.2499991804
 31
0.0
  0
LINE
  5
95
330
1F
100
AcDbEntity
  8
ZAPFEN
100
AcDbLine
 10
208.7374734904
 20
30.9250000864
 30
0.0
 11
204.2050394441
 21
30.9250000864
 31
0.0
  0
LINE
  5
96
330
1F
100
AcDbEntity
  8
ZAPFEN
100
AcDbLine
 10
227.1626065696
 20
30.9250000864
 30
0.0
 11
222.6993362631
 21
30.9250000864
 31
0.0
  0
LINE
  5
97
330
1F
100
AcDbEntity
  8
ZAPFEN
100
AcDbLine
 10
227.4550753857
 20
30.8826118708
 30
0.0
 11
227.0090985323
 21
30.9212226421
 31
0.0
  0
LINE
  5
98
330
1F
100
AcDbEntity
  8
ZAPFEN
100
AcDbLine
 10
230.1985281731
 20
24.6947780251
 30
0.0
 11
230.1985281731
 21
28.3077396452
 31
0.0
  0
LINE
  5
99
330
1F
100
AcDbEntity
  8
AUFNAHME
  6
CONTINUOUS
100
AcDbLine
 10
198.3460257972
 20
-26.6500003637
 30
0.0
 11
198.3543276067
 21
-26.6583021731
 31
0.0
  0
LINE
  5
9A
330
1F
100
AcDbEntity
  8
AUFNAHME
  6
CONTINUOUS
100
AcDbLine
 10
198.3543276067
 20
-26.6583021731
 30
0.0
 11
209.4735275234
 21
-29.6376813204
 31
0.0
  0
LINE
  5
9B
330
1F
100
AcDbEntity
  8
AUFNAHME
  6
CONTINUOUS
100
AcDbLine
 10
230.1939944948
 20
-27.4350140244
 30
0.0
 11
233.0927248324
 21
-26.6583021731
 31
0.0
  0
LINE
  5
9C
330
1F
100
AcDbEntity
  8
AUFNAHME
  6
CONTINUOUS
100
AcDbLine
 10
221.9735267783
 20
-29.6376813204
 30
0.0
 11
230.2822625153
 21
-27.4113626979
 31
0.0
  0
LINE
  5
9D
330
1F
100
AcDbEntity
  8
AUFNAHME
  6
CONTINUOUS
100
AcDbLine
 10
172.3235265374
 20
-32.0000015199
 30
0.0
 11
194.7674089233
 21
-32.0000015199
 31
0.0
  0
LINE
  5
9E
330
1F
100
AcDbEntity
  8
AUFNAHME
  6
CONTINUOUS
100
AcDbLine
 10
173.9580373341
 20
31.9953268957
 30
0.0
 11
172.3235265374
 21
31.9953268957
 31
0.0
  0
LINE
  5
9F
330
1F
100
AcDbEntity
  8
AUFNAHME
  6
CONTINUOUS
100
AcDbLine
 10
172.3235265374
 20
31.9953268957
 30
0.0
 11
172.22352654
 21
31.8999998271
 31
0.0
  0
LINE
  5
A0
330
1F
100
AcDbEntity
  8
AUFNAHME
  6
CONTINUOUS
100
AcDbLine
 10
172.22352654
 20
-32.0000015199
 30
0.0
 11
172.3235265374
 21
-32.0000015199
 31
0.0
  0
LINE
  5
A1
330
1F
100
AcDbEntity
  8
AUFNAHME
  6
CONTINUOUS
100
AcDbLine
 10
235.4709018277
 20
-26.6500004199
 30
0.0
 11
236.4235256447
 21
-25.0000003726
 31
0.0
  0
LINE
  5
A2
330
1F
100
AcDbEntity
  8
ZAPFEN
100
AcDbLine
 10
-4.6042045741
 20
21.4999979028
 30
0.0
 11
-13.3957884224
 21
21.4999979028
 31
0.0
  0
LINE
  5
A3
330
1F
100
AcDbEntity
  8
ZAPFEN
100
AcDbLine
 10
-4.6042045741
 20
-21.4999979029
 30
0.0
 11
-13.3957884224
 21
-21.4999979029
 31
0.0
  0
LINE
  5
A4
330
1F
100
AcDbEntity
  8
AUFNAHME
  6
CONTINUOUS
100
AcDbLine
 10
1.0000020266
 20
-32.0000015199
 30
0.0
 11
1.0000020266
 21
32.0000015199
 31
0.0
  0
LINE
  5
A5
330
1F
100
AcDbEntity
  8
AUFNAHME
  6
CONTINUOUS
100
AcDbLine
 10
0.0
 20
-30.9999994933
 30
0.0
 11
0.0
 21
30.9999994933
 31
0.0
  0
LINE
  5
A6
330
1F
100
AcDbEntity
  8
AUFNAHME
  6
CONTINUOUS
100
AcDbLine
 10
172.22352654
 20
-32.0000015199
 30
0.0
 11
172.22352654
 21
31.8999998271
 31
0.0
  0
LINE
  5
A7
330
1F
100
AcDbEntity
  8
ZAPFEN
100
AcDbLine
 10
-0.9964108467
 20
-17.8686901927
 30
0.0
 11
-0.9957402945
 21
-17.8687851876
 31
0.0
  0
LINE
  5
A8
330
1F
100
AcDbEntity
  8
ZAPFEN
100
AcDbLine
 10
-0.9957402945
 20
-17.8687851876
 30
0.0
 11
-1.1164397001
 21
-17.8518630565
 31
0.0
  0
LINE
  5
A9
330
1F
100
AcDbEntity
  8
ZAPFEN
100
AcDbLine
 10
-1.1164397001
 20
-17.8518630565
 30
0.0
 11
-1.4854371548
 21
-17.8043432534
 31
0.0
  0
LINE
  5
AA
330
1F
100
AcDbEntity
  8
ZAPFEN
100
AcDbLine
 10
-1.4854371548
 20
17.8043432534
 30
0.0
 11
-1.4854371548
 21
-17.8043432534
 31
0.0
  0
LINE
  5
AB
330
1F
100
AcDbEntity
  8
ZAPFEN
100
AcDbLine
 10
-1.4854371548
 20
17.8043432534
 30
0.0
 11
-1.1234581471
 21
17.8508982062
 31
0.0
  0
LINE
  5
AC
330
1F
100
AcDbEntity
  8
ZAPFEN
100
AcDbLine
 10
-1.1234581471
 20
17.8508982062
 30
0.0
 11
-0.9964108467
 21
17.8686901927
 31
0.0
  0
LINE
  5
AD
330
1F
100
AcDbEntity
  8
ZAPFEN
100
AcDbLine
 10
-17.0654952526
 20
-17.9948341101
 30
0.0
 11
-17.076343298
 21
-17.9986916482
 31
0.0
  0
LINE
  5
AE
330
1F
100
AcDbEntity
  8
ZAPFEN
100
AcDbLine
 10
-17.076343298
 20
-17.9986916482
 30
0.0
 11
-16.9433057308
 21
-17.9516077041
 31
0.0
  0
LINE
  5
AF
330
1F
100
AcDbEntity
  8
ZAPFEN
100
AcDbLine
 10
-16.9433057308
 20
-17.9516077041
 30
0.0
 11
-16.2302851677
 21
-17.7105367184
 31
0.0
  0
LINE
  5
B0
330
1F
100
AcDbEntity
  8
ZAPFEN
100
AcDbLine
 10
-16.2302851677
 20
-17.7105367184
 30
0.0
 11
-14.9109810591
 21
-17.3168033361
 31
0.0
  0
LINE
  5
B1
330
1F
100
AcDbEntity
  8
ZAPFEN
100
AcDbLine
 10
-14.9109810591
 20
-17.3168033361
 30
0.0
 11
-13.9729231596
 21
-17.0804262161
 31
0.0
  0
LINE
  5
B2
330
1F
100
AcDbEntity
  8
ZAPFEN
100
AcDbLine
 10
-13.9729231596
 20
-17.0804262161
 30
0.0
 11
-12.9014104605
 21
-16.8571081012
 31
0.0
  0
LINE
  5
B3
330
1F
100
AcDbEntity
  8
ZAPFEN
100
AcDbLine
 10
-12.9014104605
 20
-16.8571081012
 30
0.0
 11
-11.6396248341
 21
-16.660694033
 31
0.0
  0
LINE
  5
B4
330
1F
100
AcDbEntity
  8
ZAPFEN
100
AcDbLine
 10
-11.6396248341
 20
-16.660694033
 30
0.0
 11
-10.2693736553
 21
-16.5318958462
 31
0.0
  0
LINE
  5
B5
330
1F
100
AcDbEntity
  8
ZAPFEN
100
AcDbLine
 10
-10.2693736553
 20
-16.5318958462
 30
0.0
 11
-8.875221014
 21
-16.4933186024
 31
0.0
  0
LINE
  5
B6
330
1F
100
AcDbEntity
  8
ZAPFEN
100
AcDbLine
 10
-8.875221014
 20
-16.4933186024
 30
0.0
 11
-7.4433386326
 21
-16.5514871479
 31
0.0
  0
LINE
  5
B7
330
1F
100
AcDbEntity
  8
ZAPFEN
100
AcDbLine
 10
-7.4433386326
 20
-16.5514871479
 30
0.0
 11
-6.1164647341
 21
-16.6929233819
 31
0.0
  0
LINE
  5
B8
330
1F
100
AcDbEntity
  8
ZAPFEN
100
AcDbLine
 10
-6.1164647341
 20
-16.6929233819
 30
0.0
 11
-4.8334300518
 21
-16.9076230378
 31
0.0
  0
LINE
  5
B9
330
1F
100
AcDbEntity
  8
ZAPFEN
100
AcDbLine
 10
-4.8334300518
 20
-16.9076230378
 30
0.0
 11
-3.6807507277
 21
-17.1633437277
 31
0.0
  0
LINE
  5
BA
330
1F
100
AcDbEntity
  8
ZAPFEN
100
AcDbLine
 10
-3.6807507277
 20
-17.1633437277
 30
0.0
 11
-2.6497244835
 21
-17.440136522
 31
0.0
  0
LINE
  5
BB
330
1F
100
AcDbEntity
  8
ZAPFEN
100
AcDbLine
 10
-2.6497244835
 20
-17.440136522
 30
0.0
 11
-2.0065158606
 21
-17.6347717643
 31
0.0
  0
LINE
  5
BC
330
1F
100
AcDbEntity
  8
ZAPFEN
100
AcDbLine
 10
-2.0065158606
 20
-17.6347717643
 30
0.0
 11
-1.4854371548
 21
-17.8043432534
 31
0.0
  0
LINE
  5
BD
330
1F
100
AcDbEntity
  8
ZAPFEN
100
AcDbLine
 10
-1.4854371548
 20
17.8043432534
 30
0.0
 11
-2.5868862867
 21
17.4584221095
 31
0.0
  0
LINE
  5
BE
330
1F
100
AcDbEntity
  8
ZAPFEN
100
AcDbLine
 10
-2.5868862867
 20
17.4584221095
 30
0.0
 11
-3.4080892801
 21
17.2322262078
 31
0.0
  0
LINE
  5
BF
330
1F
100
AcDbEntity
  8
ZAPFEN
100
AcDbLine
 10
-3.4080892801
 20
17.2322262078
 30
0.0
 11
-4.3648928404
 21
17.0045495033
 31
0.0
  0
LINE
  5
C0
330
1F
100
AcDbEntity
  8
ZAPFEN
100
AcDbLine
 10
-4.3648928404
 20
17.0045495033
 30
0.0
 11
-5.5338740349
 21
16.7810805141
 31
0.0
  0
LINE
  5
C1
330
1F
100
AcDbEntity
  8
ZAPFEN
100
AcDbLine
 10
-5.5338740349
 20
16.7810805141
 30
0.0
 11
-6.8240463734
 21
16.6071336717
 31
0.0
  0
LINE
  5
C2
330
1F
100
AcDbEntity
  8
ZAPFEN
100
AcDbLine
 10
-6.8240463734
 20
16.6071336717
 30
0.0
 11
-8.2026720047
 21
16.5083222091
 31
0.0
  0
LINE
  5
C3
330
1F
100
AcDbEntity
  8
ZAPFEN
100
AcDbLine
 10
-8.2026720047
 20
16.5083222091
 30
0.0
 11
-9.6460282803
 21
16.5030397475
 31
0.0
  0
LINE
  5
C4
330
1F
100
AcDbEntity
  8
ZAPFEN
100
AcDbLine
 10
-9.6460282803
 20
16.5030397475
 30
0.0
 11
-11.0078305006
 21
16.5902227163
 31
0.0
  0
LINE
  5
C5
330
1F
100
AcDbEntity
  8
ZAPFEN
100
AcDbLine
 10
-11.0078305006
 20
16.5902227163
 30
0.0
 11
-12.3511552811
 21
16.7624428868
 31
0.0
  0
LINE
  5
C6
330
1F
100
AcDbEntity
  8
ZAPFEN
100
AcDbLine
 10
-12.3511552811
 20
16.7624428868
 30
0.0
 11
-13.5754644871
 21
16.9916749001
 31
0.0
  0
LINE
  5
C7
330
1F
100
AcDbEntity
  8
ZAPFEN
100
AcDbLine
 10
-13.5754644871
 20
16.9916749001
 30
0.0
 11
-14.7044062615
 21
17.2615610062
 31
0.0
  0
LINE
  5
C8
330
1F
100
AcDbEntity
  8
ZAPFEN
100
AcDbLine
 10
-14.7044062615
 20
17.2615610062
 30
0.0
 11
-15.6354010105
 21
17.5243839622
 31
0.0
  0
LINE
  5
C9
330
1F
100
AcDbEntity
  8
ZAPFEN
100
AcDbLine
 10
-15.6354010105
 20
17.5243839622
 30
0.0
 11
-16.3898169994
 21
17.7627988159
 31
0.0
  0
LINE
  5
CA
330
1F
100
AcDbEntity
  8
ZAPFEN
100
AcDbLine
 10
-16.3898169994
 20
17.7627988159
 30
0.0
 11
-16.8322920799
 21
17.912818119
 31
0.0
  0
LINE
  5
CB
330
1F
100
AcDbEntity
  8
ZAPFEN
100
AcDbLine
 10
-16.8322920799
 20
17.912818119
 30
0.0
 11
-17.0598626137
 21
17.9928224534
 31
0.0
  0
LINE
  5
CC
330
1F
100
AcDbEntity
  8
ZAPFEN
100
AcDbLine
 10
-17.0598626137
 20
17.9928224534
 30
0.0
 11
-17.0582979918
 21
17.9922673852
 31
0.0
  0
LINE
  5
CD
330
1F
100
AcDbEntity
  8
ZAPFEN
100
AcDbLine
 10
-37.1771901846
 20
-17.694015056
 30
0.0
 11
-37.1771901846
 21
17.6940150558
 31
0.0
  0
LINE
  5
CE
330
1F
100
AcDbEntity
  8
AUFNAHME
  6
CONTINUOUS
100
AcDbLine
 10
207.0479686583
 20
16.7911350726
 30
0.0
 11
206.9854582871
 21
17.3383578657
 31
0.0
  0
LINE
  5
CF
330
1F
100
AcDbEntity
  8
AUFNAHME
  6
CONTINUOUS
100
AcDbLine
 10
206.9854582871
 20
17.3383578657
 30
0.0
 11
206.8316634024
 21
17.9986488074
 31
0.0
  0
LINE
  5
D0
330
1F
100
AcDbEntity
  8
AUFNAHME
  6
CONTINUOUS
100
AcDbLine
 10
206.8316634024
 20
17.9986488074
 30
0.0
 11
206.5991680349
 21
18.6745673417
 31
0.0
  0
LINE
  5
D1
330
1F
100
AcDbEntity
  8
AUFNAHME
  6
CONTINUOUS
100
AcDbLine
 10
206.5991680349
 20
18.6745673417
 30
0.0
 11
206.3038121189
 21
19.3200502544
 31
0.0
  0
LINE
  5
D2
330
1F
100
AcDbEntity
  8
AUFNAHME
  6
CONTINUOUS
100
AcDbLine
 10
206.3038121189
 20
19.3200502544
 30
0.0
 11
205.9657271231
 21
19.8911074549
 31
0.0
  0
LINE
  5
D3
330
1F
100
AcDbEntity
  8
AUFNAHME
  6
CONTINUOUS
100
AcDbLine
 10
205.9657271231
 20
19.8911074549
 30
0.0
 11
205.6079502429
 21
20.3488245606
 31
0.0
  0
LINE
  5
D4
330
1F
100
AcDbEntity
  8
AUFNAHME
  6
CONTINUOUS
100
AcDbLine
 10
205.6079502429
 20
20.3488245606
 30
0.0
 11
205.2548672284
 21
20.6620059907
 31
0.0
  0
LINE
  5
D5
330
1F
100
AcDbEntity
  8
AUFNAHME
  6
CONTINUOUS
100
AcDbLine
 10
205.2548672284
 20
20.6620059907
 30
0.0
 11
204.9305360044
 21
20.8093114198
 31
0.0
  0
LINE
  5
D6
330
1F
100
AcDbEntity
  8
AUFNAHME
  6
CONTINUOUS
100
AcDbLine
 10
204.9305360044
 20
20.8093114198
 30
0.0
 11
204.6570624436
 21
20.7807011902
 31
0.0
  0
LINE
  5
D7
330
1F
100
AcDbEntity
  8
AUFNAHME
  6
CONTINUOUS
100
AcDbLine
 10
204.6570624436
 20
20.7807011902
 30
0.0
 11
204.453080448
 21
20.5781254917
 31
0.0
  0
LINE
  5
D8
330
1F
100
AcDbEntity
  8
AUFNAHME
  6
CONTINUOUS
100
AcDbLine
 10
204.453080448
 20
20.5781254917
 30
0.0
 11
204.3324928011
 21
20.2153902501
 31
0.0
  0
LINE
  5
D9
330
1F
100
AcDbEntity
  8
AUFNAHME
  6
CONTINUOUS
100
AcDbLine
 10
204.3324928011
 20
20.2153902501
 30
0.0
 11
204.3035174931
 21
19.7172127663
 31
0.0
  0
LINE
  5
DA
330
1F
100
AcDbEntity
  8
AUFNAHME
  6
CONTINUOUS
100
AcDbLine
 10
204.3035174931
 20
19.7172127663
 30
0.0
 11
204.3681289281
 21
19.1175453365
 31
0.0
  0
LINE
  5
DB
330
1F
100
AcDbEntity
  8
AUFNAHME
  6
CONTINUOUS
100
AcDbLine
 10
204.3681289281
 20
19.1175453365
 30
0.0
 11
204.5219238127
 21
18.4572543949
 31
0.0
  0
LINE
  5
DC
330
1F
100
AcDbEntity
  8
AUFNAHME
  6
CONTINUOUS
100
AcDbLine
 10
204.5219238127
 20
18.4572543949
 30
0.0
 11
204.7544191803
 21
17.7813358604
 31
0.0
  0
LINE
  5
DD
330
1F
100
AcDbEntity
  8
AUFNAHME
  6
CONTINUOUS
100
AcDbLine
 10
204.7544191803
 20
17.7813358604
 30
0.0
 11
204.8810641493
 21
17.4835138022
 31
0.0
  0
LINE
  5
DE
330
1F
100
AcDbEntity
  8
AUFNAHME
  6
CONTINUOUS
100
AcDbLine
 10
206.975716653
 20
16.8011654168
 30
0.0
 11
206.967696103
 21
16.9600434601
 31
0.0
  0
LINE
  5
DF
330
1F
100
AcDbEntity
  8
AUFNAHME
  6
CONTINUOUS
100
AcDbLine
 10
206.967696103
 20
16.9600434601
 30
0.0
 11
206.8784008945
 21
17.5727177412
 31
0.0
  0
LINE
  5
E0
330
1F
100
AcDbEntity
  8
AUFNAHME
  6
CONTINUOUS
100
AcDbLine
 10
206.8784008945
 20
17.5727177412
 30
0.0
 11
206.6999855663
 21
18.2339865714
 31
0.0
  0
LINE
  5
E1
330
1F
100
AcDbEntity
  8
AUFNAHME
  6
CONTINUOUS
100
AcDbLine
 10
206.6999855663
 20
18.2339865714
 30
0.0
 11
206.4456897999
 21
18.8948083669
 31
0.0
  0
LINE
  5
E2
330
1F
100
AcDbEntity
  8
AUFNAHME
  6
CONTINUOUS
100
AcDbLine
 10
206.4456897999
 20
18.8948083669
 30
0.0
 11
206.1343672897
 21
19.5061732083
 31
0.0
  0
LINE
  5
E3
330
1F
100
AcDbEntity
  8
AUFNAHME
  6
CONTINUOUS
100
AcDbLine
 10
206.1343672897
 20
19.5061732083
 30
0.0
 11
205.7891073848
 21
20.0227368622
 31
0.0
  0
LINE
  5
E4
330
1F
100
AcDbEntity
  8
AUFNAHME
  6
CONTINUOUS
100
AcDbLine
 10
205.7891073848
 20
20.0227368622
 30
0.0
 11
205.4355177308
 21
20.406190306
 31
0.0
  0
LINE
  5
E5
330
1F
100
AcDbEntity
  8
AUFNAHME
  6
CONTINUOUS
100
AcDbLine
 10
205.4355177308
 20
20.406190306
 30
0.0
 11
205.0998206462
 21
20.6280928104
 31
0.0
  0
LINE
  5
E6
330
1F
100
AcDbEntity
  8
AUFNAHME
  6
CONTINUOUS
100
AcDbLine
 10
205.0998206462
 20
20.6280928104
 30
0.0
 11
204.8069196965
 21
20.6719897687
 31
0.0
  0
LINE
  5
E7
330
1F
100
AcDbEntity
  8
AUFNAHME
  6
CONTINUOUS
100
AcDbLine
 10
204.8069196965
 20
20.6719897687
 30
0.0
 11
204.5785295988
 21
20.5346215517
 31
0.0
  0
LINE
  5
E8
330
1F
100
AcDbEntity
  8
AUFNAHME
  6
CONTINUOUS
100
AcDbLine
 10
204.5785295988
 20
20.5346215517
 30
0.0
 11
204.4315929736
 21
20.2261786908
 31
0.0
  0
LINE
  5
E9
330
1F
100
AcDbEntity
  8
AUFNAHME
  6
CONTINUOUS
100
AcDbLine
 10
204.4315929736
 20
20.2261786908
 30
0.0
 11
204.3770100201
 21
19.769538194
 31
0.0
  0
LINE
  5
EA
330
1F
100
AcDbEntity
  8
AUFNAHME
  6
CONTINUOUS
100
AcDbLine
 10
204.3770100201
 20
19.769538194
 30
0.0
 11
204.4188226784
 21
19.1985629498
 31
0.0
  0
LINE
  5
EB
330
1F
100
AcDbEntity
  8
AUFNAHME
  6
CONTINUOUS
100
AcDbLine
 10
204.4188226784
 20
19.1985629498
 30
0.0
 11
204.5539352323
 21
18.5556020587
 31
0.0
  0
LINE
  5
EC
330
1F
100
AcDbEntity
  8
AUFNAHME
  6
CONTINUOUS
100
AcDbLine
 10
204.5539352323
 20
18.5556020587
 30
0.0
 11
204.7723229254
 21
17.8883429616
 31
0.0
  0
LINE
  5
ED
330
1F
100
AcDbEntity
  8
AUFNAHME
  6
CONTINUOUS
100
AcDbLine
 10
204.7723229254
 20
17.8883429616
 30
0.0
 11
204.96012226
 21
17.446508631
 31
0.0
  0
LINE
  5
EE
330
1F
100
AcDbEntity
  8
AUFNAHME
  6
CONTINUOUS
100
AcDbLine
 10
206.3587154473
 20
16.9617831706
 30
0.0
 11
206.3218387986
 21
17.3112284392
 31
0.0
  0
LINE
  5
EF
330
1F
100
AcDbEntity
  8
AUFNAHME
  6
CONTINUOUS
100
AcDbLine
 10
206.3218387986
 20
17.3112284392
 30
0.0
 11
206.1899821485
 21
17.8981255739
 31
0.0
  0
LINE
  5
F0
330
1F
100
AcDbEntity
  8
AUFNAHME
  6
CONTINUOUS
100
AcDbLine
 10
206.1899821485
 20
17.8981255739
 30
0.0
 11
205.9778976465
 21
18.5009501875
 31
0.0
  0
LINE
  5
F1
330
1F
100
AcDbEntity
  8
AUFNAHME
  6
CONTINUOUS
100
AcDbLine
 10
205.9778976465
 20
18.5009501875
 30
0.0
 11
205.704427811
 21
19.0661419182
 31
0.0
  0
LINE
  5
F2
330
1F
100
AcDbEntity
  8
AUFNAHME
  6
CONTINUOUS
100
AcDbLine
 10
205.704427811
 20
19.0661419182
 30
0.0
 11
205.3938801612
 21
19.543480128
 31
0.0
  0
LINE
  5
F3
330
1F
100
AcDbEntity
  8
AUFNAHME
  6
CONTINUOUS
100
AcDbLine
 10
205.3938801612
 20
19.543480128
 30
0.0
 11
205.0738404716
 21
19.8905486613
 31
0.0
  0
LINE
  5
F4
330
1F
100
AcDbEntity
  8
AUFNAHME
  6
CONTINUOUS
100
AcDbLine
 10
205.0738404716
 20
19.8905486613
 30
0.0
 11
204.7727476085
 21
20.0765114277
 31
0.0
  0
LINE
  5
F5
330
1F
100
AcDbEntity
  8
AUFNAHME
  6
CONTINUOUS
100
AcDbLine
 10
204.7727476085
 20
20.0765114277
 30
0.0
 11
204.5173603321
 21
20.0848449021
 31
0.0
  0
LINE
  5
F6
330
1F
100
AcDbEntity
  8
AUFNAHME
  6
CONTINUOUS
100
AcDbLine
 10
204.5173603321
 20
20.0848449021
 30
0.0
 11
204.3904322411
 21
19.9979487807
 31
0.0
  0
LINE
  5
F7
330
1F
100
AcDbEntity
  8
AUFNAHME
  6
CONTINUOUS
100
AcDbLine
 10
205.0262945915
 20
20.856237039
 30
0.0
 11
204.9583341206
 21
20.9641847759
 31
0.0
  0
LINE
  5
F8
330
1F
100
AcDbEntity
  8
AUFNAHME
  6
CONTINUOUS
100
AcDbLine
 10
204.9583341206
 20
20.9641847759
 30
0.0
 11
204.43796322
 21
21.7076353729
 31
0.0
  0
LINE
  5
F9
330
1F
100
AcDbEntity
  8
AUFNAHME
  6
CONTINUOUS
100
AcDbLine
 10
204.43796322
 20
21.7076353729
 30
0.0
 11
203.9090912069
 21
22.3205816001
 31
0.0
  0
LINE
  5
FA
330
1F
100
AcDbEntity
  8
AUFNAHME
  6
CONTINUOUS
100
AcDbLine
 10
203.9090912069
 20
22.3205816001
 30
0.0
 11
203.3887184436
 21
22.7833222598
 31
0.0
  0
LINE
  5
FB
330
1F
100
AcDbEntity
  8
AUFNAHME
  6
CONTINUOUS
100
AcDbLine
 10
203.3887184436
 20
22.7833222598
 30
0.0
 11
202.893569621
 21
23.0809822679
 31
0.0
  0
LINE
  5
FC
330
1F
100
AcDbEntity
  8
AUFNAHME
  6
CONTINUOUS
100
AcDbLine
 10
202.893569621
 20
23.0809822679
 30
0.0
 11
202.4395591791
 21
23.2039969415
 31
0.0
  0
LINE
  5
FD
330
1F
100
AcDbEntity
  8
AUFNAHME
  6
CONTINUOUS
100
AcDbLine
 10
202.4395591791
 20
23.2039969415
 30
0.0
 11
202.0412809427
 21
23.1484118849
 31
0.0
  0
LINE
  5
FE
330
1F
100
AcDbEntity
  8
AUFNAHME
  6
CONTINUOUS
100
AcDbLine
 10
202.0412809427
 20
23.1484118849
 30
0.0
 11
201.7115350093
 21
22.916013375
 31
0.0
  0
LINE
  5
FF
330
1F
100
AcDbEntity
  8
AUFNAHME
  6
CONTINUOUS
100
AcDbLine
 10
201.7115350093
 20
22.916013375
 30
0.0
 11
201.4609198297
 21
22.5142706185
 31
0.0
  0
LINE
  5
100
330
1F
100
AcDbEntity
  8
AUFNAHME
  6
CONTINUOUS
100
AcDbLine
 10
201.4609198297
 20
22.5142706185
 30
0.0
 11
201.2974894817
 21
21.9560973347
 31
0.0
  0
LINE
  5
101
330
1F
100
AcDbEntity
  8
AUFNAHME
  6
CONTINUOUS
100
AcDbLine
 10
201.2974894817
 20
21.9560973347
 30
0.0
 11
201.2264966245
 21
21.2594307959
 31
0.0
  0
LINE
  5
102
330
1F
100
AcDbEntity
  8
AUFNAHME
  6
CONTINUOUS
100
AcDbLine
 10
201.2264966245
 20
21.2594307959
 30
0.0
 11
201.250224861
 21
20.446665585
 31
0.0
  0
LINE
  5
103
330
1F
100
AcDbEntity
  8
AUFNAHME
  6
CONTINUOUS
100
AcDbLine
 10
201.250224861
 20
20.446665585
 30
0.0
 11
201.2781589503
 21
20.1629381627
 31
0.0
  0
LINE
  5
104
330
1F
100
AcDbEntity
  8
AUFNAHME
  6
CONTINUOUS
100
AcDbLine
 10
202.0702394868
 20
19.2210301756
 30
0.0
 11
202.003370526
 21
19.8233351112
 31
0.0
  0
LINE
  5
105
330
1F
100
AcDbEntity
  8
AUFNAHME
  6
CONTINUOUS
100
AcDbLine
 10
202.003370526
 20
19.8233351112
 30
0.0
 11
202.003370526
 21
20.5013584346
 31
0.0
  0
LINE
  5
106
330
1F
100
AcDbEntity
  8
AUFNAHME
  6
CONTINUOUS
100
AcDbLine
 10
202.003370526
 20
20.5013584346
 30
0.0
 11
202.0982182796
 21
21.0546404124
 31
0.0
  0
LINE
  5
107
330
1F
100
AcDbEntity
  8
AUFNAHME
  6
CONTINUOUS
100
AcDbLine
 10
202.0982182796
 20
21.0546404124
 30
0.0
 11
202.2837638135
 21
21.4590020478
 31
0.0
  0
LINE
  5
108
330
1F
100
AcDbEntity
  8
AUFNAHME
  6
CONTINUOUS
100
AcDbLine
 10
202.2837638135
 20
21.4590020478
 30
0.0
 11
202.5519027586
 21
21.6967705637
 31
0.0
  0
LINE
  5
109
330
1F
100
AcDbEntity
  8
AUFNAHME
  6
CONTINUOUS
100
AcDbLine
 10
202.5519027586
 20
21.6967705637
 30
0.0
 11
202.8909153516
 21
21.7575524002
 31
0.0
  0
LINE
  5
10A
330
1F
100
AcDbEntity
  8
AUFNAHME
  6
CONTINUOUS
100
AcDbLine
 10
202.8909153516
 20
21.7575524002
 30
0.0
 11
202.9791693841
 21
21.7457322314
 31
0.0
  0
LINE
  5
10B
330
1F
100
AcDbEntity
  8
AUFNAHME
  6
CONTINUOUS
100
AcDbLine
 10
214.2801503862
 20
5.4999999701
 30
0.0
 11
217.1669039155
 21
5.4999999701
 31
0.0
  0
LINE
  5
10C
330
1F
100
AcDbEntity
  8
AUFNAHME
  6
CONTINUOUS
100
AcDbLine
 10
214.2801503862
 20
5.4999999701
 30
0.0
 11
212.8367754842
 21
3.0000000261
 31
0.0
  0
LINE
  5
10D
330
1F
100
AcDbEntity
  8
AUFNAHME
  6
CONTINUOUS
100
AcDbLine
 10
214.2801503862
 20
0.5000000238
 30
0.0
 11
212.8367754842
 21
3.0000000261
 31
0.0
  0
LINE
  5
10E
330
1F
100
AcDbEntity
  8
AUFNAHME
  6
CONTINUOUS
100
AcDbLine
 10
217.1669039155
 20
0.5000000238
 30
0.0
 11
214.2801503862
 21
0.5000000238
 31
0.0
  0
LINE
  5
10F
330
1F
100
AcDbEntity
  8
AUFNAHME
  6
CONTINUOUS
100
AcDbLine
 10
217.1669039155
 20
0.5000000238
 30
0.0
 11
218.6102788175
 21
3.0000000261
 31
0.0
  0
LINE
  5
110
330
1F
100
AcDbEntity
  8
AUFNAHME
  6
CONTINUOUS
100
AcDbLine
 10
218.6102788175
 20
3.0000000261
 30
0.0
 11
217.1669039155
 21
5.4999999701
 31
0.0
  0
LINE
  5
111
330
1F
100
AcDbEntity
  8
EW
  6
HIDDEN
100
AcDbLine
 10
230.7337157346
 20
-24.7991792711
 30
0.0
 11
230.7337157346
 21
-21.199177936
 31
0.0
  0
LINE
  5
112
330
1F
100
AcDbEntity
  8
ZAPFEN
100
AcDbLine
 10
215.7235252882
 20
31.0999993235
 30
0.0
 11
219.7235259439
 21
31.0999993235
 31
0.0
  0
LINE
  5
113
330
1F
100
AcDbEntity
  8
ZAPFEN
100
AcDbLine
 10
211.7235283579
 20
31.0999993235
 30
0.0
 11
215.7235252882
 21
31.0999993235
 31
0.0
  0
LINE
  5
114
330
1F
100
AcDbEntity
  8
ZAPFEN
100
AcDbLine
 10
239.6369833742
 20
33.9566616314
 30
0.0
 11
231.0718406235
 21
29.5925045359
 31
0.0
  0
LINE
  5
115
330
1F
100
AcDbEntity
  8
ZAPFEN
100
AcDbLine
 10
239.7149310333
 20
23.9796172942
 30
0.0
 11
240.2180294871
 21
33.5793244039
 31
0.0
  0
LINE
  5
116
330
1F
100
AcDbEntity
  8
ZAPFEN
100
AcDbLine
 10
231.0355820946
 20
28.9006346156
 30
0.0
 11
239.0976229134
 21
23.6650832754
 31
0.0
  0
LINE
  5
117
330
1F
100
AcDbEntity
  8
AUFNAHME
  6
CONTINUOUS
100
AcDbLine
 10
228.3154870595
 20
27.1836295724
 30
0.0
 11
228.307768258
 21
27.337770909
 31
0.0
  0
LINE
  5
118
330
1F
100
AcDbEntity
  8
ZAPFEN
100
AcDbLine
 10
228.3154870595
 20
27.1836295724
 30
0.0
 11
228.3154870595
 21
25.1993369311
 31
0.0
  0
LINE
  5
119
330
1F
100
AcDbEntity
  8
ZAPFEN
100
AcDbLine
 10
222.6993362631
 20
30.9194903821
 30
0.0
 11
222.6859922732
 21
30.9164561332
 31
0.0
  0
LINE
  5
11A
330
1F
100
AcDbEntity
  8
ZAPFEN
100
AcDbLine
 10
222.6859922732
 20
30.9164561332
 30
0.0
 11
222.4775660063
 21
30.8698080479
 31
0.0
  0
LINE
  5
11B
330
1F
100
AcDbEntity
  8
ZAPFEN
100
AcDbLine
 10
222.4775660063
 20
30.8698080479
 30
0.0
 11
222.078993472
 21
30.7843666523
 31
0.0
  0
LINE
  5
11C
330
1F
100
AcDbEntity
  8
ZAPFEN
100
AcDbLine
 10
222.078993472
 20
30.7843666523
 30
0.0
 11
221.5186874594
 21
30.6726805866
 31
0.0
  0
LINE
  5
11D
330
1F
100
AcDbEntity
  8
ZAPFEN
100
AcDbLine
 10
221.5186874594
 20
30.6726805866
 30
0.0
 11
220.7840974654
 21
30.5413361638
 31
0.0
  0
LINE
  5
11E
330
1F
100
AcDbEntity
  8
ZAPFEN
100
AcDbLine
 10
220.7840974654
 20
30.5413361638
 30
0.0
 11
219.9135567273
 21
30.4081160575
 31
0.0
  0
LINE
  5
11F
330
1F
100
AcDbEntity
  8
ZAPFEN
100
AcDbLine
 10
219.9135567273
 20
30.4081160575
 30
0.0
 11
218.8962619032
 21
30.2836783231
 31
0.0
  0
LINE
  5
120
330
1F
100
AcDbEntity
  8
ZAPFEN
100
AcDbLine
 10
218.8962619032
 20
30.2836783231
 30
0.0
 11
217.8128990556
 21
30.1886219532
 31
0.0
  0
LINE
  5
121
330
1F
100
AcDbEntity
  8
ZAPFEN
100
AcDbLine
 10
217.8128990556
 20
30.1886219532
 30
0.0
 11
216.6334423448
 21
30.1294848323
 31
0.0
  0
LINE
  5
122
330
1F
100
AcDbEntity
  8
ZAPFEN
100
AcDbLine
 10
216.6334423448
 20
30.1294848323
 30
0.0
 11
215.4870885636
 21
30.1165618003
 31
0.0
  0
LINE
  5
123
330
1F
100
AcDbEntity
  8
ZAPFEN
100
AcDbLine
 10
215.4870885636
 20
30.1165618003
 30
0.0
 11
214.3138195599
 21
30.1488786936
 31
0.0
  0
LINE
  5
124
330
1F
100
AcDbEntity
  8
ZAPFEN
100
AcDbLine
 10
214.3138195599
 20
30.1488786936
 30
0.0
 11
213.2275733377
 21
30.2197411657
 31
0.0
  0
LINE
  5
125
330
1F
100
AcDbEntity
  8
ZAPFEN
100
AcDbLine
 10
213.2275733377
 20
30.2197411657
 30
0.0
 11
212.181128117
 21
30.3249768912
 31
0.0
  0
LINE
  5
126
330
1F
100
AcDbEntity
  8
ZAPFEN
100
AcDbLine
 10
212.181128117
 20
30.3249768912
 30
0.0
 11
211.2434464718
 21
30.4497797042
 31
0.0
  0
LINE
  5
127
330
1F
100
AcDbEntity
  8
ZAPFEN
100
AcDbLine
 10
211.2434464718
 20
30.4497797042
 30
0.0
 11
210.4055131997
 21
30.5854063481
 31
0.0
  0
LINE
  5
128
330
1F
100
AcDbEntity
  8
ZAPFEN
100
AcDbLine
 10
210.4055131997
 20
30.5854063481
 30
0.0
 11
209.7223322119
 21
30.7125989347
 31
0.0
  0
LINE
  5
129
330
1F
100
AcDbEntity
  8
ZAPFEN
100
AcDbLine
 10
209.7223322119
 20
30.7125989347
 30
0.0
 11
209.1931472744
 21
30.8212526142
 31
0.0
  0
LINE
  5
12A
330
1F
100
AcDbEntity
  8
ZAPFEN
100
AcDbLine
 10
209.1931472744
 20
30.8212526142
 30
0.0
 11
208.8655675973
 21
30.8928992599
 31
0.0
  0
LINE
  5
12B
330
1F
100
AcDbEntity
  8
ZAPFEN
100
AcDbLine
 10
208.8655675973
 20
30.8928992599
 30
0.0
 11
208.726651522
 21
30.9242866934
 31
0.0
  0
LINE
  5
12C
330
1F
100
AcDbEntity
  8
ZAPFEN
100
AcDbLine
 10
208.726651522
 20
30.9242866934
 30
0.0
 11
208.7374734904
 21
30.9218280018
 31
0.0
  0
LINE
  5
12D
330
1F
100
AcDbEntity
  8
ZAPFEN
100
AcDbLine
 10
227.0113562402
 20
30.9021337844
 30
0.0
 11
227.1407320688
 21
30.924906523
 31
0.0
  0
LINE
  5
12E
330
1F
100
AcDbEntity
  8
ZAPFEN
100
AcDbLine
 10
230.1983307328
 20
28.4496750683
 30
0.0
 11
230.1983754362
 21
28.183022514
 31
0.0
  0
LINE
  5
12F
330
1F
100
AcDbEntity
  8
ZAPFEN
100
AcDbLine
 10
230.1983754362
 20
28.183022514
 30
0.0
 11
230.1980848635
 21
27.9170386493
 31
0.0
  0
LINE
  5
130
330
1F
100
AcDbEntity
  8
ZAPFEN
100
AcDbLine
 10
230.1980848635
 20
27.9170386493
 30
0.0
 11
229.2504641439
 21
27.7761556208
 31
0.0
  0
LINE
  5
131
330
1F
100
AcDbEntity
  8
ZAPFEN
100
AcDbLine
 10
229.2504641439
 20
27.7761556208
 30
0.0
 11
228.3154870595
 21
27.1836295724
 31
0.0
  0
LINE
  5
132
330
1F
100
AcDbEntity
  8
ZAPFEN
100
AcDbLine
 10
230.1980848635
 20
24.6948972345
 30
0.0
 11
230.1980848635
 21
27.9170386493
 31
0.0
  0
LINE
  5
133
330
1F
100
AcDbEntity
  8
ZAPFEN
100
AcDbLine
 10
238.149683478
 20
33.4330797195
 30
0.0
 11
232.6119127895
 21
32.4566215277
 31
0.0
  0
LINE
  5
134
330
1F
100
AcDbEntity
  8
ZAPFEN
100
AcDbLine
 10
232.6119127895
 20
32.4566215277
 30
0.0
 11
223.9256869282
 21
30.9250000864
 31
0.0
  0
LINE
  5
135
330
1F
100
AcDbEntity
  8
ZAPFEN
100
AcDbLine
 10
238.2444325115
 20
33.2471244037
 30
0.0
 11
238.149683478
 21
33.4330797195
 31
0.0
  0
LINE
  5
136
330
1F
100
AcDbEntity
  8
ZAPFEN
100
AcDbLine
 10
231.9313134229
 20
30.8027713549
 30
0.0
 11
233.3057555532
 21
30.7307410044
 31
0.0
  0
LINE
  5
137
330
1F
100
AcDbEntity
  8
ZAPFEN
100
AcDbLine
 10
230.2485252942
 20
29.1498620062
 30
0.0
 11
230.2485265399
 21
29.2600675311
 31
0.0
  0
LINE
  5
138
330
1F
100
AcDbEntity
  8
ZAPFEN
100
AcDbLine
 10
233.1382813723
 20
27.5351249405
 30
0.0
 11
231.7638387667
 21
27.607156821
 31
0.0
  0
LINE
  5
139
330
1F
100
AcDbEntity
  8
ZAPFEN
100
AcDbLine
 10
239.2524141098
 20
23.6055534332
 30
0.0
 11
239.5575675393
 21
23.4073828905
 31
0.0
  0
LINE
  5
13A
330
1F
100
AcDbEntity
  8
ZAPFEN
100
AcDbLine
 10
239.5535144235
 20
23.3299862594
 30
0.0
 11
239.5575675393
 21
23.4073828905
 31
0.0
  0
LINE
  5
13B
330
1F
100
AcDbEntity
  8
ZAPFEN
100
AcDbLine
 10
239.5535144235
 20
23.3299862594
 30
0.0
 11
237.723525169
 21
21.5000007301
 31
0.0
  0
LINE
  5
13C
330
1F
100
AcDbEntity
  8
ZAPFEN
100
AcDbLine
 10
237.723525169
 20
21.5000007301
 30
0.0
 11
236.4235255147
 21
21.5000007301
 31
0.0
  0
LINE
  5
13D
330
1F
100
AcDbEntity
  8
ZAPFEN
100
AcDbLine
 10
239.4567537333
 20
23.5951226205
 30
0.0
 11
239.4248950506
 21
23.6158091574
 31
0.0
  0
LINE
  5
13E
330
1F
100
AcDbEntity
  8
ZAPFEN
100
AcDbLine
 10
239.4567537333
 20
23.5951226205
 30
0.0
 11
239.5575675393
 21
23.4073828905
 31
0.0
  0
LINE
  5
13F
330
1F
100
AcDbEntity
  8
ZAPFEN
100
AcDbLine
 10
238.6393281842
 20
33.448331058
 30
0.0
 11
238.1829950238
 21
33.3676971494
 31
0.0
  0
LINE
  5
140
330
1F
100
AcDbEntity
  8
AUFNAHME
  6
CONTINUOUS
100
AcDbLine
 10
231.0727271463
 20
-26.6583021731
 30
0.0
 11
198.3585371847
 21
-26.6583021731
 31
0.0
  0
LINE
  5
141
330
1F
100
AcDbEntity
  8
AUFNAHME
  6
CONTINUOUS
100
AcDbLine
 10
221.9735267783
 20
-29.6376813204
 30
0.0
 11
209.4735275234
 21
-29.6376813204
 31
0.0
  0
LINE
  5
142
330
1F
100
AcDbEntity
  8
AUFNAHME
  6
CONTINUOUS
100
AcDbLine
 10
228.943008485
 20
-27.7587510646
 30
0.0
 11
228.943008485
 21
-27.7612507343
 31
0.0
  0
LINE
  5
143
330
1F
100
AcDbEntity
  8
AUFNAHME
  6
CONTINUOUS
100
AcDbLine
 10
225.4250539041
 20
19.2394418838
 30
0.0
 11
223.7591366496
 21
18.2845778763
 31
0.0
  0
LINE
  5
144
330
1F
100
AcDbEntity
  8
AUFNAHME
  6
CONTINUOUS
100
AcDbLine
 10
223.7591366496
 20
18.2845778763
 30
0.0
 11
221.315849128
 21
17.3588600009
 31
0.0
  0
LINE
  5
145
330
1F
100
AcDbEntity
  8
AUFNAHME
  6
CONTINUOUS
100
AcDbLine
 10
221.315849128
 20
17.3588600009
 30
0.0
 11
218.7314066317
 21
16.7195852844
 31
0.0
  0
LINE
  5
146
330
1F
100
AcDbEntity
  8
AUFNAHME
  6
CONTINUOUS
100
AcDbLine
 10
218.7314066317
 20
16.7195852844
 30
0.0
 11
215.8104959155
 21
16.2844117729
 31
0.0
  0
LINE
  5
147
330
1F
100
AcDbEntity
  8
AUFNAHME
  6
CONTINUOUS
100
AcDbLine
 10
215.8104959155
 20
16.2844117729
 30
0.0
 11
212.8419126595
 21
16.1316711454
 31
0.0
  0
LINE
  5
148
330
1F
100
AcDbEntity
  8
AUFNAHME
  6
CONTINUOUS
100
AcDbLine
 10
212.8419126595
 20
16.1316711454
 30
0.0
 11
209.8848964299
 21
16.2834078072
 31
0.0
  0
LINE
  5
149
330
1F
100
AcDbEntity
  8
AUFNAHME
  6
CONTINUOUS
100
AcDbLine
 10
209.8848964299
 20
16.2834078072
 30
0.0
 11
207.9702164258
 21
16.5666174142
 31
0.0
  0
LINE
  5
14A
330
1F
100
AcDbEntity
  8
AUFNAHME
  6
CONTINUOUS
100
AcDbLine
 10
207.9702164258
 20
16.5666174142
 30
0.0
 11
206.1051088597
 21
17.0246530324
 31
0.0
  0
LINE
  5
14B
330
1F
100
AcDbEntity
  8
AUFNAHME
  6
CONTINUOUS
100
AcDbLine
 10
206.1051088597
 20
17.0246530324
 30
0.0
 11
204.3057116891
 21
17.7016630768
 31
0.0
  0
LINE
  5
14C
330
1F
100
AcDbEntity
  8
AUFNAHME
  6
CONTINUOUS
100
AcDbLine
 10
204.3057116891
 20
17.7016630768
 30
0.0
 11
202.7007299687
 21
18.6318866908
 31
0.0
  0
LINE
  5
14D
330
1F
100
AcDbEntity
  8
AUFNAHME
  6
CONTINUOUS
100
AcDbLine
 10
202.7007299687
 20
18.6318866908
 30
0.0
 11
201.6115389043
 21
19.6542944758
 31
0.0
  0
LINE
  5
14E
330
1F
100
AcDbEntity
  8
AUFNAHME
  6
CONTINUOUS
100
AcDbLine
 10
201.6115389043
 20
19.6542944758
 30
0.0
 11
201.2245129073
 21
20.2459339052
 31
0.0
  0
LINE
  5
14F
330
1F
100
AcDbEntity
  8
AUFNAHME
  6
CONTINUOUS
100
AcDbLine
 10
201.2245129073
 20
20.2459339052
 30
0.0
 11
200.9855411226
 21
20.8701435476
 31
0.0
  0
LINE
  5
150
330
1F
100
AcDbEntity
  8
AUFNAHME
  6
CONTINUOUS
100
AcDbLine
 10
200.9855411226
 20
20.8701435476
 30
0.0
 11
200.9254112119
 21
21.2471503764
 31
0.0
  0
LINE
  5
151
330
1F
100
AcDbEntity
  8
AUFNAHME
  6
CONTINUOUS
100
AcDbLine
 10
231.2273735483
 20
16.3129416863
 30
0.0
 11
231.2273745536
 21
-26.6499999833
 31
0.0
  0
LINE
  5
152
330
1F
100
AcDbEntity
  8
AUFNAHME
  6
CONTINUOUS
100
AcDbLine
 10
198.2854060109
 20
-26.6499999833
 30
0.0
 11
231.2273745536
 21
-26.6499999833
 31
0.0
  0
LINE
  5
153
330
1F
100
AcDbEntity
  8
AUFNAHME
  6
CONTINUOUS
100
AcDbLine
 10
194.7665385236
 20
-32.0052647277
 30
0.0
 11
194.7805386179
 21
-31.9206077527
 31
0.0
  0
LINE
  5
154
330
1F
100
AcDbEntity
  8
AUFNAHME
  6
CONTINUOUS
100
AcDbLine
 10
194.7805386179
 20
-31.9206077527
 30
0.0
 11
194.9178211495
 21
-31.6828262049
 31
0.0
  0
LINE
  5
155
330
1F
100
AcDbEntity
  8
AUFNAHME
  6
CONTINUOUS
100
AcDbLine
 10
194.9178211495
 20
-31.6828262049
 30
0.0
 11
195.1458685528
 21
-31.2878373437
 31
0.0
  0
LINE
  5
156
330
1F
100
AcDbEntity
  8
AUFNAHME
  6
CONTINUOUS
100
AcDbLine
 10
195.1458685528
 20
-31.2878373437
 30
0.0
 11
195.4635501138
 21
-30.7375989622
 31
0.0
  0
LINE
  5
157
330
1F
100
AcDbEntity
  8
AUFNAHME
  6
CONTINUOUS
100
AcDbLine
 10
195.4635501138
 20
-30.7375989622
 30
0.0
 11
195.8692863726
 21
-30.0348415893
 31
0.0
  0
LINE
  5
158
330
1F
100
AcDbEntity
  8
AUFNAHME
  6
CONTINUOUS
100
AcDbLine
 10
195.8692863726
 20
-30.0348415893
 30
0.0
 11
196.3610675394
 21
-29.1830502256
 31
0.0
  0
LINE
  5
159
330
1F
100
AcDbEntity
  8
AUFNAHME
  6
CONTINUOUS
100
AcDbLine
 10
196.3610675394
 20
-29.1830502256
 30
0.0
 11
196.9364535266
 21
-28.1864549782
 31
0.0
  0
LINE
  5
15A
330
1F
100
AcDbEntity
  8
AUFNAHME
  6
CONTINUOUS
100
AcDbLine
 10
196.9364535266
 20
-28.1864549782
 30
0.0
 11
197.5925818339
 21
-27.0500050918
 31
0.0
  0
LINE
  5
15B
330
1F
100
AcDbEntity
  8
AUFNAHME
  6
CONTINUOUS
100
AcDbLine
 10
198.1784613468
 20
26.2500005196
 30
0.0
 11
176.2685920589
 21
26.2500005196
 31
0.0
  0
LINE
  5
15C
330
1F
100
AcDbEntity
  8
AUFNAHME
  6
CONTINUOUS
100
AcDbLine
 10
216.3308528513
 20
26.2499997003
 30
0.0
 11
198.1784613468
 21
26.2500005196
 31
0.0
  0
LINE
  5
15D
330
1F
100
AcDbEntity
  8
AUFNAHME
  6
CONTINUOUS
100
AcDbLine
 10
200.9254112119
 20
21.5761829168
 30
0.0
 11
201.132004636
 21
22.3518814892
 31
0.0
  0
LINE
  5
15E
330
1F
100
AcDbEntity
  8
AUFNAHME
  6
CONTINUOUS
100
AcDbLine
 10
201.132004636
 20
22.3518814892
 30
0.0
 11
201.8399103756
 21
23.291014135
 31
0.0
  0
LINE
  5
15F
330
1F
100
AcDbEntity
  8
AUFNAHME
  6
CONTINUOUS
100
AcDbLine
 10
201.8399103756
 20
23.291014135
 30
0.0
 11
202.5679177816
 21
23.8444637509
 31
0.0
  0
LINE
  5
160
330
1F
100
AcDbEntity
  8
AUFNAHME
  6
CONTINUOUS
100
AcDbLine
 10
202.5679177816
 20
23.8444637509
 30
0.0
 11
203.4169896717
 21
24.302236736
 31
0.0
  0
LINE
  5
161
330
1F
100
AcDbEntity
  8
AUFNAHME
  6
CONTINUOUS
100
AcDbLine
 10
203.4169896717
 20
24.302236736
 30
0.0
 11
204.9365747
 21
24.8670596631
 31
0.0
  0
LINE
  5
162
330
1F
100
AcDbEntity
  8
AUFNAHME
  6
CONTINUOUS
100
AcDbLine
 10
204.9365747
 20
24.8670596631
 30
0.0
 11
206.5762612249
 21
25.2657756211
 31
0.0
  0
LINE
  5
163
330
1F
100
AcDbEntity
  8
AUFNAHME
  6
CONTINUOUS
100
AcDbLine
 10
206.5762612249
 20
25.2657756211
 30
0.0
 11
209.5980043734
 21
25.6743524225
 31
0.0
  0
LINE
  5
164
330
1F
100
AcDbEntity
  8
AUFNAHME
  6
CONTINUOUS
100
AcDbLine
 10
209.5980043734
 20
25.6743524225
 30
0.0
 11
212.6934039618
 21
25.7961787285
 31
0.0
  0
LINE
  5
165
330
1F
100
AcDbEntity
  8
AUFNAHME
  6
CONTINUOUS
100
AcDbLine
 10
212.6934039618
 20
25.7961787285
 30
0.0
 11
216.742291377
 21
25.6167077683
 31
0.0
  0
LINE
  5
166
330
1F
100
AcDbEntity
  8
AUFNAHME
  6
CONTINUOUS
100
AcDbLine
 10
200.9254112119
 20
21.2471503764
 30
0.0
 11
200.9254112119
 21
21.5761829168
 31
0.0
  0
LINE
  5
167
330
1F
100
AcDbEntity
  8
AUFNAHME
  6
CONTINUOUS
100
AcDbLine
 10
172.3235265374
 20
-32.0000015199
 30
0.0
 11
172.3235265374
 21
31.9953268957
 31
0.0
  0
LINE
  5
168
330
1F
100
AcDbEntity
  8
AUFNAHME
  6
CONTINUOUS
100
AcDbLine
 10
232.9594265701
 20
16.5304038198
 30
0.0
 11
232.9594265701
 21
-26.6499999833
 31
0.0
  0
LINE
  5
169
330
1F
100
AcDbEntity
  8
AUFNAHME
  6
CONTINUOUS
100
AcDbLine
 10
231.2273745536
 20
-26.6499999833
 30
0.0
 11
232.9594265701
 21
-26.6499999833
 31
0.0
  0
LINE
  5
16A
330
1F
100
AcDbEntity
  8
AUFNAHME
  6
CONTINUOUS
100
AcDbLine
 10
232.9594265701
 20
-26.6499999833
 30
0.0
 11
235.4620280887
 21
-26.6499999833
 31
0.0
  0
LINE
  5
16B
330
1F
100
AcDbEntity
  8
AUFNAHME
  6
CONTINUOUS
100
AcDbLine
 10
236.4235256447
 20
23.0267946802
 30
0.0
 11
235.3983480986
 21
23.3014920009
 31
0.0
  0
LINE
  5
16C
330
1F
100
AcDbEntity
  8
AUFNAHME
  6
CONTINUOUS
100
AcDbLine
 10
236.4235256447
 20
23.0267946802
 30
0.0
 11
236.4235256447
 21
-25.0000003726
 31
0.0
  0
LINE
  5
16D
330
1F
100
AcDbEntity
  8
AUFNAHME
  6
CONTINUOUS
100
AcDbLine
 10
205.5716137613
 20
20.3875117003
 30
0.0
 11
205.168023261
 21
21.0933480412
 31
0.0
  0
LINE
  5
16E
330
1F
100
AcDbEntity
  8
AUFNAHME
  6
CONTINUOUS
100
AcDbLine
 10
205.168023261
 20
21.0933480412
 30
0.0
 11
204.6367372597
 21
21.8914877623
 31
0.0
  0
LINE
  5
16F
330
1F
100
AcDbEntity
  8
AUFNAHME
  6
CONTINUOUS
100
AcDbLine
 10
204.6367372597
 20
21.8914877623
 30
0.0
 11
204.0924127425
 21
22.5701518357
 31
0.0
  0
LINE
  5
170
330
1F
100
AcDbEntity
  8
AUFNAHME
  6
CONTINUOUS
100
AcDbLine
 10
204.0924127425
 20
22.5701518357
 30
0.0
 11
203.5503681029
 21
23.1102406979
 31
0.0
  0
LINE
  5
171
330
1F
100
AcDbEntity
  8
AUFNAHME
  6
CONTINUOUS
100
AcDbLine
 10
203.5503681029
 20
23.1102406979
 30
0.0
 11
203.025867718
 21
23.4965495765
 31
0.0
  0
LINE
  5
172
330
1F
100
AcDbEntity
  8
AUFNAHME
  6
CONTINUOUS
100
AcDbLine
 10
203.025867718
 20
23.4965495765
 30
0.0
 11
202.5336711879
 21
23.7182043493
 31
0.0
  0
LINE
  5
173
330
1F
100
AcDbEntity
  8
AUFNAHME
  6
CONTINUOUS
100
AcDbLine
 10
202.5336711879
 20
23.7182043493
 30
0.0
 11
202.3648652459
 21
23.7567108125
 31
0.0
  0
LINE
  5
174
330
1F
100
AcDbEntity
  8
AUFNAHME
  6
CONTINUOUS
100
AcDbLine
 10
224.3943619753
 20
26.2499997003
 30
0.0
 11
216.3308528513
 21
26.2499997003
 31
0.0
  0
LINE
  5
175
330
1F
100
AcDbEntity
  8
AUFNAHME
  6
CONTINUOUS
100
AcDbLine
 10
235.3983480986
 20
23.3014920009
 30
0.0
 11
224.3943619753
 21
26.2499997003
 31
0.0
  0
LINE
  5
176
330
1F
100
AcDbEntity
  8
AUFNAHME
  6
CONTINUOUS
100
AcDbLine
 10
205.1153774585
 20
20.7890551537
 30
0.0
 11
204.8000204588
 21
21.2816782296
 31
0.0
  0
LINE
  5
177
330
1F
100
AcDbEntity
  8
AUFNAHME
  6
CONTINUOUS
100
AcDbLine
 10
204.8000204588
 20
21.2816782296
 30
0.0
 11
204.2810428168
 21
21.9786018132
 31
0.0
  0
LINE
  5
178
330
1F
100
AcDbEntity
  8
AUFNAHME
  6
CONTINUOUS
100
AcDbLine
 10
204.2810428168
 20
21.9786018132
 30
0.0
 11
203.7588018204
 21
22.5439164788
 31
0.0
  0
LINE
  5
179
330
1F
100
AcDbEntity
  8
AUFNAHME
  6
CONTINUOUS
100
AcDbLine
 10
203.7588018204
 20
22.5439164788
 30
0.0
 11
203.2491578932
 21
22.9604486376
 31
0.0
  0
LINE
  5
17A
330
1F
100
AcDbEntity
  8
AUFNAHME
  6
CONTINUOUS
100
AcDbLine
 10
203.2491578932
 20
22.9604486376
 30
0.0
 11
202.7676026548
 21
23.2155397535
 31
0.0
  0
LINE
  5
17B
330
1F
100
AcDbEntity
  8
AUFNAHME
  6
CONTINUOUS
100
AcDbLine
 10
202.7676026548
 20
23.2155397535
 30
0.0
 11
202.3287653203
 21
23.3014412225
 31
0.0
  0
LINE
  5
17C
330
1F
100
AcDbEntity
  8
AUFNAHME
  6
CONTINUOUS
100
AcDbLine
 10
202.3287653203
 20
23.3014412225
 30
0.0
 11
201.9459805663
 21
23.2155397535
 31
0.0
  0
LINE
  5
17D
330
1F
100
AcDbEntity
  8
AUFNAHME
  6
CONTINUOUS
100
AcDbLine
 10
201.9459805663
 20
23.2155397535
 30
0.0
 11
201.630878749
 21
22.9604486376
 31
0.0
  0
LINE
  5
17E
330
1F
100
AcDbEntity
  8
AUFNAHME
  6
CONTINUOUS
100
AcDbLine
 10
201.630878749
 20
22.9604486376
 30
0.0
 11
201.393032002
 21
22.5439164787
 31
0.0
  0
LINE
  5
17F
330
1F
100
AcDbEntity
  8
AUFNAHME
  6
CONTINUOUS
100
AcDbLine
 10
201.393032002
 20
22.5439164787
 30
0.0
 11
201.2396711136
 21
21.9786018132
 31
0.0
  0
LINE
  5
180
330
1F
100
AcDbEntity
  8
AUFNAHME
  6
CONTINUOUS
100
AcDbLine
 10
201.2396711136
 20
21.9786018132
 30
0.0
 11
201.1754545594
 21
21.2816782296
 31
0.0
  0
LINE
  5
181
330
1F
100
AcDbEntity
  8
AUFNAHME
  6
CONTINUOUS
100
AcDbLine
 10
201.1754545594
 20
21.2816782296
 30
0.0
 11
201.2023306663
 21
20.4743240029
 31
0.0
  0
LINE
  5
182
330
1F
100
AcDbEntity
  8
AUFNAHME
  6
CONTINUOUS
100
AcDbLine
 10
201.2023306663
 20
20.4743240029
 30
0.0
 11
201.2272640343
 21
20.221663639
 31
0.0
  0
LINE
  5
183
330
1F
100
AcDbEntity
  8
ZAPFEN
100
AcDbLine
 10
215.7235252882
 20
30.5294264107
 30
0.0
 11
220.751292559
 21
30.5294264107
 31
0.0
  0
LINE
  5
184
330
1F
100
AcDbEntity
  8
ZAPFEN
100
AcDbLine
 10
210.6663356746
 20
30.5294264107
 30
0.0
 11
215.7235252882
 21
30.5294264107
 31
0.0
  0
LINE
  5
185
330
1F
100
AcDbEntity
  8
ZAPFEN
100
AcDbLine
 10
204.2700085069
 20
30.915159732
 30
0.0
 11
204.4450189198
 21
30.8352280407
 31
0.0
  0
LINE
  5
186
330
1F
100
AcDbEntity
  8
ZAPFEN
100
AcDbLine
 10
204.4450189198
 20
30.8352280407
 30
0.0
 11
204.7957922543
 21
30.6785199791
 31
0.0
  0
LINE
  5
187
330
1F
100
AcDbEntity
  8
ZAPFEN
100
AcDbLine
 10
204.7957922543
 20
30.6785199791
 30
0.0
 11
205.3431081797
 21
30.4419603199
 31
0.0
  0
LINE
  5
188
330
1F
100
AcDbEntity
  8
ZAPFEN
100
AcDbLine
 10
205.3431081797
 20
30.4419603199
 30
0.0
 11
206.0688282574
 21
30.1448740065
 31
0.0
  0
LINE
  5
189
330
1F
100
AcDbEntity
  8
ZAPFEN
100
AcDbLine
 10
206.0688282574
 20
30.1448740065
 30
0.0
 11
207.0096279706
 21
29.7872126103
 31
0.0
  0
LINE
  5
18A
330
1F
100
AcDbEntity
  8
ZAPFEN
100
AcDbLine
 10
207.0096279706
 20
29.7872126103
 30
0.0
 11
208.1109616185
 21
29.4112078845
 31
0.0
  0
LINE
  5
18B
330
1F
100
AcDbEntity
  8
ZAPFEN
100
AcDbLine
 10
208.1109616185
 20
29.4112078845
 30
0.0
 11
209.4254601027
 21
29.0232375264
 31
0.0
  0
LINE
  5
18C
330
1F
100
AcDbEntity
  8
ZAPFEN
100
AcDbLine
 10
209.4254601027
 20
29.0232375264
 30
0.0
 11
210.8584675218
 21
28.6799613386
 31
0.0
  0
LINE
  5
18D
330
1F
100
AcDbEntity
  8
ZAPFEN
100
AcDbLine
 10
210.8584675218
 20
28.6799613386
 30
0.0
 11
212.4649505342
 21
28.3962469547
 31
0.0
  0
LINE
  5
18E
330
1F
100
AcDbEntity
  8
ZAPFEN
100
AcDbLine
 10
212.4649505342
 20
28.3962469547
 30
0.0
 11
214.1325581099
 21
28.219524771
 31
0.0
  0
LINE
  5
18F
330
1F
100
AcDbEntity
  8
ZAPFEN
100
AcDbLine
 10
214.1325581099
 20
28.219524771
 30
0.0
 11
215.8657941247
 21
28.1640328466
 31
0.0
  0
LINE
  5
190
330
1F
100
AcDbEntity
  8
ZAPFEN
100
AcDbLine
 10
215.8657941247
 20
28.1640328466
 30
0.0
 11
217.596623602
 21
28.2410029322
 31
0.0
  0
LINE
  5
191
330
1F
100
AcDbEntity
  8
ZAPFEN
100
AcDbLine
 10
217.596623602
 20
28.2410029322
 30
0.0
 11
219.2525821949
 21
28.436306864
 31
0.0
  0
LINE
  5
192
330
1F
100
AcDbEntity
  8
ZAPFEN
100
AcDbLine
 10
219.2525821949
 20
28.436306864
 30
0.0
 11
220.8420778836
 21
28.7346318363
 31
0.0
  0
LINE
  5
193
330
1F
100
AcDbEntity
  8
ZAPFEN
100
AcDbLine
 10
220.8420778836
 20
28.7346318363
 30
0.0
 11
222.2581948365
 21
29.0879495442
 31
0.0
  0
LINE
  5
194
330
1F
100
AcDbEntity
  8
ZAPFEN
100
AcDbLine
 10
222.2581948365
 20
29.0879495442
 30
0.0
 11
223.5476966227
 21
29.4800065457
 31
0.0
  0
LINE
  5
195
330
1F
100
AcDbEntity
  8
ZAPFEN
100
AcDbLine
 10
223.5476966227
 20
29.4800065457
 30
0.0
 11
224.6170970823
 21
29.8531185836
 31
0.0
  0
LINE
  5
196
330
1F
100
AcDbEntity
  8
ZAPFEN
100
AcDbLine
 10
224.6170970823
 20
29.8531185836
 30
0.0
 11
225.5228157367
 21
30.2026513963
 31
0.0
  0
LINE
  5
197
330
1F
100
AcDbEntity
  8
EW
  6
HIDDEN
100
AcDbLine
 10
-8.2026720047
 20
7.973409985
 30
0.0
 11
-39.9999983311
 21
7.973409985
 31
0.0
  0
LINE
  5
198
330
1F
100
AcDbEntity
  8
EW
  6
HIDDEN
100
AcDbLine
 10
-8.2026720047
 20
7.973409985
 30
0.0
 11
-8.2026720047
 21
-8.0450216605
 31
0.0
  0
LINE
  5
199
330
1F
100
AcDbEntity
  8
EW
  6
HIDDEN
100
AcDbLine
 10
-1.4854371548
 20
0.0
 30
0.0
 11
-8.2026720047
 21
7.973409985
 31
0.0
  0
LINE
  5
19A
330
1F
100
AcDbEntity
  8
EW
  6
HIDDEN
100
AcDbLine
 10
-1.4854371548
 20
0.0
 30
0.0
 11
-8.2026720047
 21
-8.0450216605
 31
0.0
  0
LINE
  5
19B
330
1F
100
AcDbEntity
  8
EW
  6
HIDDEN
100
AcDbLine
 10
-8.2026720047
 20
-8.0450216605
 30
0.0
 11
-39.9999983311
 21
-8.0450216605
 31
0.0
  0
LINE
  5
19C
330
1F
100
AcDbEntity
  8
ZAPFEN
100
AcDbLine
 10
215.7235271509
 20
-31.9206077527
 30
0.0
 11
215.7235271509
 21
36.4218975989
 31
0.0
  0
LINE
  5
19D
330
1F
100
AcDbEntity
  8
AUFNAHME
  6
CONTINUOUS
100
AcDbLine
 10
91.0026136536
 20
31.995690621
 30
0.0
 11
65.0830696344
 21
31.995690621
 31
0.0
  0
LINE
  5
19E
330
1F
100
AcDbEntity
  8
AUFNAHME
  6
CONTINUOUS
100
AcDbLine
 10
91.0026136536
 20
-32.0000015199
 30
0.0
 11
65.0830696344
 21
-32.0000015199
 31
0.0
  0
LINE
  5
19F
330
1F
100
AcDbEntity
  8
AUFNAHME
  6
CONTINUOUS
100
AcDbLine
 10
172.1285659936
 20
31.995690621
 30
0.0
 11
172.1285659936
 21
-32.0000015199
 31
0.0
  0
LINE
  5
1A0
330
1F
100
AcDbEntity
  8
AUFNAHME
  6
CONTINUOUS
100
AcDbLine
 10
65.0830696344
 20
31.995690621
 30
0.0
 11
0.9050414802
 21
31.995690621
 31
0.0
  0
LINE
  5
1A1
330
1F
100
AcDbEntity
  8
AUFNAHME
  6
CONTINUOUS
100
AcDbLine
 10
91.0026136536
 20
-32.0000015199
 30
0.0
 11
172.22352654
 21
-32.0000015199
 31
0.0
  0
LINE
  5
1A2
330
1F
100
AcDbEntity
  8
EW
  6
HIDDEN
100
AcDbLine
 10
215.7337151385
 20
17.250821009
 30
0.0
 11
200.7337164052
 21
17.250821009
 31
0.0
  0
LINE
  5
1A3
330
1F
100
AcDbEntity
  8
EW
  6
HIDDEN
100
AcDbLine
 10
230.7337157346
 20
17.250821009
 30
0.0
 11
215.7337151385
 21
17.250821009
 31
0.0
  0
LINE
  5
1A4
330
1F
100
AcDbEntity
  8
EW
  6
HIDDEN
100
AcDbLine
 10
198.2237163849
 20
-24.7991792711
 30
0.0
 11
233.2437157548
 21
-24.7991792711
 31
0.0
  0
LINE
  5
1A5
330
1F
100
AcDbEntity
  8
EW
  6
HIDDEN
100
AcDbLine
 10
230.7337157346
 20
-21.199177936
 30
0.0
 11
230.7337157346
 21
17.250821009
 31
0.0
  0
LINE
  5
1A6
330
1F
100
AcDbEntity
  8
EW
  6
HIDDEN
100
AcDbLine
 10
198.2237163849
 20
-24.7991792711
 30
0.0
 11
198.2237163849
 21
-26.6523826721
 31
0.0
  0
LINE
  5
1A7
330
1F
100
AcDbEntity
  8
EW
  6
HIDDEN
100
AcDbLine
 10
233.2437157548
 20
-26.6491789224
 30
0.0
 11
233.2437157548
 21
-24.7991792711
 31
0.0
  0
LINE
  5
1A8
330
1F
100
AcDbEntity
  8
EW
  6
HIDDEN
100
AcDbLine
 10
200.7307156838
 20
26.0508209613
 30
0.0
 11
200.7307156838
 21
-21.7971782985
 31
0.0
  0
ARC
  5
1A9
330
1F
100
AcDbEntity
  8
ZAPFEN
100
AcDbCircle
 10
-3.0350010814
 20
17.7820492197
 30
0.0
 40
1.000003175750005
100
AcDbArc
 50
0.0001086655
 51
29.999973773
  0
ARC
  5
1AA
330
1F
100
AcDbEntity
  8
ZAPFEN
100
AcDbCircle
 10
-14.9649976972
 20
17.7820504416
 30
0.0
 40
1.000000731950035
100
AcDbArc
 50
149.9999489521
 51
179.9999613441
  0
ARC
  5
1AB
330
1F
100
AcDbEntity
  8
ZAPFEN
100
AcDbCircle
 10
-3.0350010814
 20
-17.7820492197
 30
0.0
 40
1.000003175749994
100
AcDbArc
 50
330.000026227
 51
359.9998913345
  0
ARC
  5
1AC
330
1F
100
AcDbEntity
  8
ZAPFEN
100
AcDbCircle
 10
-14.9649976972
 20
-17.7820504416
 30
0.0
 40
1.000000731950035
100
AcDbArc
 50
180.000038656
 51
210.0000510479
  0
ARC
  5
1AD
330
1F
100
AcDbEntity
  8
ZAPFEN
100
AcDbCircle
 10
-4.6042045741
 20
20.4999971845
 30
0.0
 40
1.0000007183096
100
AcDbArc
 50
30.0001437763
 51
90.0
  0
ARC
  5
1AE
330
1F
100
AcDbEntity
  8
ZAPFEN
100
AcDbCircle
 10
-13.3957884224
 20
20.4999993009
 30
0.0
 40
0.9999986019182799
100
AcDbArc
 50
90.0
 51
149.9999262332
  0
ARC
  5
1AF
330
1F
100
AcDbEntity
  8
ZAPFEN
100
AcDbCircle
 10
-4.6042045741
 20
-20.4999971846
 30
0.0
 40
1.000000718284633
100
AcDbArc
 50
270.0
 51
329.9998562287
  0
ARC
  5
1B0
330
1F
100
AcDbEntity
  8
ZAPFEN
100
AcDbCircle
 10
-13.3957884224
 20
-20.499999301
 30
0.0
 40
0.9999986018933118
100
AcDbArc
 50
210.0000737619
 51
270.0
  0
ARC
  5
1B1
330
1F
100
AcDbEntity
  8
AUFNAHME
  6
CONTINUOUS
100
AcDbCircle
 10
-0.2999983311
 20
-18.2000000001
 30
0.0
 40
0.5000000000000594
100
AcDbArc
 50
53.1301023542
 51
104.9999990906
  0
ARC
  5
1B2
330
1F
100
AcDbEntity
  8
AUFNAHME
  6
CONTINUOUS
100
AcDbCircle
 10
-0.2999983311
 20
18.2
 30
0.0
 40
0.5000000000000168
100
AcDbArc
 50
255.0
 51
306.8698976458
  0
ARC
  5
1B3
330
1F
100
AcDbEntity
  8
ZAPFEN
100
AcDbCircle
 10
-38.9999983311
 20
-17.0000000001
 30
0.0
 40
1.0
100
AcDbArc
 50
180.0
 51
280.000043773
  0
ARC
  5
1B4
330
1F
100
AcDbEntity
  8
ZAPFEN
100
AcDbCircle
 10
-38.9999983311
 20
17.0
 30
0.0
 40
1.0
100
AcDbArc
 50
80.0
 51
180.0
  0
ARC
  5
1B5
330
1F
100
AcDbEntity
  8
AUFNAHME
  6
CONTINUOUS
100
AcDbCircle
 10
202.0604245547
 20
16.8308662171
 30
0.0
 40
4.999999999999959
100
AcDbArc
 50
47.0210359954
 51
79.4117968775
  0
ARC
  5
1B6
330
1F
100
AcDbEntity
  8
ZAPFEN
100
AcDbCircle
 10
204.2540401948
 20
27.9195214172
 30
0.0
 40
3.005451956215896
100
AcDbArc
 50
90.1040097628
 51
179.8960613852
  0
CIRCLE
  5
1B7
330
1F
100
AcDbEntity
  8
ZAPFEN
100
AcDbCircle
 10
-15.4999983311
 20
0.0
 30
0.0
 40
4.49999999999998
  0
ARC
  5
1B8
330
1F
100
AcDbEntity
  8
AUFNAHME
  6
CONTINUOUS
100
AcDbCircle
 10
202.2687708761
 20
22.0405824551
 30
0.0
 40
1.222981644057938
100
AcDbArc
 50
56.8363447983
 51
104.2128725584
  0
CIRCLE
  5
1B9
330
1F
100
AcDbEntity
  8
AUFNAHME
  6
CONTINUOUS
100
AcDbCircle
 10
215.7235265399
 20
3.0
 30
0.0
 40
3.999999999999988
  0
CIRCLE
  5
1BA
330
1F
100
AcDbEntity
  8
AUFNAHME
  6
CONTINUOUS
100
AcDbCircle
 10
215.7235265399
 20
3.0
 30
0.0
 40
4.999999999999931
  0
CIRCLE
  5
1BB
330
1F
100
AcDbEntity
  8
ZAPFEN
100
AcDbCircle
 10
236.7958312777
 20
28.9456376962
 30
0.0
 40
1.724999999999905
  0
ARC
  5
1BC
330
1F
100
AcDbEntity
  8
ZAPFEN
100
AcDbCircle
 10
239.8185780852
 20
33.6002587283
 30
0.0
 40
0.3999995855079863
100
AcDbArc
 50
357.0000052238
 51
116.99979089
  0
ARC
  5
1BD
330
1F
100
AcDbEntity
  8
ZAPFEN
100
AcDbCircle
 10
239.3154787899
 20
24.0005518546
 30
0.0
 40
0.4000004382283037
100
AcDbArc
 50
236.9999959216
 51
356.9999777776
  0
ARC
  5
1BE
330
1F
100
AcDbEntity
  8
ZAPFEN
100
AcDbCircle
 10
231.2534375908
 20
29.2361026092
 30
0.0
 40
0.3999997399031622
100
AcDbArc
 50
117.0001423558
 51
236.9999959216
  0
ARC
  5
1BF
330
1F
100
AcDbEntity
  8
ZAPFEN
100
AcDbCircle
 10
225.1374523057
 20
27.041806371
 30
0.0
 40
3.184192397617839
100
AcDbArc
 50
5.3344421056
 51
83.0488006891
  0
ARC
  5
1C0
330
1F
100
AcDbEntity
  8
ZAPFEN
100
AcDbCircle
 10
227.2911587829
 20
27.9218363858
 30
0.0
 40
2.95470174814311
100
AcDbArc
 50
10.2907657753
 51
86.8543066034
  0
ARC
  5
1C1
330
1F
100
AcDbEntity
  8
ZAPFEN
100
AcDbCircle
 10
231.847576788
 20
29.2049646716
 30
0.0
 40
1.599999381606379
100
AcDbArc
 50
87.0000309379
 51
178.0263831611
  0
ARC
  5
1C2
330
1F
100
AcDbEntity
  8
ZAPFEN
100
AcDbCircle
 10
231.847576788
 20
29.2049646716
 30
0.0
 40
1.600000619863962
100
AcDbArc
 50
181.9736083544
 51
266.9999835435
  0
ARC
  5
1C3
330
1F
100
AcDbEntity
  8
AUFNAHME
  6
CONTINUOUS
100
AcDbCircle
 10
198.2854102974
 20
-27.4500089745
 30
0.0
 40
0.8000089912027956
100
AcDbArc
 50
90.0003069911
 51
150.0000506904
  0
CIRCLE
  5
1C4
330
1F
100
AcDbEntity
  8
AUFNAHME
  6
CONTINUOUS
100
AcDbCircle
 10
215.7235265399
 20
3.0
 30
0.0
 40
5.25000029230594
  0
ARC
  5
1C5
330
1F
100
AcDbEntity
  8
AUFNAHME
  6
CONTINUOUS
100
AcDbCircle
 10
231.9642632571
 20
17.4502278614
 30
0.0
 40
1.355148068283708
100
AcDbArc
 50
237.0593077412
 51
317.2529638473
  0
ARC
  5
1C6
330
1F
100
AcDbEntity
  8
AUFNAHME
  6
CONTINUOUS
100
AcDbCircle
 10
224.2238199516
 20
23.5017272575
 30
0.0
 40
11.17632200082695
100
AcDbArc
 50
321.4088932413
 51
358.9734324981
  0
ARC
  5
1C7
330
1F
100
AcDbEntity
  8
ZAPFEN
100
AcDbCircle
 10
214.2622107254
 20
75.0196049449
 30
0.0
 40
49.70747412632812
100
AcDbArc
 50
281.147640292
 51
286.4134978283
  0
ARC
  5
1C8
330
1F
100
AcDbEntity
  8
ZAPFEN
100
AcDbCircle
 10
217.8580283852
 20
77.9497445633
 30
0.0
 40
52.71009494952752
100
AcDbArc
 50
251.6628410101
 51
258.763715517
  0
ARC
  5
1C9
330
1F
100
AcDbEntity
  8
ZAPFEN
100
AcDbCircle
 10
227.192181058
 20
28.58373476
 30
0.0
 40
2.325440098347386
100
AcDbArc
 50
94.4597873073
 51
135.8789605066
  0
ELLIPSE
  5
1CA
330
1F
100
AcDbEntity
  8
AUFNAHME
  6
CONTINUOUS
100
AcDbEllipse
 10
335.3228729406
 20
0.0
 30
0.0
 11
119.3719812440893
 21
-28.17990218243499
 31
0.0
210
0.0
220
0.0
230
1.0
 40
0.1270166534
 41
3.573723124228186
 42
3.68383743385559
  0
ELLIPSE
  5
1CB
330
1F
100
AcDbEntity
  8
AUFNAHME
  6
CONTINUOUS
100
AcDbEllipse
 10
182.4485357933
 20
0.0000015202
 30
0.0
 11
-8.482279218429481
 21
31.99827522157808
 31
0.0
210
0.0
220
0.0
230
1.0
 40
0.0391686159
 41
5.663963480327472
 42
6.289895662222747
  0
ELLIPSE
  5
1CC
330
1F
100
AcDbEntity
  8
AUFNAHME
  6
CONTINUOUS
100
AcDbEllipse
 10
335.3228729406
 20
0.0
 30
0.0
 11
119.371975771759
 21
-28.17990089059302
 31
0.0
210
0.0
220
0.0
230
1.0
 40
0.1270166537
 41
3.256808590316506
 42
3.290599868334125
  0
ELLIPSE
  5
1CD
330
1F
100
AcDbEntity
  8
AUFNAHME
  6
CONTINUOUS
100
AcDbEllipse
 10
216.4848035013
 20
22.4033317526
 30
0.0
 11
9.022339046676477
 21
-2.978028579099511
 31
0.0
210
0.0
220
0.0
230
1.0
 40
0.3307289839
 41
6.218784905339605
 42
7.934341518878598
  0
DIMENSION
  5
1CE
330
1F
100
AcDbEntity
  8
MASS
100
AcDbDimension
  2
_D
 10
-52.208695814
 20
-17.9999992252
 30
0.0
 11
-52.208695814
 21
0.0
 31
0.0
 70
   160
  1
%%c<>
  3
SLDDIMSTYLE0
100
AcDbAlignedDimension
 13
-34.9999964237
 23
17.9999992252
 33
0.0
 14
-34.9999964237
 24
-17.9999992252
 34
0.0
 50
90.0
100
AcDbRotatedDimension
  0
DIMENSION
  5
1DB
330
1F
100
AcDbEntity
  8
MASS
100
AcDbDimension
  2
_D_1
 10
-68.6467019005
 20
-32.00000152
 30
0.0
 11
-68.6467019005
 21
-0.0021554495
 31
0.0
 70
   160
  1
%%c<>
  3
SLDDIMSTYLE0
100
AcDbAlignedDimension
 13
0.9050414802
 23
31.995690621
 33
0.0
 14
1.0000020267
 24
-32.0000015199
 34
0.0
 50
90.0
100
AcDbRotatedDimension
  0
DIMENSION
  5
1E6
330
1F
100
AcDbEntity
  8
MASS
100
AcDbDimension
  2
_D_2
 10
254.2671228813
 20
0.0
 30
0.0
 11
254.2671228813
 21
-3.6748329688
 31
0.0
 70
   160
  1
%%c68 - 150
  3
SLDDIMSTYLE1
100
AcDbAlignedDimension
 13
239.6369833742
 23
33.9566616314
 33
0.0
 14
259.994504616
 24
0.0
 34
0.0
 50
90.0
100
AcDbRotatedDimension
  0
DIMENSION
  5
1F1
330
1F
100
AcDbEntity
  8
MASS
100
AcDbDimension
  2
_D_3
 10
0.0
 20
48.6401997025
 30
0.0
 11
120.1090147435
 21
48.6401997025
 31
0.0
 70
   160
  1
<>
  3
SLDDIMSTYLE2
100
AcDbAlignedDimension
 13
240.2180294871
 23
33.5793244039
 33
0.0
 14
0.0
 24
30.9999994933
 34
0.0
 50
0.0
100
AcDbRotatedDimension
  0
DIMENSION
  5
1FC
330
1F
100
AcDbEntity
  8
MASS
100
AcDbDimension
  2
_D_4
 10
0.0
 20
-42.0014333404
 30
0.0
 11
118.2117628223
 21
-42.0014333404
 31
0.0
 70
   160
  1
<>
  3
SLDDIMSTYLE0
100
AcDbAlignedDimension
 13
236.4235256447
 23
-25.0000003726
 33
0.0
 14
0.0
 24
-30.9999994933
 34
0.0
 50
0.0
100
AcDbRotatedDimension
  0
MTEXT
  5
206
330
1F
100
AcDbEntity
  8
TEXT
100
AcDbMText
 10
148.3204348075
 20
-25.6281492047
 30
0.0
 40
3.5
 41
0.0
 71
     1
 72
     1
  1
806.744
  7
SLDTEXTSTYLE0
  0
ENDSEC
  0
SECTION
  2
OBJECTS
  0
DICTIONARY
  5
C
330
0
100
AcDbDictionary
  3
ACAD_GROUP
350
D
  3
ACAD_MLINESTYLE
350
17
  3
ACAD_SCALELIST
350
47
  0
DICTIONARY
  5
D
102
{ACAD_REACTORS
330
C
102
}
330
C
100
AcDbDictionary
  0
DICTIONARY
  5
17
102
{ACAD_REACTORS
330
C
102
}
330
C
100
AcDbDictionary
  3
STANDARD
350
18
  0
DICTIONARY
  5
47
102
{ACAD_REACTORS
330
C
102
}
330
C
100
AcDbDictionary
  0
MLINESTYLE
  5
18
102
{ACAD_REACTORS
330
17
102
}
330
17
100
AcDbMlineStyle
  2
Standard
 70
     0
  3

 62
   256
 51
90.0
 52
90.0
 71
     2
 49
0.5
 62
   256
  6
BYLAYER
 49
-0.5
 62
   256
  6
BYLAYER
  0
ENDSEC
  0
EOF
