  0
SECTION
  2
HEADER
  9
$ACADVER
  1
AC1027
  9
$ACADMAINTVER
 70
   105
  9
$DWGCODEPAGE
  3
ANSI_1252
  9
$REQUIREDVERSIONS
160
                 0
  9
$LASTSAVEDBY
  1
matthias.ochs
  9
$INSBASE
 10
0.0
 20
0.0
 30
0.0
  9
$EXTMIN
 10
-116.8574612382356
 20
-62.62222721081385
 30
0.0
  9
$EXTMAX
 10
165.8157094934717
 20
82.25582156967413
 30
0.0
  9
$LIMMIN
 10
0.0
 20
0.0
  9
$LIMMAX
 10
420.0
 20
297.0
  9
$ORTHOMODE
 70
     0
  9
$REGENMODE
 70
     1
  9
$FILLMODE
 70
     1
  9
$QTEXTMODE
 70
     0
  9
$MIRRTEXT
 70
     1
  9
$LTSCALE
 40
1.0
  9
$ATTMODE
 70
     1
  9
$TEXTSIZE
 40
3.5
  9
$TRACEWID
 40
1.0
  9
$TEXTSTYLE
  7
STANDARD
  9
$CLAYER
  8
SK1
  9
$CELTYPE
  6
BYLAYER
  9
$CECOLOR
 62
   256
  9
$CELTSCALE
 40
1.0
  9
$DISPSILH
 70
     0
  9
$DIMSCALE
 40
1.0
  9
$DIMASZ
 40
3.0
  9
$DIMEXO
 40
0.0625
  9
$DIMDLI
 40
0.38
  9
$DIMRND
 40
0.000000001
  9
$DIMDLE
 40
0.0
  9
$DIMEXE
 40
2.0
  9
$DIMTP
 40
0.0
  9
$DIMTM
 40
0.0
  9
$DIMTXT
 40
3.5
  9
$DIMCEN
 40
0.09
  9
$DIMTSZ
 40
0.0
  9
$DIMTOL
 70
     0
  9
$DIMLIM
 70
     0
  9
$DIMTIH
 70
     0
  9
$DIMTOH
 70
     1
  9
$DIMSE1
 70
     0
  9
$DIMSE2
 70
     0
  9
$DIMTAD
 70
     1
  9
$DIMZIN
 70
    12
  9
$DIMBLK
  1

  9
$DIMASO
 70
     1
  9
$DIMSHO
 70
     1
  9
$DIMPOST
  1

  9
$DIMAPOST
  1

  9
$DIMALT
 70
     0
  9
$DIMALTD
 70
     2
  9
$DIMALTF
 40
25.4
  9
$DIMLFAC
 40
1.0
  9
$DIMTOFL
 70
     0
  9
$DIMTVP
 40
0.0
  9
$DIMTIX
 70
     0
  9
$DIMSOXD
 70
     0
  9
$DIMSAH
 70
     1
  9
$DIMBLK1
  1

  9
$DIMBLK2
  1

  9
$DIMSTYLE
  2
Normal
  9
$DIMCLRD
 70
     0
  9
$DIMCLRE
 70
     0
  9
$DIMCLRT
 70
     0
  9
$DIMTFAC
 40
1.0
  9
$DIMGAP
 40
1.0
  9
$DIMJUST
 70
     0
  9
$DIMSD1
 70
     0
  9
$DIMSD2
 70
     0
  9
$DIMTOLJ
 70
     1
  9
$DIMTZIN
 70
    12
  9
$DIMALTZ
 70
     0
  9
$DIMALTTZ
 70
     0
  9
$DIMUPT
 70
     0
  9
$DIMDEC
 70
     2
  9
$DIMTDEC
 70
     3
  9
$DIMALTU
 70
     2
  9
$DIMALTTD
 70
     2
  9
$DIMTXSTY
  7
BMG_Text
  9
$DIMAUNIT
 70
     0
  9
$DIMADEC
 70
     0
  9
$DIMALTRND
 40
0.0
  9
$DIMAZIN
 70
     0
  9
$DIMDSEP
 70
    46
  9
$DIMATFIT
 70
     3
  9
$DIMFRAC
 70
     0
  9
$DIMLDRBLK
  1

  9
$DIMLUNIT
 70
     2
  9
$DIMLWD
 70
    -2
  9
$DIMLWE
 70
    -2
  9
$DIMTMOVE
 70
     0
  9
$DIMFXL
 40
1.0
  9
$DIMFXLON
 70
     0
  9
$DIMJOGANG
 40
0.7853981633974483
  9
$DIMTFILL
 70
     0
  9
$DIMTFILLCLR
 70
     0
  9
$DIMARCSYM
 70
     0
  9
$DIMLTYPE
  6

  9
$DIMLTEX1
  6

  9
$DIMLTEX2
  6

  9
$DIMTXTDIRECTION
 70
     0
  9
$LUNITS
 70
     2
  9
$LUPREC
 70
     2
  9
$SKETCHINC
 40
1.0
  9
$FILLETRAD
 40
10.0
  9
$AUNITS
 70
     0
  9
$AUPREC
 70
     2
  9
$MENU
  1
.
  9
$ELEVATION
 40
0.0
  9
$PELEVATION
 40
0.0
  9
$THICKNESS
 40
0.0
  9
$LIMCHECK
 70
     0
  9
$CHAMFERA
 40
0.0
  9
$CHAMFERB
 40
0.0
  9
$CHAMFERC
 40
0.0
  9
$CHAMFERD
 40
0.0
  9
$SKPOLY
 70
     0
  9
$TDCREATE
 40
2458193.462193356
  9
$TDUCREATE
 40
2458193.42052669
  9
$TDUPDATE
 40
2458564.410965798
  9
$TDUUPDATE
 40
2458564.369299132
  9
$TDINDWG
 40
0.0100723148
  9
$TDUSRTIMER
 40
0.0003070255
  9
$USRTIMER
 70
     1
  9
$ANGBASE
 50
0.0
  9
$ANGDIR
 70
     0
  9
$PDMODE
 70
     0
  9
$PDSIZE
 40
-1.0
  9
$PLINEWID
 40
0.0
  9
$SPLFRAME
 70
     0
  9
$SPLINETYPE
 70
     6
  9
$SPLINESEGS
 70
     8
  9
$HANDSEED
  5
341
  9
$SURFTAB1
 70
     6
  9
$SURFTAB2
 70
     6
  9
$SURFTYPE
 70
     6
  9
$SURFU
 70
     6
  9
$SURFV
 70
     6
  9
$UCSBASE
  2

  9
$UCSNAME
  2

  9
$UCSORG
 10
0.0
 20
0.0
 30
0.0
  9
$UCSXDIR
 10
1.0
 20
0.0
 30
0.0
  9
$UCSYDIR
 10
0.0
 20
1.0
 30
0.0
  9
$UCSORTHOREF
  2

  9
$UCSORTHOVIEW
 70
     0
  9
$UCSORGTOP
 10
0.0
 20
0.0
 30
0.0
  9
$UCSORGBOTTOM
 10
0.0
 20
0.0
 30
0.0
  9
$UCSORGLEFT
 10
0.0
 20
0.0
 30
0.0
  9
$UCSORGRIGHT
 10
0.0
 20
0.0
 30
0.0
  9
$UCSORGFRONT
 10
0.0
 20
0.0
 30
0.0
  9
$UCSORGBACK
 10
0.0
 20
0.0
 30
0.0
  9
$PUCSBASE
  2

  9
$PUCSNAME
  2

  9
$PUCSORG
 10
0.0
 20
0.0
 30
0.0
  9
$PUCSXDIR
 10
1.0
 20
0.0
 30
0.0
  9
$PUCSYDIR
 10
0.0
 20
1.0
 30
0.0
  9
$PUCSORTHOREF
  2

  9
$PUCSORTHOVIEW
 70
     0
  9
$PUCSORGTOP
 10
0.0
 20
0.0
 30
0.0
  9
$PUCSORGBOTTOM
 10
0.0
 20
0.0
 30
0.0
  9
$PUCSORGLEFT
 10
0.0
 20
0.0
 30
0.0
  9
$PUCSORGRIGHT
 10
0.0
 20
0.0
 30
0.0
  9
$PUCSORGFRONT
 10
0.0
 20
0.0
 30
0.0
  9
$PUCSORGBACK
 10
0.0
 20
0.0
 30
0.0
  9
$USERI1
 70
     0
  9
$USERI2
 70
     0
  9
$USERI3
 70
     0
  9
$USERI4
 70
     0
  9
$USERI5
 70
     0
  9
$USERR1
 40
0.0
  9
$USERR2
 40
0.0
  9
$USERR3
 40
0.0
  9
$USERR4
 40
0.0
  9
$USERR5
 40
0.0
  9
$WORLDVIEW
 70
     1
  9
$SHADEDGE
 70
     3
  9
$SHADEDIF
 70
    70
  9
$TILEMODE
 70
     1
  9
$MAXACTVP
 70
    64
  9
$PINSBASE
 10
0.0
 20
0.0
 30
0.0
  9
$PLIMCHECK
 70
     0
  9
$PEXTMIN
 10
1.000000000000000E+20
 20
1.000000000000000E+20
 30
1.000000000000000E+20
  9
$PEXTMAX
 10
-1.000000000000000E+20
 20
-1.000000000000000E+20
 30
-1.000000000000000E+20
  9
$PLIMMIN
 10
0.0
 20
0.0
  9
$PLIMMAX
 10
0.0
 20
0.0
  9
$UNITMODE
 70
     0
  9
$VISRETAIN
 70
     1
  9
$PLINEGEN
 70
     0
  9
$PSLTSCALE
 70
     1
  9
$TREEDEPTH
 70
  3020
  9
$CMLSTYLE
  2
STANDARD
  9
$CMLJUST
 70
     0
  9
$CMLSCALE
 40
20.0
  9
$PROXYGRAPHICS
 70
     1
  9
$MEASUREMENT
 70
     1
  9
$CELWEIGHT
370
    -1
  9
$ENDCAPS
280
     0
  9
$JOINSTYLE
280
     0
  9
$LWDISPLAY
290
     0
  9
$INSUNITS
 70
     0
  9
$HYPERLINKBASE
  1

  9
$STYLESHEET
  1

  9
$XEDIT
290
     1
  9
$CEPSNTYPE
380
     0
  9
$PSTYLEMODE
290
     1
  9
$FINGERPRINTGUID
  2
{A5EC6F4A-C6BA-47A2-AD24-AC1EE6797A79}
  9
$VERSIONGUID
  2
{FAEB1C32-E019-11D5-929B-00C0DF256EC4}
  9
$EXTNAMES
290
     1
  9
$PSVPSCALE
 40
0.0
  9
$OLESTARTUP
290
     0
  9
$SORTENTS
280
   127
  9
$INDEXCTL
280
     0
  9
$HIDETEXT
280
     1
  9
$XCLIPFRAME
280
     2
  9
$HALOGAP
280
     0
  9
$OBSCOLOR
 70
   257
  9
$OBSLTYPE
280
     0
  9
$INTERSECTIONDISPLAY
280
     0
  9
$INTERSECTIONCOLOR
 70
   257
  9
$DIMASSOC
280
     2
  9
$PROJECTNAME
  1

  9
$CAMERADISPLAY
290
     0
  9
$LENSLENGTH
 40
50.0
  9
$CAMERAHEIGHT
 40
0.0
  9
$STEPSPERSEC
 40
2.0
  9
$STEPSIZE
 40
6.0
  9
$3DDWFPREC
 40
2.0
  9
$PSOLWIDTH
 40
0.25
  9
$PSOLHEIGHT
 40
4.0
  9
$LOFTANG1
 40
1.570796326794897
  9
$LOFTANG2
 40
1.570796326794897
  9
$LOFTMAG1
 40
0.0
  9
$LOFTMAG2
 40
0.0
  9
$LOFTPARAM
 70
     7
  9
$LOFTNORMALS
280
     1
  9
$LATITUDE
 40
37.795
  9
$LONGITUDE
 40
-122.394
  9
$NORTHDIRECTION
 40
0.0
  9
$TIMEZONE
 70
 -8000
  9
$LIGHTGLYPHDISPLAY
280
     1
  9
$TILEMODELIGHTSYNCH
280
     1
  9
$SOLIDHIST
280
     0
  9
$SHOWHIST
280
     1
  9
$DWFFRAME
280
     2
  9
$DGNFRAME
280
     2
  9
$REALWORLDSCALE
290
     1
  9
$INTERFERECOLOR
 62
   256
  9
$CSHADOW
280
     0
  9
$SHADOWPLANELOCATION
 40
0.0
  0
ENDSEC
  0
SECTION
  2
CLASSES
  0
CLASS
  1
ACDBDICTIONARYWDFLT
  2
AcDbDictionaryWithDefault
  3
ObjectDBX Classes
 90
        0
 91
       22
280
     0
281
     0
  0
CLASS
  1
VISUALSTYLE
  2
AcDbVisualStyle
  3
ObjectDBX Classes
 90
     4095
 91
       22
280
     0
281
     0
  0
CLASS
  1
MATERIAL
  2
AcDbMaterial
  3
ObjectDBX Classes
 90
     1153
 91
       22
280
     0
281
     0
  0
CLASS
  1
SCALE
  2
AcDbScale
  3
ObjectDBX Classes
 90
     1153
 91
       22
280
     0
281
     0
  0
CLASS
  1
TABLESTYLE
  2
AcDbTableStyle
  3
ObjectDBX Classes
 90
     4095
 91
       22
280
     0
281
     0
  0
CLASS
  1
MLEADERSTYLE
  2
AcDbMLeaderStyle
  3
ACDB_MLEADERSTYLE_CLASS
 90
     4095
 91
       22
280
     0
281
     0
  0
CLASS
  1
SUN
  2
AcDbSun
  3
SCENEOE
 90
     1153
 91
       22
280
     0
281
     0
  0
CLASS
  1
XRECORD
  2
AcDbXrecord
  3
ObjectDBX Classes
 90
        0
 91
        1
280
     0
281
     0
  0
CLASS
  1
LWPOLYLINE
  2
AcDbPolyline
  3
ObjectDBX Classes
 90
        0
 91
        1
280
     0
281
     1
  0
CLASS
  1
HATCH
  2
AcDbHatch
  3
ObjectDBX Classes
 90
        0
 91
        1
280
     0
281
     1
  0
CLASS
  1
DICTIONARYVAR
  2
AcDbDictionaryVar
  3
ObjectDBX Classes
 90
        0
 91
       17
280
     0
281
     0
  0
CLASS
  1
ACDBPLACEHOLDER
  2
AcDbPlaceHolder
  3
ObjectDBX Classes
 90
        0
 91
        1
280
     0
281
     0
  0
CLASS
  1
LAYOUT
  2
AcDbLayout
  3
ObjectDBX Classes
 90
        0
 91
        1
280
     0
281
     0
  0
CLASS
  1
DIMASSOC
  2
AcDbDimAssoc
  3
"AcDbDimAssoc|Product Desc:     AcDim ARX App For Dimension|Company:          Autodesk, Inc.|WEB Address:      www.autodesk.com"
 90
        0
 91
        4
280
     0
281
     0
  0
CLASS
  1
CELLSTYLEMAP
  2
AcDbCellStyleMap
  3
ObjectDBX Classes
 90
     1152
 91
        6
280
     0
281
     0
  0
ENDSEC
  0
SECTION
  2
TABLES
  0
TABLE
  2
VPORT
  5
8
330
0
100
AcDbSymbolTable
 70
     1
  0
VPORT
  5
29
330
8
100
AcDbSymbolTableRecord
100
AcDbViewportTableRecord
  2
*ACTIVE
 70
     0
 10
0.0
 20
0.0
 11
1.0
 21
1.0
 12
15.30575982143053
 22
0.4171212404992914
 13
0.0
 23
0.0
 14
10.0
 24
10.0
 15
10.0
 25
10.0
 16
0.0
 26
0.0
 36
1.0
 17
0.0
 27
0.0
 37
0.0
 40
76.9409387489709
 41
1.70021645021645
 42
50.0
 43
0.0
 44
0.0
 50
0.0
 51
0.0
 71
    16
 72
  2000
 73
     1
 74
     3
 75
     0
 76
     0
 77
     0
 78
     0
281
     0
 65
     1
110
0.0
120
0.0
130
0.0
111
1.0
121
0.0
131
0.0
112
0.0
122
1.0
132
0.0
 79
     0
146
0.0
348
11C
 60
     3
 61
     5
292
     1
282
     1
141
0.0
142
0.0
 63
   256
361
1BF
  0
ENDTAB
  0
TABLE
  2
LTYPE
  5
5
330
0
100
AcDbSymbolTable
 70
     9
  0
LTYPE
  5
14
330
5
100
AcDbSymbolTableRecord
100
AcDbLinetypeTableRecord
  2
BYBLOCK
 70
     0
  3

 72
    65
 73
     0
 40
0.0
  0
LTYPE
  5
15
330
5
100
AcDbSymbolTableRecord
100
AcDbLinetypeTableRecord
  2
BYLAYER
 70
     0
  3

 72
    65
 73
     0
 40
0.0
  0
LTYPE
  5
16
330
5
100
AcDbSymbolTableRecord
100
AcDbLinetypeTableRecord
  2
CONTINUOUS
 70
     0
  3
Solid line
 72
    65
 73
     0
 40
0.0
  0
LTYPE
  5
6E
330
5
100
AcDbSymbolTableRecord
100
AcDbLinetypeTableRecord
  2
HIDDEN
 70
     0
  3
Hidden __ __ __ __ __ __ __ __ __ __ __ __ __ __
 72
    65
 73
     2
 40
1.905
 49
1.27
 74
     0
 49
-0.635
 74
     0
  0
LTYPE
  5
6F
330
5
100
AcDbSymbolTableRecord
100
AcDbLinetypeTableRecord
  2
PHANTOM
 70
     0
  3
Phantom ______  __  __  ______  __  __  ______
 72
    65
 73
     6
 40
12.7
 49
6.35
 74
     0
 49
-1.27
 74
     0
 49
1.27
 74
     0
 49
-1.27
 74
     0
 49
1.27
 74
     0
 49
-1.27
 74
     0
  0
LTYPE
  5
70
330
5
100
AcDbSymbolTableRecord
100
AcDbLinetypeTableRecord
  2
CENTER
 70
     0
  3
Center ____ _ ____ _ ____ _ ____ _ ____ _ ____
 72
    65
 73
     4
 40
10.16
 49
6.35
 74
     0
 49
-1.27
 74
     0
 49
1.27
 74
     0
 49
-1.27
 74
     0
  0
LTYPE
  5
71
330
5
100
AcDbSymbolTableRecord
100
AcDbLinetypeTableRecord
  2
CENTERX2
 70
     0
  3
Center (2x) ________  __  ________  __  _____
 72
    65
 73
     4
 40
20.32
 49
12.7
 74
     0
 49
-2.54
 74
     0
 49
2.54
 74
     0
 49
-2.54
 74
     0
  0
LTYPE
  5
72
330
5
100
AcDbSymbolTableRecord
100
AcDbLinetypeTableRecord
  2
DOT2
 70
     0
  3
Dot (.5x) ........................................
 72
    65
 73
     2
 40
0.635
 49
0.0
 74
     0
 49
-0.635
 74
     0
  0
LTYPE
  5
176
330
5
100
AcDbSymbolTableRecord
100
AcDbLinetypeTableRecord
  2
DASH
 70
     0
  3
DASH _ _ _ _ _
 72
    65
 73
     2
 40
0.75
 49
0.4
 74
     0
 49
-0.35
 74
     0
  0
LTYPE
  5
177
330
5
100
AcDbSymbolTableRecord
100
AcDbLinetypeTableRecord
  2
LONGDASH_DASH
 70
     0
  3
LONGDASH_DASH __ . __ . __
 72
    65
 73
     4
 40
0.85
 49
0.4
 74
     0
 49
-0.2
 74
     0
 49
0.05
 74
     0
 49
-0.2
 74
     0
  0
LTYPE
  5
178
330
5
100
AcDbSymbolTableRecord
100
AcDbLinetypeTableRecord
  2
LONGDASH_DASH_DASH
 70
     0
  3
LONGDASH_DASH_DASH __ . . __ . . __
 72
    65
 73
     6
 40
1.1
 49
0.4
 74
     0
 49
-0.2
 74
     0
 49
0.05
 74
     0
 49
-0.2
 74
     0
 49
0.05
 74
     0
 49
-0.2
 74
     0
  0
ENDTAB
  0
TABLE
  2
LAYER
  5
2
102
{ACAD_XDICTIONARY
360
198
102
}
330
0
100
AcDbSymbolTable
 70
    16
  0
LAYER
  5
12D
330
2
100
AcDbSymbolTableRecord
100
AcDbLayerTableRecord
  2
200
 70
     0
 62
     2
  6
CONTINUOUS
370
    50
390
189
347
12B
348
0
  0
LAYER
  5
130
330
2
100
AcDbSymbolTableRecord
100
AcDbLayerTableRecord
  2
Defpoints
 70
     0
 62
     7
  6
CONTINUOUS
290
     0
370
    -3
390
189
347
12B
348
0
  0
LAYER
  5
179
330
2
100
AcDbSymbolTableRecord
100
AcDbLayerTableRecord
  2
0
 70
     0
 62
     1
  6
CONTINUOUS
370
    -3
390
189
347
12B
348
0
  0
LAYER
  5
17A
330
2
100
AcDbSymbolTableRecord
100
AcDbLayerTableRecord
  2
1
 70
     0
 62
     4
  6
CONTINUOUS
370
    50
390
189
347
12B
348
0
  0
LAYER
  5
17B
330
2
100
AcDbSymbolTableRecord
100
AcDbLayerTableRecord
  2
2
 70
     0
 62
     7
  6
CONTINUOUS
370
    25
390
189
347
12B
348
0
  0
LAYER
  5
17C
330
2
100
AcDbSymbolTableRecord
100
AcDbLayerTableRecord
  2
3
 70
     0
 62
     1
  6
DASH
370
    35
390
189
347
12B
348
0
  0
LAYER
  5
17D
330
2
100
AcDbSymbolTableRecord
100
AcDbLayerTableRecord
  2
4
 70
     0
 62
     2
  6
LONGDASH_DASH
370
    25
390
189
347
12B
348
0
  0
LAYER
  5
17E
330
2
100
AcDbSymbolTableRecord
100
AcDbLayerTableRecord
  2
6
 70
     0
 62
     5
  6
CONTINUOUS
370
    -3
390
189
347
12B
348
0
  0
LAYER
  5
17F
330
2
100
AcDbSymbolTableRecord
100
AcDbLayerTableRecord
  2
CUT
 70
     0
 62
     1
  6
CONTINUOUS
370
    25
390
189
347
12B
348
0
  0
LAYER
  5
180
330
2
100
AcDbSymbolTableRecord
100
AcDbLayerTableRecord
  2
NOCUT
 70
     0
 62
     7
  6
CONTINUOUS
370
    25
390
189
347
12B
348
0
  0
LAYER
  5
181
330
2
100
AcDbSymbolTableRecord
100
AcDbLayerTableRecord
  2
SK1
 70
     0
 62
     4
  6
CONTINUOUS
370
    50
390
189
347
12B
348
0
  0
LAYER
  5
182
330
2
100
AcDbSymbolTableRecord
100
AcDbLayerTableRecord
  2
SK2
 70
     0
 62
     7
  6
CONTINUOUS
370
    25
390
189
347
12B
348
0
  0
LAYER
  5
183
330
2
100
AcDbSymbolTableRecord
100
AcDbLayerTableRecord
  2
SK3
 70
     0
 62
     1
  6
DASH
370
    35
390
189
347
12B
348
0
  0
LAYER
  5
184
330
2
100
AcDbSymbolTableRecord
100
AcDbLayerTableRecord
  2
SK4
 70
     0
 62
     2
  6
LONGDASH_DASH
370
    25
390
189
347
12B
348
0
  0
LAYER
  5
185
330
2
100
AcDbSymbolTableRecord
100
AcDbLayerTableRecord
  2
SK6
 70
     0
 62
     5
  6
CONTINUOUS
370
    -3
390
189
347
12B
348
0
  0
LAYER
  5
186
330
2
100
AcDbSymbolTableRecord
100
AcDbLayerTableRecord
  2
INFTOTAL
 70
     0
 62
     9
  6
CONTINUOUS
370
    18
390
189
347
12B
348
0
  0
ENDTAB
  0
TABLE
  2
STYLE
  5
3
330
0
100
AcDbSymbolTable
 70
     3
  0
STYLE
  5
11
330
3
100
AcDbSymbolTableRecord
100
AcDbTextStyleTableRecord
  2
STANDARD
 70
     0
 40
0.0
 41
1.0
 50
0.0
 71
     0
 42
3.5
  3
txt
  4

  0
STYLE
  5
BA
330
3
100
AcDbSymbolTableRecord
100
AcDbTextStyleTableRecord
  2
SLDTEXTSTYLE0
 70
     0
 40
0.0
 41
0.605
 50
0.0
 71
     0
 42
3.5
  3
TXT
  4

  0
STYLE
  5
12C
330
3
100
AcDbSymbolTableRecord
100
AcDbTextStyleTableRecord
  2
BMG_Text
 70
     0
 40
3.5
 41
1.0
 50
0.0
 71
     0
 42
3.5
  3
monos.ttf
  4

1001
ACAD
1000
Monospac821 BT
1071
       49
  0
ENDTAB
  0
TABLE
  2
VIEW
  5
6
330
0
100
AcDbSymbolTable
 70
     0
  0
ENDTAB
  0
TABLE
  2
UCS
  5
7
330
0
100
AcDbSymbolTable
 70
     0
  0
ENDTAB
  0
TABLE
  2
APPID
  5
9
330
0
100
AcDbSymbolTable
 70
     6
  0
APPID
  5
12
330
9
100
AcDbSymbolTableRecord
100
AcDbRegAppTableRecord
  2
ACAD
 70
     0
  0
APPID
  5
149
330
9
100
AcDbSymbolTableRecord
100
AcDbRegAppTableRecord
  2
ACAD_DSTYLE_DIM_LINETYPE
 70
     0
  0
APPID
  5
14A
330
9
100
AcDbSymbolTableRecord
100
AcDbRegAppTableRecord
  2
ACAD_DSTYLE_DIM_EXT1_LINETYPE
 70
     0
  0
APPID
  5
14B
330
9
100
AcDbSymbolTableRecord
100
AcDbRegAppTableRecord
  2
ACAD_DSTYLE_DIM_EXT2_LINETYPE
 70
     0
  0
APPID
  5
2AE
330
9
100
AcDbSymbolTableRecord
100
AcDbRegAppTableRecord
  2
FX_DIMP_FAV_VERSION
 70
     0
  0
APPID
  5
2D4
330
9
100
AcDbSymbolTableRecord
100
AcDbRegAppTableRecord
  2
FX_DIMP_RECENT_VERSION
 70
     0
  0
ENDTAB
  0
TABLE
  2
DIMSTYLE
  5
A
330
0
100
AcDbSymbolTable
 70
     4
100
AcDbDimStyleTable
  0
DIMSTYLE
105
27
330
A
100
AcDbSymbolTableRecord
100
AcDbDimStyleTableRecord
  2
ISO-25
 70
     0
 41
2.5
 42
0.625
 43
3.75
 44
1.25
 73
     0
 74
     0
 77
     1
 78
     8
140
2.5
141
2.5
143
0.0393700787
147
0.625
171
     3
172
     1
178
     0
271
     2
272
     2
274
     3
283
     0
284
     8
340
11
  0
DIMSTYLE
105
BB
330
A
100
AcDbSymbolTableRecord
100
AcDbDimStyleTableRecord
  2
SLDDIMSTYLE0
 70
     0
 41
3.5
 44
0.0
 45
0.000000001
 73
     0
 74
     0
 77
     1
 78
    12
140
3.5
147
0.875
173
     1
178
     0
271
     2
272
     3
284
    12
340
BA
  0
DIMSTYLE
105
DB
330
A
100
AcDbSymbolTableRecord
100
AcDbDimStyleTableRecord
  2
SLDDIMSTYLE1
 70
     0
 41
3.5
 44
0.0
 45
0.000000001
 73
     0
 74
     0
 76
     1
 77
     1
 78
    12
140
3.5
147
0.875
173
     1
178
     0
271
     2
272
     3
284
    12
340
BA
341
DC
343
DC
  0
DIMSTYLE
105
298
102
{ACAD_REACTORS
330
29E
330
2C4
330
2D6
330
2E6
330
2F5
102
}
330
A
100
AcDbSymbolTableRecord
100
AcDbDimStyleTableRecord
  2
Normal
 70
     0
 41
3.0
 44
2.0
 45
0.000000001
 73
     0
 77
     1
 78
    12
140
3.5
147
1.0
173
     1
178
     0
271
     2
272
     3
284
    12
340
12C
  0
ENDTAB
  0
TABLE
  2
BLOCK_RECORD
  5
1
330
0
100
AcDbSymbolTable
 70
    11
  0
BLOCK_RECORD
  5
1F
102
{ACAD_XDICTIONARY
360
29A
102
}
330
1
100
AcDbSymbolTableRecord
100
AcDbBlockTableRecord
  2
*MODEL_SPACE
340
115
 70
     0
280
     1
281
     0
  0
BLOCK_RECORD
  5
1B
330
1
100
AcDbSymbolTableRecord
100
AcDbBlockTableRecord
  2
*PAPER_SPACE
340
116
 70
     0
280
     1
281
     0
  0
BLOCK_RECORD
  5
BC
330
1
100
AcDbSymbolTableRecord
100
AcDbBlockTableRecord
  2
_D
340
0
 70
     0
280
     1
281
     0
  0
BLOCK_RECORD
  5
C6
330
1
100
AcDbSymbolTableRecord
100
AcDbBlockTableRecord
  2
_D_1
340
0
 70
     0
280
     1
281
     0
  0
BLOCK_RECORD
  5
D1
330
1
100
AcDbSymbolTableRecord
100
AcDbBlockTableRecord
  2
_D_2
340
0
 70
     0
280
     1
281
     0
  0
BLOCK_RECORD
  5
DC
330
1
100
AcDbSymbolTableRecord
100
AcDbBlockTableRecord
  2
_NONE
340
0
 70
     0
280
     1
281
     0
  0
BLOCK_RECORD
  5
DF
330
1
100
AcDbSymbolTableRecord
100
AcDbBlockTableRecord
  2
_D_3
340
0
 70
     0
280
     1
281
     0
  0
BLOCK_RECORD
  5
E7
330
1
100
AcDbSymbolTableRecord
100
AcDbBlockTableRecord
  2
_D_4
340
0
 70
     0
280
     1
281
     0
  0
BLOCK_RECORD
  5
2A1
330
1
100
AcDbSymbolTableRecord
100
AcDbBlockTableRecord
  2
*D6
340
0
 70
     0
280
     1
281
     0
  0
BLOCK_RECORD
  5
2C7
330
1
100
AcDbSymbolTableRecord
100
AcDbBlockTableRecord
  2
*D7
340
0
 70
     0
280
     1
281
     0
  0
BLOCK_RECORD
  5
2D9
330
1
100
AcDbSymbolTableRecord
100
AcDbBlockTableRecord
  2
*D8
340
0
 70
     0
280
     1
281
     0
  0
BLOCK_RECORD
  5
2E9
330
1
100
AcDbSymbolTableRecord
100
AcDbBlockTableRecord
  2
*D9
340
0
 70
     0
280
     1
281
     0
  0
BLOCK_RECORD
  5
2F8
330
1
100
AcDbSymbolTableRecord
100
AcDbBlockTableRecord
  2
*D10
340
0
 70
     0
280
     1
281
     0
  0
ENDTAB
  0
ENDSEC
  0
SECTION
  2
BLOCKS
  0
BLOCK
  5
20
330
1F
100
AcDbEntity
  8
0
100
AcDbBlockBegin
  2
*MODEL_SPACE
 70
     0
 10
0.0
 20
0.0
 30
0.0
  3
*MODEL_SPACE
  1

  0
ENDBLK
  5
21
330
1F
100
AcDbEntity
  8
0
100
AcDbBlockEnd
  0
BLOCK
  5
1C
330
1B
100
AcDbEntity
 67
     1
  8
0
100
AcDbBlockBegin
  2
*PAPER_SPACE
 70
     0
 10
0.0
 20
0.0
 30
0.0
  3
*PAPER_SPACE
  1

  0
ENDBLK
  5
1D
330
1B
100
AcDbEntity
 67
     1
  8
0
100
AcDbBlockEnd
  0
BLOCK
  5
BD
330
BC
100
AcDbEntity
  8
0
100
AcDbBlockBegin
  2
_D
 70
     0
 10
0.0
 20
0.0
 30
0.0
  3
_D
  1

  0
LINE
  5
BF
330
BC
100
AcDbEntity
  8
0
  6
ByBlock
370
    -2
100
AcDbLine
 10
0.0
 20
22.3448120345
 30
0.0
 11
0.0
 21
40.3402214205
 31
0.0
  0
LINE
  5
C0
330
BC
100
AcDbEntity
  8
0
  6
ByBlock
370
    -2
100
AcDbLine
 10
108.0
 20
25.0625
 30
0.0
 11
108.0
 21
40.3402214205
 31
0.0
  0
LINE
  5
C1
330
BC
100
AcDbEntity
  8
0
  6
ByBlock
370
    -2
100
AcDbLine
 10
3.5
 20
40.3402214205
 30
0.0
 11
104.5
 21
40.3402214205
 31
0.0
  0
SOLID
  5
C2
330
BC
100
AcDbEntity
  8
0
100
AcDbTrace
 10
3.5
 20
40.92355475383334
 30
0.0
 11
3.5
 21
39.75688808716667
 31
0.0
 12
0.0
 22
40.3402214205
 32
0.0
 13
0.0
 23
40.3402214205
 33
0.0
  0
SOLID
  5
C3
330
BC
100
AcDbEntity
  8
0
100
AcDbTrace
 10
104.5
 20
39.75688808716667
 30
0.0
 11
104.5
 21
40.92355475383334
 31
0.0
 12
108.0
 22
40.3402214205
 32
0.0
 13
108.0
 23
40.3402214205
 33
0.0
  0
MTEXT
  5
C4
330
BC
100
AcDbEntity
  8
0
370
    25
100
AcDbMText
 10
54.0
 20
43.0264714205
 30
0.0
 40
3.5
 41
0.0
 46
0.0
 71
     5
 72
     1
  1
\A1;108
  7
BMG_Text
 73
     1
 44
1.0
  0
POINT
  5
131
330
BC
100
AcDbEntity
  8
Defpoints
 62
     0
100
AcDbPoint
 10
0.0
 20
22.2823120345
 30
0.0
  0
POINT
  5
132
330
BC
100
AcDbEntity
  8
Defpoints
 62
     0
100
AcDbPoint
 10
108.0
 20
25.0
 30
0.0
  0
POINT
  5
133
330
BC
100
AcDbEntity
  8
Defpoints
 62
     0
100
AcDbPoint
 10
108.0
 20
40.3402214205
 30
0.0
  0
ENDBLK
  5
BE
330
BC
100
AcDbEntity
  8
0
100
AcDbBlockEnd
  0
BLOCK
  5
C7
330
C6
100
AcDbEntity
  8
0
100
AcDbBlockBegin
  2
_D_1
 70
     0
 10
0.0
 20
0.0
 30
0.0
  3
_D_1
  1

  0
LINE
  5
C9
330
C6
100
AcDbEntity
  8
0
  6
ByBlock
370
    -2
100
AcDbLine
 10
108.0625
 20
-25.0
 30
0.0
 11
123.8181504663
 21
-25.0
 31
0.0
  0
LINE
  5
CA
330
C6
100
AcDbEntity
  8
0
  6
ByBlock
370
    -2
100
AcDbLine
 10
108.0625
 20
25.0
 30
0.0
 11
123.8181504663
 21
25.0
 31
0.0
  0
LINE
  5
CB
330
C6
100
AcDbEntity
  8
0
  6
ByBlock
370
    -2
100
AcDbLine
 10
123.8181504663
 20
-21.5
 30
0.0
 11
123.8181504663
 21
21.5
 31
0.0
  0
SOLID
  5
CC
330
C6
100
AcDbEntity
  8
0
100
AcDbTrace
 10
123.2348171329667
 20
-21.5
 30
0.0
 11
124.4014837996333
 21
-21.5
 31
0.0
 12
123.8181504663
 22
-25.0
 32
0.0
 13
123.8181504663
 23
-25.0
 33
0.0
  0
SOLID
  5
CD
330
C6
100
AcDbEntity
  8
0
100
AcDbTrace
 10
124.4014837996333
 20
21.5
 30
0.0
 11
123.2348171329667
 21
21.5
 31
0.0
 12
123.8181504663
 22
25.0
 32
0.0
 13
123.8181504663
 23
25.0
 33
0.0
  0
MTEXT
  5
CE
330
C6
100
AcDbEntity
  8
0
370
    25
100
AcDbMText
 10
121.0811504663
 20
0.0
 30
0.0
 40
3.5
 41
0.0
 46
0.0
 71
     5
 72
     1
  1
\A1;%%c50
  7
BMG_Text
 11
0.0
 21
1.0
 31
0.0
 73
     1
 44
1.0
  0
POINT
  5
CF
330
C6
100
AcDbEntity
  8
Defpoints
 62
     0
100
AcDbPoint
 10
108.0
 20
-25.0
 30
0.0
  0
POINT
  5
134
330
C6
100
AcDbEntity
  8
Defpoints
 62
     0
100
AcDbPoint
 10
108.0
 20
25.0
 30
0.0
  0
POINT
  5
135
330
C6
100
AcDbEntity
  8
Defpoints
 62
     0
100
AcDbPoint
 10
123.8181504663
 20
25.0
 30
0.0
  0
ENDBLK
  5
C8
330
C6
100
AcDbEntity
  8
0
100
AcDbBlockEnd
  0
BLOCK
  5
D2
330
D1
100
AcDbEntity
  8
0
100
AcDbBlockBegin
  2
_D_2
 70
     0
 10
0.0
 20
0.0
 30
0.0
  3
_D_2
  1

  0
LINE
  5
D4
330
D1
100
AcDbEntity
  8
0
  6
ByBlock
370
    -2
100
AcDbLine
 10
0.0
 20
-22.2302001735
 30
0.0
 11
0.0
 21
-41.449674612
 31
0.0
  0
LINE
  5
D5
330
D1
100
AcDbEntity
  8
0
  6
ByBlock
370
    -2
100
AcDbLine
 10
42.0
 20
-36.2949286075
 30
0.0
 11
42.0
 21
-41.449674612
 31
0.0
  0
LINE
  5
D6
330
D1
100
AcDbEntity
  8
0
  6
ByBlock
370
    -2
100
AcDbLine
 10
3.5
 20
-41.449674612
 30
0.0
 11
38.5
 21
-41.449674612
 31
0.0
  0
SOLID
  5
D7
330
D1
100
AcDbEntity
  8
0
100
AcDbTrace
 10
3.5
 20
-40.86634127866667
 30
0.0
 11
3.5
 21
-42.03300794533334
 31
0.0
 12
0.0
 22
-41.449674612
 32
0.0
 13
0.0
 23
-41.449674612
 33
0.0
  0
SOLID
  5
D8
330
D1
100
AcDbEntity
  8
0
100
AcDbTrace
 10
38.5
 20
-42.03300794533334
 30
0.0
 11
38.5
 21
-40.86634127866667
 31
0.0
 12
42.0
 22
-41.449674612
 32
0.0
 13
42.0
 23
-41.449674612
 33
0.0
  0
MTEXT
  5
D9
330
D1
100
AcDbEntity
  8
0
370
    25
100
AcDbMText
 10
21.0
 20
-38.814174612
 30
0.0
 40
3.5
 41
0.0
 46
0.0
 71
     5
 72
     1
  1
\A1;42
  7
BMG_Text
 73
     1
 44
1.0
  0
POINT
  5
136
330
D1
100
AcDbEntity
  8
Defpoints
 62
     0
100
AcDbPoint
 10
0.0
 20
-22.1677001735
 30
0.0
  0
POINT
  5
137
330
D1
100
AcDbEntity
  8
Defpoints
 62
     0
100
AcDbPoint
 10
42.0
 20
-36.2324286075
 30
0.0
  0
POINT
  5
138
330
D1
100
AcDbEntity
  8
Defpoints
 62
     0
100
AcDbPoint
 10
42.0
 20
-41.449674612
 30
0.0
  0
ENDBLK
  5
D3
330
D1
100
AcDbEntity
  8
0
100
AcDbBlockEnd
  0
BLOCK
  5
DD
330
DC
100
AcDbEntity
  8
0
100
AcDbBlockBegin
  2
_NONE
 70
     0
 10
0.0
 20
0.0
 30
0.0
  3
_NONE
  1

  0
ENDBLK
  5
DE
330
DC
100
AcDbEntity
  8
0
100
AcDbBlockEnd
  0
BLOCK
  5
E0
330
DF
100
AcDbEntity
  8
0
100
AcDbBlockBegin
  2
_D_3
 70
     0
 10
0.0
 20
0.0
 30
0.0
  3
_D_3
  1

  0
LINE
  5
E2
330
DF
100
AcDbEntity
  8
0
  6
ByBlock
370
    -2
100
AcDbLine
 10
42.0
 20
-36.2949286075
 30
0.0
 11
42.0
 21
-41.449674612
 31
0.0
  0
LINE
  5
E3
330
DF
100
AcDbEntity
  8
0
  6
ByBlock
370
    -2
100
AcDbLine
 10
42.0
 20
-41.449674612
 30
0.0
 11
104.5
 21
-41.449674612
 31
0.0
  0
SOLID
  5
E4
330
DF
100
AcDbEntity
  8
0
100
AcDbTrace
 10
104.5
 20
-42.03300794533334
 30
0.0
 11
104.5
 21
-40.86634127866667
 31
0.0
 12
108.0
 22
-41.449674612
 32
0.0
 13
108.0
 23
-41.449674612
 33
0.0
  0
MTEXT
  5
E5
330
DF
100
AcDbEntity
  8
0
370
    25
100
AcDbMText
 10
75.0
 20
-38.716174612
 30
0.0
 40
3.5
 41
0.0
 46
0.0
 71
     5
 72
     1
  1
\A1;Ausdrehtiefe 133
  7
BMG_Text
 73
     1
 44
1.0
  0
POINT
  5
139
330
DF
100
AcDbEntity
  8
Defpoints
 62
     0
100
AcDbPoint
 10
42.0
 20
-36.2324286075
 30
0.0
  0
POINT
  5
13A
330
DF
100
AcDbEntity
  8
Defpoints
 62
     0
100
AcDbPoint
 10
108.0
 20
-25.0
 30
0.0
  0
POINT
  5
13B
330
DF
100
AcDbEntity
  8
Defpoints
 62
     0
100
AcDbPoint
 10
108.0
 20
-41.449674612
 30
0.0
  0
ENDBLK
  5
E1
330
DF
100
AcDbEntity
  8
0
100
AcDbBlockEnd
  0
BLOCK
  5
E8
330
E7
100
AcDbEntity
  8
0
100
AcDbBlockBegin
  2
_D_4
 70
     0
 10
0.0
 20
0.0
 30
0.0
  3
_D_4
  1

  0
LINE
  5
EA
330
E7
100
AcDbEntity
  8
0
  6
ByBlock
370
    -2
100
AcDbLine
 10
108.0625
 20
14.0
 30
0.0
 11
116.9866054073
 21
14.0
 31
0.0
  0
LINE
  5
EB
330
E7
100
AcDbEntity
  8
0
  6
ByBlock
370
    -2
100
AcDbLine
 10
108.0625
 20
-14.0
 30
0.0
 11
116.9866054073
 21
-14.0
 31
0.0
  0
LINE
  5
EC
330
E7
100
AcDbEntity
  8
0
  6
ByBlock
370
    -2
100
AcDbLine
 10
116.9866054073
 20
10.5
 30
0.0
 11
116.9866054073
 21
-10.5
 31
0.0
  0
SOLID
  5
ED
330
E7
100
AcDbEntity
  8
0
100
AcDbTrace
 10
117.5699387406333
 20
10.5
 30
0.0
 11
116.4032720739667
 21
10.5
 31
0.0
 12
116.9866054073
 22
14.0
 32
0.0
 13
116.9866054073
 23
14.0
 33
0.0
  0
SOLID
  5
EE
330
E7
100
AcDbEntity
  8
0
100
AcDbTrace
 10
116.4032720739667
 20
-10.5
 30
0.0
 11
117.5699387406333
 21
-10.5
 31
0.0
 12
116.9866054073
 22
-14.0
 32
0.0
 13
116.9866054073
 23
-14.0
 33
0.0
  0
MTEXT
  5
EF
330
E7
100
AcDbEntity
  8
0
370
    25
100
AcDbMText
 10
114.2496054073
 20
0.0
 30
0.0
 40
3.5
 41
0.0
 46
0.0
 71
     5
 72
     1
  1
\A1;%%c28
  7
BMG_Text
 11
0.0
 21
1.0
 31
0.0
 73
     1
 44
1.0
  0
POINT
  5
F0
330
E7
100
AcDbEntity
  8
Defpoints
 62
     0
100
AcDbPoint
 10
108.0
 20
14.0
 30
0.0
  0
POINT
  5
13D
330
E7
100
AcDbEntity
  8
Defpoints
 62
     0
100
AcDbPoint
 10
108.0
 20
-14.0
 30
0.0
  0
POINT
  5
13E
330
E7
100
AcDbEntity
  8
Defpoints
 62
     0
100
AcDbPoint
 10
116.9866054073
 20
-14.0
 30
0.0
  0
ENDBLK
  5
E9
330
E7
100
AcDbEntity
  8
0
100
AcDbBlockEnd
  0
BLOCK
  5
2A2
330
2A1
100
AcDbEntity
  8
0
100
AcDbBlockBegin
  2
*D6
 70
     1
 10
0.0
 20
0.0
 30
0.0
  3
*D6
  1

  0
LINE
  5
2A4
330
2A1
100
AcDbEntity
  8
2
 62
     0
370
    -2
100
AcDbLine
 10
108.0
 20
25.0625
 30
0.0
 11
108.0
 21
43.0
 31
0.0
  0
LINE
  5
2A5
330
2A1
100
AcDbEntity
  8
2
 62
     0
370
    -2
100
AcDbLine
 10
0.0
 20
22.3448120345
 30
0.0
 11
0.0
 21
43.0
 31
0.0
  0
LINE
  5
2A6
330
2A1
100
AcDbEntity
  8
2
 62
     0
370
    -2
100
AcDbLine
 10
105.0
 20
41.0
 30
0.0
 11
3.0
 21
41.0
 31
0.0
  0
SOLID
  5
2A7
330
2A1
100
AcDbEntity
  8
2
 62
     0
100
AcDbTrace
 10
105.0
 20
40.5
 30
0.0
 11
105.0
 21
41.5
 31
0.0
 12
108.0
 22
41.0
 32
0.0
 13
108.0
 23
41.0
 33
0.0
  0
SOLID
  5
2A8
330
2A1
100
AcDbEntity
  8
2
 62
     0
100
AcDbTrace
 10
3.0
 20
41.5
 30
0.0
 11
3.0
 21
40.5
 31
0.0
 12
0.0
 22
41.0
 32
0.0
 13
0.0
 23
41.0
 33
0.0
  0
MTEXT
  5
2A9
330
2A1
100
AcDbEntity
  8
2
 62
     0
100
AcDbMText
 10
53.49582971852634
 20
43.81125
 30
0.0
 40
3.5
 41
0.0
 46
0.0
 71
     5
 72
     1
  1
\A1;108
  7
BMG_Text
 73
     1
 44
1.0
  0
POINT
  5
2AA
330
2A1
100
AcDbEntity
  8
Defpoints
 62
     0
100
AcDbPoint
 10
108.0
 20
25.0
 30
0.0
  0
POINT
  5
2AB
330
2A1
100
AcDbEntity
  8
Defpoints
 62
     0
100
AcDbPoint
 10
0.0
 20
22.2823120345
 30
0.0
  0
POINT
  5
2AC
330
2A1
100
AcDbEntity
  8
Defpoints
 62
     0
100
AcDbPoint
 10
0.0
 20
41.0
 30
0.0
  0
ENDBLK
  5
2A3
330
2A1
100
AcDbEntity
  8
0
100
AcDbBlockEnd
  0
BLOCK
  5
2C8
330
2C7
100
AcDbEntity
  8
0
100
AcDbBlockBegin
  2
*D7
 70
     1
 10
0.0
 20
0.0
 30
0.0
  3
*D7
  1

  0
LINE
  5
2CA
330
2C7
100
AcDbEntity
  8
2
 62
     0
370
    -2
100
AcDbLine
 10
108.125
 20
-14.0
 30
0.0
 11
118.2463852987175
 21
-14.0
 31
0.0
  0
LINE
  5
2CB
330
2C7
100
AcDbEntity
  8
2
 62
     0
370
    -2
100
AcDbLine
 10
108.125
 20
14.0
 30
0.0
 11
118.2463852987175
 21
14.0
 31
0.0
  0
LINE
  5
2CC
330
2C7
100
AcDbEntity
  8
2
 62
     0
370
    -2
100
AcDbLine
 10
116.2463852987175
 20
-11.0
 30
0.0
 11
116.2463852987175
 21
11.0
 31
0.0
  0
SOLID
  5
2CD
330
2C7
100
AcDbEntity
  8
2
 62
     0
100
AcDbTrace
 10
115.7463852987175
 20
-11.0
 30
0.0
 11
116.7463852987175
 21
-11.0
 31
0.0
 12
116.2463852987175
 22
-14.0
 32
0.0
 13
116.2463852987175
 23
-14.0
 33
0.0
  0
SOLID
  5
2CE
330
2C7
100
AcDbEntity
  8
2
 62
     0
100
AcDbTrace
 10
116.7463852987175
 20
11.0
 30
0.0
 11
115.7463852987175
 21
11.0
 31
0.0
 12
116.2463852987175
 22
14.0
 32
0.0
 13
116.2463852987175
 23
14.0
 33
0.0
  0
MTEXT
  5
2CF
330
2C7
100
AcDbEntity
  8
2
 62
     0
100
AcDbMText
 10
113.4123852987175
 20
0.0
 30
0.0
 40
3.5
 41
0.0
 46
0.0
 71
     5
 72
     1
  1
\A1;ø28
  7
BMG_Text
 11
0.0
 21
1.0
 31
0.0
 73
     1
 44
1.0
  0
POINT
  5
2D0
330
2C7
100
AcDbEntity
  8
Defpoints
 62
     0
100
AcDbPoint
 10
108.0625
 20
-14.0
 30
0.0
  0
POINT
  5
2D1
330
2C7
100
AcDbEntity
  8
Defpoints
 62
     0
100
AcDbPoint
 10
108.0625
 20
14.0
 30
0.0
  0
POINT
  5
2D2
330
2C7
100
AcDbEntity
  8
Defpoints
 62
     0
100
AcDbPoint
 10
116.2463852987175
 20
14.0
 30
0.0
  0
ENDBLK
  5
2C9
330
2C7
100
AcDbEntity
  8
0
100
AcDbBlockEnd
  0
BLOCK
  5
2DA
330
2D9
100
AcDbEntity
  8
0
100
AcDbBlockBegin
  2
*D8
 70
     1
 10
0.0
 20
0.0
 30
0.0
  3
*D8
  1

  0
LINE
  5
2DC
330
2D9
100
AcDbEntity
  8
2
 62
     0
370
    -2
100
AcDbLine
 10
108.0625
 20
25.0
 30
0.0
 11
126.0
 21
25.0
 31
0.0
  0
LINE
  5
2DD
330
2D9
100
AcDbEntity
  8
2
 62
     0
370
    -2
100
AcDbLine
 10
108.0625
 20
-25.0
 30
0.0
 11
126.0
 21
-25.0
 31
0.0
  0
LINE
  5
2DE
330
2D9
100
AcDbEntity
  8
2
 62
     0
370
    -2
100
AcDbLine
 10
124.0
 20
22.0
 30
0.0
 11
124.0
 21
-22.0
 31
0.0
  0
SOLID
  5
2DF
330
2D9
100
AcDbEntity
  8
2
 62
     0
100
AcDbTrace
 10
124.5
 20
22.0
 30
0.0
 11
123.5
 21
22.0
 31
0.0
 12
124.0
 22
25.0
 32
0.0
 13
124.0
 23
25.0
 33
0.0
  0
SOLID
  5
2E0
330
2D9
100
AcDbEntity
  8
2
 62
     0
100
AcDbTrace
 10
123.5
 20
-22.0
 30
0.0
 11
124.5
 21
-22.0
 31
0.0
 12
124.0
 22
-25.0
 32
0.0
 13
124.0
 23
-25.0
 33
0.0
  0
MTEXT
  5
2E1
330
2D9
100
AcDbEntity
  8
2
 62
     0
100
AcDbMText
 10
121.166
 20
0.0
 30
0.0
 40
3.5
 41
0.0
 46
0.0
 71
     5
 72
     1
  1
\A1;ø50
  7
BMG_Text
 11
0.0
 21
1.0
 31
0.0
 73
     1
 44
1.0
  0
POINT
  5
2E2
330
2D9
100
AcDbEntity
  8
Defpoints
 62
     0
100
AcDbPoint
 10
108.0
 20
25.0
 30
0.0
  0
POINT
  5
2E3
330
2D9
100
AcDbEntity
  8
Defpoints
 62
     0
100
AcDbPoint
 10
108.0
 20
-25.0
 30
0.0
  0
POINT
  5
2E4
330
2D9
100
AcDbEntity
  8
Defpoints
 62
     0
100
AcDbPoint
 10
124.0
 20
-25.0
 30
0.0
  0
ENDBLK
  5
2DB
330
2D9
100
AcDbEntity
  8
0
100
AcDbBlockEnd
  0
BLOCK
  5
2EA
330
2E9
100
AcDbEntity
  8
0
100
AcDbBlockBegin
  2
*D9
 70
     1
 10
0.0
 20
0.0
 30
0.0
  3
*D9
  1

  0
LINE
  5
2EC
330
2E9
100
AcDbEntity
  8
2
 62
     0
370
    -2
100
AcDbLine
 10
0.0
 20
-22.2302001735
 30
0.0
 11
0.0
 21
-43.449674612
 31
0.0
  0
LINE
  5
2ED
330
2E9
100
AcDbEntity
  8
2
 62
     0
370
    -2
100
AcDbLine
 10
42.0
 20
-36.3574286075
 30
0.0
 11
42.0
 21
-43.449674612
 31
0.0
  0
LINE
  5
2EE
330
2E9
100
AcDbEntity
  8
2
 62
     0
370
    -2
100
AcDbLine
 10
3.0
 20
-41.449674612
 30
0.0
 11
39.0
 21
-41.449674612
 31
0.0
  0
SOLID
  5
2EF
330
2E9
100
AcDbEntity
  8
2
 62
     0
100
AcDbTrace
 10
3.0
 20
-40.949674612
 30
0.0
 11
3.0
 21
-41.949674612
 31
0.0
 12
0.0
 22
-41.449674612
 32
0.0
 13
0.0
 23
-41.449674612
 33
0.0
  0
SOLID
  5
2F0
330
2E9
100
AcDbEntity
  8
2
 62
     0
100
AcDbTrace
 10
39.0
 20
-41.949674612
 30
0.0
 11
39.0
 21
-40.949674612
 31
0.0
 12
42.0
 22
-41.449674612
 32
0.0
 13
42.0
 23
-41.449674612
 33
0.0
  0
MTEXT
  5
2F1
330
2E9
100
AcDbEntity
  8
2
 62
     0
100
AcDbMText
 10
21.0
 20
-38.689174612
 30
0.0
 40
3.5
 41
0.0
 46
0.0
 71
     5
 72
     1
  1
\A1;42
  7
BMG_Text
 73
     1
 44
1.0
  0
POINT
  5
2F2
330
2E9
100
AcDbEntity
  8
Defpoints
 62
     0
100
AcDbPoint
 10
0.0
 20
-22.1677001735
 30
0.0
  0
POINT
  5
2F3
330
2E9
100
AcDbEntity
  8
Defpoints
 62
     0
100
AcDbPoint
 10
42.0
 20
-36.2949286075
 30
0.0
  0
POINT
  5
2F4
330
2E9
100
AcDbEntity
  8
Defpoints
 62
     0
100
AcDbPoint
 10
42.0
 20
-41.449674612
 30
0.0
  0
ENDBLK
  5
2EB
330
2E9
100
AcDbEntity
  8
0
100
AcDbBlockEnd
  0
BLOCK
  5
2F9
330
2F8
100
AcDbEntity
  8
0
100
AcDbBlockBegin
  2
*D10
 70
     1
 10
0.0
 20
0.0
 30
0.0
  3
*D10
  1

  0
LINE
  5
2FB
330
2F8
100
AcDbEntity
  8
2
 62
     0
370
    -2
100
AcDbLine
 10
42.0
 20
-41.387174612
 30
0.0
 11
42.0
 21
-39.449674612
 31
0.0
  0
LINE
  5
2FC
330
2F8
100
AcDbEntity
  8
2
 62
     0
370
    -2
100
AcDbLine
 10
108.0
 20
-25.0625
 30
0.0
 11
108.0
 21
-43.449674612
 31
0.0
  0
LINE
  5
2FD
330
2F8
100
AcDbEntity
  8
2
 62
     0
370
    -2
100
AcDbLine
 10
45.0
 20
-41.449674612
 30
0.0
 11
105.0
 21
-41.449674612
 31
0.0
  0
SOLID
  5
2FE
330
2F8
100
AcDbEntity
  8
2
 62
     0
100
AcDbTrace
 10
45.0
 20
-40.949674612
 30
0.0
 11
45.0
 21
-41.949674612
 31
0.0
 12
42.0
 22
-41.449674612
 32
0.0
 13
42.0
 23
-41.449674612
 33
0.0
  0
SOLID
  5
2FF
330
2F8
100
AcDbEntity
  8
2
 62
     0
100
AcDbTrace
 10
105.0
 20
-41.949674612
 30
0.0
 11
105.0
 21
-40.949674612
 31
0.0
 12
108.0
 22
-41.449674612
 32
0.0
 13
108.0
 23
-41.449674612
 33
0.0
  0
MTEXT
  5
300
330
2F8
100
AcDbEntity
  8
2
 62
     0
100
AcDbMText
 10
73.85254747190386
 20
-38.591174612
 30
0.0
 40
3.5
 41
0.0
 46
0.0
 71
     5
 72
     1
  1
\A1;Ausdrehtiefe 133
  7
BMG_Text
 73
     1
 44
1.0
  0
POINT
  5
301
330
2F8
100
AcDbEntity
  8
Defpoints
 62
     0
100
AcDbPoint
 10
42.0
 20
-41.449674612
 30
0.0
  0
POINT
  5
302
330
2F8
100
AcDbEntity
  8
Defpoints
 62
     0
100
AcDbPoint
 10
108.0
 20
-25.0
 30
0.0
  0
POINT
  5
303
330
2F8
100
AcDbEntity
  8
Defpoints
 62
     0
100
AcDbPoint
 10
108.0
 20
-41.449674612
 30
0.0
  0
ENDBLK
  5
2FA
330
2F8
100
AcDbEntity
  8
0
100
AcDbBlockEnd
  0
ENDSEC
  0
SECTION
  2
ENTITIES
  0
LINE
  5
7E
330
1F
100
AcDbEntity
  8
1
  6
Continuous
370
    50
100
AcDbLine
 10
1.997
 20
31.5458059305
 30
0.0
 11
0.997
 21
30.5458059305
 31
0.0
  0
LINE
  5
80
330
1F
100
AcDbEntity
  8
SK1
  6
Continuous
370
    50
100
AcDbLine
 10
-65.4
 20
11.8803888362
 30
0.0
 11
-65.4011642763
 21
-12.0878186643
 31
0.0
  0
LINE
  5
81
102
{ACAD_REACTORS
330
2E8
102
}
330
1F
100
AcDbEntity
  8
SK1
  6
Continuous
370
    50
100
AcDbLine
 10
-64.5443025159
 20
-12.7552809719
 30
0.0
 11
0.0
 21
-22.1677001735
 31
0.0
  0
LINE
  5
82
330
1F
100
AcDbEntity
  8
1
  6
Continuous
370
    50
100
AcDbLine
 10
0.0
 20
-22.1677001735
 30
0.0
 11
0.153553391
 21
-22.0141467825
 31
0.0
  0
LINE
  5
83
330
1F
100
AcDbEntity
  8
1
  6
Continuous
370
    50
100
AcDbLine
 10
0.507106781
 20
-21.8677001736
 30
0.0
 11
0.797
 21
-21.8677001736
 31
0.0
  0
LINE
  5
84
330
1F
100
AcDbEntity
  8
1
  6
Continuous
370
    50
100
AcDbLine
 10
31.999518474
 20
31.545819028
 30
0.0
 11
31.999518474
 21
5.696246231
 31
0.0
  0
LINE
  5
85
330
1F
100
AcDbEntity
  8
1
  6
Continuous
370
    50
100
AcDbLine
 10
31.999518474
 20
5.696246231
 30
0.0
 11
31.999518474
 21
-31.431180972
 31
0.0
  0
LINE
  5
86
102
{ACAD_REACTORS
330
2A0
330
2D8
102
}
330
1F
100
AcDbEntity
  8
1
  6
Continuous
370
    50
100
AcDbLine
 10
108.0
 20
-25.0
 30
0.0
 11
108.0
 21
25.0
 31
0.0
  0
LINE
  5
87
330
1F
100
AcDbEntity
  8
1
  6
Continuous
370
    50
100
AcDbLine
 10
108.0
 20
25.0
 30
0.0
 11
35.8032486411
 21
25.0
 31
0.0
  0
LINE
  5
88
102
{ACAD_REACTORS
330
2D8
330
2F7
102
}
330
1F
100
AcDbEntity
  8
1
  6
Continuous
370
    50
100
AcDbLine
 10
108.0
 20
-25.0
 30
0.0
 11
35.8032486411
 21
-25.0
 31
0.0
  0
LINE
  5
8A
330
1F
100
AcDbEntity
  8
3
  6
DASH
370
    35
100
AcDbLine
 10
108.0
 20
14.0
 30
0.0
 11
84.800959619
 21
14.0
 31
0.0
  0
LINE
  5
8B
330
1F
100
AcDbEntity
  8
3
  6
DASH
370
    35
100
AcDbLine
 10
84.800959619
 20
14.0
 30
0.0
 11
84.800959619
 21
5.0
 31
0.0
  0
LINE
  5
8C
330
1F
100
AcDbEntity
  8
3
  6
DASH
370
    35
100
AcDbLine
 10
84.800959619
 20
5.0
 30
0.0
 11
0.0000000000000142
 21
4.999999999943544
 31
0.0
  0
LINE
  5
8D
330
1F
100
AcDbEntity
  8
1
  6
Continuous
370
    50
100
AcDbLine
 10
18.800003055
 20
-26.4426940735
 30
0.0
 11
14.400009152
 21
-26.4426940735
 31
0.0
  0
LINE
  5
8E
330
1F
100
AcDbEntity
  8
1
  6
Continuous
370
    50
100
AcDbLine
 10
19.100006103
 20
27.184445417
 30
0.0
 11
19.100006103
 21
-27.069827508
 31
0.0
  0
LINE
  5
8F
330
1F
100
AcDbEntity
  8
1
  6
Continuous
370
    50
100
AcDbLine
 10
19.100006103
 20
-27.069827508
 30
0.0
 11
21.618050203
 21
-31.431180972
 31
0.0
  0
LINE
  5
90
330
1F
100
AcDbEntity
  8
1
  6
Continuous
370
    50
100
AcDbLine
 10
21.618050203
 20
-31.431180972
 30
0.0
 11
31.999518474
 21
-31.431180972
 31
0.0
  0
LINE
  5
91
330
1F
100
AcDbEntity
  8
3
  6
DASH
370
    35
100
AcDbLine
 10
84.800959619
 20
5.0
 30
0.0
 11
84.800959619
 21
-5.0
 31
0.0
  0
LINE
  5
92
330
1F
100
AcDbEntity
  8
3
  6
DASH
370
    35
100
AcDbLine
 10
84.800959619
 20
-5.0
 30
0.0
 11
0.0000000000000001
 21
-5.0
 31
0.0
  0
LINE
  5
93
330
1F
100
AcDbEntity
  8
3
  6
DASH
370
    35
100
AcDbLine
 10
108.0
 20
-14.0
 30
0.0
 11
84.800959619
 21
-14.0
 31
0.0
  0
LINE
  5
94
330
1F
100
AcDbEntity
  8
3
  6
DASH
370
    35
100
AcDbLine
 10
84.800959619
 20
-14.0
 30
0.0
 11
84.800959619
 21
-5.0
 31
0.0
  0
LINE
  5
95
330
1F
100
AcDbEntity
  8
1
  6
Continuous
370
    50
100
AcDbLine
 10
99.1678377277
 20
2.0967893749
 30
0.0
 11
97.3519648626
 21
1.0483946874
 31
0.0
  0
LINE
  5
96
330
1F
100
AcDbEntity
  8
1
  6
Continuous
370
    50
100
AcDbLine
 10
97.3519648626
 20
1.0483946874
 30
0.0
 11
97.3519648626
 21
-1.0483946875
 31
0.0
  0
LINE
  5
97
330
1F
100
AcDbEntity
  8
1
  6
Continuous
370
    50
100
AcDbLine
 10
97.3519648626
 20
-1.0483946875
 30
0.0
 11
99.1678377277
 21
-2.096789375
 31
0.0
  0
LINE
  5
98
330
1F
100
AcDbEntity
  8
1
  6
Continuous
370
    50
100
AcDbLine
 10
99.1678377277
 20
-2.096789375
 30
0.0
 11
100.9837105928
 21
-1.0483946875
 31
0.0
  0
LINE
  5
99
330
1F
100
AcDbEntity
  8
1
  6
Continuous
370
    50
100
AcDbLine
 10
100.9837105928
 20
-1.0483946875
 30
0.0
 11
100.9837105928
 21
1.0483946874
 31
0.0
  0
LINE
  5
9A
330
1F
100
AcDbEntity
  8
1
  6
Continuous
370
    50
100
AcDbLine
 10
14.100006104
 20
27.1844408345
 30
0.0
 11
14.100006104
 21
-27.0698289735
 31
0.0
  0
LINE
  5
9B
330
1F
100
AcDbEntity
  8
1
  6
Continuous
370
    50
100
AcDbLine
 10
14.100006104
 20
-27.0698289735
 30
0.0
 11
11.581964528
 21
-31.4311940695
 31
0.0
  0
LINE
  5
9C
330
1F
100
AcDbEntity
  8
1
  6
Continuous
370
    50
100
AcDbLine
 10
11.581964528
 20
-31.4311940695
 30
0.0
 11
1.997
 21
-31.4311940695
 31
0.0
  0
LINE
  5
9D
330
1F
100
AcDbEntity
  8
1
  6
Continuous
370
    50
100
AcDbLine
 10
1.997
 20
-31.4311940695
 30
0.0
 11
0.997
 21
-30.4311940695
 31
0.0
  0
LINE
  5
9E
330
1F
100
AcDbEntity
  8
1
  6
Continuous
370
    50
100
AcDbLine
 10
0.997
 20
-30.4311940695
 30
0.0
 11
0.997
 21
30.5458059305
 31
0.0
  0
LINE
  5
9F
330
1F
100
AcDbEntity
  8
1
  6
Continuous
370
    50
100
AcDbLine
 10
11.582005246
 20
31.5458059305
 30
0.0
 11
11.581964528
 21
-31.4311940695
 31
0.0
  0
LINE
  5
A0
330
1F
100
AcDbEntity
  8
1
  6
Continuous
370
    50
100
AcDbLine
 10
21.618014667
 20
31.545819028
 30
0.0
 11
21.618050203
 21
-31.431180972
 31
0.0
  0
LINE
  5
A1
330
1F
100
AcDbEntity
  8
1
  6
Continuous
370
    50
100
AcDbLine
 10
0.0
 20
-22.1677001735
 30
0.0
 11
0.0
 21
22.2823120345
 31
0.0
  0
LINE
  5
A2
330
1F
100
AcDbEntity
  8
1
  6
Continuous
370
    50
100
AcDbLine
 10
1.997
 20
-31.4311940695
 30
0.0
 11
1.997
 21
31.5458059305
 31
0.0
  0
LINE
  5
A3
330
1F
100
AcDbEntity
  8
1
  6
Continuous
370
    50
100
AcDbLine
 10
100.9837105928
 20
1.0483946874
 30
0.0
 11
99.1678377277
 21
2.0967893749
 31
0.0
  0
LINE
  5
A4
330
1F
100
AcDbEntity
  8
1
  6
Continuous
370
    50
100
AcDbLine
 10
31.999518474
 20
31.545819028
 30
0.0
 11
21.618045831
 21
31.545819028
 31
0.0
  0
LINE
  5
A5
330
1F
100
AcDbEntity
  8
1
  6
Continuous
370
    50
100
AcDbLine
 10
21.618045831
 20
31.545819028
 30
0.0
 11
19.100006103
 21
27.184445417
 31
0.0
  0
LINE
  5
A6
330
1F
100
AcDbEntity
  8
1
  6
Continuous
370
    50
100
AcDbLine
 10
18.800003055
 20
26.5573059345
 30
0.0
 11
14.400009152
 21
26.5573059345
 31
0.0
  0
LINE
  5
A7
330
1F
100
AcDbEntity
  8
1
  6
Continuous
370
    50
100
AcDbLine
 10
14.100006104
 20
27.1844408345
 30
0.0
 11
11.581964528
 21
31.5458059305
 31
0.0
  0
LINE
  5
A8
330
1F
100
AcDbEntity
  8
1
  6
Continuous
370
    50
100
AcDbLine
 10
11.581964528
 20
31.5458059305
 30
0.0
 11
1.997
 21
31.5458059305
 31
0.0
  0
LINE
  5
A9
330
1F
100
AcDbEntity
  8
1
  6
Continuous
370
    50
100
AcDbLine
 10
0.7970000001
 20
21.9823120346
 30
0.0
 11
0.5071067811
 21
21.9823120346
 31
0.0
  0
LINE
  5
AA
102
{ACAD_REACTORS
330
2A0
102
}
330
1F
100
AcDbEntity
  8
1
  6
Continuous
370
    50
100
AcDbLine
 10
0.1535533905
 20
22.128758644
 30
0.0
 11
0.0
 21
22.2823120345
 31
0.0
  0
LINE
  5
AB
330
1F
100
AcDbEntity
  8
SK1
  6
Continuous
370
    50
100
AcDbLine
 10
0.0
 20
22.2823120345
 30
0.0
 11
-64.544302516
 21
12.8698928325
 31
0.0
  0
ARC
  5
AC
330
1F
100
AcDbEntity
  8
SK1
  6
Continuous
370
    50
100
AcDbCircle
 10
-64.456728393
 20
-11.7591229659
 30
0.0
 40
0.9999999999999997
100
AcDbArc
 50
199.1896288107001
 51
264.9759365721002
  0
ARC
  5
AD
330
1F
100
AcDbEntity
  8
1
  6
Continuous
370
    50
100
AcDbCircle
 10
0.507106781
 20
-22.3677001735
 30
0.0
 40
0.4999999999340545
100
AcDbArc
 50
90.0
 51
134.999999919
  0
ARC
  5
AE
330
1F
100
AcDbEntity
  8
1
  6
Continuous
370
    50
100
AcDbCircle
 10
0.797
 20
-22.3677001736
 30
0.0
 40
0.5000000000000284
100
AcDbArc
 50
66.421821522
 51
90.0
  0
ARC
  5
AF
330
1F
100
AcDbEntity
  8
1
  6
Continuous
370
    50
100
AcDbCircle
 10
18.800003055
 20
-26.7426971215
 30
0.0
 40
0.3000030480000113
100
AcDbArc
 50
0.0
 51
90.0
  0
ARC
  5
B0
330
1F
100
AcDbEntity
  8
1
  6
Continuous
370
    50
100
AcDbCircle
 10
14.400009152
 20
-26.742697122
 30
0.0
 40
0.3000030485000309
100
AcDbArc
 50
90.0
 51
180.0
  0
ARC
  5
B1
330
1F
100
AcDbEntity
  8
1
  6
Continuous
370
    50
100
AcDbCircle
 10
35.8032486411
 20
28.8289446754
 30
0.0
 40
3.8289446754228
100
AcDbArc
 50
186.5790314312
 51
270.0
  0
ARC
  5
B2
330
1F
100
AcDbEntity
  8
1
  6
Continuous
370
    50
100
AcDbCircle
 10
35.8032486411
 20
-28.8289446755
 30
0.0
 40
3.8289446754228
100
AcDbArc
 50
90.0
 51
173.4209685688
  0
ARC
  5
B3
330
1F
100
AcDbEntity
  8
1
  6
Continuous
370
    50
100
AcDbCircle
 10
18.800003055
 20
26.8573089825
 30
0.0
 40
0.3000030480000113
100
AcDbArc
 50
270.0
 51
0.0
  0
ARC
  5
B4
330
1F
100
AcDbEntity
  8
1
  6
Continuous
370
    50
100
AcDbCircle
 10
14.400009152
 20
26.857308983
 30
0.0
 40
0.3000030485000025
100
AcDbArc
 50
180.0
 51
270.0
  0
ARC
  5
B5
330
1F
100
AcDbEntity
  8
1
  6
Continuous
370
    50
100
AcDbCircle
 10
0.7970000001
 20
22.4823120346
 30
0.0
 40
0.5000000000000033
100
AcDbArc
 50
270.0
 51
293.5781784779999
  0
ARC
  5
B6
330
1F
100
AcDbEntity
  8
1
  6
Continuous
370
    50
100
AcDbCircle
 10
0.5071067811
 20
22.4823120346
 30
0.0
 40
0.5
100
AcDbArc
 50
224.9999999999999
 51
270.0
  0
ARC
  5
B7
330
1F
100
AcDbEntity
  8
SK1
  6
Continuous
370
    50
100
AcDbCircle
 10
-64.4000000006
 20
11.8803592132
 30
0.0
 40
0.9999999998138106
100
AcDbArc
 50
98.2968914947999
 51
179.9983027266
  0
CIRCLE
  5
B8
330
1F
100
AcDbEntity
  8
1
  6
Continuous
370
    50
100
AcDbCircle
 10
99.3057962732
 20
0.0
 30
0.0
 40
3.737950646067274
  0
MTEXT
  5
F1
330
1F
100
AcDbEntity
  8
SK6
  6
Continuous
370
    35
100
AcDbMText
 10
139.384753696456
 20
-54.52085300358722
 30
0.0
 40
3.5
 41
0.0
 46
0.0
 71
     1
 72
     1
  1
806.682
  7
BMG_Text
 73
     1
 44
1.0
  0
LWPOLYLINE
  5
1B9
330
1F
100
AcDbEntity
  8
INFTOTAL
100
AcDbPolyline
 90
        4
 70
     1
 43
0.0
 10
-116.8574612382356
 20
82.2558215696741
 10
-116.8574612382356
 20
-62.62222721081384
 10
165.8157094934716
 20
-62.62222721081384
 10
165.8157094934716
 20
82.2558215696741
  0
LINE
  5
1C5
330
1F
100
AcDbEntity
  8
SK3
100
AcDbLine
 10
-65.4003342208
 20
4.9999999999
 30
0.0
 11
0.0000000000000142
 21
4.999999999943544
 31
0.0
  0
LINE
  5
1C6
330
1F
100
AcDbEntity
  8
SK3
100
AcDbLine
 10
0.0000000000000001
 20
-5.0
 30
0.0
 11
-65.4003342208
 21
-5.0
 31
0.0
  0
LINE
  5
274
330
1F
100
AcDbEntity
  8
SK4
100
AcDbLine
 10
110.6316627351
 20
0.0
 30
0.0
 11
-68.9618667614
 21
0.0
 31
0.0
  0
LINE
  5
277
330
1F
100
AcDbEntity
  8
4
100
AcDbLine
 10
0.0
 20
0.0
 30
0.0
 11
110.6316627351
 21
0.0
 31
0.0
  0
DIMENSION
  5
29E
102
{ACAD_REACTORS
330
2A0
102
}
102
{ACAD_XDICTIONARY
360
29F
102
}
330
1F
100
AcDbEntity
  8
2
100
AcDbDimension
280
     0
  2
*D6
 10
0.0
 20
41.0
 30
0.0
 11
53.49582971852634
 21
41.0
 31
0.0
 70
   160
 71
     5
 42
108.0
 73
     0
 74
     0
 75
     0
  3
Normal
100
AcDbAlignedDimension
 13
108.0
 23
25.0
 33
0.0
 14
0.0
 24
22.2823120345
 34
0.0
100
AcDbRotatedDimension
  0
DIMENSION
  5
2C4
102
{ACAD_XDICTIONARY
360
2C5
102
}
330
1F
100
AcDbEntity
  8
2
100
AcDbDimension
280
     0
  2
*D7
 10
116.2463852987175
 20
14.0
 30
0.0
 11
113.4123852987175
 21
0.0
 31
0.0
 70
    32
  1
ø28
 71
     5
 42
28.0
 73
     0
 74
     0
 75
     0
  3
Normal
100
AcDbAlignedDimension
 13
108.0625
 23
-14.0
 33
0.0
 14
108.0625
 24
14.0
 34
0.0
 50
90.0
100
AcDbRotatedDimension
  0
DIMENSION
  5
2D6
102
{ACAD_REACTORS
330
2D8
102
}
102
{ACAD_XDICTIONARY
360
2D7
102
}
330
1F
100
AcDbEntity
  8
2
100
AcDbDimension
280
     0
  2
*D8
 10
124.0
 20
-25.0
 30
0.0
 11
121.166
 21
0.0
 31
0.0
 70
    32
  1
ø50
 71
     5
 42
50.0
 73
     0
 74
     0
 75
     0
  3
Normal
100
AcDbAlignedDimension
 13
108.0
 23
25.0
 33
0.0
 14
108.0
 24
-25.0
 34
0.0
 50
90.0
100
AcDbRotatedDimension
  0
DIMENSION
  5
2E6
102
{ACAD_REACTORS
330
2E8
102
}
102
{ACAD_XDICTIONARY
360
2E7
102
}
330
1F
100
AcDbEntity
  8
2
100
AcDbDimension
280
     0
  2
*D9
 10
42.0
 20
-41.449674612
 30
0.0
 11
21.0
 21
-38.689174612
 31
0.0
 70
    32
 71
     5
 42
42.0
 73
     0
 74
     0
 75
     0
  3
Normal
100
AcDbAlignedDimension
 13
0.0
 23
-22.1677001735
 33
0.0
 14
42.0
 24
-36.2949286075
 34
0.0
100
AcDbRotatedDimension
  0
DIMENSION
  5
2F5
102
{ACAD_REACTORS
330
2F7
102
}
102
{ACAD_XDICTIONARY
360
2F6
102
}
330
1F
100
AcDbEntity
  8
2
100
AcDbDimension
280
     0
  2
*D10
 10
108.0
 20
-41.449674612
 30
0.0
 11
73.85254747190386
 21
-41.449674612
 31
0.0
 70
   160
  1
Ausdrehtiefe 133
 71
     5
 42
66.0
 73
     0
 74
     0
 75
     0
  3
Normal
100
AcDbAlignedDimension
 13
42.0
 23
-41.449674612
 33
0.0
 14
108.0
 24
-25.0
 34
0.0
100
AcDbRotatedDimension
  0
LINE
  5
31F
330
1F
100
AcDbEntity
  8
NOCUT
  6
Continuous
370
    50
100
AcDbLine
 10
1.997000000000014
 20
31.54580593049999
 30
0.0
 11
0.9970000000000141
 21
30.54580593049999
 31
0.0
  0
LINE
  5
320
330
1F
100
AcDbEntity
  8
NOCUT
  6
Continuous
370
    50
100
AcDbLine
 10
31.99951847400001
 20
31.54581902800001
 30
0.0
 11
31.99951847400001
 21
28.3902487176544
 31
0.0
  0
LINE
  5
321
330
1F
100
AcDbEntity
  8
NOCUT
  6
Continuous
370
    50
100
AcDbLine
 10
107.9999999999999
 20
25.0
 30
0.0
 11
35.80324864109997
 21
25.0
 31
0.0
  0
LINE
  5
322
330
1F
100
AcDbEntity
  8
NOCUT
  6
Continuous
370
    50
100
AcDbLine
 10
19.100006103
 20
27.18444541700001
 30
0.0
 11
19.100006103
 21
26.8573089825
 31
0.0
  0
LINE
  5
323
330
1F
100
AcDbEntity
  8
NOCUT
  6
Continuous
370
    50
100
AcDbLine
 10
14.10000610399999
 20
27.18444083450001
 30
0.0
 11
14.10000610399999
 21
26.857308983
 31
0.0
  0
LINE
  5
325
330
1F
100
AcDbEntity
  8
NOCUT
  6
Continuous
370
    50
100
AcDbLine
 10
31.99951847400001
 20
31.54581902800001
 30
0.0
 11
21.61804583100002
 21
31.54581902800001
 31
0.0
  0
LINE
  5
326
330
1F
100
AcDbEntity
  8
NOCUT
  6
Continuous
370
    50
100
AcDbLine
 10
21.61804583100002
 20
31.54581902800001
 30
0.0
 11
19.100006103
 21
27.18444541700001
 31
0.0
  0
LINE
  5
327
330
1F
100
AcDbEntity
  8
NOCUT
  6
Continuous
370
    50
100
AcDbLine
 10
18.80000305499999
 20
26.55730593449999
 30
0.0
 11
14.400009152
 21
26.55730593449999
 31
0.0
  0
LINE
  5
328
330
1F
100
AcDbEntity
  8
NOCUT
  6
Continuous
370
    50
100
AcDbLine
 10
14.10000610399999
 20
27.18444083450001
 30
0.0
 11
11.58196452800001
 21
31.54580593049999
 31
0.0
  0
LINE
  5
329
330
1F
100
AcDbEntity
  8
NOCUT
  6
Continuous
370
    50
100
AcDbLine
 10
11.58196452800001
 20
31.54580593049999
 30
0.0
 11
1.997000000000014
 21
31.54580593049999
 31
0.0
  0
ARC
  5
32A
330
1F
100
AcDbEntity
  8
NOCUT
  6
Continuous
370
    50
100
AcDbCircle
 10
35.80324864109997
 20
28.82894467540001
 30
0.0
 40
3.8289446754228
100
AcDbArc
 50
186.5790314312001
 51
270.0
  0
ARC
  5
32B
330
1F
100
AcDbEntity
  8
NOCUT
  6
Continuous
370
    50
100
AcDbCircle
 10
18.80000305499999
 20
26.8573089825
 30
0.0
 40
0.3000030480000113
100
AcDbArc
 50
270.0
 51
0.0
  0
ARC
  5
32C
330
1F
100
AcDbEntity
  8
NOCUT
  6
Continuous
370
    50
100
AcDbCircle
 10
14.400009152
 20
26.857308983
 30
0.0
 40
0.3000030485000025
100
AcDbArc
 50
180.0
 51
270.0
  0
LINE
  5
332
330
1F
100
AcDbEntity
  8
NOCUT
100
AcDbLine
 10
108.0
 20
25.0625
 30
0.0
 11
108.0
 21
0.0
 31
0.0
  0
LINE
  5
333
330
1F
100
AcDbEntity
  8
NOCUT
100
AcDbLine
 10
108.0
 20
0.0
 30
0.0
 11
0.9970000000000141
 21
0.0
 31
0.0
  0
LINE
  5
334
330
1F
100
AcDbEntity
  8
NOCUT
100
AcDbLine
 10
0.997
 20
30.5458059305
 30
0.0
 11
0.9970000000983862
 21
22.02405446510371
 31
0.0
  0
ARC
  5
335
330
1F
100
AcDbEntity
  8
NOCUT
100
AcDbCircle
 10
0.5071067811
 20
22.4823120346
 30
0.0
 40
0.4999999999999998
100
AcDbArc
 50
224.9999999999999
 51
270.0
  0
LINE
  5
336
330
1F
100
AcDbEntity
  8
NOCUT
100
AcDbLine
 10
0.5071067810999998
 20
21.9823120346
 30
0.0
 11
0.7970000001
 21
21.9823120346
 31
0.0
  0
ARC
  5
337
330
1F
100
AcDbEntity
  8
NOCUT
100
AcDbCircle
 10
0.7970000001
 20
22.4823120346
 30
0.0
 40
0.5000000000000036
100
AcDbArc
 50
270.0
 51
293.5781784779999
  0
LINE
  5
338
330
1F
100
AcDbEntity
  8
NOCUT
100
AcDbLine
 10
0.1535533905067256
 20
22.12875864400673
 30
0.0
 11
0.0
 21
22.2823120345
 31
0.0
  0
LINE
  5
339
330
1F
100
AcDbEntity
  8
NOCUT
100
AcDbLine
 10
0.0
 20
22.2823120345
 30
0.0
 11
0.0
 21
0.0
 31
0.0
  0
LINE
  5
33C
330
1F
100
AcDbEntity
  8
SK1
100
AcDbLine
 10
0.0
 20
-22.2302001735
 30
0.0
 11
0.0
 21
22.2823120345
 31
0.0
  0
ENDSEC
  0
SECTION
  2
OBJECTS
  0
DICTIONARY
  5
C
330
0
100
AcDbDictionary
281
     1
  3
ACAD_DETAILVIEWSTYLE
350
1BD
  3
ACAD_GROUP
350
D
  3
ACAD_LAYOUT
350
114
  3
ACAD_MATERIAL
350
128
  3
ACAD_MLEADERSTYLE
350
145
  3
ACAD_MLINESTYLE
350
17
  3
ACAD_PLOTSETTINGS
350
187
  3
ACAD_PLOTSTYLENAME
350
188
  3
ACAD_SCALELIST
350
F2
  3
ACAD_SECTIONVIEWSTYLE
350
1BE
  3
ACAD_TABLESTYLE
350
194
  3
ACAD_VISUALSTYLE
350
117
  3
ACDB_RECOMPOSE_DATA
350
340
  3
AcDbVariableDictionary
350
143
  3
APPDATA
350
197
  3
FX_DICT_DIMENSION_PALETTE
350
2AD
  3
FX_DICT_DIMENSION_PALETTE_RECENTLIST
350
2D3
  0
SUN
  5
1BF
330
29
100
AcDbSun
 90
        1
290
     0
 63
     7
421
 16777215
 40
1.0
291
     1
 91
  2455826
 92
 54000000
292
     0
 70
     2
 71
   256
280
     1
  0
DICTIONARY
  5
198
330
2
100
AcDbDictionary
280
     1
281
     1
  3
ACAD_LAYERSTATES
360
199
  0
DICTIONARY
  5
29A
330
1F
100
AcDbDictionary
280
     1
281
     1
  3
DIM_BOUNDING_BOXES_V1
360
29B
  0
DICTIONARY
  5
29F
330
29E
100
AcDbDictionary
280
     1
281
     1
  3
ACAD_DIMASSOC
360
2A0
  0
DICTIONARY
  5
2C5
330
2C4
100
AcDbDictionary
280
     1
281
     1
  0
DICTIONARY
  5
2D7
330
2D6
100
AcDbDictionary
280
     1
281
     1
  3
ACAD_DIMASSOC
360
2D8
  0
DICTIONARY
  5
2E7
330
2E6
100
AcDbDictionary
280
     1
281
     1
  3
ACAD_DIMASSOC
360
2E8
  0
DICTIONARY
  5
2F6
330
2F5
100
AcDbDictionary
280
     1
281
     1
  3
ACAD_DIMASSOC
360
2F7
  0
DICTIONARY
  5
1BD
102
{ACAD_REACTORS
330
C
102
}
330
C
100
AcDbDictionary
281
     1
  0
DICTIONARY
  5
D
102
{ACAD_REACTORS
330
C
102
}
330
C
100
AcDbDictionary
281
     1
  0
DICTIONARY
  5
114
102
{ACAD_REACTORS
330
C
102
}
330
C
100
AcDbDictionary
281
     1
  3
Layout1
350
116
  3
Model
350
115
  0
DICTIONARY
  5
128
102
{ACAD_REACTORS
330
C
102
}
330
C
100
AcDbDictionary
281
     1
  3
ByBlock
350
12A
  3
ByLayer
350
129
  3
Global
350
12B
  0
DICTIONARY
  5
145
102
{ACAD_REACTORS
330
C
102
}
330
C
100
AcDbDictionary
281
     1
  3
Standard
350
196
  0
DICTIONARY
  5
17
102
{ACAD_REACTORS
330
C
102
}
330
C
100
AcDbDictionary
281
     1
  3
STANDARD
350
18
  0
DICTIONARY
  5
187
102
{ACAD_REACTORS
330
C
102
}
330
C
100
AcDbDictionary
281
     1
  0
ACDBDICTIONARYWDFLT
  5
188
102
{ACAD_REACTORS
330
C
102
}
330
C
100
AcDbDictionary
281
     1
  3
Normal
350
189
100
AcDbDictionaryWithDefault
340
189
  0
DICTIONARY
  5
F2
102
{ACAD_REACTORS
330
C
102
}
330
C
100
AcDbDictionary
281
     1
  3
A0
350
F3
  3
A1
350
F4
  3
A2
350
F5
  3
A3
350
F6
  3
A4
350
F7
  3
A5
350
F8
  3
A6
350
F9
  3
A7
350
FA
  3
A8
350
FB
  3
A9
350
FC
  3
B0
350
FD
  3
B1
350
FE
  3
B2
350
FF
  3
B3
350
100
  3
B4
350
101
  3
B5
350
102
  3
B6
350
103
  3
B7
350
104
  3
B8
350
105
  3
B9
350
106
  3
C0
350
107
  3
C1
350
108
  3
C2
350
109
  3
C3
350
10A
  3
C4
350
10B
  3
C5
350
10C
  3
C6
350
10D
  3
C7
350
10E
  3
C8
350
10F
  3
C9
350
110
  3
D0
350
111
  3
D1
350
112
  3
D2
350
113
  0
DICTIONARY
  5
1BE
102
{ACAD_REACTORS
330
C
102
}
330
C
100
AcDbDictionary
281
     1
  0
DICTIONARY
  5
194
102
{ACAD_REACTORS
330
C
102
}
330
C
100
AcDbDictionary
281
     1
  3
Standard
350
195
  0
DICTIONARY
  5
117
102
{ACAD_REACTORS
330
C
102
}
330
C
100
AcDbDictionary
281
     1
  3
2dWireframe
350
11C
  3
3D Hidden
350
11E
  3
3dWireframe
350
11D
  3
Basic
350
11F
  3
Brighten
350
123
  3
ColorChange
350
127
  3
Conceptual
350
121
  3
Dim
350
122
  3
EdgeColorOff
350
18E
  3
Facepattern
350
126
  3
Flat
350
118
  3
FlatWithEdges
350
119
  3
Gouraud
350
11A
  3
GouraudWithEdges
350
11B
  3
Hidden
350
18B
  3
JitterOff
350
18C
  3
Linepattern
350
125
  3
OverhangOff
350
18D
  3
Realistic
350
120
  3
Shaded
350
193
  3
Shaded with edges
350
192
  3
Shades of Gray
350
18F
  3
Sketchy
350
190
  3
Thicken
350
124
  3
Wireframe
350
18A
  3
X-Ray
350
191
  0
XRECORD
  5
340
102
{ACAD_REACTORS
330
C
102
}
330
C
100
AcDbXrecord
280
     1
 90
        1
330
195
  0
DICTIONARY
  5
143
102
{ACAD_REACTORS
330
C
102
}
330
C
100
AcDbDictionary
281
     1
  3
CANNOSCALE
350
1BA
  3
CMLEADERSTYLE
350
1BC
  3
CTABLESTYLE
350
1BB
  3
DIMASSOC
350
147
  3
HIDETEXT
350
148
  3
MSLTSCALE
350
146
  0
DICTIONARY
  5
197
102
{ACAD_REACTORS
330
C
102
}
330
C
100
AcDbDictionary
281
     1
  0
DICTIONARY
  5
2AD
102
{ACAD_REACTORS
330
C
102
}
330
C
100
AcDbDictionary
281
     1
1001
FX_DIMP_FAV_VERSION
1071
        1
  0
DICTIONARY
  5
2D3
102
{ACAD_REACTORS
330
C
102
}
330
C
100
AcDbDictionary
281
     1
  3
0
350
2D5
  3
1
350
2E5
  3
2
350
304
  3
3
350
307
1001
FX_DIMP_RECENT_VERSION
1071
        1
  0
DICTIONARY
  5
199
102
{ACAD_REACTORS
330
198
102
}
330
198
100
AcDbDictionary
281
     1
  0
DICTIONARY
  5
29B
102
{ACAD_REACTORS
330
29A
102
}
330
29A
100
AcDbDictionary
281
     1
  3
DBBIsEnabled
350
2B2
  3
DBBIsVisible
350
2B3
  0
DIMASSOC
  5
2A0
102
{ACAD_REACTORS
330
29F
102
}
330
29F
100
AcDbDimAssoc
330
29E
 90
        3
 70
     0
 71
     1
  1
AcDbOsnapPointRef
 72
     1
331
86
 73
     0
 91
        0
 40
0.0
 10
0.0
 20
0.0
 30
0.0
 75
     0
  1
AcDbOsnapPointRef
 72
     1
331
AA
 73
     0
 91
        0
 40
0.0
 10
0.0
 20
0.0
 30
0.0
 75
     0
  0
DIMASSOC
  5
2D8
102
{ACAD_REACTORS
330
2D7
102
}
330
2D7
100
AcDbDimAssoc
330
2D6
 90
        3
 70
     0
 71
     1
  1
AcDbOsnapPointRef
 72
     1
331
86
 73
     0
 91
        0
 40
0.0
 10
0.0
 20
0.0
 30
0.0
 75
     0
  1
AcDbOsnapPointRef
 72
    13
331
88
 73
     0
 91
        0
 40
0.0
 10
0.0
 20
0.0
 30
0.0
 75
     0
  0
DIMASSOC
  5
2E8
102
{ACAD_REACTORS
330
2E7
102
}
330
2E7
100
AcDbDimAssoc
330
2E6
 90
        1
 70
     0
 71
     1
  1
AcDbOsnapPointRef
 72
     1
331
81
 73
     0
 91
        0
 40
0.0
 10
0.0
 20
0.0
 30
0.0
 75
     0
  0
DIMASSOC
  5
2F7
102
{ACAD_REACTORS
330
2F6
102
}
330
2F6
100
AcDbDimAssoc
330
2F5
 90
        2
 70
     0
 71
     1
  1
AcDbOsnapPointRef
 72
    13
331
88
 73
     0
 91
        0
 40
0.0
 10
0.0
 20
0.0
 30
0.0
 75
     0
  0
LAYOUT
  5
116
102
{ACAD_REACTORS
330
114
102
}
330
114
100
AcDbPlotSettings
  1

  2
none_device
  4

  6

 40
0.0
 41
0.0
 42
0.0
 43
0.0
 44
0.0
 45
0.0
 46
0.0
 47
0.0
 48
0.0
 49
0.0
140
0.0
141
0.0
142
1.0
143
1.0
 70
   688
 72
     0
 73
     0
 74
     5
  7

 75
    16
 76
     0
 77
     2
 78
   300
147
1.0
148
0.0
149
0.0
100
AcDbLayout
  1
Layout1
 70
     1
 71
     1
 10
0.0
 20
0.0
 11
420.0
 21
297.0
 12
0.0
 22
0.0
 32
0.0
 14
1.000000000000000E+20
 24
1.000000000000000E+20
 34
1.000000000000000E+20
 15
-1.000000000000000E+20
 25
-1.000000000000000E+20
 35
-1.000000000000000E+20
146
0.0
 13
0.0
 23
0.0
 33
0.0
 16
1.0
 26
0.0
 36
0.0
 17
0.0
 27
1.0
 37
0.0
 76
     0
330
1B
  0
LAYOUT
  5
115
102
{ACAD_REACTORS
330
114
102
}
330
114
100
AcDbPlotSettings
  1

  2
none_device
  4

  6

 40
0.0
 41
0.0
 42
0.0
 43
0.0
 44
0.0
 45
0.0
 46
0.0
 47
0.0
 48
0.0
 49
0.0
140
0.0
141
0.0
142
1.0
143
1.0
 70
  1712
 72
     0
 73
     0
 74
     0
  7

 75
     0
 76
     0
 77
     2
 78
   300
147
1.0
148
-0.0000001562100806
149
0.0
100
AcDbLayout
  1
Model
 70
     1
 71
     0
 10
0.0
 20
0.0
 11
420.0
 21
297.0
 12
0.0
 22
0.0
 32
0.0
 14
-116.8574612382356
 24
-62.62222721081385
 34
0.0
 15
165.8157094934717
 25
82.25582156967413
 35
0.0
146
0.0
 13
0.0
 23
0.0
 33
0.0
 16
1.0
 26
0.0
 36
0.0
 17
0.0
 27
1.0
 37
0.0
 76
     0
330
1F
331
29
  0
MATERIAL
  5
12A
102
{ACAD_REACTORS
330
128
102
}
330
128
100
AcDbMaterial
  1
ByBlock
 72
     1
 94
      127
  0
MATERIAL
  5
129
102
{ACAD_REACTORS
330
128
102
}
330
128
100
AcDbMaterial
  1
ByLayer
 72
     1
 94
      127
  0
MATERIAL
  5
12B
102
{ACAD_REACTORS
330
128
102
}
330
128
100
AcDbMaterial
  1
Global
 72
     1
 94
      127
  0
MLEADERSTYLE
  5
196
102
{ACAD_REACTORS
330
145
102
}
330
145
100
AcDbMLeaderStyle
179
     2
170
     2
171
     1
172
     0
 90
        2
 40
0.0
 41
0.0
173
     1
 91
-1056964608
340
14
 92
       -2
290
     1
 42
2.0
291
     1
 43
8.0
  3
Standard
341
0
 44
4.0
300

342
11
174
     1
178
     1
175
     1
176
     0
 93
-1056964608
 45
4.0
292
     0
297
     0
 46
4.0
343
0
 94
-1056964608
 47
1.0
 49
1.0
140
1.0
293
     1
141
0.0
294
     1
177
     0
142
1.0
295
     0
296
     0
143
3.75
271
     0
272
     9
273
     9
298
     0
  0
MLINESTYLE
  5
18
102
{ACAD_REACTORS
330
17
102
}
330
17
100
AcDbMlineStyle
  2
Standard
 70
     0
  3

 62
   256
 51
90.0
 52
90.0
 71
     2
 49
0.5
 62
   256
  6
BYLAYER
 49
-0.5
 62
   256
  6
BYLAYER
  0
ACDBPLACEHOLDER
  5
189
102
{ACAD_REACTORS
330
188
102
}
330
188
  0
SCALE
  5
F3
102
{ACAD_REACTORS
330
F2
102
}
330
F2
100
AcDbScale
 70
     0
300
1:1
140
1.0
141
1.0
290
     1
  0
SCALE
  5
F4
102
{ACAD_REACTORS
330
F2
102
}
330
F2
100
AcDbScale
 70
     0
300
1:2
140
1.0
141
2.0
290
     0
  0
SCALE
  5
F5
102
{ACAD_REACTORS
330
F2
102
}
330
F2
100
AcDbScale
 70
     0
300
1:4
140
1.0
141
4.0
290
     0
  0
SCALE
  5
F6
102
{ACAD_REACTORS
330
F2
102
}
330
F2
100
AcDbScale
 70
     0
300
1:5
140
1.0
141
5.0
290
     0
  0
SCALE
  5
F7
102
{ACAD_REACTORS
330
F2
102
}
330
F2
100
AcDbScale
 70
     0
300
1:8
140
1.0
141
8.0
290
     0
  0
SCALE
  5
F8
102
{ACAD_REACTORS
330
F2
102
}
330
F2
100
AcDbScale
 70
     0
300
1:10
140
1.0
141
10.0
290
     0
  0
SCALE
  5
F9
102
{ACAD_REACTORS
330
F2
102
}
330
F2
100
AcDbScale
 70
     0
300
1:16
140
1.0
141
16.0
290
     0
  0
SCALE
  5
FA
102
{ACAD_REACTORS
330
F2
102
}
330
F2
100
AcDbScale
 70
     0
300
1:20
140
1.0
141
20.0
290
     0
  0
SCALE
  5
FB
102
{ACAD_REACTORS
330
F2
102
}
330
F2
100
AcDbScale
 70
     0
300
1:30
140
1.0
141
30.0
290
     0
  0
SCALE
  5
FC
102
{ACAD_REACTORS
330
F2
102
}
330
F2
100
AcDbScale
 70
     0
300
1:40
140
1.0
141
40.0
290
     0
  0
SCALE
  5
FD
102
{ACAD_REACTORS
330
F2
102
}
330
F2
100
AcDbScale
 70
     0
300
1:50
140
1.0
141
50.0
290
     0
  0
SCALE
  5
FE
102
{ACAD_REACTORS
330
F2
102
}
330
F2
100
AcDbScale
 70
     0
300
1:100
140
1.0
141
100.0
290
     0
  0
SCALE
  5
FF
102
{ACAD_REACTORS
330
F2
102
}
330
F2
100
AcDbScale
 70
     0
300
2:1
140
2.0
141
1.0
290
     0
  0
SCALE
  5
100
102
{ACAD_REACTORS
330
F2
102
}
330
F2
100
AcDbScale
 70
     0
300
4:1
140
4.0
141
1.0
290
     0
  0
SCALE
  5
101
102
{ACAD_REACTORS
330
F2
102
}
330
F2
100
AcDbScale
 70
     0
300
8:1
140
8.0
141
1.0
290
     0
  0
SCALE
  5
102
102
{ACAD_REACTORS
330
F2
102
}
330
F2
100
AcDbScale
 70
     0
300
10:1
140
10.0
141
1.0
290
     0
  0
SCALE
  5
103
102
{ACAD_REACTORS
330
F2
102
}
330
F2
100
AcDbScale
 70
     0
300
100:1
140
100.0
141
1.0
290
     0
  0
SCALE
  5
104
102
{ACAD_REACTORS
330
F2
102
}
330
F2
100
AcDbScale
 70
     0
300
1/128" = 1'-0"
140
0.0078125
141
12.0
290
     0
  0
SCALE
  5
105
102
{ACAD_REACTORS
330
F2
102
}
330
F2
100
AcDbScale
 70
     0
300
1/64" = 1'-0"
140
0.015625
141
12.0
290
     0
  0
SCALE
  5
106
102
{ACAD_REACTORS
330
F2
102
}
330
F2
100
AcDbScale
 70
     0
300
1/32" = 1'-0"
140
0.03125
141
12.0
290
     0
  0
SCALE
  5
107
102
{ACAD_REACTORS
330
F2
102
}
330
F2
100
AcDbScale
 70
     0
300
1/16" = 1'-0"
140
0.0625
141
12.0
290
     0
  0
SCALE
  5
108
102
{ACAD_REACTORS
330
F2
102
}
330
F2
100
AcDbScale
 70
     0
300
3/32" = 1'-0"
140
0.09375
141
12.0
290
     0
  0
SCALE
  5
109
102
{ACAD_REACTORS
330
F2
102
}
330
F2
100
AcDbScale
 70
     0
300
1/8" = 1'-0"
140
0.125
141
12.0
290
     0
  0
SCALE
  5
10A
102
{ACAD_REACTORS
330
F2
102
}
330
F2
100
AcDbScale
 70
     0
300
3/16" = 1'-0"
140
0.1875
141
12.0
290
     0
  0
SCALE
  5
10B
102
{ACAD_REACTORS
330
F2
102
}
330
F2
100
AcDbScale
 70
     0
300
1/4" = 1'-0"
140
0.25
141
12.0
290
     0
  0
SCALE
  5
10C
102
{ACAD_REACTORS
330
F2
102
}
330
F2
100
AcDbScale
 70
     0
300
3/8" = 1'-0"
140
0.375
141
12.0
290
     0
  0
SCALE
  5
10D
102
{ACAD_REACTORS
330
F2
102
}
330
F2
100
AcDbScale
 70
     0
300
1/2" = 1'-0"
140
0.5
141
12.0
290
     0
  0
SCALE
  5
10E
102
{ACAD_REACTORS
330
F2
102
}
330
F2
100
AcDbScale
 70
     0
300
3/4" = 1'-0"
140
0.75
141
12.0
290
     0
  0
SCALE
  5
10F
102
{ACAD_REACTORS
330
F2
102
}
330
F2
100
AcDbScale
 70
     0
300
1" = 1'-0"
140
1.0
141
12.0
290
     0
  0
SCALE
  5
110
102
{ACAD_REACTORS
330
F2
102
}
330
F2
100
AcDbScale
 70
     0
300
1-1/2" = 1'-0"
140
1.5
141
12.0
290
     0
  0
SCALE
  5
111
102
{ACAD_REACTORS
330
F2
102
}
330
F2
100
AcDbScale
 70
     0
300
3" = 1'-0"
140
3.0
141
12.0
290
     0
  0
SCALE
  5
112
102
{ACAD_REACTORS
330
F2
102
}
330
F2
100
AcDbScale
 70
     0
300
6" = 1'-0"
140
6.0
141
12.0
290
     0
  0
SCALE
  5
113
102
{ACAD_REACTORS
330
F2
102
}
330
F2
100
AcDbScale
 70
     0
300
1'-0" = 1'-0"
140
12.0
141
12.0
290
     0
  0
TABLESTYLE
  5
195
102
{ACAD_REACTORS
330
194
102
}
102
{ACAD_XDICTIONARY
360
33E
102
}
330
194
100
AcDbTableStyle
  3
Standard
 70
     0
 71
     0
 40
1.5
 41
1.5
280
     0
281
     0
  7
STANDARD
140
4.5
170
     2
 62
     0
 63
   257
283
     0
 90
        4
 91
        0
  1

274
    -2
284
     1
 64
     0
275
    -2
285
     1
 65
     0
276
    -2
286
     1
 66
     0
277
    -2
287
     1
 67
     0
278
    -2
288
     1
 68
     0
279
    -2
289
     1
 69
     0
  7
STANDARD
140
6.0
170
     5
 62
     0
 63
   257
283
     0
 90
        4
 91
        0
  1

274
    -2
284
     1
 64
     0
275
    -2
285
     1
 65
     0
276
    -2
286
     1
 66
     0
277
    -2
287
     1
 67
     0
278
    -2
288
     1
 68
     0
279
    -2
289
     1
 69
     0
  7
STANDARD
140
4.5
170
     5
 62
     0
 63
   257
283
     0
 90
        4
 91
        0
  1

274
    -2
284
     1
 64
     0
275
    -2
285
     1
 65
     0
276
    -2
286
     1
 66
     0
277
    -2
287
     1
 67
     0
278
    -2
288
     1
 68
     0
279
    -2
289
     1
 69
     0
  0
VISUALSTYLE
  5
11C
102
{ACAD_REACTORS
330
117
102
}
330
117
100
AcDbVisualStyle
  2
2dWireframe
 70
     4
177
     3
291
     0
 70
    58
 90
        0
176
     1
 90
        2
176
     1
 90
        0
176
     1
 90
        0
176
     1
 40
-0.6
176
     1
 40
-30.0
176
     1
 62
     7
176
     1
 90
        1
176
     1
 90
        4
176
     1
 62
     7
176
     1
 62
   257
176
     1
 90
        1
176
     1
 90
        1
176
     1
 40
1.0
176
     1
 90
        0
176
     1
 62
   257
176
     1
 40
1.0
176
     1
 90
        1
176
     1
 90
        6
176
     1
 90
        2
176
     1
 62
     7
176
     1
 90
        5
176
     1
 90
        0
176
     1
 90
        0
176
     1
290
     0
176
     1
 90
        1
176
     1
 40
0.0
176
     1
 90
        0
176
     1
290
     1
176
     1
290
     1
176
     1
290
     0
176
     1
290
     0
176
     1
290
     0
176
     1
290
     0
176
     1
290
     0
176
     1
290
     0
176
     1
290
     0
176
     1
 90
       50
176
     1
 40
0.0
176
     1
 40
1.0
176
     1
 90
        0
176
     1
 62
    18
420
        0
176
     1
 90
       50
176
     1
 90
        3
176
     1
 62
     5
420
      255
176
     1
290
     0
176
     1
 90
       50
176
     1
 90
       50
176
     1
 90
       50
176
     1
290
     0
176
     1
 90
       50
176
     1
 62
   256
176
     0
 40
1.0
176
     0
 90
        2
176
     1
  1
strokes_ogs.tif
176
     1
290
     0
176
     1
 40
1.0
176
     1
 40
1.0
176
     1
  0
VISUALSTYLE
  5
11E
102
{ACAD_REACTORS
330
117
102
}
330
117
100
AcDbVisualStyle
  2
3D Hidden
 70
     6
177
     3
291
     0
 70
    58
 90
        1
176
     1
 90
        2
176
     1
 90
        2
176
     1
 90
        0
176
     1
 40
-0.6
176
     1
 40
-30.0
176
     1
 62
     7
176
     1
 90
        2
176
     1
 90
        2
176
     1
 62
     7
176
     1
 62
   257
176
     1
 90
        2
176
     1
 90
        1
176
     1
 40
40.0
176
     1
 90
        0
176
     1
 62
   257
176
     1
 40
1.0
176
     1
 90
        1
176
     1
 90
        6
176
     1
 90
        2
176
     1
 62
     7
176
     1
 90
        3
176
     1
 90
        0
176
     1
 90
        0
176
     1
290
     0
176
     1
 90
        1
176
     1
 40
0.0
176
     1
 90
        0
176
     1
290
     0
176
     1
290
     1
176
     1
290
     1
176
     1
290
     0
176
     1
290
     0
176
     1
290
     0
176
     1
290
     0
176
     1
290
     0
176
     1
290
     0
176
     1
 90
       50
176
     1
 40
0.0
176
     1
 40
1.0
176
     1
 90
        0
176
     1
 62
    18
420
        0
176
     1
 90
       50
176
     1
 90
        3
176
     1
 62
     5
420
      255
176
     1
290
     0
176
     1
 90
       50
176
     1
 90
       50
176
     1
 90
       50
176
     1
290
     0
176
     1
 90
       50
176
     1
 62
   256
176
     0
 40
1.0
176
     0
 90
        2
176
     1
  1
strokes_ogs.tif
176
     1
290
     0
176
     1
 40
1.0
176
     1
 40
1.0
176
     1
  0
VISUALSTYLE
  5
11D
102
{ACAD_REACTORS
330
117
102
}
330
117
100
AcDbVisualStyle
  2
3dWireframe
 70
     5
177
     3
291
     0
 70
    58
 90
        0
176
     1
 90
        2
176
     1
 90
        0
176
     1
 90
        0
176
     1
 40
-0.6
176
     1
 40
-30.0
176
     1
 62
     7
176
     1
 90
        1
176
     1
 90
        4
176
     1
 62
     7
176
     1
 62
   257
176
     1
 90
        1
176
     1
 90
        1
176
     1
 40
1.0
176
     1
 90
        0
176
     1
 62
   257
176
     1
 40
1.0
176
     1
 90
        1
176
     1
 90
        6
176
     1
 90
        2
176
     1
 62
     7
176
     1
 90
        5
176
     1
 90
        0
176
     1
 90
        0
176
     1
290
     0
176
     1
 90
        1
176
     1
 40
0.0
176
     1
 90
        0
176
     1
290
     0
176
     1
290
     1
176
     1
290
     1
176
     1
290
     0
176
     1
290
     0
176
     1
290
     0
176
     1
290
     0
176
     1
290
     0
176
     1
290
     0
176
     1
 90
       50
176
     1
 40
0.0
176
     1
 40
1.0
176
     1
 90
        0
176
     1
 62
    18
420
        0
176
     1
 90
       50
176
     1
 90
        3
176
     1
 62
     5
420
      255
176
     1
290
     0
176
     1
 90
       50
176
     1
 90
       50
176
     1
 90
       50
176
     1
290
     0
176
     1
 90
       50
176
     1
 62
   256
176
     0
 40
1.0
176
     0
 90
        2
176
     1
  1
strokes_ogs.tif
176
     1
290
     0
176
     1
 40
1.0
176
     1
 40
1.0
176
     1
  0
VISUALSTYLE
  5
11F
102
{ACAD_REACTORS
330
117
102
}
330
117
100
AcDbVisualStyle
  2
Basic
 70
     7
177
     3
291
     1
 70
    58
 90
        1
176
     1
 90
        0
176
     1
 90
        1
176
     1
 90
        0
176
     1
 40
-0.6
176
     1
 40
-30.0
176
     1
 62
     7
176
     1
 90
        0
176
     1
 90
        4
176
     1
 62
     7
176
     1
 62
   257
176
     1
 90
        1
176
     1
 90
        1
176
     1
 40
1.0
176
     1
 90
        8
176
     1
 62
     7
176
     1
 40
1.0
176
     1
 90
        1
176
     1
 90
        6
176
     1
 90
        2
176
     1
 62
     7
176
     1
 90
        5
176
     1
 90
        0
176
     1
 90
        0
176
     1
290
     0
176
     1
 90
        1
176
     1
 40
0.0
176
     1
 90
        0
176
     1
290
     0
176
     1
290
     1
176
     1
290
     1
176
     1
290
     0
176
     1
290
     0
176
     1
290
     0
176
     1
290
     0
176
     1
290
     0
176
     1
290
     0
176
     1
 90
       50
176
     1
 40
0.0
176
     1
 40
1.0
176
     1
 90
        0
176
     1
 62
    18
420
        0
176
     1
 90
       50
176
     1
 90
        3
176
     1
 62
     5
420
      255
176
     1
290
     0
176
     1
 90
       50
176
     1
 90
       50
176
     1
 90
       50
176
     1
290
     0
176
     1
 90
       50
176
     1
 62
   256
176
     0
 40
1.0
176
     0
 90
        2
176
     1
  1
strokes_ogs.tif
176
     1
290
     0
176
     1
 40
1.0
176
     1
 40
1.0
176
     1
  0
VISUALSTYLE
  5
123
102
{ACAD_REACTORS
330
117
102
}
330
117
100
AcDbVisualStyle
  2
Brighten
 70
    12
177
     3
291
     1
 70
    58
 90
        2
176
     1
 90
        2
176
     1
 90
        0
176
     1
 90
        0
176
     1
 40
-0.6
176
     1
 40
-30.0
176
     1
 62
     7
176
     1
 90
        1
176
     1
 90
        4
176
     1
 62
     7
176
     1
 62
   257
176
     1
 90
        1
176
     1
 90
        1
176
     1
 40
1.0
176
     1
 90
        8
176
     1
 62
     7
176
     1
 40
1.0
176
     1
 90
        1
176
     1
 90
        6
176
     1
 90
        2
176
     1
 62
     7
176
     1
 90
        5
176
     1
 90
        0
176
     1
 90
        0
176
     1
290
     0
176
     1
 90
        1
176
     1
 40
50.0
176
     1
 90
        0
176
     1
290
     0
176
     1
290
     1
176
     1
290
     1
176
     1
290
     0
176
     1
290
     0
176
     1
290
     0
176
     1
290
     0
176
     1
290
     0
176
     1
290
     0
176
     1
 90
       50
176
     1
 40
0.0
176
     1
 40
1.0
176
     1
 90
        0
176
     1
 62
    18
420
        0
176
     1
 90
       50
176
     1
 90
        3
176
     1
 62
     5
420
      255
176
     1
290
     0
176
     1
 90
       50
176
     1
 90
       50
176
     1
 90
       50
176
     1
290
     0
176
     1
 90
       50
176
     1
 62
   256
176
     0
 40
1.0
176
     0
 90
        2
176
     1
  1
strokes_ogs.tif
176
     1
290
     0
176
     1
 40
1.0
176
     1
 40
1.0
176
     1
  0
VISUALSTYLE
  5
127
102
{ACAD_REACTORS
330
117
102
}
330
117
100
AcDbVisualStyle
  2
ColorChange
 70
    16
177
     3
291
     1
 70
    58
 90
        2
176
     1
 90
        2
176
     1
 90
        3
176
     1
 90
        0
176
     1
 40
-0.6
176
     1
 40
-30.0
176
     1
 62
     8
176
     1
 90
        1
176
     1
 90
        4
176
     1
 62
     7
176
     1
 62
   257
176
     1
 90
        1
176
     1
 90
        1
176
     1
 40
1.0
176
     1
 90
        8
176
     1
 62
     8
176
     1
 40
1.0
176
     1
 90
        1
176
     1
 90
        6
176
     1
 90
        2
176
     1
 62
     7
176
     1
 90
        5
176
     1
 90
        0
176
     1
 90
        0
176
     1
290
     0
176
     1
 90
        1
176
     1
 40
0.0
176
     1
 90
        0
176
     1
290
     0
176
     1
290
     1
176
     1
290
     1
176
     1
290
     0
176
     1
290
     0
176
     1
290
     0
176
     1
290
     0
176
     1
290
     0
176
     1
290
     0
176
     1
 90
       50
176
     1
 40
0.0
176
     1
 40
1.0
176
     1
 90
        0
176
     1
 62
    18
420
        0
176
     1
 90
       50
176
     1
 90
        3
176
     1
 62
     5
420
      255
176
     1
290
     0
176
     1
 90
       50
176
     1
 90
       50
176
     1
 90
       50
176
     1
290
     0
176
     1
 90
       50
176
     1
 62
   256
176
     0
 40
1.0
176
     0
 90
        2
176
     1
  1
strokes_ogs.tif
176
     1
290
     0
176
     1
 40
1.0
176
     1
 40
1.0
176
     1
  0
VISUALSTYLE
  5
121
102
{ACAD_REACTORS
330
117
102
}
330
117
100
AcDbVisualStyle
  2
Conceptual
 70
     9
177
     3
291
     0
 70
    58
 90
        3
176
     1
 90
        2
176
     1
 90
        0
176
     1
 90
        0
176
     1
 40
-0.6
176
     1
 40
-30.0
176
     1
 62
     7
176
     1
 90
        2
176
     1
 90
        2
176
     1
 62
     7
176
     1
 62
   257
176
     1
 90
        1
176
     1
 90
        1
176
     1
 40
40.0
176
     1
 90
        8
176
     1
 62
     7
176
     1
 40
1.0
176
     1
 90
        1
176
     1
 90
        6
176
     1
 90
        2
176
     1
 62
     7
176
     1
 90
        3
176
     1
 90
        0
176
     1
 90
        0
176
     1
290
     0
176
     1
 90
        1
176
     1
 40
0.0
176
     1
 90
        0
176
     1
290
     0
176
     1
290
     1
176
     1
290
     1
176
     1
290
     0
176
     1
290
     0
176
     1
290
     0
176
     1
290
     0
176
     1
290
     0
176
     1
290
     0
176
     1
 90
       50
176
     1
 40
0.0
176
     1
 40
1.0
176
     1
 90
        0
176
     1
 62
    18
420
        0
176
     1
 90
       50
176
     1
 90
        3
176
     1
 62
     5
420
      255
176
     1
290
     0
176
     1
 90
       50
176
     1
 90
       50
176
     1
 90
       50
176
     1
290
     0
176
     1
 90
       50
176
     1
 62
   256
176
     0
 40
1.0
176
     0
 90
        2
176
     1
  1
strokes_ogs.tif
176
     1
290
     0
176
     1
 40
1.0
176
     1
 40
1.0
176
     1
  0
VISUALSTYLE
  5
122
102
{ACAD_REACTORS
330
117
102
}
330
117
100
AcDbVisualStyle
  2
Dim
 70
    11
177
     3
291
     1
 70
    58
 90
        2
176
     1
 90
        2
176
     1
 90
        0
176
     1
 90
        0
176
     1
 40
-0.6
176
     1
 40
-30.0
176
     1
 62
     7
176
     1
 90
        1
176
     1
 90
        4
176
     1
 62
     7
176
     1
 62
   257
176
     1
 90
        1
176
     1
 90
        1
176
     1
 40
1.0
176
     1
 90
        8
176
     1
 62
     7
176
     1
 40
1.0
176
     1
 90
        1
176
     1
 90
        6
176
     1
 90
        2
176
     1
 62
     7
176
     1
 90
        5
176
     1
 90
        0
176
     1
 90
        0
176
     1
290
     0
176
     1
 90
        1
176
     1
 40
-50.0
176
     1
 90
        0
176
     1
290
     0
176
     1
290
     1
176
     1
290
     1
176
     1
290
     0
176
     1
290
     0
176
     1
290
     0
176
     1
290
     0
176
     1
290
     0
176
     1
290
     0
176
     1
 90
       50
176
     1
 40
0.0
176
     1
 40
1.0
176
     1
 90
        0
176
     1
 62
    18
420
        0
176
     1
 90
       50
176
     1
 90
        3
176
     1
 62
     5
420
      255
176
     1
290
     0
176
     1
 90
       50
176
     1
 90
       50
176
     1
 90
       50
176
     1
290
     0
176
     1
 90
       50
176
     1
 62
   256
176
     0
 40
1.0
176
     0
 90
        2
176
     1
  1
strokes_ogs.tif
176
     1
290
     0
176
     1
 40
1.0
176
     1
 40
1.0
176
     1
  0
VISUALSTYLE
  5
18E
102
{ACAD_REACTORS
330
117
102
}
330
117
100
AcDbVisualStyle
  2
EdgeColorOff
 70
    22
177
     3
291
     1
 70
    58
 90
        2
176
     0
 90
        2
176
     0
 90
        0
176
     0
 90
        0
176
     0
 40
0.6
176
     0
 40
30.0
176
     0
 62
     7
420
 16777215
176
     0
 90
        1
176
     0
 90
        4
176
     0
 62
     7
176
     0
 62
   257
176
     0
 90
        1
176
     0
 90
        1
176
     0
 40
1.0
176
     0
 90
        8
176
     2
 62
     7
176
     0
 40
1.0
176
     0
 90
        1
176
     0
 90
        6
176
     0
 90
        2
176
     0
 62
     7
176
     0
 90
        5
176
     0
 90
        0
176
     0
 90
        0
176
     0
290
     0
176
     0
 90
        1
176
     0
 40
0.0
176
     0
 90
        0
176
     0
290
     0
176
     0
290
     1
176
     0
290
     1
176
     0
290
     0
176
     0
290
     0
176
     0
290
     0
176
     0
290
     0
176
     0
290
     0
176
     0
290
     0
176
     0
 90
       50
176
     0
 40
0.0
176
     0
 40
1.0
176
     0
 90
        0
176
     0
 62
    18
420
        0
176
     0
 90
       50
176
     0
 90
        3
176
     0
 62
     5
420
      255
176
     0
290
     0
176
     0
 90
       50
176
     0
 90
       50
176
     0
 90
       50
176
     0
290
     0
176
     0
 90
       50
176
     0
 62
   256
176
     0
 40
1.0
176
     0
 90
        2
176
     0
  1
strokes_ogs.tif
176
     0
290
     0
176
     0
 40
1.0
176
     0
 40
1.0
176
     0
  0
VISUALSTYLE
  5
126
102
{ACAD_REACTORS
330
117
102
}
330
117
100
AcDbVisualStyle
  2
Facepattern
 70
    15
177
     3
291
     1
 70
    58
 90
        2
176
     1
 90
        2
176
     1
 90
        0
176
     1
 90
        0
176
     1
 40
-0.6
176
     1
 40
-30.0
176
     1
 62
     7
176
     1
 90
        1
176
     1
 90
        4
176
     1
 62
     7
176
     1
 62
   257
176
     1
 90
        1
176
     1
 90
        1
176
     1
 40
1.0
176
     1
 90
        8
176
     1
 62
     7
176
     1
 40
1.0
176
     1
 90
        1
176
     1
 90
        6
176
     1
 90
        2
176
     1
 62
     7
176
     1
 90
        5
176
     1
 90
        0
176
     1
 90
        0
176
     1
290
     0
176
     1
 90
        1
176
     1
 40
0.0
176
     1
 90
        0
176
     1
290
     0
176
     1
290
     1
176
     1
290
     1
176
     1
290
     0
176
     1
290
     0
176
     1
290
     0
176
     1
290
     0
176
     1
290
     0
176
     1
290
     0
176
     1
 90
       50
176
     1
 40
0.0
176
     1
 40
1.0
176
     1
 90
        0
176
     1
 62
    18
420
        0
176
     1
 90
       50
176
     1
 90
        3
176
     1
 62
     5
420
      255
176
     1
290
     0
176
     1
 90
       50
176
     1
 90
       50
176
     1
 90
       50
176
     1
290
     0
176
     1
 90
       50
176
     1
 62
   256
176
     0
 40
1.0
176
     0
 90
        2
176
     1
  1
strokes_ogs.tif
176
     1
290
     0
176
     1
 40
1.0
176
     1
 40
1.0
176
     1
  0
VISUALSTYLE
  5
118
102
{ACAD_REACTORS
330
117
102
}
330
117
100
AcDbVisualStyle
  2
Flat
 70
     0
177
     3
291
     1
 70
    58
 90
        2
176
     1
 90
        1
176
     1
 90
        1
176
     1
 90
        2
176
     1
 40
-0.6
176
     1
 40
30.0
176
     1
 62
     7
176
     1
 90
        0
176
     1
 90
        4
176
     1
 62
     7
176
     1
 62
   257
176
     1
 90
        1
176
     1
 90
        1
176
     1
 40
1.0
176
     1
 90
        8
176
     1
 62
     7
176
     1
 40
1.0
176
     1
 90
        1
176
     1
 90
        6
176
     1
 90
        2
176
     1
 62
     7
176
     1
 90
        5
176
     1
 90
        0
176
     1
 90
        0
176
     1
290
     0
176
     1
 90
       13
176
     1
 40
0.0
176
     1
 90
        0
176
     1
290
     0
176
     1
290
     1
176
     1
290
     1
176
     1
290
     0
176
     1
290
     0
176
     1
290
     0
176
     1
290
     0
176
     1
290
     0
176
     1
290
     0
176
     1
 90
       50
176
     1
 40
0.0
176
     1
 40
1.0
176
     1
 90
        0
176
     1
 62
    18
420
        0
176
     1
 90
       50
176
     1
 90
        3
176
     1
 62
     5
420
      255
176
     1
290
     0
176
     1
 90
       50
176
     1
 90
       50
176
     1
 90
       50
176
     1
290
     0
176
     1
 90
       50
176
     1
 62
   256
176
     0
 40
1.0
176
     0
 90
        2
176
     1
  1
strokes_ogs.tif
176
     1
290
     0
176
     1
 40
1.0
176
     1
 40
1.0
176
     1
  0
VISUALSTYLE
  5
119
102
{ACAD_REACTORS
330
117
102
}
330
117
100
AcDbVisualStyle
  2
FlatWithEdges
 70
     1
177
     3
291
     1
 70
    58
 90
        2
176
     1
 90
        1
176
     1
 90
        1
176
     1
 90
        2
176
     1
 40
-0.6
176
     1
 40
30.0
176
     1
 62
     7
176
     1
 90
        1
176
     1
 90
        4
176
     1
 62
     7
176
     1
 62
   257
176
     1
 90
        1
176
     1
 90
        1
176
     1
 40
1.0
176
     1
 90
        0
176
     1
 62
   257
176
     1
 40
1.0
176
     1
 90
        1
176
     1
 90
        6
176
     1
 90
        2
176
     1
 62
     7
176
     1
 90
        5
176
     1
 90
        0
176
     1
 90
        0
176
     1
290
     0
176
     1
 90
       13
176
     1
 40
0.0
176
     1
 90
        0
176
     1
290
     0
176
     1
290
     1
176
     1
290
     1
176
     1
290
     0
176
     1
290
     0
176
     1
290
     0
176
     1
290
     0
176
     1
290
     0
176
     1
290
     0
176
     1
 90
       50
176
     1
 40
0.0
176
     1
 40
1.0
176
     1
 90
        0
176
     1
 62
    18
420
        0
176
     1
 90
       50
176
     1
 90
        3
176
     1
 62
     5
420
      255
176
     1
290
     0
176
     1
 90
       50
176
     1
 90
       50
176
     1
 90
       50
176
     1
290
     0
176
     1
 90
       50
176
     1
 62
   256
176
     0
 40
1.0
176
     0
 90
        2
176
     1
  1
strokes_ogs.tif
176
     1
290
     0
176
     1
 40
1.0
176
     1
 40
1.0
176
     1
  0
VISUALSTYLE
  5
11A
102
{ACAD_REACTORS
330
117
102
}
330
117
100
AcDbVisualStyle
  2
Gouraud
 70
     2
177
     3
291
     1
 70
    58
 90
        2
176
     1
 90
        2
176
     1
 90
        1
176
     1
 90
        2
176
     1
 40
-0.6
176
     1
 40
30.0
176
     1
 62
     7
176
     1
 90
        0
176
     1
 90
        4
176
     1
 62
     7
176
     1
 62
   257
176
     1
 90
        1
176
     1
 90
        1
176
     1
 40
1.0
176
     1
 90
        0
176
     1
 62
     7
176
     1
 40
1.0
176
     1
 90
        1
176
     1
 90
        6
176
     1
 90
        2
176
     1
 62
     7
176
     1
 90
        5
176
     1
 90
        0
176
     1
 90
        0
176
     1
290
     0
176
     1
 90
       13
176
     1
 40
0.0
176
     1
 90
        0
176
     1
290
     0
176
     1
290
     1
176
     1
290
     1
176
     1
290
     0
176
     1
290
     0
176
     1
290
     0
176
     1
290
     0
176
     1
290
     0
176
     1
290
     0
176
     1
 90
       50
176
     1
 40
0.0
176
     1
 40
1.0
176
     1
 90
        0
176
     1
 62
    18
420
        0
176
     1
 90
       50
176
     1
 90
        3
176
     1
 62
     5
420
      255
176
     1
290
     0
176
     1
 90
       50
176
     1
 90
       50
176
     1
 90
       50
176
     1
290
     0
176
     1
 90
       50
176
     1
 62
   256
176
     0
 40
1.0
176
     0
 90
        2
176
     1
  1
strokes_ogs.tif
176
     1
290
     0
176
     1
 40
1.0
176
     1
 40
1.0
176
     1
  0
VISUALSTYLE
  5
11B
102
{ACAD_REACTORS
330
117
102
}
330
117
100
AcDbVisualStyle
  2
GouraudWithEdges
 70
     3
177
     3
291
     1
 70
    58
 90
        2
176
     1
 90
        2
176
     1
 90
        1
176
     1
 90
        2
176
     1
 40
-0.6
176
     1
 40
30.0
176
     1
 62
     7
176
     1
 90
        1
176
     1
 90
        4
176
     1
 62
     7
176
     1
 62
   257
176
     1
 90
        1
176
     1
 90
        1
176
     1
 40
1.0
176
     1
 90
        0
176
     1
 62
   257
176
     1
 40
1.0
176
     1
 90
        1
176
     1
 90
        6
176
     1
 90
        2
176
     1
 62
     7
176
     1
 90
        5
176
     1
 90
        0
176
     1
 90
        0
176
     1
290
     0
176
     1
 90
       13
176
     1
 40
0.0
176
     1
 90
        0
176
     1
290
     0
176
     1
290
     1
176
     1
290
     1
176
     1
290
     0
176
     1
290
     0
176
     1
290
     0
176
     1
290
     0
176
     1
290
     0
176
     1
290
     0
176
     1
 90
       50
176
     1
 40
0.0
176
     1
 40
1.0
176
     1
 90
        0
176
     1
 62
    18
420
        0
176
     1
 90
       50
176
     1
 90
        3
176
     1
 62
     5
420
      255
176
     1
290
     0
176
     1
 90
       50
176
     1
 90
       50
176
     1
 90
       50
176
     1
290
     0
176
     1
 90
       50
176
     1
 62
   256
176
     0
 40
1.0
176
     0
 90
        2
176
     1
  1
strokes_ogs.tif
176
     1
290
     0
176
     1
 40
1.0
176
     1
 40
1.0
176
     1
  0
VISUALSTYLE
  5
18B
102
{ACAD_REACTORS
330
117
102
}
330
117
100
AcDbVisualStyle
  2
Hidden
 70
     6
177
     3
291
     0
 70
    58
 90
        1
176
     1
 90
        2
176
     1
 90
        2
176
     1
 90
        0
176
     1
 40
0.6
176
     1
 40
30.0
176
     1
 62
     7
420
 16777215
176
     1
 90
        2
176
     1
 90
        2
176
     1
 62
     7
176
     1
 62
   257
176
     1
 90
        2
176
     1
 90
        1
176
     1
 40
40.0
176
     1
 90
        0
176
     1
 62
   257
176
     1
 40
1.0
176
     1
 90
        1
176
     1
 90
        6
176
     1
 90
        2
176
     1
 62
     7
176
     1
 90
        3
176
     1
 90
        0
176
     1
 90
        0
176
     1
290
     0
176
     1
 90
        1
176
     1
 40
0.0
176
     1
 90
        0
176
     1
290
     0
176
     1
290
     1
176
     1
290
     1
176
     1
290
     0
176
     1
290
     0
176
     1
290
     0
176
     1
290
     0
176
     1
290
     0
176
     1
290
     0
176
     1
 90
       50
176
     1
 40
0.0
176
     1
 40
1.0
176
     1
 90
        0
176
     1
 62
    18
420
        0
176
     1
 90
       50
176
     1
 90
        3
176
     1
 62
     5
420
      255
176
     1
290
     0
176
     1
 90
       50
176
     1
 90
       50
176
     1
 90
       50
176
     1
290
     0
176
     1
 90
       50
176
     1
 62
   256
176
     0
 40
1.0
176
     0
 90
        2
176
     1
  1
strokes_ogs.tif
176
     1
290
     0
176
     1
 40
1.0
176
     1
 40
1.0
176
     1
  0
VISUALSTYLE
  5
18C
102
{ACAD_REACTORS
330
117
102
}
330
117
100
AcDbVisualStyle
  2
JitterOff
 70
    20
177
     3
291
     1
 70
    58
 90
        2
176
     0
 90
        2
176
     0
 90
        0
176
     0
 90
        0
176
     0
 40
0.6
176
     0
 40
30.0
176
     0
 62
     7
420
 16777215
176
     0
 90
        1
176
     0
 90
        4
176
     0
 62
     7
176
     0
 62
   257
176
     0
 90
        1
176
     0
 90
        1
176
     0
 40
1.0
176
     0
 90
       10
176
     2
 62
     7
176
     0
 40
1.0
176
     0
 90
        1
176
     0
 90
        6
176
     0
 90
        2
176
     0
 62
     7
176
     0
 90
        5
176
     0
 90
        0
176
     0
 90
        0
176
     0
290
     0
176
     0
 90
        1
176
     0
 40
0.0
176
     0
 90
        0
176
     0
290
     0
176
     0
290
     1
176
     0
290
     1
176
     0
290
     0
176
     0
290
     0
176
     0
290
     0
176
     0
290
     0
176
     0
290
     0
176
     0
290
     0
176
     0
 90
       50
176
     0
 40
0.0
176
     0
 40
1.0
176
     0
 90
        0
176
     0
 62
    18
420
        0
176
     0
 90
       50
176
     0
 90
        3
176
     0
 62
     5
420
      255
176
     0
290
     0
176
     0
 90
       50
176
     0
 90
       50
176
     0
 90
       50
176
     0
290
     0
176
     0
 90
       50
176
     0
 62
   256
176
     0
 40
1.0
176
     0
 90
        2
176
     0
  1
strokes_ogs.tif
176
     0
290
     0
176
     0
 40
1.0
176
     0
 40
1.0
176
     0
  0
VISUALSTYLE
  5
125
102
{ACAD_REACTORS
330
117
102
}
330
117
100
AcDbVisualStyle
  2
Linepattern
 70
    14
177
     3
291
     1
 70
    58
 90
        2
176
     1
 90
        2
176
     1
 90
        0
176
     1
 90
        0
176
     1
 40
-0.6
176
     1
 40
-30.0
176
     1
 62
     7
176
     1
 90
        1
176
     1
 90
        4
176
     1
 62
     7
176
     1
 62
   257
176
     1
 90
        7
176
     1
 90
        7
176
     1
 40
1.0
176
     1
 90
        8
176
     1
 62
     7
176
     1
 40
1.0
176
     1
 90
        1
176
     1
 90
        6
176
     1
 90
        2
176
     1
 62
     7
176
     1
 90
        5
176
     1
 90
        0
176
     1
 90
        0
176
     1
290
     0
176
     1
 90
        1
176
     1
 40
0.0
176
     1
 90
        0
176
     1
290
     0
176
     1
290
     1
176
     1
290
     1
176
     1
290
     0
176
     1
290
     0
176
     1
290
     0
176
     1
290
     0
176
     1
290
     0
176
     1
290
     0
176
     1
 90
       50
176
     1
 40
0.0
176
     1
 40
1.0
176
     1
 90
        0
176
     1
 62
    18
420
        0
176
     1
 90
       50
176
     1
 90
        3
176
     1
 62
     5
420
      255
176
     1
290
     0
176
     1
 90
       50
176
     1
 90
       50
176
     1
 90
       50
176
     1
290
     0
176
     1
 90
       50
176
     1
 62
   256
176
     0
 40
1.0
176
     0
 90
        2
176
     1
  1
strokes_ogs.tif
176
     1
290
     0
176
     1
 40
1.0
176
     1
 40
1.0
176
     1
  0
VISUALSTYLE
  5
18D
102
{ACAD_REACTORS
330
117
102
}
330
117
100
AcDbVisualStyle
  2
OverhangOff
 70
    21
177
     3
291
     1
 70
    58
 90
        2
176
     0
 90
        2
176
     0
 90
        0
176
     0
 90
        0
176
     0
 40
0.6
176
     0
 40
30.0
176
     0
 62
     7
420
 16777215
176
     0
 90
        1
176
     0
 90
        4
176
     0
 62
     7
176
     0
 62
   257
176
     0
 90
        1
176
     0
 90
        1
176
     0
 40
1.0
176
     0
 90
        9
176
     2
 62
     7
176
     0
 40
1.0
176
     0
 90
        1
176
     0
 90
        6
176
     0
 90
        2
176
     0
 62
     7
176
     0
 90
        5
176
     0
 90
        0
176
     0
 90
        0
176
     0
290
     0
176
     0
 90
        1
176
     0
 40
0.0
176
     0
 90
        0
176
     0
290
     0
176
     0
290
     1
176
     0
290
     1
176
     0
290
     0
176
     0
290
     0
176
     0
290
     0
176
     0
290
     0
176
     0
290
     0
176
     0
290
     0
176
     0
 90
       50
176
     0
 40
0.0
176
     0
 40
1.0
176
     0
 90
        0
176
     0
 62
    18
420
        0
176
     0
 90
       50
176
     0
 90
        3
176
     0
 62
     5
420
      255
176
     0
290
     0
176
     0
 90
       50
176
     0
 90
       50
176
     0
 90
       50
176
     0
290
     0
176
     0
 90
       50
176
     0
 62
   256
176
     0
 40
1.0
176
     0
 90
        2
176
     0
  1
strokes_ogs.tif
176
     0
290
     0
176
     0
 40
1.0
176
     0
 40
1.0
176
     0
  0
VISUALSTYLE
  5
120
102
{ACAD_REACTORS
330
117
102
}
330
117
100
AcDbVisualStyle
  2
Realistic
 70
     8
177
     3
291
     0
 70
    58
 90
        2
176
     1
 90
        2
176
     1
 90
        0
176
     1
 90
        0
176
     1
 40
-0.6
176
     1
 40
-30.0
176
     1
 62
     7
176
     1
 90
        1
176
     1
 90
        0
176
     1
 62
     7
176
     1
 62
   257
176
     1
 90
        1
176
     1
 90
        1
176
     1
 40
1.0
176
     1
 90
        8
176
     1
 62
     8
176
     1
 40
1.0
176
     1
 90
        1
176
     1
 90
        6
176
     1
 90
        2
176
     1
 62
     7
176
     1
 90
        5
176
     1
 90
        0
176
     1
 90
        0
176
     1
290
     0
176
     1
 90
       13
176
     1
 40
0.0
176
     1
 90
        0
176
     1
290
     0
176
     1
290
     1
176
     1
290
     1
176
     1
290
     0
176
     1
290
     0
176
     1
290
     0
176
     1
290
     0
176
     1
290
     0
176
     1
290
     0
176
     1
 90
       50
176
     1
 40
0.0
176
     1
 40
1.0
176
     1
 90
        0
176
     1
 62
    18
420
        0
176
     1
 90
       50
176
     1
 90
        3
176
     1
 62
     5
420
      255
176
     1
290
     0
176
     1
 90
       50
176
     1
 90
       50
176
     1
 90
       50
176
     1
290
     0
176
     1
 90
       50
176
     1
 62
   256
176
     0
 40
1.0
176
     0
 90
        2
176
     1
  1
strokes_ogs.tif
176
     1
290
     0
176
     1
 40
1.0
176
     1
 40
1.0
176
     1
  0
VISUALSTYLE
  5
193
102
{ACAD_REACTORS
330
117
102
}
330
117
100
AcDbVisualStyle
  2
Shaded
 70
    27
177
     3
291
     0
 70
    58
 90
        2
176
     1
 90
        2
176
     1
 90
        1
176
     1
 90
        2
176
     1
 40
0.6
176
     1
 40
30.0
176
     1
 62
     7
420
 16777215
176
     1
 90
        0
176
     1
 90
        4
176
     1
 62
     7
176
     1
 62
   257
176
     1
 90
        1
176
     1
 90
        1
176
     1
 40
1.0
176
     1
 90
        8
176
     1
 62
   257
176
     1
 40
1.0
176
     1
 90
        1
176
     1
 90
        6
176
     1
 90
        2
176
     1
 62
     8
420
  7895160
176
     1
 90
        3
176
     1
 90
        0
176
     1
 90
        0
176
     1
290
     0
176
     1
 90
        5
176
     1
 40
0.0
176
     1
 90
        0
176
     1
290
     0
176
     1
290
     1
176
     1
290
     1
176
     1
290
     0
176
     1
290
     0
176
     1
290
     0
176
     1
290
     0
176
     1
290
     0
176
     1
290
     0
176
     1
 90
       50
176
     1
 40
0.0
176
     1
 40
1.0
176
     1
 90
        0
176
     1
 62
    18
420
        0
176
     1
 90
       50
176
     1
 90
        3
176
     1
 62
     5
420
      255
176
     1
290
     0
176
     1
 90
       50
176
     1
 90
       50
176
     1
 90
       50
176
     1
290
     0
176
     1
 90
       50
176
     1
 62
   256
176
     0
 40
1.0
176
     0
 90
        2
176
     1
  1
strokes_ogs.tif
176
     1
290
     0
176
     1
 40
1.0
176
     1
 40
1.0
176
     1
  0
VISUALSTYLE
  5
192
102
{ACAD_REACTORS
330
117
102
}
330
117
100
AcDbVisualStyle
  2
Shaded with edges
 70
    26
177
     3
291
     0
 70
    58
 90
        2
176
     1
 90
        2
176
     1
 90
        1
176
     1
 90
        2
176
     1
 40
0.6
176
     1
 40
30.0
176
     1
 62
     7
420
 16777215
176
     1
 90
        1
176
     1
 90
       10
176
     1
 62
     7
176
     1
 62
   257
176
     1
 90
        2
176
     1
 90
        1
176
     1
 40
1.0
176
     1
 90
        8
176
     1
 62
   257
176
     1
 40
1.0
176
     1
 90
        1
176
     1
 90
        6
176
     1
 90
        2
176
     1
 62
     7
176
     1
 90
        3
176
     1
 90
        0
176
     1
 90
        0
176
     1
290
     0
176
     1
 90
        5
176
     1
 40
0.0
176
     1
 90
        0
176
     1
290
     0
176
     1
290
     1
176
     1
290
     1
176
     1
290
     0
176
     1
290
     0
176
     1
290
     0
176
     1
290
     0
176
     1
290
     0
176
     1
290
     0
176
     1
 90
       50
176
     1
 40
0.0
176
     1
 40
1.0
176
     1
 90
        0
176
     1
 62
    18
420
        0
176
     1
 90
       50
176
     1
 90
        3
176
     1
 62
     5
420
      255
176
     1
290
     0
176
     1
 90
       50
176
     1
 90
       50
176
     1
 90
       50
176
     1
290
     0
176
     1
 90
       50
176
     1
 62
   256
176
     0
 40
1.0
176
     0
 90
        2
176
     1
  1
strokes_ogs.tif
176
     1
290
     0
176
     1
 40
1.0
176
     1
 40
1.0
176
     1
  0
VISUALSTYLE
  5
18F
102
{ACAD_REACTORS
330
117
102
}
330
117
100
AcDbVisualStyle
  2
Shades of Gray
 70
    23
177
     3
291
     0
 70
    58
 90
        2
176
     1
 90
        2
176
     1
 90
        3
176
     1
 90
        0
176
     1
 40
0.6
176
     1
 40
30.0
176
     1
 62
     7
420
 16777215
176
     1
 90
        2
176
     1
 90
        2
176
     1
 62
     7
176
     1
 62
     7
176
     1
 90
        1
176
     1
 90
        1
176
     1
 40
40.0
176
     1
 90
        8
176
     1
 62
     7
176
     1
 40
1.0
176
     1
 90
        1
176
     1
 90
        6
176
     1
 90
        2
176
     1
 62
     7
176
     1
 90
        3
176
     1
 90
        0
176
     1
 90
        0
176
     1
290
     0
176
     1
 90
        1
176
     1
 40
0.0
176
     1
 90
        0
176
     1
290
     0
176
     1
290
     1
176
     1
290
     1
176
     1
290
     0
176
     1
290
     0
176
     1
290
     0
176
     1
290
     0
176
     1
290
     0
176
     1
290
     0
176
     1
 90
       50
176
     1
 40
0.0
176
     1
 40
1.0
176
     1
 90
        0
176
     1
 62
    18
420
        0
176
     1
 90
       50
176
     1
 90
        3
176
     1
 62
     5
420
      255
176
     1
290
     0
176
     1
 90
       50
176
     1
 90
       50
176
     1
 90
       50
176
     1
290
     0
176
     1
 90
       50
176
     1
 62
   256
176
     0
 40
1.0
176
     0
 90
        2
176
     1
  1
strokes_ogs.tif
176
     1
290
     0
176
     1
 40
1.0
176
     1
 40
1.0
176
     1
  0
VISUALSTYLE
  5
190
102
{ACAD_REACTORS
330
117
102
}
330
117
100
AcDbVisualStyle
  2
Sketchy
 70
    24
177
     3
291
     0
 70
    58
 90
        1
176
     1
 90
        2
176
     1
 90
        2
176
     1
 90
        0
176
     1
 40
0.6
176
     1
 40
30.0
176
     1
 62
     7
420
 16777215
176
     1
 90
        2
176
     1
 90
        2
176
     1
 62
     7
176
     1
 62
     7
176
     1
 90
        1
176
     1
 90
        1
176
     1
 40
40.0
176
     1
 90
       11
176
     1
 62
     7
176
     1
 40
1.0
176
     1
 90
        1
176
     1
 90
        6
176
     1
 90
        2
176
     1
 62
     7
176
     1
 90
        6
176
     1
 90
        0
176
     1
 90
        0
176
     1
290
     0
176
     1
 90
        1
176
     1
 40
0.0
176
     1
 90
        0
176
     1
290
     0
176
     1
290
     1
176
     1
290
     1
176
     1
290
     0
176
     1
290
     0
176
     1
290
     0
176
     1
290
     0
176
     1
290
     0
176
     1
290
     0
176
     1
 90
       50
176
     1
 40
0.0
176
     1
 40
1.0
176
     1
 90
        0
176
     1
 62
    18
420
        0
176
     1
 90
       50
176
     1
 90
        3
176
     1
 62
     5
420
      255
176
     1
290
     0
176
     1
 90
       50
176
     1
 90
       50
176
     1
 90
       50
176
     1
290
     0
176
     1
 90
       50
176
     1
 62
   256
176
     0
 40
1.0
176
     0
 90
        2
176
     1
  1
strokes_ogs.tif
176
     1
290
     0
176
     1
 40
1.0
176
     1
 40
1.0
176
     1
  0
VISUALSTYLE
  5
124
102
{ACAD_REACTORS
330
117
102
}
330
117
100
AcDbVisualStyle
  2
Thicken
 70
    13
177
     3
291
     1
 70
    58
 90
        2
176
     1
 90
        2
176
     1
 90
        0
176
     1
 90
        0
176
     1
 40
-0.6
176
     1
 40
-30.0
176
     1
 62
     7
176
     1
 90
        1
176
     1
 90
        4
176
     1
 62
     7
176
     1
 62
   257
176
     1
 90
        1
176
     1
 90
        1
176
     1
 40
1.0
176
     1
 90
       12
176
     1
 62
     7
176
     1
 40
1.0
176
     1
 90
        1
176
     1
 90
        6
176
     1
 90
        2
176
     1
 62
     7
176
     1
 90
        5
176
     1
 90
        0
176
     1
 90
        0
176
     1
290
     0
176
     1
 90
        1
176
     1
 40
0.0
176
     1
 90
        0
176
     1
290
     0
176
     1
290
     1
176
     1
290
     1
176
     1
290
     0
176
     1
290
     0
176
     1
290
     0
176
     1
290
     0
176
     1
290
     0
176
     1
290
     0
176
     1
 90
       50
176
     1
 40
0.0
176
     1
 40
1.0
176
     1
 90
        0
176
     1
 62
    18
420
        0
176
     1
 90
       50
176
     1
 90
        3
176
     1
 62
     5
420
      255
176
     1
290
     0
176
     1
 90
       50
176
     1
 90
       50
176
     1
 90
       50
176
     1
290
     0
176
     1
 90
       50
176
     1
 62
   256
176
     0
 40
1.0
176
     0
 90
        2
176
     1
  1
strokes_ogs.tif
176
     1
290
     0
176
     1
 40
1.0
176
     1
 40
1.0
176
     1
  0
VISUALSTYLE
  5
18A
102
{ACAD_REACTORS
330
117
102
}
330
117
100
AcDbVisualStyle
  2
Wireframe
 70
     5
177
     3
291
     0
 70
    58
 90
        0
176
     1
 90
        2
176
     1
 90
        0
176
     1
 90
        0
176
     1
 40
0.6
176
     1
 40
30.0
176
     1
 62
     7
420
 16777215
176
     1
 90
        1
176
     1
 90
        4
176
     1
 62
     7
176
     1
 62
   257
176
     1
 90
        1
176
     1
 90
        1
176
     1
 40
1.0
176
     1
 90
        0
176
     1
 62
   257
176
     1
 40
1.0
176
     1
 90
        1
176
     1
 90
        6
176
     1
 90
        2
176
     1
 62
     7
176
     1
 90
        3
176
     1
 90
        0
176
     1
 90
        0
176
     1
290
     0
176
     1
 90
        1
176
     1
 40
0.0
176
     1
 90
        0
176
     1
290
     0
176
     1
290
     1
176
     1
290
     1
176
     1
290
     0
176
     1
290
     0
176
     1
290
     0
176
     1
290
     0
176
     1
290
     0
176
     1
290
     0
176
     1
 90
       50
176
     1
 40
0.0
176
     1
 40
1.0
176
     1
 90
        0
176
     1
 62
    18
420
        0
176
     1
 90
       50
176
     1
 90
        3
176
     1
 62
     5
420
      255
176
     1
290
     0
176
     1
 90
       50
176
     1
 90
       50
176
     1
 90
       50
176
     1
290
     0
176
     1
 90
       50
176
     1
 62
   256
176
     0
 40
1.0
176
     0
 90
        2
176
     1
  1
strokes_ogs.tif
176
     1
290
     0
176
     1
 40
1.0
176
     1
 40
1.0
176
     1
  0
VISUALSTYLE
  5
191
102
{ACAD_REACTORS
330
117
102
}
330
117
100
AcDbVisualStyle
  2
X-Ray
 70
    25
177
     3
291
     0
 70
    58
 90
        2
176
     1
 90
        2
176
     1
 90
        1
176
     1
 90
        1
176
     1
 40
0.5
176
     1
 40
30.0
176
     1
 62
     7
420
 16777215
176
     1
 90
        1
176
     1
 90
        0
176
     1
 62
     7
176
     1
 62
   257
176
     1
 90
        1
176
     1
 90
        1
176
     1
 40
1.0
176
     1
 90
        8
176
     1
 62
     7
176
     1
 40
1.0
176
     1
 90
        1
176
     1
 90
        6
176
     1
 90
        2
176
     1
 62
     7
176
     1
 90
        3
176
     1
 90
        0
176
     1
 90
        0
176
     1
290
     0
176
     1
 90
       13
176
     1
 40
0.0
176
     1
 90
        0
176
     1
290
     0
176
     1
290
     1
176
     1
290
     1
176
     1
290
     0
176
     1
290
     0
176
     1
290
     0
176
     1
290
     0
176
     1
290
     0
176
     1
290
     0
176
     1
 90
       50
176
     1
 40
0.0
176
     1
 40
1.0
176
     1
 90
        0
176
     1
 62
    18
420
        0
176
     1
 90
       50
176
     1
 90
        3
176
     1
 62
     5
420
      255
176
     1
290
     0
176
     1
 90
       50
176
     1
 90
       50
176
     1
 90
       50
176
     1
290
     0
176
     1
 90
       50
176
     1
 62
   256
176
     0
 40
1.0
176
     0
 90
        2
176
     1
  1
strokes_ogs.tif
176
     1
290
     0
176
     1
 40
1.0
176
     1
 40
1.0
176
     1
  0
DICTIONARYVAR
  5
1BA
102
{ACAD_REACTORS
330
143
102
}
330
143
100
DictionaryVariables
280
     0
  1
1:1
  0
DICTIONARYVAR
  5
1BC
102
{ACAD_REACTORS
330
143
102
}
330
143
100
DictionaryVariables
280
     0
  1
Standard
  0
DICTIONARYVAR
  5
1BB
102
{ACAD_REACTORS
330
143
102
}
330
143
100
DictionaryVariables
280
     0
  1
Standard
  0
DICTIONARYVAR
  5
147
102
{ACAD_REACTORS
330
143
102
}
330
143
100
DictionaryVariables
280
     0
  1
2
  0
DICTIONARYVAR
  5
148
102
{ACAD_REACTORS
330
143
102
}
330
143
100
DictionaryVariables
280
     0
  1
1
  0
DICTIONARYVAR
  5
146
102
{ACAD_REACTORS
330
143
102
}
330
143
100
DictionaryVariables
280
     0
  1
0
  0
XRECORD
  5
2D5
102
{ACAD_REACTORS
330
2D3
102
}
330
2D3
100
AcDbXrecord
280
     1
  2

  2

  2

 40
0.0
 40
0.0
 90
        0
 40
28.0
 90
        2
 90
        3
 90
        0
 90
        5
  2

  2

  2

  2

290
     1
290
     0
  2
0
  2
ø28
  0
XRECORD
  5
2E5
102
{ACAD_REACTORS
330
2D3
102
}
330
2D3
100
AcDbXrecord
280
     1
  2

  2

  2

 40
0.0
 40
0.0
 90
        0
 40
50.0
 90
        2
 90
        3
 90
        0
 90
        5
  2

  2

  2

  2

290
     1
290
     0
  2
1
  2
ø50
  0
XRECORD
  5
304
102
{ACAD_REACTORS
330
2D3
102
}
330
2D3
100
AcDbXrecord
280
     1
  2

  2

  2

 40
0.0
 40
0.0
 90
        0
 40
66.0
 90
        2
 90
        3
 90
        0
 90
        5
  2

  2

  2

  2

290
     1
290
     0
  2
2
  2
Audsrehtiefe 133
  0
XRECORD
  5
307
102
{ACAD_REACTORS
330
2D3
102
}
330
2D3
100
AcDbXrecord
280
     1
  2

  2

  2

 40
0.0
 40
0.0
 90
        0
 40
66.0
 90
        2
 90
        3
 90
        0
 90
        5
  2

  2

  2

  2

290
     0
290
     0
  2
3
  2
Ausdrehtiefe 133
  0
XRECORD
  5
2B2
102
{ACAD_REACTORS
330
29B
102
}
330
29B
100
AcDbXrecord
280
     1
290
     1
  0
XRECORD
  5
2B3
102
{ACAD_REACTORS
330
29B
102
}
330
29B
100
AcDbXrecord
280
     1
290
     1
  0
DICTIONARY
  5
33E
330
195
100
AcDbDictionary
280
     1
281
     1
  3
ACAD_ROUNDTRIP_2008_TABLESTYLE_CELLSTYLEMAP
360
33F
  0
CELLSTYLEMAP
  5
33F
102
{ACAD_REACTORS
330
33E
102
}
330
33E
100
AcDbCellStyleMap
 90
        3
300
CELLSTYLE
  1
TABLEFORMAT_BEGIN
 90
        5
170
     1
 91
        0
 92
    32768
 62
   257
 93
        1
300
CONTENTFORMAT
  1
CONTENTFORMAT_BEGIN
 90
        0
 91
        0
 92
        4
 93
        0
300

 40
0.0
140
1.0
 94
        5
 62
     0
340
11
144
6.0
309
CONTENTFORMAT_END
171
     1
301
MARGIN
  1
CELLMARGIN_BEGIN
 40
1.5
 40
1.5
 40
1.5
 40
1.5
 40
1.5
 40
1.5
309
CELLMARGIN_END
 94
        6
 95
        1
302
GRIDFORMAT
  1
GRIDFORMAT_BEGIN
 90
        0
 91
        1
 62
     0
 92
       -2
340
14
 93
        0
 40
0.045
309
GRIDFORMAT_END
 95
        2
302
GRIDFORMAT
  1
GRIDFORMAT_BEGIN
 90
        0
 91
        1
 62
     0
 92
       -2
340
14
 93
        0
 40
0.045
309
GRIDFORMAT_END
 95
        4
302
GRIDFORMAT
  1
GRIDFORMAT_BEGIN
 90
        0
 91
        1
 62
     0
 92
       -2
340
14
 93
        0
 40
0.045
309
GRIDFORMAT_END
 95
        8
302
GRIDFORMAT
  1
GRIDFORMAT_BEGIN
 90
        0
 91
        1
 62
     0
 92
       -2
340
14
 93
        0
 40
0.045
309
GRIDFORMAT_END
 95
       16
302
GRIDFORMAT
  1
GRIDFORMAT_BEGIN
 90
        0
 91
        1
 62
     0
 92
       -2
340
14
 93
        0
 40
0.045
309
GRIDFORMAT_END
 95
       32
302
GRIDFORMAT
  1
GRIDFORMAT_BEGIN
 90
        0
 91
        1
 62
     0
 92
       -2
340
14
 93
        0
 40
0.045
309
GRIDFORMAT_END
309
TABLEFORMAT_END
  1
CELLSTYLE_BEGIN
 90
        1
 91
        1
300
_TITLE
309
CELLSTYLE_END
300
CELLSTYLE
  1
TABLEFORMAT_BEGIN
 90
        5
170
     1
 91
        0
 92
        0
 62
   257
 93
        1
300
CONTENTFORMAT
  1
CONTENTFORMAT_BEGIN
 90
        0
 91
        0
 92
        4
 93
        0
300

 40
0.0
140
1.0
 94
        5
 62
     0
340
11
144
4.5
309
CONTENTFORMAT_END
171
     1
301
MARGIN
  1
CELLMARGIN_BEGIN
 40
1.5
 40
1.5
 40
1.5
 40
1.5
 40
1.5
 40
1.5
309
CELLMARGIN_END
 94
        6
 95
        1
302
GRIDFORMAT
  1
GRIDFORMAT_BEGIN
 90
        0
 91
        1
 62
     0
 92
       -2
340
14
 93
        0
 40
0.045
309
GRIDFORMAT_END
 95
        2
302
GRIDFORMAT
  1
GRIDFORMAT_BEGIN
 90
        0
 91
        1
 62
     0
 92
       -2
340
14
 93
        0
 40
0.045
309
GRIDFORMAT_END
 95
        4
302
GRIDFORMAT
  1
GRIDFORMAT_BEGIN
 90
        0
 91
        1
 62
     0
 92
       -2
340
14
 93
        0
 40
0.045
309
GRIDFORMAT_END
 95
        8
302
GRIDFORMAT
  1
GRIDFORMAT_BEGIN
 90
        0
 91
        1
 62
     0
 92
       -2
340
14
 93
        0
 40
0.045
309
GRIDFORMAT_END
 95
       16
302
GRIDFORMAT
  1
GRIDFORMAT_BEGIN
 90
        0
 91
        1
 62
     0
 92
       -2
340
14
 93
        0
 40
0.045
309
GRIDFORMAT_END
 95
       32
302
GRIDFORMAT
  1
GRIDFORMAT_BEGIN
 90
        0
 91
        1
 62
     0
 92
       -2
340
14
 93
        0
 40
0.045
309
GRIDFORMAT_END
309
TABLEFORMAT_END
  1
CELLSTYLE_BEGIN
 90
        2
 91
        1
300
_HEADER
309
CELLSTYLE_END
300
CELLSTYLE
  1
TABLEFORMAT_BEGIN
 90
        5
170
     1
 91
        0
 92
        0
 62
   257
 93
        1
300
CONTENTFORMAT
  1
CONTENTFORMAT_BEGIN
 90
        0
 91
        0
 92
        4
 93
        0
300

 40
0.0
140
1.0
 94
        2
 62
     0
340
11
144
4.5
309
CONTENTFORMAT_END
171
     1
301
MARGIN
  1
CELLMARGIN_BEGIN
 40
1.5
 40
1.5
 40
1.5
 40
1.5
 40
1.5
 40
1.5
309
CELLMARGIN_END
 94
        6
 95
        1
302
GRIDFORMAT
  1
GRIDFORMAT_BEGIN
 90
        0
 91
        1
 62
     0
 92
       -2
340
14
 93
        0
 40
0.045
309
GRIDFORMAT_END
 95
        2
302
GRIDFORMAT
  1
GRIDFORMAT_BEGIN
 90
        0
 91
        1
 62
     0
 92
       -2
340
14
 93
        0
 40
0.045
309
GRIDFORMAT_END
 95
        4
302
GRIDFORMAT
  1
GRIDFORMAT_BEGIN
 90
        0
 91
        1
 62
     0
 92
       -2
340
14
 93
        0
 40
0.045
309
GRIDFORMAT_END
 95
        8
302
GRIDFORMAT
  1
GRIDFORMAT_BEGIN
 90
        0
 91
        1
 62
     0
 92
       -2
340
14
 93
        0
 40
0.045
309
GRIDFORMAT_END
 95
       16
302
GRIDFORMAT
  1
GRIDFORMAT_BEGIN
 90
        0
 91
        1
 62
     0
 92
       -2
340
14
 93
        0
 40
0.045
309
GRIDFORMAT_END
 95
       32
302
GRIDFORMAT
  1
GRIDFORMAT_BEGIN
 90
        0
 91
        1
 62
     0
 92
       -2
340
14
 93
        0
 40
0.045
309
GRIDFORMAT_END
309
TABLEFORMAT_END
  1
CELLSTYLE_BEGIN
 90
        3
 91
        2
300
_DATA
309
CELLSTYLE_END
  0
ENDSEC
  0
EOF
