  0
SECTION
  2
HEADER
  9
$ACADVER
  1
AC1027
  9
$ACADMAINTVER
 70
   105
  9
$DWGCODEPAGE
  3
ANSI_1252
  9
$REQUIREDVERSIONS
160
                 0
  9
$LASTSAVEDBY
  1
matthias.ochs
  9
$INSBASE
 10
0.0
 20
0.0
 30
0.0
  9
$EXTMIN
 10
-62.67995331064202
 20
-127.6940670648406
 30
0.0
  9
$EXTMAX
 10
107.8535832747237
 20
135.9034939107691
 30
0.0
  9
$LIMMIN
 10
0.0
 20
0.0
  9
$LIMMAX
 10
420.0
 20
297.0
  9
$ORTHOMODE
 70
     1
  9
$REGENMODE
 70
     1
  9
$FILLMODE
 70
     1
  9
$QTEXTMODE
 70
     0
  9
$MIRRTEXT
 70
     1
  9
$LTSCALE
 40
1.0
  9
$ATTMODE
 70
     1
  9
$TEXTSIZE
 40
3.5
  9
$TRACEWID
 40
1.0
  9
$TEXTSTYLE
  7
STANDARD
  9
$CLAYER
  8
1
  9
$CELTYPE
  6
BYLAYER
  9
$CECOLOR
 62
   256
  9
$CELTSCALE
 40
1.0
  9
$DISPSILH
 70
     0
  9
$DIMSCALE
 40
1.0
  9
$DIMASZ
 40
3.5
  9
$DIMEXO
 40
0.0
  9
$DIMDLI
 40
3.75
  9
$DIMRND
 40
0.0
  9
$DIMDLE
 40
0.0
  9
$DIMEXE
 40
1.0
  9
$DIMTP
 40
0.0
  9
$DIMTM
 40
0.0
  9
$DIMTXT
 40
3.5
  9
$DIMCEN
 40
2.5
  9
$DIMTSZ
 40
0.0
  9
$DIMTOL
 70
     0
  9
$DIMLIM
 70
     0
  9
$DIMTIH
 70
     1
  9
$DIMTOH
 70
     1
  9
$DIMSE1
 70
     0
  9
$DIMSE2
 70
     0
  9
$DIMTAD
 70
     1
  9
$DIMZIN
 70
     0
  9
$DIMBLK
  1

  9
$DIMASO
 70
     1
  9
$DIMSHO
 70
     1
  9
$DIMPOST
  1

  9
$DIMAPOST
  1

  9
$DIMALT
 70
     0
  9
$DIMALTD
 70
     3
  9
$DIMALTF
 40
0.0393700787
  9
$DIMLFAC
 40
1.0
  9
$DIMTOFL
 70
     1
  9
$DIMTVP
 40
0.0
  9
$DIMTIX
 70
     0
  9
$DIMSOXD
 70
     0
  9
$DIMSAH
 70
     0
  9
$DIMBLK1
  1

  9
$DIMBLK2
  1

  9
$DIMSTYLE
  2
ISO-25
  9
$DIMCLRD
 70
     0
  9
$DIMCLRE
 70
     0
  9
$DIMCLRT
 70
     0
  9
$DIMTFAC
 40
1.0
  9
$DIMGAP
 40
1.5
  9
$DIMJUST
 70
     0
  9
$DIMSD1
 70
     0
  9
$DIMSD2
 70
     0
  9
$DIMTOLJ
 70
     0
  9
$DIMTZIN
 70
     0
  9
$DIMALTZ
 70
     0
  9
$DIMALTTZ
 70
     0
  9
$DIMUPT
 70
     0
  9
$DIMDEC
 70
     2
  9
$DIMTDEC
 70
     3
  9
$DIMALTU
 70
     2
  9
$DIMALTTD
 70
     3
  9
$DIMTXSTY
  7
STANDARD
  9
$DIMAUNIT
 70
     0
  9
$DIMADEC
 70
     0
  9
$DIMALTRND
 40
0.0
  9
$DIMAZIN
 70
     0
  9
$DIMDSEP
 70
    46
  9
$DIMATFIT
 70
     3
  9
$DIMFRAC
 70
     0
  9
$DIMLDRBLK
  1

  9
$DIMLUNIT
 70
     2
  9
$DIMLWD
 70
    -2
  9
$DIMLWE
 70
    -2
  9
$DIMTMOVE
 70
     2
  9
$DIMFXL
 40
1.0
  9
$DIMFXLON
 70
     0
  9
$DIMJOGANG
 40
0.7853981633974483
  9
$DIMTFILL
 70
     0
  9
$DIMTFILLCLR
 70
     0
  9
$DIMARCSYM
 70
     0
  9
$DIMLTYPE
  6

  9
$DIMLTEX1
  6

  9
$DIMLTEX2
  6

  9
$DIMTXTDIRECTION
 70
     0
  9
$LUNITS
 70
     2
  9
$LUPREC
 70
     2
  9
$SKETCHINC
 40
1.0
  9
$FILLETRAD
 40
10.0
  9
$AUNITS
 70
     0
  9
$AUPREC
 70
     2
  9
$MENU
  1
.
  9
$ELEVATION
 40
0.0
  9
$PELEVATION
 40
0.0
  9
$THICKNESS
 40
0.0
  9
$LIMCHECK
 70
     0
  9
$CHAMFERA
 40
0.0
  9
$CHAMFERB
 40
0.0
  9
$CHAMFERC
 40
0.0
  9
$CHAMFERD
 40
0.0
  9
$SKPOLY
 70
     0
  9
$TDCREATE
 40
2456975.445448195
  9
$TDUCREATE
 40
2456975.362114861
  9
$TDUPDATE
 40
2458677.552668356
  9
$TDUUPDATE
 40
2458677.469335023
  9
$TDINDWG
 40
0.0091963889
  9
$TDUSRTIMER
 40
0.0009739699
  9
$USRTIMER
 70
     1
  9
$ANGBASE
 50
0.0
  9
$ANGDIR
 70
     0
  9
$PDMODE
 70
     0
  9
$PDSIZE
 40
-1.0
  9
$PLINEWID
 40
0.0
  9
$SPLFRAME
 70
     0
  9
$SPLINETYPE
 70
     6
  9
$SPLINESEGS
 70
     8
  9
$HANDSEED
  5
3D4
  9
$SURFTAB1
 70
     6
  9
$SURFTAB2
 70
     6
  9
$SURFTYPE
 70
     6
  9
$SURFU
 70
     6
  9
$SURFV
 70
     6
  9
$UCSBASE
  2

  9
$UCSNAME
  2

  9
$UCSORG
 10
0.0
 20
0.0
 30
0.0
  9
$UCSXDIR
 10
1.0
 20
0.0
 30
0.0
  9
$UCSYDIR
 10
0.0
 20
1.0
 30
0.0
  9
$UCSORTHOREF
  2

  9
$UCSORTHOVIEW
 70
     0
  9
$UCSORGTOP
 10
0.0
 20
0.0
 30
0.0
  9
$UCSORGBOTTOM
 10
0.0
 20
0.0
 30
0.0
  9
$UCSORGLEFT
 10
0.0
 20
0.0
 30
0.0
  9
$UCSORGRIGHT
 10
0.0
 20
0.0
 30
0.0
  9
$UCSORGFRONT
 10
0.0
 20
0.0
 30
0.0
  9
$UCSORGBACK
 10
0.0
 20
0.0
 30
0.0
  9
$PUCSBASE
  2

  9
$PUCSNAME
  2

  9
$PUCSORG
 10
0.0
 20
0.0
 30
0.0
  9
$PUCSXDIR
 10
1.0
 20
0.0
 30
0.0
  9
$PUCSYDIR
 10
0.0
 20
1.0
 30
0.0
  9
$PUCSORTHOREF
  2

  9
$PUCSORTHOVIEW
 70
     0
  9
$PUCSORGTOP
 10
0.0
 20
0.0
 30
0.0
  9
$PUCSORGBOTTOM
 10
0.0
 20
0.0
 30
0.0
  9
$PUCSORGLEFT
 10
0.0
 20
0.0
 30
0.0
  9
$PUCSORGRIGHT
 10
0.0
 20
0.0
 30
0.0
  9
$PUCSORGFRONT
 10
0.0
 20
0.0
 30
0.0
  9
$PUCSORGBACK
 10
0.0
 20
0.0
 30
0.0
  9
$USERI1
 70
     0
  9
$USERI2
 70
     0
  9
$USERI3
 70
     0
  9
$USERI4
 70
     0
  9
$USERI5
 70
     0
  9
$USERR1
 40
0.0
  9
$USERR2
 40
0.0
  9
$USERR3
 40
0.0
  9
$USERR4
 40
0.0
  9
$USERR5
 40
0.0
  9
$WORLDVIEW
 70
     1
  9
$SHADEDGE
 70
     3
  9
$SHADEDIF
 70
    70
  9
$TILEMODE
 70
     1
  9
$MAXACTVP
 70
    64
  9
$PINSBASE
 10
0.0
 20
0.0
 30
0.0
  9
$PLIMCHECK
 70
     0
  9
$PEXTMIN
 10
1.000000000000000E+20
 20
1.000000000000000E+20
 30
1.000000000000000E+20
  9
$PEXTMAX
 10
-1.000000000000000E+20
 20
-1.000000000000000E+20
 30
-1.000000000000000E+20
  9
$PLIMMIN
 10
0.0
 20
0.0
  9
$PLIMMAX
 10
0.0
 20
0.0
  9
$UNITMODE
 70
     0
  9
$VISRETAIN
 70
     1
  9
$PLINEGEN
 70
     0
  9
$PSLTSCALE
 70
     1
  9
$TREEDEPTH
 70
  3020
  9
$CMLSTYLE
  2
STANDARD
  9
$CMLJUST
 70
     0
  9
$CMLSCALE
 40
20.0
  9
$PROXYGRAPHICS
 70
     1
  9
$MEASUREMENT
 70
     1
  9
$CELWEIGHT
370
    -1
  9
$ENDCAPS
280
     0
  9
$JOINSTYLE
280
     0
  9
$LWDISPLAY
290
     0
  9
$INSUNITS
 70
     0
  9
$HYPERLINKBASE
  1

  9
$STYLESHEET
  1

  9
$XEDIT
290
     1
  9
$CEPSNTYPE
380
     0
  9
$PSTYLEMODE
290
     1
  9
$FINGERPRINTGUID
  2
{D5A97573-83CB-4D66-9CBE-14F7A9E4C977}
  9
$VERSIONGUID
  2
{FAEB1C32-E019-11D5-929B-00C0DF256EC4}
  9
$EXTNAMES
290
     1
  9
$PSVPSCALE
 40
0.0
  9
$OLESTARTUP
290
     0
  9
$SORTENTS
280
   127
  9
$INDEXCTL
280
     0
  9
$HIDETEXT
280
     1
  9
$XCLIPFRAME
280
     2
  9
$HALOGAP
280
     0
  9
$OBSCOLOR
 70
   257
  9
$OBSLTYPE
280
     0
  9
$INTERSECTIONDISPLAY
280
     0
  9
$INTERSECTIONCOLOR
 70
   257
  9
$DIMASSOC
280
     2
  9
$PROJECTNAME
  1

  9
$CAMERADISPLAY
290
     0
  9
$LENSLENGTH
 40
50.0
  9
$CAMERAHEIGHT
 40
0.0
  9
$STEPSPERSEC
 40
2.0
  9
$STEPSIZE
 40
6.0
  9
$3DDWFPREC
 40
2.0
  9
$PSOLWIDTH
 40
0.25
  9
$PSOLHEIGHT
 40
4.0
  9
$LOFTANG1
 40
1.570796326794897
  9
$LOFTANG2
 40
1.570796326794897
  9
$LOFTMAG1
 40
0.0
  9
$LOFTMAG2
 40
0.0
  9
$LOFTPARAM
 70
     7
  9
$LOFTNORMALS
280
     1
  9
$LATITUDE
 40
37.795
  9
$LONGITUDE
 40
-122.394
  9
$NORTHDIRECTION
 40
0.0
  9
$TIMEZONE
 70
 -8000
  9
$LIGHTGLYPHDISPLAY
280
     1
  9
$TILEMODELIGHTSYNCH
280
     1
  9
$SOLIDHIST
280
     0
  9
$SHOWHIST
280
     1
  9
$DWFFRAME
280
     2
  9
$DGNFRAME
280
     2
  9
$REALWORLDSCALE
290
     1
  9
$INTERFERECOLOR
 62
   256
  9
$CSHADOW
280
     0
  9
$SHADOWPLANELOCATION
 40
0.0
  0
ENDSEC
  0
SECTION
  2
CLASSES
  0
CLASS
  1
ACDBDICTIONARYWDFLT
  2
AcDbDictionaryWithDefault
  3
ObjectDBX Classes
 90
        0
 91
       10
280
     0
281
     0
  0
CLASS
  1
VISUALSTYLE
  2
AcDbVisualStyle
  3
ObjectDBX Classes
 90
     4095
 91
       10
280
     0
281
     0
  0
CLASS
  1
MATERIAL
  2
AcDbMaterial
  3
ObjectDBX Classes
 90
     1153
 91
       10
280
     0
281
     0
  0
CLASS
  1
SCALE
  2
AcDbScale
  3
ObjectDBX Classes
 90
     1153
 91
       10
280
     0
281
     0
  0
CLASS
  1
SUN
  2
AcDbSun
  3
SCENEOE
 90
     1153
 91
       10
280
     0
281
     0
  0
CLASS
  1
XRECORD
  2
AcDbXrecord
  3
ObjectDBX Classes
 90
        0
 91
        1
280
     0
281
     0
  0
CLASS
  1
LWPOLYLINE
  2
AcDbPolyline
  3
ObjectDBX Classes
 90
        0
 91
        1
280
     0
281
     1
  0
CLASS
  1
HATCH
  2
AcDbHatch
  3
ObjectDBX Classes
 90
        0
 91
        1
280
     0
281
     1
  0
CLASS
  1
DICTIONARYVAR
  2
AcDbDictionaryVar
  3
ObjectDBX Classes
 90
        0
 91
        8
280
     0
281
     0
  0
CLASS
  1
ACDBPLACEHOLDER
  2
AcDbPlaceHolder
  3
ObjectDBX Classes
 90
        0
 91
        1
280
     0
281
     0
  0
CLASS
  1
LAYOUT
  2
AcDbLayout
  3
ObjectDBX Classes
 90
        0
 91
        1
280
     0
281
     0
  0
CLASS
  1
TABLESTYLE
  2
AcDbTableStyle
  3
ObjectDBX Classes
 90
     4095
 91
       10
280
     0
281
     0
  0
CLASS
  1
MLEADERSTYLE
  2
AcDbMLeaderStyle
  3
ACDB_MLEADERSTYLE_CLASS
 90
     4095
 91
       10
280
     0
281
     0
  0
CLASS
  1
CELLSTYLEMAP
  2
AcDbCellStyleMap
  3
ObjectDBX Classes
 90
     1152
 91
        8
280
     0
281
     0
  0
ENDSEC
  0
SECTION
  2
TABLES
  0
TABLE
  2
VPORT
  5
8
330
0
100
AcDbSymbolTable
 70
     1
  0
VPORT
  5
29
330
8
100
AcDbSymbolTableRecord
100
AcDbViewportTableRecord
  2
*ACTIVE
 70
     0
 10
0.0
 20
0.0
 11
1.0
 21
1.0
 12
-73.73194382491795
 22
29.46631360406417
 13
0.0
 23
0.0
 14
10.0
 24
10.0
 15
10.0
 25
10.0
 16
0.0
 26
0.0
 36
1.0
 17
0.0
 27
0.0
 37
0.0
 40
425.8463228330407
 41
1.831002331002331
 42
50.0
 43
0.0
 44
0.0
 50
0.0
 51
0.0
 71
    16
 72
  2000
 73
     1
 74
     3
 75
     0
 76
     0
 77
     0
 78
     0
281
     0
 65
     1
110
0.0
120
0.0
130
0.0
111
1.0
121
0.0
131
0.0
112
0.0
122
1.0
132
0.0
 79
     0
146
0.0
348
2FD
 60
     3
 61
     5
292
     1
282
     1
141
0.0
142
0.0
 63
   256
361
398
  0
ENDTAB
  0
TABLE
  2
LTYPE
  5
5
330
0
100
AcDbSymbolTable
 70
     9
  0
LTYPE
  5
14
330
5
100
AcDbSymbolTableRecord
100
AcDbLinetypeTableRecord
  2
BYBLOCK
 70
     0
  3

 72
    65
 73
     0
 40
0.0
  0
LTYPE
  5
15
330
5
100
AcDbSymbolTableRecord
100
AcDbLinetypeTableRecord
  2
BYLAYER
 70
     0
  3

 72
    65
 73
     0
 40
0.0
  0
LTYPE
  5
16
330
5
100
AcDbSymbolTableRecord
100
AcDbLinetypeTableRecord
  2
CONTINUOUS
 70
     0
  3
Solid line
 72
    65
 73
     0
 40
0.0
  0
LTYPE
  5
6A
330
5
100
AcDbSymbolTableRecord
100
AcDbLinetypeTableRecord
  2
HIDDEN
 70
     0
  3
Hidden __ __ __ __ __ __ __ __ __ __ __ __ __ __
 72
    65
 73
     2
 40
1.905
 49
1.27
 74
     0
 49
-0.635
 74
     0
  0
LTYPE
  5
6B
330
5
100
AcDbSymbolTableRecord
100
AcDbLinetypeTableRecord
  2
PHANTOM
 70
     0
  3
Phantom ______  __  __  ______  __  __  ______
 72
    65
 73
     6
 40
12.7
 49
6.35
 74
     0
 49
-1.27
 74
     0
 49
1.27
 74
     0
 49
-1.27
 74
     0
 49
1.27
 74
     0
 49
-1.27
 74
     0
  0
LTYPE
  5
6C
330
5
100
AcDbSymbolTableRecord
100
AcDbLinetypeTableRecord
  2
CENTER
 70
     0
  3
Center ____ _ ____ _ ____ _ ____ _ ____ _ ____
 72
    65
 73
     4
 40
10.16
 49
6.35
 74
     0
 49
-1.27
 74
     0
 49
1.27
 74
     0
 49
-1.27
 74
     0
  0
LTYPE
  5
6D
330
5
100
AcDbSymbolTableRecord
100
AcDbLinetypeTableRecord
  2
CENTERX2
 70
     0
  3
Center (2x) ________  __  ________  __  _____
 72
    65
 73
     4
 40
20.32
 49
12.7
 74
     0
 49
-2.54
 74
     0
 49
2.54
 74
     0
 49
-2.54
 74
     0
  0
LTYPE
  5
6E
330
5
100
AcDbSymbolTableRecord
100
AcDbLinetypeTableRecord
  2
DOT2
 70
     0
  3
Dot (.5x) ........................................
 72
    65
 73
     2
 40
0.635
 49
0.0
 74
     0
 49
-0.635
 74
     0
  0
LTYPE
  5
354
330
5
100
AcDbSymbolTableRecord
100
AcDbLinetypeTableRecord
  2
DASH
 70
     0
  3
DASH _ _ _ _ _
 72
    65
 73
     2
 40
0.75
 49
0.4
 74
     0
 49
-0.35
 74
     0
  0
LTYPE
  5
355
330
5
100
AcDbSymbolTableRecord
100
AcDbLinetypeTableRecord
  2
LONGDASH_DASH
 70
     0
  3
LONGDASH_DASH __ . __ . __
 72
    65
 73
     4
 40
0.85
 49
0.4
 74
     0
 49
-0.2
 74
     0
 49
0.05
 74
     0
 49
-0.2
 74
     0
  0
LTYPE
  5
356
330
5
100
AcDbSymbolTableRecord
100
AcDbLinetypeTableRecord
  2
LONGDASH_DASH_DASH
 70
     0
  3
LONGDASH_DASH_DASH __ . . __ . . __
 72
    65
 73
     6
 40
1.1
 49
0.4
 74
     0
 49
-0.2
 74
     0
 49
0.05
 74
     0
 49
-0.2
 74
     0
 49
0.05
 74
     0
 49
-0.2
 74
     0
  0
ENDTAB
  0
TABLE
  2
LAYER
  5
2
102
{ACAD_XDICTIONARY
360
376
102
}
330
0
100
AcDbSymbolTable
 70
    16
  0
LAYER
  5
30E
330
2
100
AcDbSymbolTableRecord
100
AcDbLayerTableRecord
  2
200
 70
     0
 62
     2
  6
CONTINUOUS
370
    50
390
367
347
30C
348
0
  0
LAYER
  5
311
330
2
100
AcDbSymbolTableRecord
100
AcDbLayerTableRecord
  2
Defpoints
 70
     0
 62
     7
  6
CONTINUOUS
290
     0
370
    -3
390
367
347
30C
348
0
  0
LAYER
  5
357
330
2
100
AcDbSymbolTableRecord
100
AcDbLayerTableRecord
  2
0
 70
     0
 62
     1
  6
CONTINUOUS
370
    -3
390
367
347
30C
348
0
  0
LAYER
  5
358
330
2
100
AcDbSymbolTableRecord
100
AcDbLayerTableRecord
  2
1
 70
     0
 62
     4
  6
CONTINUOUS
370
    50
390
367
347
30C
348
0
  0
LAYER
  5
359
330
2
100
AcDbSymbolTableRecord
100
AcDbLayerTableRecord
  2
2
 70
     0
 62
     7
  6
CONTINUOUS
370
    25
390
367
347
30C
348
0
  0
LAYER
  5
35A
330
2
100
AcDbSymbolTableRecord
100
AcDbLayerTableRecord
  2
3
 70
     0
 62
     1
  6
DASH
370
    35
390
367
347
30C
348
0
  0
LAYER
  5
35B
330
2
100
AcDbSymbolTableRecord
100
AcDbLayerTableRecord
  2
4
 70
     0
 62
     2
  6
LONGDASH_DASH
370
    25
390
367
347
30C
348
0
  0
LAYER
  5
35C
330
2
100
AcDbSymbolTableRecord
100
AcDbLayerTableRecord
  2
6
 70
     0
 62
     5
  6
CONTINUOUS
370
    -3
390
367
347
30C
348
0
  0
LAYER
  5
35D
330
2
100
AcDbSymbolTableRecord
100
AcDbLayerTableRecord
  2
CUT
 70
     0
 62
     1
  6
CONTINUOUS
370
    25
390
367
347
30C
348
0
  0
LAYER
  5
35E
330
2
100
AcDbSymbolTableRecord
100
AcDbLayerTableRecord
  2
NOCUT
 70
     0
 62
     7
  6
CONTINUOUS
370
    25
390
367
347
30C
348
0
  0
LAYER
  5
35F
330
2
100
AcDbSymbolTableRecord
100
AcDbLayerTableRecord
  2
SK1
 70
     0
 62
     4
  6
CONTINUOUS
370
    50
390
367
347
30C
348
0
  0
LAYER
  5
360
330
2
100
AcDbSymbolTableRecord
100
AcDbLayerTableRecord
  2
SK2
 70
     0
 62
     7
  6
CONTINUOUS
370
    25
390
367
347
30C
348
0
  0
LAYER
  5
361
330
2
100
AcDbSymbolTableRecord
100
AcDbLayerTableRecord
  2
SK3
 70
     0
 62
     1
  6
DASH
370
    35
390
367
347
30C
348
0
  0
LAYER
  5
362
330
2
100
AcDbSymbolTableRecord
100
AcDbLayerTableRecord
  2
SK4
 70
     0
 62
     2
  6
LONGDASH_DASH
370
    25
390
367
347
30C
348
0
  0
LAYER
  5
363
330
2
100
AcDbSymbolTableRecord
100
AcDbLayerTableRecord
  2
SK6
 70
     0
 62
     5
  6
CONTINUOUS
370
    -3
390
367
347
30C
348
0
  0
LAYER
  5
364
330
2
100
AcDbSymbolTableRecord
100
AcDbLayerTableRecord
  2
INFTOTAL
 70
     0
 62
     9
  6
CONTINUOUS
370
    18
390
367
347
30C
348
0
  0
ENDTAB
  0
TABLE
  2
STYLE
  5
3
330
0
100
AcDbSymbolTable
 70
     3
  0
STYLE
  5
11
330
3
100
AcDbSymbolTableRecord
100
AcDbTextStyleTableRecord
  2
STANDARD
 70
     0
 40
0.0
 41
1.0
 50
0.0
 71
     0
 42
3.5
  3
txt
  4

  0
STYLE
  5
2A7
330
3
100
AcDbSymbolTableRecord
100
AcDbTextStyleTableRecord
  2
SLDTEXTSTYLE0
 70
     0
 40
0.0
 41
0.605
 50
0.0
 71
     0
 42
3.5
  3
TXT
  4

  0
STYLE
  5
30D
330
3
100
AcDbSymbolTableRecord
100
AcDbTextStyleTableRecord
  2
BMG_Text
 70
     0
 40
3.5
 41
1.0
 50
0.0
 71
     0
 42
3.5
  3
monos.ttf
  4

1001
ACAD
1000
Monospac821 BT
1071
       49
  0
ENDTAB
  0
TABLE
  2
VIEW
  5
6
330
0
100
AcDbSymbolTable
 70
     0
  0
ENDTAB
  0
TABLE
  2
UCS
  5
7
330
0
100
AcDbSymbolTable
 70
     0
  0
ENDTAB
  0
TABLE
  2
APPID
  5
9
330
0
100
AcDbSymbolTable
 70
     5
  0
APPID
  5
12
330
9
100
AcDbSymbolTableRecord
100
AcDbRegAppTableRecord
  2
ACAD
 70
     0
  0
APPID
  5
327
330
9
100
AcDbSymbolTableRecord
100
AcDbRegAppTableRecord
  2
ACAD_DSTYLE_DIM_LINETYPE
 70
     0
  0
APPID
  5
328
330
9
100
AcDbSymbolTableRecord
100
AcDbRegAppTableRecord
  2
ACAD_DSTYLE_DIM_EXT1_LINETYPE
 70
     0
  0
APPID
  5
329
330
9
100
AcDbSymbolTableRecord
100
AcDbRegAppTableRecord
  2
ACAD_DSTYLE_DIM_EXT2_LINETYPE
 70
     0
  0
APPID
  5
3B0
330
9
100
AcDbSymbolTableRecord
100
AcDbRegAppTableRecord
  2
FX_DIMP_FAV_VERSION
 70
     0
  0
ENDTAB
  0
TABLE
  2
DIMSTYLE
  5
A
330
0
100
AcDbSymbolTable
 70
     3
100
AcDbDimStyleTable
  0
DIMSTYLE
105
27
330
A
100
AcDbSymbolTableRecord
100
AcDbDimStyleTableRecord
  2
ISO-25
 70
     0
 41
2.5
 42
0.625
 43
3.75
 44
1.25
 73
     0
 74
     0
 77
     1
 78
     8
140
2.5
141
2.5
143
0.0393700787
147
0.625
171
     3
172
     1
178
     0
271
     2
272
     2
274
     3
283
     0
284
     8
340
11
  0
DIMSTYLE
105
2A8
102
{ACAD_REACTORS
330
2A6
330
2B4
330
2C8
102
}
330
A
100
AcDbSymbolTableRecord
100
AcDbDimStyleTableRecord
  2
SLDDIMSTYLE0
 70
     0
 41
3.5
 44
0.0
 45
0.000000001
 73
     0
 74
     0
 77
     1
 78
    12
140
3.5
147
0.875
173
     1
178
     0
271
     2
272
     3
284
    12
340
2A7
  0
DIMSTYLE
105
2C0
102
{ACAD_REACTORS
330
2BF
102
}
330
A
100
AcDbSymbolTableRecord
100
AcDbDimStyleTableRecord
  2
SLDDIMSTYLE1
 70
     0
 41
3.5
 44
0.0
 45
0.000000001
 73
     0
 74
     0
 77
     1
 78
    12
140
3.5
147
0.875
173
     1
178
     0
271
     2
272
     3
284
    12
340
2A7
  0
ENDTAB
  0
TABLE
  2
BLOCK_RECORD
  5
1
330
0
100
AcDbSymbolTable
 70
     4
  0
BLOCK_RECORD
  5
1F
330
1
100
AcDbSymbolTableRecord
100
AcDbBlockTableRecord
  2
*MODEL_SPACE
340
2F6
 70
     0
280
     1
281
     0
  0
BLOCK_RECORD
  5
1B
330
1
100
AcDbSymbolTableRecord
100
AcDbBlockTableRecord
  2
*PAPER_SPACE
340
2F7
 70
     0
280
     1
281
     0
  0
BLOCK_RECORD
  5
2A9
330
1
100
AcDbSymbolTableRecord
100
AcDbBlockTableRecord
  2
_D
340
0
 70
     0
280
     1
281
     0
  0
BLOCK_RECORD
  5
2B5
330
1
100
AcDbSymbolTableRecord
100
AcDbBlockTableRecord
  2
_D_1
340
0
 70
     0
280
     1
281
     0
  0
BLOCK_RECORD
  5
2C1
330
1
100
AcDbSymbolTableRecord
100
AcDbBlockTableRecord
  2
_D_2
340
0
 70
     0
280
     1
281
     0
  0
BLOCK_RECORD
  5
2C9
330
1
100
AcDbSymbolTableRecord
100
AcDbBlockTableRecord
  2
_D_3
340
0
 70
     0
280
     1
281
     0
  0
ENDTAB
  0
ENDSEC
  0
SECTION
  2
BLOCKS
  0
BLOCK
  5
20
330
1F
100
AcDbEntity
  8
0
100
AcDbBlockBegin
  2
*MODEL_SPACE
 70
     0
 10
0.0
 20
0.0
 30
0.0
  3
*MODEL_SPACE
  1

  0
ENDBLK
  5
21
330
1F
100
AcDbEntity
  8
0
100
AcDbBlockEnd
  0
BLOCK
  5
1C
330
1B
100
AcDbEntity
 67
     1
  8
0
100
AcDbBlockBegin
  2
*PAPER_SPACE
 70
     0
 10
0.0
 20
0.0
 30
0.0
  3
*PAPER_SPACE
  1

  0
ENDBLK
  5
1D
330
1B
100
AcDbEntity
 67
     1
  8
0
100
AcDbBlockEnd
  0
BLOCK
  5
2AA
330
2A9
100
AcDbEntity
  8
0
100
AcDbBlockBegin
  2
_D
 70
     0
 10
0.0
 20
0.0
 30
0.0
  3
_D
  1
_D
  0
LINE
  5
2AC
330
2A9
100
AcDbEntity
  8
SK2
  6
ByBlock
370
    -2
100
AcDbLine
 10
59.60604123185186
 20
87.49921682245774
 30
0.0
 11
68.49270395282605
 21
87.49921684488542
 31
0.0
  0
LINE
  5
2AD
330
2A9
100
AcDbEntity
  8
SK2
  6
ByBlock
370
    -2
100
AcDbLine
 10
59.60604167345186
 20
-87.49921557544226
 30
0.0
 11
68.49270439447771
 21
-87.49921555301458
 31
0.0
  0
LINE
  5
2AE
330
2A9
100
AcDbEntity
  8
SK2
  6
ByBlock
370
    -2
100
AcDbLine
 10
68.49270396165916
 20
83.99921684488542
 30
0.0
 11
68.4927043856446
 21
-83.99921555301458
 31
0.0
  0
SOLID
  5
2AF
330
2A9
100
AcDbEntity
  8
SK2
100
AcDbTrace
 10
69.07603729499249
 20
83.99921684635761
 30
0.0
 11
67.90937062832583
 21
83.99921684341324
 31
0.0
 12
68.49270395282605
 22
87.49921684488542
 32
0.0
 13
68.49270395282605
 23
87.49921684488542
 33
0.0
  0
SOLID
  5
2B0
330
2A9
100
AcDbEntity
  8
SK2
100
AcDbTrace
 10
67.90937105231127
 20
-83.99921555448677
 30
0.0
 11
69.07603771897793
 21
-83.99921555154239
 31
0.0
 12
68.49270439447771
 22
-87.49921555301458
 32
0.0
 13
68.49270439447771
 23
-87.49921555301458
 33
0.0
  0
MTEXT
  5
2B1
330
2A9
100
AcDbEntity
  8
SK2
100
AcDbMText
 10
65.75570417365188
 20
0.0000006390925061
 30
0.0
 40
3.5
 41
0.0
 46
0.0
 71
     5
 72
     1
  1
\A1;%%c175 - 203
  7
BMG_Text
 11
-2.523746404591382E-9
 21
1.0
 31
0.0
 73
     1
 44
1.0
  0
POINT
  5
2B2
330
2A9
100
AcDbEntity
  8
Defpoints
 62
     0
100
AcDbPoint
 10
59.54354123185186
 20
87.4992168223
 30
0.0
  0
POINT
  5
2B3
330
2A9
100
AcDbEntity
  8
Defpoints
 62
     0
100
AcDbPoint
 10
59.54354167345186
 20
-87.4992155756
 30
0.0
  0
POINT
  5
312
330
2A9
100
AcDbEntity
  8
Defpoints
 62
     0
100
AcDbPoint
 10
68.49270439447771
 20
-87.4992155530146
 30
0.0
  0
ENDBLK
  5
2AB
330
2A9
100
AcDbEntity
  8
0
100
AcDbBlockEnd
  0
BLOCK
  5
2B6
330
2B5
100
AcDbEntity
  8
0
100
AcDbBlockBegin
  2
_D_1
 70
     0
 10
0.0
 20
0.0
 30
0.0
  3
_D_1
  1
_D_1
  0
LINE
  5
2B8
330
2B5
100
AcDbEntity
  8
SK2
  6
ByBlock
370
    -2
100
AcDbLine
 10
46.87690271445186
 20
-92.0000082527
 30
0.0
 11
78.45821063955185
 21
-92.0000082527
 31
0.0
  0
LINE
  5
2B9
330
2B5
100
AcDbEntity
  8
SK2
  6
ByBlock
370
    -2
100
AcDbLine
 10
46.87690353755186
 20
92.0000082527
 30
0.0
 11
78.45821063955185
 21
92.0000082527
 31
0.0
  0
LINE
  5
2BA
330
2B5
100
AcDbEntity
  8
SK2
  6
ByBlock
370
    -2
100
AcDbLine
 10
78.45821063955185
 20
-88.5000082527
 30
0.0
 11
78.45821063955185
 21
88.5000082527
 31
0.0
  0
SOLID
  5
2BB
330
2B5
100
AcDbEntity
  8
SK2
100
AcDbTrace
 10
77.87487730621852
 20
-88.5000082527
 30
0.0
 11
79.04154397288518
 21
-88.5000082527
 31
0.0
 12
78.45821063955185
 22
-92.0000082527
 32
0.0
 13
78.45821063955185
 23
-92.0000082527
 33
0.0
  0
SOLID
  5
2BC
330
2B5
100
AcDbEntity
  8
SK2
100
AcDbTrace
 10
79.04154397288518
 20
88.5000082527
 30
0.0
 11
77.87487730621852
 21
88.5000082527
 31
0.0
 12
78.45821063955185
 22
92.0000082527
 32
0.0
 13
78.45821063955185
 23
92.0000082527
 33
0.0
  0
MTEXT
  5
2BD
330
2B5
100
AcDbEntity
  8
SK2
100
AcDbMText
 10
75.72121063955186
 20
0.0000000000000002
 30
0.0
 40
3.5
 41
0.0
 46
0.0
 71
     5
 72
     1
  1
\A1;%%c 186 - 214
  7
BMG_Text
 11
7.723289913283756E-17
 21
1.0
 31
0.0
 73
     1
 44
1.0
  0
POINT
  5
2BE
330
2B5
100
AcDbEntity
  8
Defpoints
 62
     0
100
AcDbPoint
 10
46.81440271445186
 20
-92.0000082527
 30
0.0
  0
POINT
  5
313
330
2B5
100
AcDbEntity
  8
Defpoints
 62
     0
100
AcDbPoint
 10
46.81440353755186
 20
92.0000082527
 30
0.0
  0
POINT
  5
314
330
2B5
100
AcDbEntity
  8
Defpoints
 62
     0
100
AcDbPoint
 10
78.45821063955185
 20
92.0000082527
 30
0.0
  0
ENDBLK
  5
2B7
330
2B5
100
AcDbEntity
  8
0
100
AcDbBlockEnd
  0
BLOCK
  5
2C2
330
2C1
100
AcDbEntity
  8
0
100
AcDbBlockBegin
  2
_D_2
 70
     0
 10
0.0
 20
0.0
 30
0.0
  3
_D_2
  1
_D_2
  0
LINE
  5
2C4
330
2C1
100
AcDbEntity
  8
2
  6
ByBlock
370
    -2
100
AcDbLine
 10
46.81440353755186
 20
92.0625082527
 30
0.0
 11
46.81440353755186
 21
98.6902958714
 31
0.0
  0
LINE
  5
2C5
330
2C1
100
AcDbEntity
  8
2
  6
ByBlock
370
    -2
100
AcDbLine
 10
-3.735602846648139
 20
70.0604025668
 30
0.0
 11
-3.73560284664814
 21
98.6902958714
 31
0.0
  0
LINE
  5
2C6
330
2C1
100
AcDbEntity
  8
2
  6
ByBlock
370
    -2
100
AcDbLine
 10
43.31440353755186
 20
98.6902958714
 30
0.0
 11
-0.2356028466481401
 21
98.6902958714
 31
0.0
  0
SOLID
  5
2C7
330
2C1
100
AcDbEntity
  8
2
100
AcDbTrace
 10
43.31440353755186
 20
98.10696253806667
 30
0.0
 11
43.31440353755186
 21
99.27362920473333
 31
0.0
 12
46.81440353755186
 22
98.6902958714
 32
0.0
 13
46.81440353755186
 23
98.6902958714
 33
0.0
  0
SOLID
  5
315
330
2C1
100
AcDbEntity
  8
2
100
AcDbTrace
 10
-0.2356028466481401
 20
99.27362920473333
 30
0.0
 11
-0.2356028466481401
 21
98.10696253806667
 31
0.0
 12
-3.73560284664814
 22
98.6902958714
 32
0.0
 13
-3.73560284664814
 23
98.6902958714
 33
0.0
  0
MTEXT
  5
316
330
2C1
100
AcDbEntity
  8
2
100
AcDbMText
 10
13.92198352255186
 20
101.3765458714
 30
0.0
 40
3.5
 41
0.0
 46
0.0
 71
     5
 72
     1
  1
\A1;143
  7
BMG_Text
 73
     1
 44
1.0
  0
POINT
  5
317
330
2C1
100
AcDbEntity
  8
Defpoints
 62
     0
100
AcDbPoint
 10
46.81440353755186
 20
92.0000082527
 30
0.0
  0
POINT
  5
318
330
2C1
100
AcDbEntity
  8
Defpoints
 62
     0
100
AcDbPoint
 10
-3.735602846648139
 20
69.9979025668
 30
0.0
  0
POINT
  5
319
330
2C1
100
AcDbEntity
  8
Defpoints
 62
     0
100
AcDbPoint
 10
-3.735602846648139
 20
98.6902958714
 30
0.0
  0
ENDBLK
  5
2C3
330
2C1
100
AcDbEntity
  8
0
100
AcDbBlockEnd
  0
BLOCK
  5
2CA
330
2C9
100
AcDbEntity
  8
0
100
AcDbBlockBegin
  2
_D_3
 70
     0
 10
0.0
 20
0.0
 30
0.0
  3
_D_3
  1
_D_3
  0
LINE
  5
2CC
330
2C9
100
AcDbEntity
  8
2
  6
ByBlock
370
    -2
100
AcDbLine
 10
-0.1855964624481388
 20
0.0625
 30
0.0
 11
-0.1855964624481388
 21
44.9491192008
 31
0.0
  0
LINE
  5
2CD
330
2C9
100
AcDbEntity
  8
2
  6
ByBlock
370
    -2
100
AcDbLine
 10
46.81440353755186
 20
84.8762130414
 30
0.0
 11
46.81440353755186
 21
44.9491192008
 31
0.0
  0
LINE
  5
2CE
330
2C9
100
AcDbEntity
  8
2
  6
ByBlock
370
    -2
100
AcDbLine
 10
3.314403537551861
 20
44.9491192008
 30
0.0
 11
43.31440353755186
 21
44.9491192008
 31
0.0
  0
SOLID
  5
2CF
330
2C9
100
AcDbEntity
  8
2
100
AcDbTrace
 10
3.314403537551861
 20
45.53245253413333
 30
0.0
 11
3.314403537551861
 21
44.36578586746666
 31
0.0
 12
-0.1855964624481388
 22
44.9491192008
 32
0.0
 13
-0.1855964624481388
 23
44.9491192008
 33
0.0
  0
SOLID
  5
2D0
330
2C9
100
AcDbEntity
  8
2
100
AcDbTrace
 10
43.31440353755186
 20
44.36578586746666
 30
0.0
 11
43.31440353755186
 21
45.53245253413333
 31
0.0
 12
46.81440353755186
 22
44.9491192008
 32
0.0
 13
46.81440353755186
 23
44.9491192008
 33
0.0
  0
MTEXT
  5
2D1
330
2C9
100
AcDbEntity
  8
2
100
AcDbMText
 10
23.30971588626561
 20
47.5741192008
 30
0.0
 40
3.5
 41
0.0
 46
0.0
 71
     5
 72
     1
  1
\A1;47
  7
BMG_Text
 73
     1
 44
1.0
  0
POINT
  5
31A
330
2C9
100
AcDbEntity
  8
Defpoints
 62
     0
100
AcDbPoint
 10
-0.1855964624481388
 20
0.0
 30
0.0
  0
POINT
  5
31B
330
2C9
100
AcDbEntity
  8
Defpoints
 62
     0
100
AcDbPoint
 10
46.81440353755186
 20
84.9387130414
 30
0.0
  0
POINT
  5
31C
330
2C9
100
AcDbEntity
  8
Defpoints
 62
     0
100
AcDbPoint
 10
46.81440353755186
 20
44.9491192008
 30
0.0
  0
ENDBLK
  5
2CB
330
2C9
100
AcDbEntity
  8
0
100
AcDbBlockEnd
  0
ENDSEC
  0
SECTION
  2
ENTITIES
  0
LINE
  5
75
330
1F
100
AcDbEntity
  8
1
100
AcDbLine
 10
21.14545617555186
 20
-73.5000074252
 30
0.0
 11
46.81440271445186
 21
-73.5000074252
 31
0.0
  0
LINE
  5
76
330
1F
100
AcDbEntity
  8
1
100
AcDbLine
 10
46.81440271445186
 20
-92.0000082527
 30
0.0
 11
46.81440271445186
 21
-40.2017216753
 31
0.0
  0
LINE
  5
77
330
1F
100
AcDbEntity
  8
1
100
AcDbLine
 10
9.81439573735186
 20
-92.0000082527
 30
0.0
 11
46.81440271445186
 21
-92.0000082527
 31
0.0
  0
LINE
  5
78
330
1F
100
AcDbEntity
  8
1
100
AcDbLine
 10
9.81439573735186
 20
-92.0000082527
 30
0.0
 11
9.81439573735186
 21
-60.9642612482
 31
0.0
  0
LINE
  5
79
330
1F
100
AcDbEntity
  8
1
100
AcDbLine
 10
9.81439573735186
 20
-73.5000080142
 30
0.0
 11
12.98334071075186
 21
-73.5000080142
 31
0.0
  0
LINE
  5
7A
330
1F
100
AcDbEntity
  8
1
100
AcDbLine
 10
12.98334071075186
 20
-73.5000080142
 30
0.0
 11
13.41651001605186
 21
-74.4677490268
 31
0.0
  0
LINE
  5
7B
330
1F
100
AcDbEntity
  8
1
100
AcDbLine
 10
13.41651001605186
 20
-74.4677490268
 30
0.0
 11
14.00144019755186
 21
-75.3512835775
 31
0.0
  0
LINE
  5
7C
330
1F
100
AcDbEntity
  8
1
100
AcDbLine
 10
14.00144019755186
 20
-75.3512835775
 30
0.0
 11
14.49463883075186
 21
-75.8910781417
 31
0.0
  0
LINE
  5
7D
330
1F
100
AcDbEntity
  8
1
100
AcDbLine
 10
14.49463883075186
 20
-75.8910781417
 30
0.0
 11
15.06862410935186
 21
-76.3573131237
 31
0.0
  0
LINE
  5
7E
330
1F
100
AcDbEntity
  8
1
100
AcDbLine
 10
15.06862410935186
 20
-76.3573131237
 30
0.0
 11
16.09044888655186
 21
-76.8586328898
 31
0.0
  0
LINE
  5
7F
330
1F
100
AcDbEntity
  8
1
100
AcDbLine
 10
16.09044888655186
 20
-76.8586328898
 30
0.0
 11
17.03983911905186
 21
-77.0083076034
 31
0.0
  0
LINE
  5
80
330
1F
100
AcDbEntity
  8
1
100
AcDbLine
 10
17.03983911905186
 20
-77.0083076034
 30
0.0
 11
17.99332717095186
 21
-76.8722823534
 31
0.0
  0
LINE
  5
81
330
1F
100
AcDbEntity
  8
1
100
AcDbLine
 10
17.99332717095186
 20
-76.8722823534
 30
0.0
 11
19.03505244885186
 21
-76.3743749533
 31
0.0
  0
LINE
  5
82
330
1F
100
AcDbEntity
  8
1
100
AcDbLine
 10
19.03505244885186
 20
-76.3743749533
 30
0.0
 11
19.67051991855186
 21
-75.8561870728
 31
0.0
  0
LINE
  5
83
330
1F
100
AcDbEntity
  8
1
100
AcDbLine
 10
19.67051991855186
 20
-75.8561870728
 30
0.0
 11
20.20708093085186
 21
-75.2489573036
 31
0.0
  0
LINE
  5
84
330
1F
100
AcDbEntity
  8
1
100
AcDbLine
 10
20.20708093085186
 20
-75.2489573036
 30
0.0
 11
20.74295648965186
 21
-74.4107893382
 31
0.0
  0
LINE
  5
85
330
1F
100
AcDbEntity
  8
1
100
AcDbLine
 10
20.74295648965186
 20
-74.4107893382
 30
0.0
 11
21.14545617555186
 21
-73.5000074252
 31
0.0
  0
LINE
  5
86
330
1F
100
AcDbEntity
  8
1
100
AcDbLine
 10
17.06439912685186
 20
-91.0476439918
 30
0.0
 11
18.13156813745186
 21
-91.0925635423
 31
0.0
  0
LINE
  5
87
330
1F
100
AcDbEntity
  8
1
100
AcDbLine
 10
18.13156813745186
 20
-91.0925635423
 30
0.0
 11
19.07843262325186
 21
-91.2161761249
 31
0.0
  0
LINE
  5
88
330
1F
100
AcDbEntity
  8
1
100
AcDbLine
 10
19.07843262325186
 20
-91.2161761249
 30
0.0
 11
19.80064720275186
 21
-91.3891488041
 31
0.0
  0
LINE
  5
89
330
1F
100
AcDbEntity
  8
1
100
AcDbLine
 10
19.80064720275186
 20
-91.3891488041
 30
0.0
 11
20.22275239595186
 21
-91.5747576679
 31
0.0
  0
LINE
  5
8A
330
1F
100
AcDbEntity
  8
1
100
AcDbLine
 10
20.22275239595186
 20
-91.5747576679
 30
0.0
 11
20.29935181505186
 21
-91.7405703391
 31
0.0
  0
LINE
  5
8B
330
1F
100
AcDbEntity
  8
1
100
AcDbLine
 10
20.29935181505186
 20
-91.7405703391
 30
0.0
 11
20.00848859915186
 21
-91.8653303112
 31
0.0
  0
LINE
  5
8C
330
1F
100
AcDbEntity
  8
1
100
AcDbLine
 10
20.00848859915186
 20
-91.8653303112
 30
0.0
 11
19.35889482865186
 21
-91.9415124978
 31
0.0
  0
LINE
  5
8D
330
1F
100
AcDbEntity
  8
1
100
AcDbLine
 10
19.35889482865186
 20
-91.9415124978
 30
0.0
 11
18.42596292855186
 21
-91.9765451278
 31
0.0
  0
LINE
  5
8E
330
1F
100
AcDbEntity
  8
1
100
AcDbLine
 10
18.42596292855186
 20
-91.9765451278
 30
0.0
 11
17.36359954245186
 21
-91.9870131935
 31
0.0
  0
LINE
  5
8F
330
1F
100
AcDbEntity
  8
1
100
AcDbLine
 10
17.36359954245186
 20
-91.9870131935
 30
0.0
 11
16.32235110175186
 21
-91.9846513595
 31
0.0
  0
LINE
  5
90
330
1F
100
AcDbEntity
  8
1
100
AcDbLine
 10
16.32235110175186
 20
-91.9846513595
 30
0.0
 11
15.38101494675186
 21
-91.9688188757
 31
0.0
  0
LINE
  5
91
330
1F
100
AcDbEntity
  8
1
100
AcDbLine
 10
15.38101494675186
 20
-91.9688188757
 30
0.0
 11
14.59196120865186
 21
-91.9281983103
 31
0.0
  0
LINE
  5
92
330
1F
100
AcDbEntity
  8
1
100
AcDbLine
 10
14.59196120865186
 20
-91.9281983103
 30
0.0
 11
14.03637141355186
 21
-91.8452957
 31
0.0
  0
LINE
  5
93
330
1F
100
AcDbEntity
  8
1
100
AcDbLine
 10
14.03637141355186
 20
-91.8452957
 30
0.0
 11
13.81532758835186
 21
-91.7078622903
 31
0.0
  0
LINE
  5
94
330
1F
100
AcDbEntity
  8
1
100
AcDbLine
 10
13.81532758835186
 20
-91.7078622903
 30
0.0
 11
13.98711562525186
 21
-91.5255540337
 31
0.0
  0
LINE
  5
95
330
1F
100
AcDbEntity
  8
1
100
AcDbLine
 10
13.98711562525186
 20
-91.5255540337
 30
0.0
 11
14.52497303855186
 21
-91.331876191
 31
0.0
  0
LINE
  5
96
330
1F
100
AcDbEntity
  8
1
100
AcDbLine
 10
14.52497303855186
 20
-91.331876191
 30
0.0
 11
15.34661561615186
 21
-91.1676206912
 31
0.0
  0
LINE
  5
97
330
1F
100
AcDbEntity
  8
1
100
AcDbLine
 10
15.34661561615186
 20
-91.1676206912
 30
0.0
 11
16.35292828445186
 21
-91.0674178327
 31
0.0
  0
LINE
  5
98
330
1F
100
AcDbEntity
  8
1
100
AcDbLine
 10
16.35292828445186
 20
-91.0674178327
 30
0.0
 11
17.06439912685186
 21
-91.0476439918
 31
0.0
  0
LINE
  5
99
330
1F
100
AcDbEntity
  8
1
100
AcDbLine
 10
-3.635601099648139
 20
32.7440655504
 30
0.0
 11
-3.635601099648139
 21
32.1539981936
 31
0.0
  0
LINE
  5
9A
330
1F
100
AcDbEntity
  8
1
100
AcDbLine
 10
-3.635601099648139
 20
37.4999946629
 30
0.0
 11
-3.635601683848139
 21
36.7310320869
 31
0.0
  0
LINE
  5
9B
330
1F
100
AcDbEntity
  8
1
100
AcDbLine
 10
16.46439642075186
 20
37.4999946629
 30
0.0
 11
-3.635601099648139
 21
37.4999946629
 31
0.0
  0
LINE
  5
9C
330
1F
100
AcDbEntity
  8
1
100
AcDbLine
 10
16.96439743405186
 20
36.9999936496
 30
0.0
 11
16.46439642075186
 21
37.4999946629
 31
0.0
  0
LINE
  5
9E
330
1F
100
AcDbEntity
  8
1
100
AcDbLine
 10
16.96439743405186
 20
28.6356362302
 30
0.0
 11
-0.1375220620481388
 21
28.6356362302
 31
0.0
  0
LINE
  5
9F
330
1F
100
AcDbEntity
  8
1
100
AcDbLine
 10
-3.635601099648139
 20
31.9387769972
 30
0.0
 11
-3.635601683848139
 21
31.3188166499
 31
0.0
  0
LINE
  5
A0
330
1F
100
AcDbEntity
  8
SK4
100
AcDbLine
 10
32.22433741745186
 20
0.0
 30
0.0
 11
-6.334083240348138
 21
0.0
 31
0.0
  0
LINE
  5
A1
330
1F
100
AcDbEntity
  8
1
100
AcDbLine
 10
-0.1375231685481388
 20
-15.5500081101
 30
0.0
 11
-0.1375231685481388
 21
-16.4500075126
 31
0.0
  0
LINE
  5
A2
330
1F
100
AcDbEntity
  8
1
100
AcDbLine
 10
-0.1376274767481388
 20
-16.4500075126
 30
0.0
 11
-0.1375231685481388
 21
-16.4500075126
 31
0.0
  0
LINE
  5
A3
330
1F
100
AcDbEntity
  8
1
100
AcDbLine
 10
-0.1376274767481388
 20
-16.4500075126
 30
0.0
 11
-0.1376274767481388
 21
-16.5500092053
 31
0.0
  0
LINE
  5
A4
330
1F
100
AcDbEntity
  8
1
100
AcDbLine
 10
-0.1376274767481388
 20
-16.5500092053
 30
0.0
 11
-0.1375231685481388
 21
-16.5500092053
 31
0.0
  0
LINE
  5
A5
330
1F
100
AcDbEntity
  8
1
100
AcDbLine
 10
-0.1375231685481388
 20
-16.5500092053
 30
0.0
 11
-0.1375231685481388
 21
-17.4500076765
 31
0.0
  0
LINE
  5
A6
330
1F
100
AcDbEntity
  8
1
100
AcDbLine
 10
-0.1376274767481388
 20
-17.4500076765
 30
0.0
 11
-0.1375231685481388
 21
-17.4500076765
 31
0.0
  0
LINE
  5
A7
330
1F
100
AcDbEntity
  8
1
100
AcDbLine
 10
-0.1376274767481388
 20
-17.4500076765
 30
0.0
 11
-0.1376274767481388
 21
-17.5500075066
 31
0.0
  0
LINE
  5
A8
330
1F
100
AcDbEntity
  8
1
100
AcDbLine
 10
-0.1376274767481388
 20
-17.5500075066
 30
0.0
 11
-0.1375231685481388
 21
-17.5500075066
 31
0.0
  0
LINE
  5
A9
330
1F
100
AcDbEntity
  8
1
100
AcDbLine
 10
-0.1375231685481388
 20
-17.5500075066
 30
0.0
 11
-0.1375231685481388
 21
-18.4500078404
 31
0.0
  0
LINE
  5
AA
330
1F
100
AcDbEntity
  8
1
100
AcDbLine
 10
-0.1376274767481388
 20
-18.4500078404
 30
0.0
 11
-0.1375231685481388
 21
-18.4500078404
 31
0.0
  0
LINE
  5
AB
330
1F
100
AcDbEntity
  8
1
100
AcDbLine
 10
-0.1376274767481388
 20
-18.4500078404
 30
0.0
 11
-0.1376274767481388
 21
-18.5500076705
 31
0.0
  0
LINE
  5
AC
330
1F
100
AcDbEntity
  8
1
100
AcDbLine
 10
-0.1376274767481388
 20
-18.5500076705
 30
0.0
 11
-0.1375231685481388
 21
-18.5500076705
 31
0.0
  0
LINE
  5
AD
330
1F
100
AcDbEntity
  8
1
100
AcDbLine
 10
-0.1375231685481388
 20
-18.5500076705
 30
0.0
 11
-0.1375231685481388
 21
-19.4500080043
 31
0.0
  0
LINE
  5
AE
330
1F
100
AcDbEntity
  8
1
100
AcDbLine
 10
-0.1376274767481388
 20
-19.4500080043
 30
0.0
 11
-0.1375231685481388
 21
-19.4500080043
 31
0.0
  0
LINE
  5
AF
330
1F
100
AcDbEntity
  8
1
100
AcDbLine
 10
-0.1376274767481388
 20
-19.4500080043
 30
0.0
 11
-0.1376274767481388
 21
-19.5500078344
 31
0.0
  0
LINE
  5
B0
330
1F
100
AcDbEntity
  8
1
100
AcDbLine
 10
-0.1376274767481388
 20
-19.5500078344
 30
0.0
 11
-0.1375231685481388
 21
-19.5500078344
 31
0.0
  0
LINE
  5
B1
330
1F
100
AcDbEntity
  8
1
100
AcDbLine
 10
-0.1375231685481388
 20
-19.5500078344
 30
0.0
 11
-0.1375231685481388
 21
-20.4500081682
 31
0.0
  0
LINE
  5
B2
330
1F
100
AcDbEntity
  8
1
100
AcDbLine
 10
-0.1376274767481388
 20
-20.4500081682
 30
0.0
 11
-0.1375231685481388
 21
-20.4500081682
 31
0.0
  0
LINE
  5
B3
330
1F
100
AcDbEntity
  8
1
100
AcDbLine
 10
-0.1376274767481388
 20
-20.4500081682
 30
0.0
 11
-0.1376274767481388
 21
-20.5500079983
 31
0.0
  0
LINE
  5
B4
330
1F
100
AcDbEntity
  8
1
100
AcDbLine
 10
-0.1376274767481388
 20
-20.5500079983
 30
0.0
 11
-0.1375231685481388
 21
-20.5500079983
 31
0.0
  0
LINE
  5
B5
330
1F
100
AcDbEntity
  8
1
100
AcDbLine
 10
-0.1375231685481388
 20
-20.5500079983
 30
0.0
 11
-0.1375231685481388
 21
-21.4500083321
 31
0.0
  0
LINE
  5
B6
330
1F
100
AcDbEntity
  8
1
100
AcDbLine
 10
-0.1376274767481388
 20
-21.4500083321
 30
0.0
 11
-0.1375231685481388
 21
-21.4500083321
 31
0.0
  0
LINE
  5
B7
330
1F
100
AcDbEntity
  8
1
100
AcDbLine
 10
-0.1376274767481388
 20
-21.4500083321
 30
0.0
 11
-0.1376274767481388
 21
-21.5500081622
 31
0.0
  0
LINE
  5
B8
330
1F
100
AcDbEntity
  8
1
100
AcDbLine
 10
-0.1376274767481388
 20
-21.5500081622
 30
0.0
 11
-0.1375231685481388
 21
-21.5500081622
 31
0.0
  0
LINE
  5
B9
330
1F
100
AcDbEntity
  8
1
100
AcDbLine
 10
-0.1375231685481388
 20
-21.5500081622
 30
0.0
 11
-0.1375231685481388
 21
-22.450008496
 31
0.0
  0
LINE
  5
BA
330
1F
100
AcDbEntity
  8
1
100
AcDbLine
 10
-0.1376274767481388
 20
-22.450008496
 30
0.0
 11
-0.1375231685481388
 21
-22.450008496
 31
0.0
  0
LINE
  5
BB
330
1F
100
AcDbEntity
  8
1
100
AcDbLine
 10
-0.1376274767481388
 20
-22.450008496
 30
0.0
 11
-0.1376274767481388
 21
-22.5500083262
 31
0.0
  0
LINE
  5
BC
330
1F
100
AcDbEntity
  8
1
100
AcDbLine
 10
-0.1376274767481388
 20
-22.5500083262
 30
0.0
 11
-0.1375231685481388
 21
-22.5500083262
 31
0.0
  0
LINE
  5
BD
330
1F
100
AcDbEntity
  8
1
100
AcDbLine
 10
-0.1375231685481388
 20
-22.5500083262
 30
0.0
 11
-0.1375231685481388
 21
-23.4500086599
 31
0.0
  0
LINE
  5
BE
330
1F
100
AcDbEntity
  8
1
100
AcDbLine
 10
-0.1376274767481388
 20
-23.4500086599
 30
0.0
 11
-0.1375231685481388
 21
-23.4500086599
 31
0.0
  0
LINE
  5
BF
330
1F
100
AcDbEntity
  8
1
100
AcDbLine
 10
-0.1376274767481388
 20
-23.4500086599
 30
0.0
 11
-0.1376274767481388
 21
-23.5500084901
 31
0.0
  0
LINE
  5
C0
330
1F
100
AcDbEntity
  8
1
100
AcDbLine
 10
-0.1376274767481388
 20
-23.5500084901
 30
0.0
 11
-0.1375231685481388
 21
-23.5500084901
 31
0.0
  0
LINE
  5
C1
330
1F
100
AcDbEntity
  8
1
100
AcDbLine
 10
-0.1375231685481388
 20
-23.5500084901
 30
0.0
 11
-0.1375231685481388
 21
-24.4500088239
 31
0.0
  0
LINE
  5
C2
330
1F
100
AcDbEntity
  8
1
100
AcDbLine
 10
-0.1376274767481388
 20
-24.4500088239
 30
0.0
 11
-0.1375231685481388
 21
-24.4500088239
 31
0.0
  0
LINE
  5
C3
330
1F
100
AcDbEntity
  8
1
100
AcDbLine
 10
-0.1376274767481388
 20
-24.4500088239
 30
0.0
 11
-0.1376274767481388
 21
-24.550008654
 31
0.0
  0
LINE
  5
C4
330
1F
100
AcDbEntity
  8
1
100
AcDbLine
 10
-0.1376274767481388
 20
-24.550008654
 30
0.0
 11
-0.1375231685481388
 21
-24.550008654
 31
0.0
  0
LINE
  5
C5
330
1F
100
AcDbEntity
  8
1
100
AcDbLine
 10
-0.1375231685481388
 20
-24.550008654
 30
0.0
 11
-0.1375231685481388
 21
-25.4500089878
 31
0.0
  0
LINE
  5
C6
330
1F
100
AcDbEntity
  8
1
100
AcDbLine
 10
-0.1376274767481388
 20
-25.4500089878
 30
0.0
 11
-0.1375231685481388
 21
-25.4500089878
 31
0.0
  0
LINE
  5
C7
330
1F
100
AcDbEntity
  8
1
100
AcDbLine
 10
-0.1376274767481388
 20
-25.4500089878
 30
0.0
 11
-0.1376274767481388
 21
-25.5500088179
 31
0.0
  0
LINE
  5
C8
330
1F
100
AcDbEntity
  8
1
100
AcDbLine
 10
-0.1376274767481388
 20
-25.5500088179
 30
0.0
 11
-0.1375231685481388
 21
-25.5500088179
 31
0.0
  0
LINE
  5
C9
330
1F
100
AcDbEntity
  8
1
100
AcDbLine
 10
-0.1375231685481388
 20
-25.5500088179
 30
0.0
 11
-0.1375231685481388
 21
-26.4500091517
 31
0.0
  0
LINE
  5
CA
330
1F
100
AcDbEntity
  8
1
100
AcDbLine
 10
-0.1376274767481388
 20
-26.4500091517
 30
0.0
 11
-0.1375231685481388
 21
-26.4500091517
 31
0.0
  0
LINE
  5
CB
330
1F
100
AcDbEntity
  8
1
100
AcDbLine
 10
-0.1376274767481388
 20
-26.4500091517
 30
0.0
 11
-0.1376274767481388
 21
-26.5500089818
 31
0.0
  0
LINE
  5
CC
330
1F
100
AcDbEntity
  8
1
100
AcDbLine
 10
-0.1376274767481388
 20
-26.5500089818
 30
0.0
 11
-0.1375231685481388
 21
-26.5500089818
 31
0.0
  0
LINE
  5
CD
330
1F
100
AcDbEntity
  8
1
100
AcDbLine
 10
-0.1375231685481388
 20
-26.5500089818
 30
0.0
 11
-0.1375231685481388
 21
-27.4500093156
 31
0.0
  0
LINE
  5
CE
330
1F
100
AcDbEntity
  8
1
100
AcDbLine
 10
-0.1376274767481388
 20
-27.4500093156
 30
0.0
 11
-0.1375231685481388
 21
-27.4500093156
 31
0.0
  0
LINE
  5
CF
330
1F
100
AcDbEntity
  8
1
100
AcDbLine
 10
-0.1376274767481388
 20
-27.4500093156
 30
0.0
 11
-0.1376274767481388
 21
-27.5500091457
 31
0.0
  0
LINE
  5
D0
330
1F
100
AcDbEntity
  8
1
100
AcDbLine
 10
-0.1376274767481388
 20
-27.5500091457
 30
0.0
 11
-0.1375231685481388
 21
-27.5500091457
 31
0.0
  0
LINE
  5
D1
330
1F
100
AcDbEntity
  8
1
100
AcDbLine
 10
-0.1375231685481388
 20
-27.5500091457
 30
0.0
 11
-0.1375231685481388
 21
-28.4500076169
 31
0.0
  0
LINE
  5
D2
330
1F
100
AcDbEntity
  8
1
100
AcDbLine
 10
-0.1376274767481388
 20
-28.4500076169
 30
0.0
 11
-0.1375231685481388
 21
-28.4500076169
 31
0.0
  0
LINE
  5
D3
330
1F
100
AcDbEntity
  8
1
100
AcDbLine
 10
-0.1376274767481388
 20
-28.4500076169
 30
0.0
 11
-0.1376274767481388
 21
-28.5500093096
 31
0.0
  0
LINE
  5
D4
330
1F
100
AcDbEntity
  8
1
100
AcDbLine
 10
-0.1376274767481388
 20
-28.5500093096
 30
0.0
 11
-0.1375231685481388
 21
-28.5500093096
 31
0.0
  0
LINE
  5
D5
330
1F
100
AcDbEntity
  8
1
100
AcDbLine
 10
-0.1375231685481388
 20
-28.5500093096
 30
0.0
 11
-0.1375231685481388
 21
-29.4500077808
 31
0.0
  0
LINE
  5
D6
330
1F
100
AcDbEntity
  8
1
100
AcDbLine
 10
-0.1376274767481388
 20
-29.4500077808
 30
0.0
 11
-0.1375231685481388
 21
-29.4500077808
 31
0.0
  0
LINE
  5
D7
330
1F
100
AcDbEntity
  8
1
100
AcDbLine
 10
-0.1376274767481388
 20
-29.4500077808
 30
0.0
 11
-0.1376274767481388
 21
-29.5500076109
 31
0.0
  0
LINE
  5
D8
330
1F
100
AcDbEntity
  8
1
100
AcDbLine
 10
-0.1376274767481388
 20
-29.5500076109
 30
0.0
 11
-0.1375231685481388
 21
-29.5500076109
 31
0.0
  0
LINE
  5
D9
330
1F
100
AcDbEntity
  8
1
100
AcDbLine
 10
-0.1375231685481388
 20
-29.5500076109
 30
0.0
 11
-0.1375231685481388
 21
-30.4500079447
 31
0.0
  0
LINE
  5
DA
330
1F
100
AcDbEntity
  8
1
100
AcDbLine
 10
-0.1376274767481388
 20
-30.4500079447
 30
0.0
 11
-0.1375231685481388
 21
-30.4500079447
 31
0.0
  0
LINE
  5
DB
330
1F
100
AcDbEntity
  8
1
100
AcDbLine
 10
-0.1376274767481388
 20
-30.4500079447
 30
0.0
 11
-0.1376274767481388
 21
-30.5500077748
 31
0.0
  0
LINE
  5
DC
330
1F
100
AcDbEntity
  8
1
100
AcDbLine
 10
-0.1376274767481388
 20
-30.5500077748
 30
0.0
 11
-0.1375231685481388
 21
-30.5500077748
 31
0.0
  0
LINE
  5
DD
330
1F
100
AcDbEntity
  8
1
100
AcDbLine
 10
-0.1375231685481388
 20
-30.5500077748
 30
0.0
 11
-0.1375231685481388
 21
-60.0333335543
 31
0.0
  0
LINE
  5
DE
330
1F
100
AcDbEntity
  8
1
100
AcDbLine
 10
-0.1375220620481388
 20
28.6356362302
 30
0.0
 11
-0.1375220620481388
 21
-15.45000828
 31
0.0
  0
LINE
  5
DF
330
1F
100
AcDbEntity
  8
1
100
AcDbLine
 10
-0.1376274767481388
 20
-15.45000828
 30
0.0
 11
-0.1375220620481388
 21
-15.45000828
 31
0.0
  0
LINE
  5
E0
330
1F
100
AcDbEntity
  8
1
100
AcDbLine
 10
-0.1376274767481388
 20
-15.45000828
 30
0.0
 11
-0.1376274767481388
 21
-15.5500081101
 31
0.0
  0
LINE
  5
E1
330
1F
100
AcDbEntity
  8
1
100
AcDbLine
 10
-0.1376274767481388
 20
-15.5500081101
 30
0.0
 11
-0.1375231685481388
 21
-15.5500081101
 31
0.0
  0
LINE
  5
E2
330
1F
100
AcDbEntity
  8
1
100
AcDbLine
 10
-0.3875276397481388
 20
-67.5294374037
 30
0.0
 11
-0.3744369696481388
 21
-67.5315682698
 31
0.0
  0
LINE
  5
E3
330
1F
100
AcDbEntity
  8
1
100
AcDbLine
 10
-0.3744369696481388
 20
-67.5315682698
 30
0.0
 11
-0.2522772501481387
 21
-67.5605286765
 31
0.0
  0
LINE
  5
E4
330
1F
100
AcDbEntity
  8
1
100
AcDbLine
 10
-0.2522772501481387
 20
-67.5605286765
 30
0.0
 11
-0.1693969915481388
 21
-67.5991524864
 31
0.0
  0
LINE
  5
E5
330
1F
100
AcDbEntity
  8
1
100
AcDbLine
 10
-0.1693969915481388
 20
-67.5991524864
 30
0.0
 11
-0.1376053641481388
 21
-67.6437516618
 31
0.0
  0
LINE
  5
E6
330
1F
100
AcDbEntity
  8
1
100
AcDbLine
 10
-0.1376053641481388
 20
-67.6437516618
 30
0.0
 11
-0.1645693146481388
 21
-67.6890977944
 31
0.0
  0
LINE
  5
E7
330
1F
100
AcDbEntity
  8
1
100
AcDbLine
 10
-0.1645693146481388
 20
-67.6890977944
 30
0.0
 11
-0.2491706573481388
 21
-67.7291595663
 31
0.0
  0
LINE
  5
E8
330
1F
100
AcDbEntity
  8
1
100
AcDbLine
 10
-0.2491706573481388
 20
-67.7291595663
 30
0.0
 11
-0.3795930706481387
 21
-67.758671316
 31
0.0
  0
LINE
  5
E9
330
1F
100
AcDbEntity
  8
1
100
AcDbLine
 10
-0.3795930706481387
 20
-67.758671316
 30
0.0
 11
-0.3875254724481387
 21
-67.7598840013
 31
0.0
  0
LINE
  5
EA
330
1F
100
AcDbEntity
  8
1
100
AcDbLine
 10
-3.635601099648139
 20
-66.5542700614
 30
0.0
 11
-3.635601683748139
 21
-66.9893592601
 31
0.0
  0
LINE
  5
EB
330
1F
100
AcDbEntity
  8
1
100
AcDbLine
 10
-0.3875281349481388
 20
-65.5974748626
 30
0.0
 11
-0.3789599672481387
 21
-65.5993598595
 31
0.0
  0
LINE
  5
EC
330
1F
100
AcDbEntity
  8
1
100
AcDbLine
 10
-0.3789599672481387
 20
-65.5993598595
 30
0.0
 11
-0.2586479917481388
 21
-65.6371343031
 31
0.0
  0
LINE
  5
ED
330
1F
100
AcDbEntity
  8
1
100
AcDbLine
 10
-0.2586479917481388
 20
-65.6371343031
 30
0.0
 11
-0.1738007799481388
 21
-65.6885954633
 31
0.0
  0
LINE
  5
EE
330
1F
100
AcDbEntity
  8
1
100
AcDbLine
 10
-0.1738007799481388
 20
-65.6885954633
 30
0.0
 11
-0.1379262343481388
 21
-65.7498094335
 31
0.0
  0
LINE
  5
EF
330
1F
100
AcDbEntity
  8
1
100
AcDbLine
 10
-0.1379262343481388
 20
-65.7498094335
 30
0.0
 11
-0.1624157715481388
 21
-65.8137883866
 31
0.0
  0
LINE
  5
F0
330
1F
100
AcDbEntity
  8
1
100
AcDbLine
 10
-0.1624157715481388
 20
-65.8137883866
 30
0.0
 11
-0.2486264396481388
 21
-65.8709864938
 31
0.0
  0
LINE
  5
F1
330
1F
100
AcDbEntity
  8
1
100
AcDbLine
 10
-0.2486264396481388
 20
-65.8709864938
 30
0.0
 11
-0.3828859020481388
 21
-65.9125979865
 31
0.0
  0
LINE
  5
F2
330
1F
100
AcDbEntity
  8
1
100
AcDbLine
 10
-0.3828859020481388
 20
-65.9125979865
 30
0.0
 11
-0.3875251471481388
 21
-65.9135663958
 31
0.0
  0
LINE
  5
F3
330
1F
100
AcDbEntity
  8
1
100
AcDbLine
 10
-3.635601099648139
 20
-64.2897331442
 30
0.0
 11
-3.635601683748139
 21
-64.8681334761
 31
0.0
  0
LINE
  5
F4
330
1F
100
AcDbEntity
  8
1
100
AcDbLine
 10
-0.3875280696481388
 20
-63.0383415464
 30
0.0
 11
-0.3840337473481388
 21
-63.039325023
 31
0.0
  0
LINE
  5
F5
330
1F
100
AcDbEntity
  8
1
100
AcDbLine
 10
-0.3840337473481388
 20
-63.039325023
 30
0.0
 11
-0.2664784866481388
 21
-63.085496271
 31
0.0
  0
LINE
  5
F6
330
1F
100
AcDbEntity
  8
1
100
AcDbLine
 10
-0.2664784866481388
 20
-63.085496271
 30
0.0
 11
-0.1795972663481388
 21
-63.1499437932
 31
0.0
  0
LINE
  5
F7
330
1F
100
AcDbEntity
  8
1
100
AcDbLine
 10
-0.1795972663481388
 20
-63.1499437932
 30
0.0
 11
-0.1386786776481388
 21
-63.2294638399
 31
0.0
  0
LINE
  5
F8
330
1F
100
AcDbEntity
  8
1
100
AcDbLine
 10
-0.1386786776481388
 20
-63.2294638399
 30
0.0
 11
-0.1599132246481388
 21
-63.315522925
 31
0.0
  0
LINE
  5
F9
330
1F
100
AcDbEntity
  8
1
100
AcDbLine
 10
-0.1599132246481388
 20
-63.315522925
 30
0.0
 11
-0.2487986512481388
 21
-63.3937689225
 31
0.0
  0
LINE
  5
FA
330
1F
100
AcDbEntity
  8
1
100
AcDbLine
 10
-0.2487986512481388
 20
-63.3937689225
 30
0.0
 11
-0.3875259953481388
 21
-63.4491438807
 31
0.0
  0
LINE
  5
FB
330
1F
100
AcDbEntity
  8
1
100
AcDbLine
 10
-3.635601099648139
 20
-61.3585331763
 30
0.0
 11
-3.635601683748139
 21
-62.0981096204
 31
0.0
  0
LINE
  5
FC
330
1F
100
AcDbEntity
  8
1
100
AcDbLine
 10
-0.1375231685481388
 20
-60.0333335543
 30
0.0
 11
9.01439709635186
 21
-60.0333335543
 31
0.0
  0
LINE
  5
FD
330
1F
100
AcDbEntity
  8
1
100
AcDbLine
 10
-0.1792691829481388
 20
-69.9997317254
 30
0.0
 11
9.01439709635186
 21
-69.9997317254
 31
0.0
  0
LINE
  5
FE
330
1F
100
AcDbEntity
  8
1
100
AcDbLine
 10
-3.635600967148139
 20
-69.9025970264
 30
0.0
 11
-3.635601551348139
 21
-69.9619440953
 31
0.0
  0
LINE
  5
FF
330
1F
100
AcDbEntity
  8
1
100
AcDbLine
 10
-0.3875278133481388
 20
-69.7037855118
 30
0.0
 11
-0.2582304376481388
 21
-69.7135979265
 31
0.0
  0
LINE
  5
100
330
1F
100
AcDbEntity
  8
1
100
AcDbLine
 10
-0.2582304376481388
 20
-69.7135979265
 30
0.0
 11
-0.1718260544481388
 21
-69.7265023321
 31
0.0
  0
LINE
  5
101
330
1F
100
AcDbEntity
  8
1
100
AcDbLine
 10
-0.1718260544481388
 20
-69.7265023321
 30
0.0
 11
-0.1378290551481388
 21
-69.7408968538
 31
0.0
  0
LINE
  5
102
330
1F
100
AcDbEntity
  8
1
100
AcDbLine
 10
-0.1378290551481388
 20
-69.7408968538
 30
0.0
 11
-0.1604266661481388
 21
-69.755105111
 31
0.0
  0
LINE
  5
103
330
1F
100
AcDbEntity
  8
1
100
AcDbLine
 10
-0.1604266661481388
 20
-69.755105111
 30
0.0
 11
-0.2372645038481388
 21
-69.7675252288
 31
0.0
  0
LINE
  5
104
330
1F
100
AcDbEntity
  8
1
100
AcDbLine
 10
-0.2372645038481388
 20
-69.7675252288
 30
0.0
 11
-0.3594391244481387
 21
-69.7768980592
 31
0.0
  0
LINE
  5
105
330
1F
100
AcDbEntity
  8
1
100
AcDbLine
 10
-0.3594391244481387
 20
-69.7768980592
 30
0.0
 11
-0.3875253467481388
 21
-69.7782949256
 31
0.0
  0
LINE
  5
106
330
1F
100
AcDbEntity
  8
1
100
AcDbLine
 10
-3.635600820348139
 20
-69.3258370276
 30
0.0
 11
-3.635601404548139
 21
-69.505206234
 31
0.0
  0
LINE
  5
107
330
1F
100
AcDbEntity
  8
1
100
AcDbLine
 10
-0.3875279243481388
 20
-68.8870169038
 30
0.0
 11
-0.3709280307481387
 21
-68.8888273948
 31
0.0
  0
LINE
  5
108
330
1F
100
AcDbEntity
  8
1
100
AcDbLine
 10
-0.3709280307481387
 20
-68.8888273948
 30
0.0
 11
-0.2476060207481388
 21
-68.9085714334
 31
0.0
  0
LINE
  5
109
330
1F
100
AcDbEntity
  8
1
100
AcDbLine
 10
-0.2476060207481388
 20
-68.9085714334
 30
0.0
 11
-0.1663499887481388
 21
-68.9344398493
 31
0.0
  0
LINE
  5
10A
330
1F
100
AcDbEntity
  8
1
100
AcDbLine
 10
-0.1663499887481388
 20
-68.9344398493
 30
0.0
 11
-0.1375236923481388
 21
-68.9635865206
 31
0.0
  0
LINE
  5
10B
330
1F
100
AcDbEntity
  8
1
100
AcDbLine
 10
-0.1375236923481388
 20
-68.9635865206
 30
0.0
 11
-0.1661935265481388
 21
-68.9925916308
 31
0.0
  0
LINE
  5
10C
330
1F
100
AcDbEntity
  8
1
100
AcDbLine
 10
-0.1661935265481388
 20
-68.9925916308
 30
0.0
 11
-0.2498262937481388
 21
-69.0179608578
 31
0.0
  0
LINE
  5
10D
330
1F
100
AcDbEntity
  8
1
100
AcDbLine
 10
-0.2498262937481388
 20
-69.0179608578
 30
0.0
 11
-0.3779688294481388
 21
-69.0367661232
 31
0.0
  0
LINE
  5
10E
330
1F
100
AcDbEntity
  8
1
100
AcDbLine
 10
-0.3779688294481388
 20
-69.0367661232
 30
0.0
 11
-0.3875254577481387
 21
-69.0377123426
 31
0.0
  0
LINE
  5
10F
330
1F
100
AcDbEntity
  8
1
100
AcDbLine
 10
-3.635601683748139
 20
-68.2185544991
 30
0.0
 11
-3.635601683748139
 21
-68.5220676824
 31
0.0
  0
LINE
  5
110
330
1F
100
AcDbEntity
  8
1
100
AcDbLine
 10
16.96439743405186
 20
12.8397404004
 30
0.0
 11
16.96439743405186
 21
36.9999936496
 31
0.0
  0
LINE
  5
111
330
1F
100
AcDbEntity
  8
1
100
AcDbLine
 10
17.63427047425186
 20
10.3397404325
 30
0.0
 11
46.81440271445186
 21
-40.2017216753
 31
0.0
  0
LINE
  5
114
330
1F
100
AcDbEntity
  8
1
100
AcDbLine
 10
-3.635601099648139
 20
-61.3585331763
 30
0.0
 11
-3.685601946048139
 21
-61.3173426415
 31
0.0
  0
LINE
  5
115
330
1F
100
AcDbEntity
  8
1
100
AcDbLine
 10
-3.685601946048139
 20
31.276431558
 30
0.0
 11
-3.635601683848139
 21
31.3188166499
 31
0.0
  0
LINE
  5
116
330
1F
100
AcDbEntity
  8
1
100
AcDbLine
 10
-3.635601099648139
 20
31.9387769972
 30
0.0
 11
-3.645599778848139
 21
31.9318107043
 31
0.0
  0
LINE
  5
117
330
1F
100
AcDbEntity
  8
1
100
AcDbLine
 10
-3.935598727348139
 20
31.3730469619
 30
0.0
 11
-3.925719257548139
 21
31.282373396
 31
0.0
  0
LINE
  5
118
330
1F
100
AcDbEntity
  8
1
100
AcDbLine
 10
-3.925719257548139
 20
31.282373396
 30
0.0
 11
-3.898882266248139
 21
31.2264456128
 31
0.0
  0
LINE
  5
119
330
1F
100
AcDbEntity
  8
1
100
AcDbLine
 10
-3.898882266248139
 20
31.2264456128
 30
0.0
 11
-3.859334584448139
 21
31.2015085195
 31
0.0
  0
LINE
  5
11A
330
1F
100
AcDbEntity
  8
1
100
AcDbLine
 10
-3.859334584448139
 20
31.2015085195
 30
0.0
 11
-3.804341849048139
 21
31.204581884
 31
0.0
  0
LINE
  5
11B
330
1F
100
AcDbEntity
  8
1
100
AcDbLine
 10
-3.804341849048139
 20
31.204581884
 30
0.0
 11
-3.747605677748139
 21
31.230869395
 31
0.0
  0
LINE
  5
11C
330
1F
100
AcDbEntity
  8
1
100
AcDbLine
 10
-3.747605677748139
 20
31.230869395
 30
0.0
 11
-3.685601946048139
 21
31.276431558
 31
0.0
  0
LINE
  5
11E
330
1F
100
AcDbEntity
  8
1
100
AcDbLine
 10
-3.635601099648139
 20
32.7440655504
 30
0.0
 11
-3.685601946048139
 21
32.6452186977
 31
0.0
  0
LINE
  5
11F
330
1F
100
AcDbEntity
  8
1
100
AcDbLine
 10
-3.645599778848139
 20
32.1470281755
 30
0.0
 11
-3.635601099648139
 21
32.1539981936
 31
0.0
  0
LINE
  5
120
330
1F
100
AcDbEntity
  8
1
100
AcDbLine
 10
-3.645599778848139
 20
32.1470281755
 30
0.0
 11
-3.645599778848139
 21
31.9318107043
 31
0.0
  0
LINE
  5
122
330
1F
100
AcDbEntity
  8
1
100
AcDbLine
 10
-3.685601946048139
 20
-61.3173426415
 30
0.0
 11
-3.765718039248139
 21
-61.2574995781
 31
0.0
  0
LINE
  5
123
330
1F
100
AcDbEntity
  8
1
100
AcDbLine
 10
-3.765718039248139
 20
-61.2574995781
 30
0.0
 11
-3.842622932148139
 21
-61.2164580549
 31
0.0
  0
LINE
  5
124
330
1F
100
AcDbEntity
  8
1
100
AcDbLine
 10
-3.842622932148139
 20
-61.2164580549
 30
0.0
 11
-3.900975879348139
 21
-61.2087653304
 31
0.0
  0
LINE
  5
125
330
1F
100
AcDbEntity
  8
1
100
AcDbLine
 10
-3.900975879348139
 20
-61.2087653304
 30
0.0
 11
-3.928677138048139
 21
-61.2316572393
 31
0.0
  0
LINE
  5
126
330
1F
100
AcDbEntity
  8
1
100
AcDbLine
 10
-3.928677138048139
 20
-61.2316572393
 30
0.0
 11
-3.935598727348139
 21
-61.2688281859
 31
0.0
  0
LINE
  5
127
330
1F
100
AcDbEntity
  8
1
100
AcDbLine
 10
-3.685601946048139
 20
-62.0267012442
 30
0.0
 11
-3.635601683748139
 21
-62.0981096204
 31
0.0
  0
LINE
  5
129
330
1F
100
AcDbEntity
  8
1
100
AcDbLine
 10
-3.635601099648139
 20
-64.2897331442
 30
0.0
 11
-3.685601946048139
 21
-64.2477267708
 31
0.0
  0
LINE
  5
12A
330
1F
100
AcDbEntity
  8
1
100
AcDbLine
 10
-3.685601946048139
 20
36.6901798819
 30
0.0
 11
-3.635601683848139
 21
36.7310320869
 31
0.0
  0
LINE
  5
12B
330
1F
100
AcDbEntity
  8
1
100
AcDbLine
 10
-3.935598727348139
 20
36.7018512164
 30
0.0
 11
-3.929764922748139
 21
36.6524836694
 31
0.0
  0
LINE
  5
12C
330
1F
100
AcDbEntity
  8
1
100
AcDbLine
 10
-3.929764922748139
 20
36.6524836694
 30
0.0
 11
-3.902160521648139
 21
36.6095608746
 31
0.0
  0
LINE
  5
12D
330
1F
100
AcDbEntity
  8
1
100
AcDbLine
 10
-3.902160521648139
 20
36.6095608746
 30
0.0
 11
-3.858664032148139
 21
36.598902819
 31
0.0
  0
LINE
  5
12E
330
1F
100
AcDbEntity
  8
1
100
AcDbLine
 10
-3.858664032148139
 20
36.598902819
 30
0.0
 11
-3.799774643148139
 21
36.6153425251
 31
0.0
  0
LINE
  5
12F
330
1F
100
AcDbEntity
  8
1
100
AcDbLine
 10
-3.799774643148139
 20
36.6153425251
 30
0.0
 11
-3.714264329648139
 21
36.667749909
 31
0.0
  0
LINE
  5
130
330
1F
100
AcDbEntity
  8
1
100
AcDbLine
 10
-3.714264329648139
 20
36.667749909
 30
0.0
 11
-3.685601946048139
 21
36.6901798819
 31
0.0
  0
LINE
  5
132
330
1F
100
AcDbEntity
  8
1
100
AcDbLine
 10
-3.889315720748139
 20
37.2462800418
 30
0.0
 11
-3.930696245348139
 21
37.0948954199
 31
0.0
  0
LINE
  5
133
330
1F
100
AcDbEntity
  8
1
100
AcDbLine
 10
-3.930696245348139
 20
37.0948954199
 30
0.0
 11
-3.935598727348139
 21
37.0384609972
 31
0.0
  0
LINE
  5
134
330
1F
100
AcDbEntity
  8
1
100
AcDbLine
 10
-3.635601099648139
 20
37.4999946629
 30
0.0
 11
-3.889315720748139
 21
37.2462800418
 31
0.0
  0
LINE
  5
136
330
1F
100
AcDbEntity
  8
1
100
AcDbLine
 10
-3.685601946048139
 20
-64.2477267708
 30
0.0
 11
-3.774412866748139
 21
-64.1791441764
 31
0.0
  0
LINE
  5
137
330
1F
100
AcDbEntity
  8
1
100
AcDbLine
 10
-3.774412866748139
 20
-64.1791441764
 30
0.0
 11
-3.852845128748139
 21
-64.1333752598
 31
0.0
  0
LINE
  5
138
330
1F
100
AcDbEntity
  8
1
100
AcDbLine
 10
-3.852845128748139
 20
-64.1333752598
 30
0.0
 11
-3.909678157548139
 21
-64.121469232
 31
0.0
  0
LINE
  5
139
330
1F
100
AcDbEntity
  8
1
100
AcDbLine
 10
-3.909678157548139
 20
-64.121469232
 30
0.0
 11
-3.932961221848139
 21
-64.1420179333
 31
0.0
  0
LINE
  5
13A
330
1F
100
AcDbEntity
  8
1
100
AcDbLine
 10
-3.932961221848139
 20
-64.1420179333
 30
0.0
 11
-3.935598727348139
 21
-64.1609498586
 31
0.0
  0
LINE
  5
13B
330
1F
100
AcDbEntity
  8
1
100
AcDbLine
 10
-3.685601946048139
 20
-64.8024522985
 30
0.0
 11
-3.635601683748139
 21
-64.8681334761
 31
0.0
  0
LINE
  5
13E
330
1F
100
AcDbEntity
  8
1
100
AcDbLine
 10
-3.635601099648139
 20
-66.5542700614
 30
0.0
 11
-3.685601946048139
 21
-66.5110864962
 31
0.0
  0
LINE
  5
140
330
1F
100
AcDbEntity
  8
1
100
AcDbLine
 10
-3.685601946048139
 20
-66.5110864962
 30
0.0
 11
-3.782697912348139
 21
-66.432765993
 31
0.0
  0
LINE
  5
141
330
1F
100
AcDbEntity
  8
1
100
AcDbLine
 10
-3.782697912348139
 20
-66.432765993
 30
0.0
 11
-3.861994441648139
 21
-66.3814389433
 31
0.0
  0
LINE
  5
142
330
1F
100
AcDbEntity
  8
1
100
AcDbLine
 10
-3.861994441648139
 20
-66.3814389433
 30
0.0
 11
-3.916748758448139
 21
-66.3643026079
 31
0.0
  0
LINE
  5
143
330
1F
100
AcDbEntity
  8
1
100
AcDbLine
 10
-3.916748758448139
 20
-66.3643026079
 30
0.0
 11
-3.935136791448139
 21
-66.3817369665
 31
0.0
  0
LINE
  5
144
330
1F
100
AcDbEntity
  8
1
100
AcDbLine
 10
-3.935136791448139
 20
-66.3817369665
 30
0.0
 11
-3.935598727348139
 21
-66.3881444658
 31
0.0
  0
LINE
  5
145
330
1F
100
AcDbEntity
  8
1
100
AcDbLine
 10
-3.685601946048139
 20
-66.928348812
 30
0.0
 11
-3.635601683748139
 21
-66.9893592601
 31
0.0
  0
LINE
  5
147
330
1F
100
AcDbEntity
  8
1
100
AcDbLine
 10
-3.635601683748139
 20
-68.2185544991
 30
0.0
 11
-3.685601946048139
 21
-68.1738847221
 31
0.0
  0
LINE
  5
149
330
1F
100
AcDbEntity
  8
1
100
AcDbLine
 10
-3.685601946048139
 20
-68.1738847221
 30
0.0
 11
-3.790692385348139
 21
-68.0846416677
 31
0.0
  0
LINE
  5
14A
330
1F
100
AcDbEntity
  8
1
100
AcDbLine
 10
-3.790692385348139
 20
-68.0846416677
 30
0.0
 11
-3.870301839048139
 21
-68.026936921
 31
0.0
  0
LINE
  5
14B
330
1F
100
AcDbEntity
  8
1
100
AcDbLine
 10
-3.870301839048139
 20
-68.026936921
 30
0.0
 11
-3.916599746848139
 21
-68.0045255746
 31
0.0
  0
LINE
  5
14C
330
1F
100
AcDbEntity
  8
1
100
AcDbLine
 10
-3.916599746848139
 20
-68.0045255746
 30
0.0
 11
-3.935345407648139
 21
-68.01242319
 31
0.0
  0
LINE
  5
14D
330
1F
100
AcDbEntity
  8
1
100
AcDbLine
 10
-3.935345407648139
 20
-68.01242319
 30
0.0
 11
-3.935598727348139
 21
-68.0157535995
 31
0.0
  0
LINE
  5
14E
330
1F
100
AcDbEntity
  8
1
100
AcDbLine
 10
-3.685601945948139
 20
-68.4649491037
 30
0.0
 11
-3.635601683748139
 21
-68.5220676824
 31
0.0
  0
LINE
  5
150
330
1F
100
AcDbEntity
  8
1
100
AcDbLine
 10
-3.635600820348139
 20
-69.3258370276
 30
0.0
 11
-3.685601666748139
 21
-69.2793826576
 31
0.0
  0
LINE
  5
152
330
1F
100
AcDbEntity
  8
1
100
AcDbLine
 10
-3.685601666748139
 20
-69.4513942118
 30
0.0
 11
-3.635601404548139
 21
-69.505206234
 31
0.0
  0
LINE
  5
154
330
1F
100
AcDbEntity
  8
1
100
AcDbLine
 10
-3.635600967148139
 20
-69.9025970264
 30
0.0
 11
-3.685601813548139
 21
-69.8540490432
 31
0.0
  0
LINE
  5
155
330
1F
100
AcDbEntity
  8
1
100
AcDbLine
 10
-3.685601813548139
 20
-69.9109565778
 30
0.0
 11
-3.635601551348139
 21
-69.9619440953
 31
0.0
  0
LINE
  5
156
330
1F
100
AcDbEntity
  8
1
100
AcDbLine
 10
-3.935598727348139
 20
37.0384609972
 30
0.0
 11
-3.935598727348139
 21
-69.64493480570002
 31
0.0
  0
LINE
  5
158
330
1F
100
AcDbEntity
  8
1
100
AcDbLine
 10
23.44750523935186
 20
85.8616313611
 30
0.0
 11
23.41861933835186
 21
85.7229835068
 31
0.0
  0
LINE
  5
159
330
1F
100
AcDbEntity
  8
1
100
AcDbLine
 10
23.41861933835186
 20
85.7229835068
 30
0.0
 11
23.33163380985186
 21
85.6070673739
 31
0.0
  0
LINE
  5
15A
330
1F
100
AcDbEntity
  8
1
100
AcDbLine
 10
23.33163380985186
 20
85.6070673739
 30
0.0
 11
23.06632608535186
 21
85.4695073043
 31
0.0
  0
LINE
  5
15B
330
1F
100
AcDbEntity
  8
1
100
AcDbLine
 10
23.06632608535186
 20
85.4695073043
 30
0.0
 11
22.46113032465186
 21
85.3965586697
 31
0.0
  0
LINE
  5
15C
330
1F
100
AcDbEntity
  8
1
100
AcDbLine
 10
22.46113032465186
 20
86.3237387215
 30
0.0
 11
23.06541711455186
 21
86.2517139588
 31
0.0
  0
LINE
  5
15D
330
1F
100
AcDbEntity
  8
1
100
AcDbLine
 10
23.06541711455186
 20
86.2517139588
 30
0.0
 11
23.33075464135186
 21
86.1151597177
 31
0.0
  0
LINE
  5
15E
330
1F
100
AcDbEntity
  8
1
100
AcDbLine
 10
23.33075464135186
 20
86.1151597177
 30
0.0
 11
23.41811269885186
 21
85.9998992358
 31
0.0
  0
LINE
  5
15F
330
1F
100
AcDbEntity
  8
1
100
AcDbLine
 10
23.41811269885186
 20
85.9998992358
 30
0.0
 11
23.44750523935186
 21
85.8616313611
 31
0.0
  0
LINE
  5
160
330
1F
100
AcDbEntity
  8
1
100
AcDbLine
 10
21.47314608465186
 20
85.8616313611
 30
0.0
 11
21.50258332855186
 21
86.0000631486
 31
0.0
  0
LINE
  5
161
330
1F
100
AcDbEntity
  8
1
100
AcDbLine
 10
21.50258332855186
 20
86.0000631486
 30
0.0
 11
21.59032136565186
 21
86.1153385316
 31
0.0
  0
LINE
  5
162
330
1F
100
AcDbEntity
  8
1
100
AcDbLine
 10
21.59032136565186
 20
86.1153385316
 30
0.0
 11
21.85612082845186
 21
86.2517586623
 31
0.0
  0
LINE
  5
163
330
1F
100
AcDbEntity
  8
1
100
AcDbLine
 10
21.85612082845186
 20
86.2517586623
 30
0.0
 11
22.46113032465186
 21
86.3237387215
 31
0.0
  0
LINE
  5
164
330
1F
100
AcDbEntity
  8
1
100
AcDbLine
 10
22.46113032465186
 20
85.3965586697
 30
0.0
 11
21.85541302325186
 21
85.4695073043
 31
0.0
  0
LINE
  5
165
330
1F
100
AcDbEntity
  8
1
100
AcDbLine
 10
21.85541302325186
 20
85.4695073043
 30
0.0
 11
21.58981472615186
 21
85.6072461878
 31
0.0
  0
LINE
  5
166
330
1F
100
AcDbEntity
  8
1
100
AcDbLine
 10
21.58981472615186
 20
85.6072461878
 30
0.0
 11
21.50237471225186
 21
85.722961155
 31
0.0
  0
LINE
  5
167
330
1F
100
AcDbEntity
  8
1
100
AcDbLine
 10
21.50237471225186
 20
85.722961155
 30
0.0
 11
21.47314608465186
 21
85.8616313611
 31
0.0
  0
LINE
  5
168
330
1F
100
AcDbEntity
  8
1
100
AcDbLine
 10
20.56404114135186
 20
88.2940075074
 30
0.0
 11
20.49348414305186
 21
88.897571591
 31
0.0
  0
LINE
  5
169
330
1F
100
AcDbEntity
  8
1
100
AcDbLine
 10
20.49348414305186
 20
88.897571591
 30
0.0
 11
20.30292064315186
 21
89.478389052
 31
0.0
  0
LINE
  5
16A
330
1F
100
AcDbEntity
  8
1
100
AcDbLine
 10
20.30292064315186
 20
89.478389052
 30
0.0
 11
19.99901146065186
 21
90.016127256
 31
0.0
  0
LINE
  5
16B
330
1F
100
AcDbEntity
  8
1
100
AcDbLine
 10
19.99901146065186
 20
90.016127256
 30
0.0
 11
19.59239602455186
 21
90.491973487
 31
0.0
  0
LINE
  5
16C
330
1F
100
AcDbEntity
  8
1
100
AcDbLine
 10
19.59239602455186
 20
90.491973487
 30
0.0
 11
19.09729749325186
 21
90.8892756973
 31
0.0
  0
LINE
  5
16D
330
1F
100
AcDbEntity
  8
1
100
AcDbLine
 10
19.09729749325186
 20
90.8892756973
 30
0.0
 11
18.53106081845186
 21
91.194123653
 31
0.0
  0
LINE
  5
16E
330
1F
100
AcDbEntity
  8
1
100
AcDbLine
 10
18.53106081845186
 20
91.194123653
 30
0.0
 11
17.91348964345186
 21
91.3958481227
 31
0.0
  0
LINE
  5
16F
330
1F
100
AcDbEntity
  8
1
100
AcDbLine
 10
17.91348964345186
 20
91.3958481227
 30
0.0
 11
17.26619810235186
 21
91.4873934065
 31
0.0
  0
LINE
  5
170
330
1F
100
AcDbEntity
  8
1
100
AcDbLine
 10
17.26619810235186
 20
91.4873934065
 30
0.0
 11
16.61184341075186
 21
91.4655483042
 31
0.0
  0
LINE
  5
171
330
1F
100
AcDbEntity
  8
1
100
AcDbLine
 10
16.61184341075186
 20
91.4655483042
 30
0.0
 11
15.97332865365186
 21
91.3310876762
 31
0.0
  0
LINE
  5
172
330
1F
100
AcDbEntity
  8
1
100
AcDbLine
 10
15.97332865365186
 20
91.3310876762
 30
0.0
 11
15.37300557265186
 21
91.0887053882
 31
0.0
  0
LINE
  5
173
330
1F
100
AcDbEntity
  8
1
100
AcDbLine
 10
15.37300557265186
 20
91.0887053882
 30
0.0
 11
14.83187735445186
 21
90.7468876515
 31
0.0
  0
LINE
  5
174
330
1F
100
AcDbEntity
  8
1
100
AcDbLine
 10
14.83187735445186
 20
90.7468876515
 30
0.0
 11
14.36887592445186
 21
90.3176075493
 31
0.0
  0
LINE
  5
175
330
1F
100
AcDbEntity
  8
1
100
AcDbLine
 10
14.36887592445186
 20
90.3176075493
 30
0.0
 11
14.00022119645186
 21
89.8158780013
 31
0.0
  0
LINE
  5
176
330
1F
100
AcDbEntity
  8
1
100
AcDbLine
 10
14.00022119645186
 20
89.8158780013
 30
0.0
 11
13.73880267505186
 21
89.2592674767
 31
0.0
  0
LINE
  5
177
330
1F
100
AcDbEntity
  8
1
100
AcDbLine
 10
13.73880267505186
 20
89.2592674767
 30
0.0
 11
13.59377712375186
 21
88.6672443424
 31
0.0
  0
LINE
  5
178
330
1F
100
AcDbEntity
  8
1
100
AcDbLine
 10
13.59377712375186
 20
88.6672443424
 30
0.0
 11
13.57021838795186
 21
88.0605435644
 31
0.0
  0
LINE
  5
179
330
1F
100
AcDbEntity
  8
1
100
AcDbLine
 10
13.57021838795186
 20
88.0605435644
 30
0.0
 11
13.66895348195186
 21
87.4603843962
 31
0.0
  0
LINE
  5
17A
330
1F
100
AcDbEntity
  8
1
100
AcDbLine
 10
13.66895348195186
 20
87.4603843962
 30
0.0
 11
13.88651788595186
 21
86.8877849256
 31
0.0
  0
LINE
  5
17B
330
1F
100
AcDbEntity
  8
1
100
AcDbLine
 10
13.88651788595186
 20
86.8877849256
 30
0.0
 11
14.21531200775186
 21
86.3627723132
 31
0.0
  0
LINE
  5
17C
330
1F
100
AcDbEntity
  8
1
100
AcDbLine
 10
14.21531200775186
 20
86.3627723132
 30
0.0
 11
14.64380979905186
 21
85.9037345921
 31
0.0
  0
LINE
  5
17D
330
1F
100
AcDbEntity
  8
1
100
AcDbLine
 10
14.64380979905186
 20
85.9037345921
 30
0.0
 11
15.15702814225186
 21
85.5267203127
 31
0.0
  0
LINE
  5
17E
330
1F
100
AcDbEntity
  8
1
100
AcDbLine
 10
15.15702814225186
 20
85.5267203127
 30
0.0
 11
15.73700368765186
 21
85.2449393545
 31
0.0
  0
LINE
  5
17F
330
1F
100
AcDbEntity
  8
1
100
AcDbLine
 10
15.73700368765186
 20
85.2449393545
 30
0.0
 11
16.36343360315186
 21
85.0682488357
 31
0.0
  0
LINE
  5
180
330
1F
100
AcDbEntity
  8
1
100
AcDbLine
 10
16.36343360315186
 20
85.0682488357
 30
0.0
 11
17.01439828045186
 21
85.002832738
 31
0.0
  0
LINE
  5
183
330
1F
100
AcDbEntity
  8
1
100
AcDbLine
 10
9.81439561015186
 20
92.0000082527
 30
0.0
 11
46.81440353755186
 21
92.0000082527
 31
0.0
  0
LINE
  5
186
330
1F
100
AcDbEntity
  8
1
100
AcDbLine
 10
20.07017940645186
 20
86.5850901877
 30
0.0
 11
20.93651056655186
 21
86.1213362491
 31
0.0
  0
LINE
  5
187
330
1F
100
AcDbEntity
  8
1
100
AcDbLine
 10
20.93651056655186
 20
86.1213362491
 30
0.0
 11
20.98651141295186
 21
86.2016311562
 31
0.0
  0
LINE
  5
188
330
1F
100
AcDbEntity
  8
1
100
AcDbLine
 10
20.98651141295186
 20
86.2016311562
 30
0.0
 11
20.12018025285186
 21
86.6653925454
 31
0.0
  0
LINE
  5
189
330
1F
100
AcDbEntity
  8
1
100
AcDbLine
 10
20.56404114135186
 20
88.201285032
 30
0.0
 11
21.56440079575186
 21
88.201285032
 31
0.0
  0
LINE
  5
18A
330
1F
100
AcDbEntity
  8
1
100
AcDbLine
 10
21.56440079575186
 20
88.201285032
 30
0.0
 11
21.56440079575186
 21
88.2940075074
 31
0.0
  0
LINE
  5
18B
330
1F
100
AcDbEntity
  8
1
100
AcDbLine
 10
21.56440079575186
 20
88.2940075074
 30
0.0
 11
20.56404114135186
 21
88.2940075074
 31
0.0
  0
LINE
  5
18C
330
1F
100
AcDbEntity
  8
1
100
AcDbLine
 10
23.66439909105186
 20
88.3171862637
 30
0.0
 11
23.13940137985186
 21
88.3171862637
 31
0.0
  0
LINE
  5
18E
330
1F
100
AcDbEntity
  8
1
100
AcDbLine
 10
23.13940137985186
 20
88.8039550458
 30
0.0
 11
22.98939884075186
 21
88.8039550458
 31
0.0
  0
LINE
  5
190
330
1F
100
AcDbEntity
  8
1
100
AcDbLine
 10
22.98939884075186
 20
88.3171862637
 30
0.0
 11
22.46440112955186
 21
88.3171862637
 31
0.0
  0
LINE
  5
191
330
1F
100
AcDbEntity
  8
1
100
AcDbLine
 10
22.46440112955186
 20
88.3171862637
 30
0.0
 11
22.46440112955186
 21
88.1781062757
 31
0.0
  0
LINE
  5
192
330
1F
100
AcDbEntity
  8
1
100
AcDbLine
 10
22.46440112955186
 20
88.1781062757
 30
0.0
 11
22.98939884075186
 21
88.1781062757
 31
0.0
  0
LINE
  5
193
330
1F
100
AcDbEntity
  8
1
100
AcDbLine
 10
22.98939884075186
 20
88.1781062757
 30
0.0
 11
22.98939884075186
 21
87.6913374935
 31
0.0
  0
LINE
  5
194
330
1F
100
AcDbEntity
  8
1
100
AcDbLine
 10
22.98939884075186
 20
87.6913374935
 30
0.0
 11
23.13940137985186
 21
87.6913374935
 31
0.0
  0
LINE
  5
195
330
1F
100
AcDbEntity
  8
1
100
AcDbLine
 10
23.13940137985186
 20
87.6913374935
 30
0.0
 11
23.13940137985186
 21
88.1781062757
 31
0.0
  0
LINE
  5
196
330
1F
100
AcDbEntity
  8
1
100
AcDbLine
 10
23.13940137985186
 20
88.1781062757
 30
0.0
 11
23.66439909105186
 21
88.1781062757
 31
0.0
  0
LINE
  5
197
330
1F
100
AcDbEntity
  8
1
100
AcDbLine
 10
23.66439909105186
 20
88.1781062757
 30
0.0
 11
23.66439909105186
 21
88.3171862637
 31
0.0
  0
LINE
  5
199
330
1F
100
AcDbEntity
  8
1
100
AcDbLine
 10
17.01439828045186
 20
85.002832738
 30
0.0
 11
17.01439828045186
 21
84.0087092196
 31
0.0
  0
LINE
  5
19A
330
1F
100
AcDbEntity
  8
1
100
AcDbLine
 10
17.01439828045186
 20
84.0087092196
 30
0.0
 11
17.11439997325186
 21
84.0087092196
 31
0.0
  0
LINE
  5
19B
330
1F
100
AcDbEntity
  8
1
100
AcDbLine
 10
17.11439997325186
 20
84.0087092196
 30
0.0
 11
17.11439997325186
 21
85.002832738
 31
0.0
  0
LINE
  5
19C
330
1F
100
AcDbEntity
  8
1
100
AcDbLine
 10
16.98940158255186
 20
83.3387083088
 30
0.0
 11
16.98940158255186
 21
82.1387103473
 31
0.0
  0
LINE
  5
19D
330
1F
100
AcDbEntity
  8
1
100
AcDbLine
 10
16.98940158255186
 20
82.1387103473
 30
0.0
 11
17.13939667115186
 21
82.1387103473
 31
0.0
  0
LINE
  5
19E
330
1F
100
AcDbEntity
  8
1
100
AcDbLine
 10
17.13939667115186
 20
82.1387103473
 30
0.0
 11
17.13939667115186
 21
83.3387083088
 31
0.0
  0
LINE
  5
19F
330
1F
100
AcDbEntity
  8
1
100
AcDbLine
 10
17.13939667115186
 20
83.3387083088
 30
0.0
 11
16.98940158255186
 21
83.3387083088
 31
0.0
  0
LINE
  5
1A2
330
1F
100
AcDbEntity
  8
1
100
AcDbLine
 10
46.81440353755186
 20
80.3529711651
 30
0.0
 11
9.81439561015186
 21
80.3529711651
 31
0.0
  0
LINE
  5
1A4
330
1F
100
AcDbEntity
  8
1
100
AcDbLine
 10
17.01439828045186
 20
84.9367684399
 30
0.0
 11
17.11439997325186
 21
84.9367684399
 31
0.0
  0
LINE
  5
1A5
330
1F
100
AcDbEntity
  8
1
100
AcDbLine
 10
20.12018025285186
 20
86.6653925454
 30
0.0
 11
20.12018025285186
 21
86.6616449034
 31
0.0
  0
LINE
  5
1A6
330
1F
100
AcDbEntity
  8
1
100
AcDbLine
 10
20.56404114135186
 20
88.2940075074
 30
0.0
 11
20.56404114135186
 21
88.2902598654
 31
0.0
  0
LINE
  5
1A7
330
1F
100
AcDbEntity
  8
1
100
AcDbLine
 10
22.46113032465186
 20
86.31999853
 30
0.0
 11
23.06541711455186
 21
86.2479663168
 31
0.0
  0
LINE
  5
1A8
330
1F
100
AcDbEntity
  8
1
100
AcDbLine
 10
23.06541711455186
 20
86.2479663168
 30
0.0
 11
23.33075464135186
 21
86.1114120756
 31
0.0
  0
LINE
  5
1A9
330
1F
100
AcDbEntity
  8
1
100
AcDbLine
 10
23.33075464135186
 20
86.1114120756
 30
0.0
 11
23.41811269885186
 21
85.9961515938
 31
0.0
  0
LINE
  5
1AA
330
1F
100
AcDbEntity
  8
1
100
AcDbLine
 10
23.41811269885186
 20
85.9961515938
 30
0.0
 11
23.44750523935186
 21
85.8578911697
 31
0.0
  0
LINE
  5
1AB
330
1F
100
AcDbEntity
  8
1
100
AcDbLine
 10
21.47314608465186
 20
85.8578911697
 30
0.0
 11
21.50258332855186
 21
85.9963155066
 31
0.0
  0
LINE
  5
1AC
330
1F
100
AcDbEntity
  8
1
100
AcDbLine
 10
21.50258332855186
 20
85.9963155066
 30
0.0
 11
21.59032136565186
 21
86.1115908896
 31
0.0
  0
LINE
  5
1AD
330
1F
100
AcDbEntity
  8
1
100
AcDbLine
 10
21.59032136565186
 20
86.1115908896
 30
0.0
 11
21.85612082845186
 21
86.2480110203
 31
0.0
  0
LINE
  5
1AE
330
1F
100
AcDbEntity
  8
1
100
AcDbLine
 10
21.85612082845186
 20
86.2480110203
 30
0.0
 11
22.46113032465186
 21
86.31999853
 31
0.0
  0
LINE
  5
1AF
330
1F
100
AcDbEntity
  8
1
100
AcDbLine
 10
21.55007332925186
 20
85.855290917
 30
0.0
 11
21.57980859645186
 21
85.7310524856
 31
0.0
  0
LINE
  5
1B0
330
1F
100
AcDbEntity
  8
1
100
AcDbLine
 10
21.57980859645186
 20
85.7310524856
 30
0.0
 11
21.66622043025186
 21
85.6320342694
 31
0.0
  0
LINE
  5
1B1
330
1F
100
AcDbEntity
  8
1
100
AcDbLine
 10
21.66622043025186
 20
85.6320342694
 30
0.0
 11
21.91340089205186
 21
85.5208194529
 31
0.0
  0
LINE
  5
1B2
330
1F
100
AcDbEntity
  8
1
100
AcDbLine
 10
21.91340089205186
 20
85.5208194529
 30
0.0
 11
22.46152520545186
 21
85.4641354357
 31
0.0
  0
LINE
  5
1B3
330
1F
100
AcDbEntity
  8
1
100
AcDbLine
 10
22.46152520545186
 20
85.4641354357
 30
0.0
 11
23.00869584445186
 21
85.5206704413
 31
0.0
  0
LINE
  5
1B4
330
1F
100
AcDbEntity
  8
1
100
AcDbLine
 10
23.00869584445186
 20
85.5206704413
 30
0.0
 11
23.25519085295186
 21
85.6321236764
 31
0.0
  0
LINE
  5
1B5
330
1F
100
AcDbEntity
  8
1
100
AcDbLine
 10
23.25519085295186
 20
85.6321236764
 30
0.0
 11
23.34101409085186
 21
85.7313058053
 31
0.0
  0
LINE
  5
1B6
330
1F
100
AcDbEntity
  8
1
100
AcDbLine
 10
23.34101409085186
 20
85.7313058053
 30
0.0
 11
23.37058544525186
 21
85.855290917
 31
0.0
  0
LINE
  5
1B7
330
1F
100
AcDbEntity
  8
1
100
AcDbLine
 10
21.55007332925186
 20
85.8590311085
 30
0.0
 11
21.57980859645186
 21
85.7348001276
 31
0.0
  0
LINE
  5
1B8
330
1F
100
AcDbEntity
  8
1
100
AcDbLine
 10
21.57980859645186
 20
85.7348001276
 30
0.0
 11
21.66622043025186
 21
85.6357819115
 31
0.0
  0
LINE
  5
1B9
330
1F
100
AcDbEntity
  8
1
100
AcDbLine
 10
21.66622043025186
 20
85.6357819115
 30
0.0
 11
21.91340089205186
 21
85.5245670949
 31
0.0
  0
LINE
  5
1BA
330
1F
100
AcDbEntity
  8
1
100
AcDbLine
 10
21.91340089205186
 20
85.5245670949
 30
0.0
 11
22.46152520545186
 21
85.4678756271
 31
0.0
  0
LINE
  5
1BB
330
1F
100
AcDbEntity
  8
1
100
AcDbLine
 10
22.46152520545186
 20
86.252421764
 30
0.0
 11
21.91296875845186
 21
86.1948213254
 31
0.0
  0
LINE
  5
1BC
330
1F
100
AcDbEntity
  8
1
100
AcDbLine
 10
21.91296875845186
 20
86.1948213254
 30
0.0
 11
21.66589260465186
 21
86.0828316485
 31
0.0
  0
LINE
  5
1BD
330
1F
100
AcDbEntity
  8
1
100
AcDbLine
 10
21.66589260465186
 20
86.0828316485
 30
0.0
 11
21.57986075055186
 21
85.9833738481
 31
0.0
  0
LINE
  5
1BE
330
1F
100
AcDbEntity
  8
1
100
AcDbLine
 10
21.57986075055186
 20
85.9833738481
 30
0.0
 11
21.55007332925186
 21
85.8590311085
 31
0.0
  0
LINE
  5
1BF
330
1F
100
AcDbEntity
  8
1
100
AcDbLine
 10
23.37058544525186
 20
85.8590311085
 30
0.0
 11
23.34126741055186
 21
85.9832620894
 31
0.0
  0
LINE
  5
1C0
330
1F
100
AcDbEntity
  8
1
100
AcDbLine
 10
23.34126741055186
 20
85.9832620894
 30
0.0
 11
23.25552612905186
 21
86.0827049886
 31
0.0
  0
LINE
  5
1C1
330
1F
100
AcDbEntity
  8
1
100
AcDbLine
 10
23.25552612905186
 20
86.0827049886
 30
0.0
 11
23.00920248395186
 21
86.1950522934
 31
0.0
  0
LINE
  5
1C2
330
1F
100
AcDbEntity
  8
1
100
AcDbLine
 10
23.00920248395186
 20
86.1950522934
 30
0.0
 11
22.46152520545186
 21
86.252421764
 31
0.0
  0
LINE
  5
1C3
330
1F
100
AcDbEntity
  8
1
100
AcDbLine
 10
22.46152520545186
 20
85.4678756271
 30
0.0
 11
23.00869584445186
 21
85.5244180833
 31
0.0
  0
LINE
  5
1C4
330
1F
100
AcDbEntity
  8
1
100
AcDbLine
 10
23.00869584445186
 20
85.5244180833
 30
0.0
 11
23.25519085295186
 21
85.6358713184
 31
0.0
  0
LINE
  5
1C5
330
1F
100
AcDbEntity
  8
1
100
AcDbLine
 10
23.25519085295186
 20
85.6358713184
 30
0.0
 11
23.34101409085186
 21
85.7350459968
 31
0.0
  0
LINE
  5
1C6
330
1F
100
AcDbEntity
  8
1
100
AcDbLine
 10
23.34101409085186
 20
85.7350459968
 30
0.0
 11
23.37058544525186
 21
85.8590311085
 31
0.0
  0
LINE
  5
1C7
330
1F
100
AcDbEntity
  8
1
100
AcDbLine
 10
22.46152520545186
 20
85.4641354357
 30
0.0
 11
22.46152520545186
 21
85.4678756271
 31
0.0
  0
LINE
  5
1C8
330
1F
100
AcDbEntity
  8
1
100
AcDbLine
 10
21.55007332925186
 20
85.855290917
 30
0.0
 11
21.55007332925186
 21
85.8590311085
 31
0.0
  0
LINE
  5
1C9
330
1F
100
AcDbEntity
  8
1
100
AcDbLine
 10
23.37058544525186
 20
85.855290917
 30
0.0
 11
23.37058544525186
 21
85.8590311085
 31
0.0
  0
LINE
  5
1CA
330
1F
100
AcDbEntity
  8
1
100
AcDbLine
 10
22.46113032465186
 20
86.31999853
 30
0.0
 11
22.46113032465186
 21
86.3237387215
 31
0.0
  0
LINE
  5
1CB
330
1F
100
AcDbEntity
  8
1
100
AcDbLine
 10
20.98476052645186
 20
86.1988222873
 30
0.0
 11
20.12018025285186
 21
86.6616449034
 31
0.0
  0
LINE
  5
1CC
330
1F
100
AcDbEntity
  8
1
100
AcDbLine
 10
22.98939884075186
 20
88.3134386216
 30
0.0
 11
22.46440112955186
 21
88.3134386216
 31
0.0
  0
LINE
  5
1CD
330
1F
100
AcDbEntity
  8
1
100
AcDbLine
 10
23.13940137985186
 20
88.8002148543
 30
0.0
 11
22.98939884075186
 21
88.8002148543
 31
0.0
  0
LINE
  5
1CE
330
1F
100
AcDbEntity
  8
1
100
AcDbLine
 10
23.66439909105186
 20
88.3134386216
 30
0.0
 11
23.13940137985186
 21
88.3134386216
 31
0.0
  0
LINE
  5
1CF
330
1F
100
AcDbEntity
  8
1
100
AcDbLine
 10
21.56440079575186
 20
88.2902598654
 30
0.0
 11
20.56404114135186
 21
88.2902598654
 31
0.0
  0
LINE
  5
1D0
330
1F
100
AcDbEntity
  8
1
100
AcDbLine
 10
23.13940137985186
 20
88.3134386216
 30
0.0
 11
23.13940137985186
 21
88.8039550458
 31
0.0
  0
LINE
  5
1D1
330
1F
100
AcDbEntity
  8
1
100
AcDbLine
 10
22.98939884075186
 20
88.3134386216
 30
0.0
 11
22.98939884075186
 21
88.8039550458
 31
0.0
  0
LINE
  5
1D4
330
1F
100
AcDbEntity
  8
1
100
AcDbLine
 10
23.40013795755186
 20
0.0
 30
0.0
 11
46.81440353755186
 21
40.5546890782
 31
0.0
  0
LINE
  5
1D5
330
1F
100
AcDbEntity
  8
1
100
AcDbLine
 10
0.0207340754518612
 20
37.8529595422
 30
0.0
 11
0.0207340754518612
 21
70.3526901292
 31
0.0
  0
LINE
  5
1D6
330
1F
100
AcDbEntity
  8
1
100
AcDbLine
 10
0.0207340754518612
 20
70.3526901292
 30
0.0
 11
9.01439696925186
 21
70.3526901292
 31
0.0
  0
LINE
  5
1D7
330
1F
100
AcDbEntity
  8
1
100
AcDbLine
 10
46.81440353755186
 20
40.5546890782
 30
0.0
 11
46.81440353755186
 21
92.0000082527
 31
0.0
  0
LINE
  5
1D8
330
1F
100
AcDbEntity
  8
1
100
AcDbLine
 10
9.81439561015186
 20
71.1526887701
 30
0.0
 11
9.81439561015186
 21
92.0000082527
 31
0.0
  0
LINE
  5
1D9
330
1F
100
AcDbEntity
  8
1
100
AcDbLine
 10
-3.485598614748139
 20
70.2639180965
 30
0.0
 11
-3.435605218948139
 21
70.3149024195
 31
0.0
  0
LINE
  5
1DA
330
1F
100
AcDbEntity
  8
1
100
AcDbLine
 10
-3.735602846648139
 20
37.7529594845
 30
0.0
 11
-3.735602846648139
 21
69.9979025668
 31
0.0
  0
LINE
  5
1DB
330
1F
100
AcDbEntity
  8
CUT
100
AcDbLine
 10
47.61440217855186
 20
-87.0292925562
 30
0.0
 11
59.47623312835186
 21
-87.0292925562
 31
0.0
  0
LINE
  5
1DC
330
1F
100
AcDbEntity
  8
CUT
100
AcDbLine
 10
47.61440193615186
 20
-84.7700452842
 30
0.0
 11
59.48140358895186
 21
-84.7700452842
 31
0.0
  0
LINE
  5
1DD
330
1F
100
AcDbEntity
  8
CUT
100
AcDbLine
 10
59.81439831625186
 20
-87.3046511139
 30
0.0
 11
59.81439803485186
 21
-84.7046533637
 31
0.0
  0
LINE
  5
1DE
330
1F
100
AcDbEntity
  8
CUT
100
AcDbLine
 10
59.76566199865186
 20
-87.4354943937
 30
0.0
 11
59.47623312835186
 21
-87.0292925562
 31
0.0
  0
LINE
  5
1DF
330
1F
100
AcDbEntity
  8
CUT
100
AcDbLine
 10
59.48140358895186
 20
-84.7700452842
 30
0.0
 11
59.74866975035186
 21
-84.5564268173
 31
0.0
  0
LINE
  5
1E0
330
1F
100
AcDbEntity
  8
CUT
100
AcDbLine
 10
59.54354167345186
 20
-87.4992155756
 30
0.0
 11
59.65198527985186
 21
-87.5010899575
 31
0.0
  0
LINE
  5
1E1
330
1F
100
AcDbEntity
  8
CUT
100
AcDbLine
 10
58.81439805395186
 20
-87.4354237045
 30
0.0
 11
59.54354167345186
 21
-87.4992155756
 31
0.0
  0
LINE
  5
1E2
330
1F
100
AcDbEntity
  8
CUT
100
AcDbLine
 10
47.61439831625186
 20
-87.4354266937
 30
0.0
 11
58.81439805395186
 21
-87.4354237045
 31
0.0
  0
LINE
  5
1E3
330
1F
100
AcDbEntity
  8
CUT
100
AcDbLine
 10
59.58904957735186
 20
-84.5061084665
 30
0.0
 11
58.81439781155186
 21
-84.5738789477
 31
0.0
  0
LINE
  5
1E4
330
1F
100
AcDbEntity
  8
CUT
100
AcDbLine
 10
59.63445341555186
 20
-84.5056614317
 30
0.0
 11
59.58904957735186
 21
-84.5061084665
 31
0.0
  0
LINE
  5
1E5
330
1F
100
AcDbEntity
  8
CUT
100
AcDbLine
 10
58.81439781155186
 20
-84.5738789477
 30
0.0
 11
47.61439807385186
 21
-84.5738803534
 31
0.0
  0
LINE
  5
1E6
330
1F
100
AcDbEntity
  8
CUT
100
AcDbLine
 10
57.81439558575186
 20
87.4354249512
 30
0.0
 11
57.81439558575186
 21
84.5738801362
 31
0.0
  0
LINE
  5
1E8
330
1F
100
AcDbEntity
  8
CUT
100
AcDbLine
 10
50.32848247975186
 20
87.4354279405
 30
0.0
 11
57.81439558575186
 21
87.4354249512
 31
0.0
  0
LINE
  5
1E9
330
1F
100
AcDbEntity
  8
CUT
100
AcDbLine
 10
47.61440217865186
 20
87.4354249512
 30
0.0
 11
50.32848247975186
 21
87.4354279405
 31
0.0
  0
LINE
  5
1EA
330
1F
100
AcDbEntity
  8
CUT
100
AcDbLine
 10
58.81439761235186
 20
84.5738801362
 30
0.0
 11
47.61440173695186
 21
84.5738801362
 31
0.0
  0
LINE
  5
1EB
330
1F
100
AcDbEntity
  8
CUT
100
AcDbLine
 10
59.58904937815186
 20
84.5061096551
 30
0.0
 11
58.81439761235186
 21
84.5738801362
 31
0.0
  0
LINE
  5
1EC
330
1F
100
AcDbEntity
  8
CUT
100
AcDbLine
 10
58.81439761235186
 20
87.4354249512
 30
0.0
 11
59.54354123185186
 21
87.4992168223
 31
0.0
  0
LINE
  5
1ED
330
1F
100
AcDbEntity
  8
CUT
100
AcDbLine
 10
59.54354123185186
 20
87.4992168223
 30
0.0
 11
59.65199188305186
 21
87.5010943686
 31
0.0
  0
LINE
  5
1EE
330
1F
100
AcDbEntity
  8
CUT
100
AcDbLine
 10
59.63445321635186
 20
84.5056626203
 30
0.0
 11
59.58904937815186
 21
84.5061096551
 31
0.0
  0
LINE
  5
1EF
330
1F
100
AcDbEntity
  8
CUT
100
AcDbLine
 10
59.81439789695186
 20
87.3046545585
 30
0.0
 11
59.81439789695186
 21
84.7046545585
 31
0.0
  0
LINE
  5
1F4
330
1F
100
AcDbEntity
  8
CUT
100
AcDbLine
 10
57.81439558575186
 20
87.4354249512
 30
0.0
 11
58.81439761235186
 21
87.4354249512
 31
0.0
  0
LINE
  5
1F6
330
1F
100
AcDbEntity
  8
1
100
AcDbLine
 10
25.68042189245186
 20
-87.5000053371
 30
0.0
 11
26.54644757875186
 21
-86.0000097479
 31
0.0
  0
LINE
  5
1F7
330
1F
100
AcDbEntity
  8
1
100
AcDbLine
 10
26.54644757875186
 20
-86.0000097479
 30
0.0
 11
25.68042189245186
 21
-84.500006708
 31
0.0
  0
LINE
  5
1F8
330
1F
100
AcDbEntity
  8
1
100
AcDbLine
 10
25.68042189245186
 20
-84.500006708
 30
0.0
 11
23.94837051995186
 21
-84.500006708
 31
0.0
  0
LINE
  5
1F9
330
1F
100
AcDbEntity
  8
1
100
AcDbLine
 10
23.94837051995186
 20
-84.500006708
 30
0.0
 11
23.08234483365186
 21
-86.0000097479
 31
0.0
  0
LINE
  5
1FA
330
1F
100
AcDbEntity
  8
1
100
AcDbLine
 10
23.08234483365186
 20
-86.0000097479
 30
0.0
 11
23.94837051995186
 21
-87.5000053371
 31
0.0
  0
LINE
  5
1FB
330
1F
100
AcDbEntity
  8
1
100
AcDbLine
 10
23.94837051995186
 20
-87.5000053371
 30
0.0
 11
25.68042189245186
 21
-87.5000053371
 31
0.0
  0
LINE
  5
1FC
330
1F
100
AcDbEntity
  8
1
100
AcDbLine
 10
40.54644614825186
 20
-86.0000097479
 30
0.0
 11
39.68042046195186
 21
-84.500006708
 31
0.0
  0
LINE
  5
1FD
330
1F
100
AcDbEntity
  8
1
100
AcDbLine
 10
39.68042046195186
 20
-87.5000053371
 30
0.0
 11
40.54644614825186
 21
-86.0000097479
 31
0.0
  0
LINE
  5
1FE
330
1F
100
AcDbEntity
  8
1
100
AcDbLine
 10
37.94837654005186
 20
-84.500006708
 30
0.0
 11
37.08235085375186
 21
-86.0000097479
 31
0.0
  0
LINE
  5
1FF
330
1F
100
AcDbEntity
  8
1
100
AcDbLine
 10
37.94837654005186
 20
-87.5000053371
 30
0.0
 11
39.68042046195186
 21
-87.5000053371
 31
0.0
  0
LINE
  5
200
330
1F
100
AcDbEntity
  8
1
100
AcDbLine
 10
37.08235085375186
 20
-86.0000097479
 30
0.0
 11
37.94837654005186
 21
-87.5000053371
 31
0.0
  0
LINE
  5
201
330
1F
100
AcDbEntity
  8
1
100
AcDbLine
 10
39.68042046195186
 20
-84.500006708
 30
0.0
 11
37.94837654005186
 21
-84.500006708
 31
0.0
  0
LINE
  5
202
330
1F
100
AcDbEntity
  8
1
100
AcDbLine
 10
15.90537190805186
 20
-76.7678239669
 30
0.0
 11
16.07749522095186
 21
-76.4293515409
 31
0.0
  0
LINE
  5
203
330
1F
100
AcDbEntity
  8
1
100
AcDbLine
 10
16.07749522095186
 20
-76.4293515409
 30
0.0
 11
16.19837344055186
 21
-76.1656009877
 31
0.0
  0
LINE
  5
204
330
1F
100
AcDbEntity
  8
1
100
AcDbLine
 10
18.22075158725186
 20
-76.7635771359
 30
0.0
 11
18.04280192025186
 21
-76.411425444
 31
0.0
  0
LINE
  5
205
330
1F
100
AcDbEntity
  8
1
100
AcDbLine
 10
18.04280192025186
 20
-76.411425444
 30
0.0
 11
17.93042481315186
 21
-76.1656009877
 31
0.0
  0
LINE
  5
206
330
1F
100
AcDbEntity
  8
1
100
AcDbLine
 10
16.19837344055186
 20
-76.8756487693
 30
0.0
 11
16.19837344055186
 21
-76.1656009877
 31
0.0
  0
LINE
  5
207
330
1F
100
AcDbEntity
  8
1
100
AcDbLine
 10
17.93042481315186
 20
-76.8812516059
 30
0.0
 11
17.93042481315186
 21
-76.1656009877
 31
0.0
  0
LINE
  5
208
330
1F
100
AcDbEntity
  8
1
100
AcDbLine
 10
19.86034125455186
 20
86.8044799839
 30
0.0
 11
20.10931730635186
 21
87.335199741
 31
0.0
  0
LINE
  5
209
330
1F
100
AcDbEntity
  8
1
100
AcDbLine
 10
20.10931730635186
 20
87.335199741
 30
0.0
 11
20.24243682985186
 21
87.9006317531
 31
0.0
  0
LINE
  5
20A
330
1F
100
AcDbEntity
  8
1
100
AcDbLine
 10
20.24243682985186
 20
87.9006317531
 30
0.0
 11
20.25463343035186
 21
88.479266194
 31
0.0
  0
LINE
  5
20B
330
1F
100
AcDbEntity
  8
1
100
AcDbLine
 10
20.25463343035186
 20
88.479266194
 30
0.0
 11
20.14544517165186
 21
89.0490940486
 31
0.0
  0
LINE
  5
20C
330
1F
100
AcDbEntity
  8
1
100
AcDbLine
 10
20.14544517165186
 20
89.0490940486
 30
0.0
 11
19.91902202735186
 21
89.5884266769
 31
0.0
  0
LINE
  5
20D
330
1F
100
AcDbEntity
  8
1
100
AcDbLine
 10
19.91902202735186
 20
89.5884266769
 30
0.0
 11
19.58398431905186
 21
90.0767377292
 31
0.0
  0
LINE
  5
20E
330
1F
100
AcDbEntity
  8
1
100
AcDbLine
 10
19.58398431905186
 20
90.0767377292
 30
0.0
 11
19.15307999025186
 21
90.4954529081
 31
0.0
  0
LINE
  5
20F
330
1F
100
AcDbEntity
  8
1
100
AcDbLine
 10
19.15307999025186
 20
90.4954529081
 30
0.0
 11
18.64270031815186
 21
90.828650323
 31
0.0
  0
LINE
  5
210
330
1F
100
AcDbEntity
  8
1
100
AcDbLine
 10
18.64270031815186
 20
90.828650323
 30
0.0
 11
18.07226896655186
 21
91.0636341845
 31
0.0
  0
LINE
  5
211
330
1F
100
AcDbEntity
  8
1
100
AcDbLine
 10
18.07226896655186
 20
91.0636341845
 30
0.0
 11
17.46348202595186
 21
91.1914712463
 31
0.0
  0
LINE
  5
212
330
1F
100
AcDbEntity
  8
1
100
AcDbLine
 10
17.46348202595186
 20
91.1914712463
 30
0.0
 11
16.83951825265186
 21
91.2073037301
 31
0.0
  0
LINE
  5
213
330
1F
100
AcDbEntity
  8
1
100
AcDbLine
 10
16.83951825265186
 20
91.2073037301
 30
0.0
 11
16.22410774595186
 21
91.1105132376
 31
0.0
  0
LINE
  5
214
330
1F
100
AcDbEntity
  8
1
100
AcDbLine
 10
16.22410774595186
 20
91.1105132376
 30
0.0
 11
15.64067513115186
 21
90.9048027073
 31
0.0
  0
LINE
  5
215
330
1F
100
AcDbEntity
  8
1
100
AcDbLine
 10
15.64067513115186
 20
90.9048027073
 30
0.0
 11
15.11140823725186
 21
90.5979877983
 31
0.0
  0
LINE
  5
216
330
1F
100
AcDbEntity
  8
1
100
AcDbLine
 10
15.11140823725186
 20
90.5979877983
 30
0.0
 11
14.65645343425186
 21
90.2017361199
 31
0.0
  0
LINE
  5
217
330
1F
100
AcDbEntity
  8
1
100
AcDbLine
 10
14.65645343425186
 20
90.2017361199
 30
0.0
 11
14.29311842095186
 21
89.7311425482
 31
0.0
  0
LINE
  5
218
330
1F
100
AcDbEntity
  8
1
100
AcDbLine
 10
14.29311842095186
 20
89.7311425482
 30
0.0
 11
14.03523147475186
 21
89.2040959273
 31
0.0
  0
LINE
  5
219
330
1F
100
AcDbEntity
  8
1
100
AcDbLine
 10
14.03523147475186
 20
89.2040959273
 30
0.0
 11
13.89259755975186
 21
88.6406606709
 31
0.0
  0
LINE
  5
21A
330
1F
100
AcDbEntity
  8
1
100
AcDbLine
 10
13.89259755975186
 20
88.6406606709
 30
0.0
 11
13.87064814935186
 21
88.0622720991
 31
0.0
  0
LINE
  5
21B
330
1F
100
AcDbEntity
  8
1
100
AcDbLine
 10
13.87064814935186
 20
88.0622720991
 30
0.0
 11
13.97022515895186
 21
87.4909392272
 31
0.0
  0
LINE
  5
21C
330
1F
100
AcDbEntity
  8
1
100
AcDbLine
 10
13.97022515895186
 20
87.4909392272
 30
0.0
 11
14.18752879265186
 21
86.9483879481
 31
0.0
  0
LINE
  5
21D
330
1F
100
AcDbEntity
  8
1
100
AcDbLine
 10
14.18752879265186
 20
86.9483879481
 30
0.0
 11
14.51429635655186
 21
86.4552861725
 31
0.0
  0
LINE
  5
21E
330
1F
100
AcDbEntity
  8
1
100
AcDbLine
 10
14.51429635655186
 20
86.4552861725
 30
0.0
 11
14.93809283145186
 21
86.0303721105
 31
0.0
  0
LINE
  5
21F
330
1F
100
AcDbEntity
  8
1
100
AcDbLine
 10
14.93809283145186
 20
86.0303721105
 30
0.0
 11
15.44279516105186
 21
85.6898284231
 31
0.0
  0
LINE
  5
220
330
1F
100
AcDbEntity
  8
1
100
AcDbLine
 10
15.44279516105186
 20
85.6898284231
 30
0.0
 11
16.00919574865186
 21
85.4466042195
 31
0.0
  0
LINE
  5
221
330
1F
100
AcDbEntity
  8
1
100
AcDbLine
 10
16.00919574865186
 20
85.4466042195
 30
0.0
 11
16.61574751505186
 21
85.309968022
 31
0.0
  0
LINE
  5
222
330
1F
100
AcDbEntity
  8
1
100
AcDbLine
 10
16.61574751505186
 20
85.309968022
 30
0.0
 11
17.23937601215186
 21
85.2850979839
 31
0.0
  0
LINE
  5
223
330
1F
100
AcDbEntity
  8
1
100
AcDbLine
 10
17.23937601215186
 20
85.2850979839
 30
0.0
 11
17.85633623965186
 21
85.3729552303
 31
0.0
  0
LINE
  5
224
330
1F
100
AcDbEntity
  8
1
100
AcDbLine
 10
17.85633623965186
 20
85.3729552303
 30
0.0
 11
18.44317376975186
 21
85.5701944505
 31
0.0
  0
LINE
  5
225
330
1F
100
AcDbEntity
  8
1
100
AcDbLine
 10
18.44317376975186
 20
85.5701944505
 30
0.0
 11
18.97754431135186
 21
85.8693054591
 31
0.0
  0
LINE
  5
226
330
1F
100
AcDbEntity
  8
1
100
AcDbLine
 10
18.97754431135186
 20
85.8693054591
 30
0.0
 11
19.43912268045186
 21
86.2589112197
 31
0.0
  0
LINE
  5
227
330
1F
100
AcDbEntity
  8
1
100
AcDbLine
 10
19.43912268045186
 20
86.2589112197
 30
0.0
 11
19.81034040815186
 21
86.7241850768
 31
0.0
  0
LINE
  5
228
330
1F
100
AcDbEntity
  8
1
100
AcDbLine
 10
19.81034040815186
 20
86.7241850768
 30
0.0
 11
19.81900543335186
 21
86.7158031736
 31
0.0
  0
LINE
  5
229
330
1F
100
AcDbEntity
  8
1
100
AcDbLine
 10
19.86900627975186
 20
86.7960980808
 30
0.0
 11
19.86034125455186
 21
86.8044799839
 31
0.0
  0
LINE
  5
22A
330
1F
100
AcDbEntity
  8
1
100
AcDbLine
 10
18.76885354885186
 20
87.2817045723
 30
0.0
 11
19.81034040815186
 21
86.7241850768
 31
0.0
  0
LINE
  5
22B
330
1F
100
AcDbEntity
  8
1
100
AcDbLine
 10
19.86034125455186
 20
86.8044799839
 30
0.0
 11
18.81885439525186
 21
87.3619994794
 31
0.0
  0
LINE
  5
22C
330
1F
100
AcDbEntity
  8
1
100
AcDbLine
 10
18.76885354885186
 20
87.2817045723
 30
0.0
 11
18.45908820995186
 21
86.9216180121
 31
0.0
  0
LINE
  5
22D
330
1F
100
AcDbEntity
  8
1
100
AcDbLine
 10
18.45908820995186
 20
86.9216180121
 30
0.0
 11
18.06306749945186
 21
86.6435399924
 31
0.0
  0
LINE
  5
22E
330
1F
100
AcDbEntity
  8
1
100
AcDbLine
 10
18.06306749945186
 20
86.6435399924
 30
0.0
 11
17.60529637705186
 21
86.4646664535
 31
0.0
  0
LINE
  5
22F
330
1F
100
AcDbEntity
  8
1
100
AcDbLine
 10
17.60529637705186
 20
86.4646664535
 30
0.0
 11
17.11406469705186
 21
86.3960466062
 31
0.0
  0
LINE
  5
230
330
1F
100
AcDbEntity
  8
1
100
AcDbLine
 10
17.11406469705186
 20
86.3960466062
 30
0.0
 11
16.61977082855186
 21
86.4419347321
 31
0.0
  0
LINE
  5
231
330
1F
100
AcDbEntity
  8
1
100
AcDbLine
 10
16.61977082855186
 20
86.4419347321
 30
0.0
 11
16.15296215185186
 21
86.5994921599
 31
0.0
  0
LINE
  5
232
330
1F
100
AcDbEntity
  8
1
100
AcDbLine
 10
16.15296215185186
 20
86.5994921599
 30
0.0
 11
15.74253201845186
 21
86.8589735304
 31
0.0
  0
LINE
  5
233
330
1F
100
AcDbEntity
  8
1
100
AcDbLine
 10
15.74253201845186
 20
86.8589735304
 30
0.0
 11
15.41383475425186
 21
87.2043377434
 31
0.0
  0
LINE
  5
234
330
1F
100
AcDbEntity
  8
1
100
AcDbLine
 10
15.41383475425186
 20
87.2043377434
 30
0.0
 11
15.18721789485186
 21
87.6142165338
 31
0.0
  0
LINE
  5
235
330
1F
100
AcDbEntity
  8
1
100
AcDbLine
 10
15.18721789485186
 20
87.6142165338
 30
0.0
 11
15.07668853175186
 21
88.0632704769
 31
0.0
  0
LINE
  5
236
330
1F
100
AcDbEntity
  8
1
100
AcDbLine
 10
15.07668853175186
 20
88.0632704769
 30
0.0
 11
15.08907884725186
 21
88.5237238084
 31
0.0
  0
LINE
  5
237
330
1F
100
AcDbEntity
  8
1
100
AcDbLine
 10
15.08907884725186
 20
88.5237238084
 30
0.0
 11
15.22362888225186
 21
88.9671004091
 31
0.0
  0
LINE
  5
238
330
1F
100
AcDbEntity
  8
1
100
AcDbLine
 10
15.22362888225186
 20
88.9671004091
 30
0.0
 11
15.47201633815186
 21
89.3659895931
 31
0.0
  0
LINE
  5
239
330
1F
100
AcDbEntity
  8
1
100
AcDbLine
 10
15.47201633815186
 20
89.3659895931
 30
0.0
 11
15.81887811785186
 21
89.695722488
 31
0.0
  0
LINE
  5
23A
330
1F
100
AcDbEntity
  8
1
100
AcDbLine
 10
15.81887811785186
 20
89.695722488
 30
0.0
 11
16.24276399975186
 21
89.9358994042
 31
0.0
  0
LINE
  5
23B
330
1F
100
AcDbEntity
  8
1
100
AcDbLine
 10
16.24276399975186
 20
89.9358994042
 30
0.0
 11
16.71745539075186
 21
90.0716713344
 31
0.0
  0
LINE
  5
23C
330
1F
100
AcDbEntity
  8
1
100
AcDbLine
 10
16.71745539075186
 20
90.0716713344
 30
0.0
 11
17.21361190445186
 21
90.0946489249
 31
0.0
  0
LINE
  5
23D
330
1F
100
AcDbEntity
  8
1
100
AcDbLine
 10
17.21361190445186
 20
90.0946489249
 30
0.0
 11
17.70053714875186
 21
90.0033942138
 31
0.0
  0
LINE
  5
23E
330
1F
100
AcDbEntity
  8
1
100
AcDbLine
 10
17.70053714875186
 20
90.0033942138
 30
0.0
 11
18.14812332755186
 21
89.8035696422
 31
0.0
  0
LINE
  5
23F
330
1F
100
AcDbEntity
  8
1
100
AcDbLine
 10
18.14812332755186
 20
89.8035696422
 30
0.0
 11
18.52868408325186
 21
89.5075282727
 31
0.0
  0
LINE
  5
240
330
1F
100
AcDbEntity
  8
1
100
AcDbLine
 10
18.52868408325186
 20
89.5075282727
 30
0.0
 11
18.81869793305186
 21
89.1335687314
 31
0.0
  0
LINE
  5
241
330
1F
100
AcDbEntity
  8
1
100
AcDbLine
 10
18.81869793305186
 20
89.1335687314
 30
0.0
 11
19.00022387865186
 21
88.7048176204
 31
0.0
  0
LINE
  5
242
330
1F
100
AcDbEntity
  8
1
100
AcDbLine
 10
19.00022387865186
 20
88.7048176204
 30
0.0
 11
19.06203389535186
 21
88.2477990066
 31
0.0
  0
LINE
  5
243
330
1F
100
AcDbEntity
  8
1
100
AcDbLine
 10
19.06203389535186
 20
88.2477990066
 30
0.0
 11
19.00030583505186
 21
87.7907729422
 31
0.0
  0
LINE
  5
244
330
1F
100
AcDbEntity
  8
1
100
AcDbLine
 10
19.00030583505186
 20
87.7907729422
 30
0.0
 11
18.81885439525186
 21
87.3619994794
 31
0.0
  0
LINE
  5
245
330
1F
100
AcDbEntity
  8
1
100
AcDbLine
 10
18.76385420925186
 20
87.2806316888
 30
0.0
 11
18.76885354885186
 21
87.2817045723
 31
0.0
  0
LINE
  5
246
330
1F
100
AcDbEntity
  8
1
100
AcDbLine
 10
18.81885439525186
 20
87.3619994794
 30
0.0
 11
18.81385505565186
 21
87.3609340465
 31
0.0
  0
LINE
  5
247
330
1F
100
AcDbEntity
  8
1
100
AcDbLine
 10
19.86900627975186
 20
86.7960980808
 30
0.0
 11
18.81385505565186
 21
87.3609340465
 31
0.0
  0
LINE
  5
248
330
1F
100
AcDbEntity
  8
1
100
AcDbLine
 10
17.93042481315186
 20
87.9526964103
 30
0.0
 11
17.93042481315186
 21
89.4661030447
 31
0.0
  0
LINE
  5
249
330
1F
100
AcDbEntity
  8
1
100
AcDbLine
 10
17.93042481315186
 20
87.9526964103
 30
0.0
 11
18.36343765635186
 21
87.2573039209
 31
0.0
  0
LINE
  5
24A
330
1F
100
AcDbEntity
  8
1
100
AcDbLine
 10
16.19837344055186
 20
87.9526964103
 30
0.0
 11
16.19837344055186
 21
89.4661030447
 31
0.0
  0
LINE
  5
24B
330
1F
100
AcDbEntity
  8
1
100
AcDbLine
 10
15.76536059745186
 20
87.2573039209
 30
0.0
 11
16.19837344055186
 21
87.9526964103
 31
0.0
  0
LINE
  5
24D
330
1F
100
AcDbEntity
  8
1
100
AcDbLine
 10
17.93042481315186
 20
87.9526964103
 30
0.0
 11
16.19837344055186
 21
87.9526964103
 31
0.0
  0
LINE
  5
24E
330
1F
100
AcDbEntity
  8
1
100
AcDbLine
 10
9.01439709635186
 20
-69.9997317254
 30
0.0
 11
9.01439709635186
 21
-60.0333335543
 31
0.0
  0
LINE
  5
24F
330
1F
100
AcDbEntity
  8
1
100
AcDbLine
 10
46.81440353755186
 20
79.5529725241
 30
0.0
 11
9.81439561015186
 21
79.5529725241
 31
0.0
  0
LINE
  5
250
330
1F
100
AcDbEntity
  8
CUT
100
AcDbLine
 10
47.61440217855186
 20
-87.0292925562
 30
0.0
 11
47.61439831625186
 21
-87.4354266937
 31
0.0
  0
LINE
  5
251
330
1F
100
AcDbEntity
  8
CUT
100
AcDbLine
 10
47.61439807385186
 20
-84.5738803534
 30
0.0
 11
47.61440193615186
 21
-84.7700452842
 31
0.0
  0
LINE
  5
252
330
1F
100
AcDbEntity
  8
CUT
100
AcDbLine
 10
58.80150810795186
 20
87.4354249512
 30
0.0
 11
58.80150810795186
 21
84.5738801362
 31
0.0
  0
LINE
  5
253
330
1F
100
AcDbEntity
  8
CUT
100
AcDbLine
 10
58.00934747765186
 20
87.4354249512
 30
0.0
 11
58.00934747765186
 21
84.5738801362
 31
0.0
  0
CIRCLE
  5
254
330
1F
100
AcDbEntity
  8
1
100
AcDbCircle
 10
38.81521285005186
 20
-86.0030548928
 30
0.0
 40
3.249193664235897
  0
CIRCLE
  5
255
330
1F
100
AcDbEntity
  8
1
100
AcDbCircle
 10
24.81521590945186
 20
-86.0030827868
 30
0.0
 40
3.249184610991051
  0
ARC
  5
256
330
1F
100
AcDbEntity
  8
1
100
AcDbCircle
 10
17.10957018575186
 20
-77.8374148195
 30
0.0
 40
4.625906464823076
100
AcDbArc
 50
41.99579584150003
 51
90.55949081179996
  0
ARC
  5
257
330
1F
100
AcDbEntity
  8
1
100
AcDbCircle
 10
17.01915413965186
 20
-77.8370892232
 30
0.0
 40
4.625581606541467
100
AcDbArc
 50
89.43955412089998
 51
138.0756319336
  0
ARC
  5
258
330
1F
100
AcDbEntity
  8
1
100
AcDbCircle
 10
-0.5534475376481387
 20
34.8665047609
 30
0.0
 40
0.407851302342358
100
AcDbArc
 50
294.0053362382003
 51
65.99518109710031
  0
ARC
  5
259
330
1F
100
AcDbEntity
  8
1
100
AcDbCircle
 10
-0.7664801373481388
 20
28.668653666
 30
0.0
 40
0.6298241115806169
100
AcDbArc
 50
356.9949907462
 51
53.00954136559986
  0
ARC
  5
25A
330
1F
100
AcDbEntity
  8
1
100
AcDbCircle
 10
-0.4575299226481387
 20
-59.9728146756
 30
0.0
 40
0.3256790710911556
100
AcDbArc
 50
282.4121986763
 51
349.2908423238001
  0
ARC
  5
25B
330
1F
100
AcDbEntity
  8
1
100
AcDbCircle
 10
-0.6464534588481388
 20
-141.4647821849
 30
0.0
 40
71.46657749133453
100
AcDbArc
 50
89.6254490021
 51
89.7924151434
  0
ARC
  5
25C
330
1F
100
AcDbEntity
  8
1
100
AcDbCircle
 10
21.96439787515186
 20
12.839740653
 30
0.0
 40
5.000000441100002
100
AcDbArc
 50
180.0000028946
 51
210.0
  0
ARC
  5
25D
330
1F
100
AcDbEntity
  8
1
100
AcDbCircle
 10
8.94142825325186
 20
-60.9052456041
 30
0.0
 40
0.874960041664707
100
AcDbArc
 50
356.1324902778999
 51
85.21616068849995
  0
ARC
  5
25E
330
1F
100
AcDbEntity
  8
1
100
AcDbCircle
 10
9.014401318451862
 20
-70.7997261443
 30
0.0
 40
0.7999944188973703
100
AcDbArc
 50
359.9996976093003
 51
90.00030238770005
  0
ARC
  5
25F
330
1F
100
AcDbEntity
  8
1
100
AcDbCircle
 10
-2.255933502148139
 20
31.7585256217
 30
0.0
 40
1.682312833719785
100
AcDbArc
 50
148.1924427881001
 51
176.7850952230001
  0
ARC
  5
260
330
1F
100
AcDbEntity
  8
1
100
AcDbCircle
 10
-2.853862738648139
 20
-61.3030499288
 30
0.0
 40
1.102479630379137
100
AcDbArc
 50
191.1321271681998
 51
221.0247669778
  0
ARC
  5
261
330
1F
100
AcDbEntity
  8
1
100
AcDbCircle
 10
-2.765773549548139
 20
-63.9956981139
 30
0.0
 40
1.223493601686092
100
AcDbArc
 50
197.0332157150997
 51
221.2530395708003
  0
ARC
  5
262
330
1F
100
AcDbEntity
  8
1
100
AcDbCircle
 10
17.11036796865186
 20
-77.7043739902
 30
0.0
 40
3.56576135650155
100
AcDbArc
 50
37.0821817668
 51
90.73866232840003
  0
ARC
  5
263
330
1F
100
AcDbEntity
  8
1
100
AcDbCircle
 10
17.01837063855186
 20
-77.7041453359
 30
0.0
 40
3.5655334906922
100
AcDbArc
 50
89.26033190340002
 51
142.9765123642001
  0
ARC
  5
264
330
1F
100
AcDbEntity
  8
1
100
AcDbCircle
 10
-2.850095560048139
 20
-66.1229112351
 30
0.0
 40
1.16051738940668
100
AcDbArc
 50
200.7133901289002
 51
223.9502243148996
  0
ARC
  5
265
330
1F
100
AcDbEntity
  8
1
100
AcDbCircle
 10
17.06458361765186
 20
-85.1545306775
 30
0.0
 40
6.744584197219335
100
AcDbArc
 50
247.009059839
 51
292.9721354191
  0
ARC
  5
266
330
1F
100
AcDbEntity
  8
1
100
AcDbCircle
 10
-2.907593707148139
 20
-67.6421057985
 30
0.0
 40
1.132416851029907
100
AcDbArc
 50
204.7972850309004
 51
226.6042641384003
  0
ARC
  5
267
330
1F
100
AcDbEntity
  8
1
100
AcDbCircle
 10
-4.175520478148139
 20
-69.6549921741
 30
0.0
 40
0.617335363168476
100
AcDbArc
 50
37.47655480029932
 51
67.13004342219998
  0
ARC
  5
268
330
1F
100
AcDbEntity
  8
1
100
AcDbCircle
 10
-2.746735194848139
 20
-68.4277091568
 30
0.0
 40
1.389028921187887
100
AcDbArc
 50
211.1411986097003
 51
227.4746990867001
  0
ARC
  5
269
330
1F
100
AcDbEntity
  8
1
100
AcDbCircle
 10
-5.089307977348139
 20
-71.1360427491
 30
0.0
 40
1.90102573795958
100
AcDbArc
 50
42.40520450580011
 51
52.63519371160003
  0
ARC
  5
26A
330
1F
100
AcDbEntity
  8
1
100
AcDbCircle
 10
-1.495339038948139
 20
-67.6021532448
 30
0.0
 40
3.182424209919681
100
AcDbArc
 50
219.9332557181999
 51
226.5092693748999
  0
ARC
  5
26B
330
1F
100
AcDbEntity
  8
1
100
AcDbCircle
 10
17.11152272875186
 20
88.560148805
 30
0.0
 40
3.557317230501885
100
AcDbArc
 50
270.0463422219
 51
326.2748096969999
  0
ARC
  5
26C
330
1F
100
AcDbEntity
  8
1
100
AcDbCircle
 10
17.49868705005186
 20
88.2550659326
 30
0.0
 40
3.065825841478461
100
AcDbArc
 50
328.7673788544
 51
358.9948624476
  0
ARC
  5
26D
330
1F
100
AcDbEntity
  8
1
100
AcDbCircle
 10
17.06439912685186
 20
88.7090722014
 30
0.0
 40
3.710316579998604
100
AcDbArc
 50
269.2278491261
 51
270.7721508738999
  0
ARC
  5
26E
330
1F
100
AcDbEntity
  8
1
100
AcDbCircle
 10
17.55964387575186
 20
88.2439023529
 30
0.0
 40
3.004754889934632
100
AcDbArc
 50
359.1160027052999
 51
0.8839972947000669
  0
ARC
  5
26F
330
1F
100
AcDbEntity
  8
1
100
AcDbCircle
 10
17.38895000605186
 20
88.3067074662
 30
0.0
 40
3.188392933206265
100
AcDbArc
 50
327.2389252713999
 51
328.9387889695
  0
ARC
  5
270
330
1F
100
AcDbEntity
  8
1
100
AcDbCircle
 10
9.014401191351862
 20
71.152684548
 30
0.0
 40
0.7999944188473336
100
AcDbArc
 50
269.9996976123001
 51
0.0003023906997309
  0
ARC
  5
271
330
1F
100
AcDbEntity
  8
1
100
AcDbCircle
 10
-0.4466714085481387
 20
141.8612843287
 30
0.0
 40
71.51012174704623
100
AcDbArc
 50
270.2076356915
 51
270.3745001629
  0
ARC
  5
272
330
1F
100
AcDbEntity
  8
1
100
AcDbCircle
 10
-1.292395380448139
 20
67.9522362188
 30
0.0
 40
3.186536290462245
100
AcDbArc
 50
133.4934661892001
 51
140.0609928239001
  0
ARC
  5
273
330
1F
100
AcDbEntity
  8
CUT
100
AcDbCircle
 10
47.62952277965186
 20
-87.8448709177
 30
0.0
 40
0.8157185154083875
100
AcDbArc
 50
91.06212649499987
 51
182.1963752861996
  0
ARC
  5
274
330
1F
100
AcDbEntity
  8
CUT
100
AcDbCircle
 10
47.62748744105186
 20
-83.9569252269
 30
0.0
 40
0.8132253427031555
100
AcDbArc
 50
178.9322959741999
 51
269.0780211570001
  0
ARC
  5
275
330
1F
100
AcDbEntity
  8
CUT
100
AcDbCircle
 10
59.61439801455186
 20
-84.7046533637
 30
0.0
 40
0.2000000202484458
100
AcDbArc
 50
0.0
 51
84.24487873649998
  0
ARC
  5
277
330
1F
100
AcDbEntity
  8
CUT
100
AcDbCircle
 10
47.61439831625186
 20
-88.2354266937
 30
0.0
 40
0.79999999999999
100
AcDbArc
 50
90.0
 51
180.0
  0
ARC
  5
278
330
1F
100
AcDbEntity
  8
CUT
100
AcDbCircle
 10
59.61439831625186
 20
-87.304653657
 30
0.0
 40
0.1999999999999769
100
AcDbArc
 50
280.8322870218992
 51
0.0007285380996026
  0
ARC
  5
279
330
1F
100
AcDbEntity
  8
CUT
100
AcDbCircle
 10
47.61439807385186
 20
-83.7738803534
 30
0.0
 40
0.7999999999999972
100
AcDbArc
 50
180.0
 51
270.0
  0
ARC
  5
27B
330
1F
100
AcDbEntity
  8
CUT
100
AcDbCircle
 10
47.61438690955186
 20
88.2354083233
 30
0.0
 40
0.7999833722697369
100
AcDbArc
 50
179.9983728039996
 51
270.0010935891001
  0
ARC
  5
27C
330
1F
100
AcDbEntity
  8
CUT
100
AcDbCircle
 10
47.61437954985186
 20
83.7739036824
 30
0.0
 40
0.7999764541313367
100
AcDbArc
 50
89.9984109192001
 51
180.0015890854996
  0
ARC
  5
27D
330
1F
100
AcDbEntity
  8
CUT
100
AcDbCircle
 10
59.61439568095186
 20
87.3046575798
 30
0.0
 40
0.2000022160226807
100
AcDbArc
 50
359.9991344531991
 51
79.16513982759966
  0
ARC
  5
27E
330
1F
100
AcDbEntity
  8
CUT
100
AcDbCircle
 10
59.61439787675186
 20
84.7046545585
 30
0.0
 40
0.2000000202485046
100
AcDbArc
 50
275.7551036308001
 51
0.0
  0
CIRCLE
  5
27F
330
1F
100
AcDbEntity
  8
1
100
AcDbCircle
 10
24.81439831625186
 20
-86.0000068067
 30
0.0
 40
2.299999999999997
  0
CIRCLE
  5
280
330
1F
100
AcDbEntity
  8
1
100
AcDbCircle
 10
38.81439831625186
 20
-86.0000068067
 30
0.0
 40
2.29999999999999
  0
ARC
  5
281
330
1F
100
AcDbEntity
  8
1
100
AcDbCircle
 10
17.06513183765186
 20
-85.9119893839
 30
0.0
 40
5.588656470640305
100
AcDbArc
 50
250.9032129527
 51
288.9789998183
  0
ARC
  5
282
330
1F
100
AcDbEntity
  8
1
100
AcDbCircle
 10
17.06446154285186
 20
-77.7280922332
 30
0.0
 40
3.322966148265488
100
AcDbArc
 50
35.94067122140007
 51
144.1455997937
  0
ARC
  5
283
330
1F
100
AcDbEntity
  8
1
100
AcDbCircle
 10
17.06437290525186
 20
-77.5893072739
 30
0.0
 40
2.066413564062965
100
AcDbArc
 50
32.35998504680014
 51
147.5925571339001
  0
ARC
  5
284
330
1F
100
AcDbEntity
  8
1
100
AcDbCircle
 10
17.06439912685186
 20
-73.6798219733
 30
0.0
 40
2.632317951539331
100
AcDbArc
 50
250.7920686902999
 51
289.2079313097
  0
ARC
  5
285
330
1F
100
AcDbEntity
  8
1
100
AcDbCircle
 10
17.04146627645186
 20
87.9026316359
 30
0.0
 40
3.53423250797064
100
AcDbArc
 50
4.687578133800113
 51
148.3368180781
  0
ARC
  5
286
330
1F
100
AcDbEntity
  8
1
100
AcDbCircle
 10
16.63046135835186
 20
88.1280021144
 30
0.0
 40
3.066197017143032
100
AcDbArc
 50
147.8897835781
 51
178.8141669563001
  0
ARC
  5
287
330
1F
100
AcDbEntity
  8
1
100
AcDbCircle
 10
17.32813083965186
 20
88.3226238416
 30
0.0
 40
2.964174235888257
100
AcDbArc
 50
327.1746287180999
 51
329.0030855456999
  0
ARC
  5
288
330
1F
100
AcDbEntity
  8
1
100
AcDbCircle
 10
12.07698656595186
 20
91.0674343431
 30
0.0
 40
4.421548563278192
100
AcDbArc
 50
317.4128697921999
 51
338.7667680789
  0
ARC
  5
289
330
1F
100
AcDbEntity
  8
1
100
AcDbCircle
 10
19.11532308385186
 20
89.4659456396
 30
0.0
 40
4.030474745124726
100
AcDbArc
 50
200.1834062917
 51
223.6372312912001
  0
ARC
  5
28A
330
1F
100
AcDbEntity
  8
1
100
AcDbCircle
 10
17.06439912685186
 20
89.1701943399
 30
0.0
 40
2.632185638743621
100
AcDbArc
 50
250.7910652813
 51
289.2089347177999
  0
ARC
  5
28B
330
1F
100
AcDbEntity
  8
1
100
AcDbCircle
 10
14.67501833365186
 20
89.6767010465
 30
0.0
 40
4.421606799028415
100
AcDbArc
 50
317.4129160387
 51
338.7664463782
  0
ARC
  5
28C
330
1F
100
AcDbEntity
  8
1
100
AcDbCircle
 10
22.13810252535186
 20
91.1211669352
 30
0.0
 40
4.521480754294442
100
AcDbArc
 50
201.4718870798001
 51
222.3484750457999
  0
ARC
  5
28D
330
1F
100
AcDbEntity
  8
1
100
AcDbCircle
 10
17.06439912685186
 20
91.9517885602
 30
0.0
 40
2.632229657817723
100
AcDbArc
 50
250.7913991164999
 51
289.2086008828
  0
ARC
  5
28E
330
1F
100
AcDbEntity
  8
1
100
AcDbCircle
 10
17.24185857045186
 20
88.2840312042
 30
0.0
 40
1.822986920460103
100
AcDbArc
 50
326.6045052525001
 51
329.5779798442999
  0
ARC
  5
28F
330
1F
100
AcDbEntity
  8
1
100
AcDbCircle
 10
17.06442529385186
 20
85.9384744857
 30
0.0
 40
1.568651701605283
100
AcDbArc
 50
42.88429822609988
 51
137.2173817954998
  0
ARC
  5
290
330
1F
100
AcDbEntity
  8
1
100
AcDbCircle
 10
17.04454788435186
 20
86.4287392281
 30
0.0
 40
1.524086469102028
100
AcDbArc
 50
89.25370075890004
 51
147.0677626405002
  0
ARC
  5
291
330
1F
100
AcDbEntity
  8
1
100
AcDbCircle
 10
17.08424184475186
 20
86.4287233034
 30
0.0
 40
1.524102281440839
100
AcDbArc
 50
32.93256560000024
 51
90.74597100360005
  0
POINT
  5
2A5
330
1F
100
AcDbEntity
  8
1
100
AcDbPoint
 10
-0.1855964624481388
 20
0.0
 30
0.0
  0
DIMENSION
  5
2A6
330
1F
100
AcDbEntity
  8
SK2
100
AcDbDimension
280
     0
  2
_D
 10
68.49270439447771
 20
-87.49921555301458
 30
0.0
 11
68.49270417365187
 21
0.000000646
 31
0.0
 70
   160
  1
%%c<> - 203
 71
     5
 42
174.9984323979
 73
     0
 74
     0
 75
     0
  3
SLDDIMSTYLE0
100
AcDbAlignedDimension
 13
59.54354123185186
 23
87.4992168223
 33
0.0
 14
59.54354167345186
 24
-87.4992155756
 34
0.0
 50
-89.99999985539999
100
AcDbRotatedDimension
1001
ACAD
1000
DSTYLE
1002
{
1070
   140
1040
3.5
1070
   340
1005
30D
1070
   177
1070
   256
1070
   176
1070
   256
1070
   178
1070
   256
1070
   347
1005
14
1070
   346
1005
14
1070
   345
1005
14
1002
}
  0
DIMENSION
  5
2B4
330
1F
100
AcDbEntity
  8
SK2
100
AcDbDimension
280
     0
  2
_D_1
 10
78.45821063955185
 20
92.0000082527
 30
0.0
 11
78.45821063955185
 21
0.0
 31
0.0
 70
   160
  1
%%c 186 - 214
 71
     5
 42
184.0000165054
 73
     0
 74
     0
 75
     0
  3
SLDDIMSTYLE0
100
AcDbAlignedDimension
 13
46.81440271445186
 23
-92.0000082527
 33
0.0
 14
46.81440353755186
 24
92.0000082527
 34
0.0
 50
90.0
100
AcDbRotatedDimension
1001
ACAD
1000
DSTYLE
1002
{
1070
   140
1040
3.5
1070
   340
1005
30D
1070
   177
1070
   256
1070
   176
1070
   256
1070
   178
1070
   256
1070
   347
1005
14
1070
   346
1005
14
1070
   345
1005
14
1002
}
  0
DIMENSION
  5
2BF
330
1F
100
AcDbEntity
  8
2
100
AcDbDimension
280
     0
  2
_D_2
 10
-3.73560284664814
 20
98.6902958714
 30
0.0
 11
13.92198352255186
 21
98.6902958714
 31
0.0
 70
   160
  1
143
 71
     5
 42
50.5500063842
 73
     0
 74
     0
 75
     0
  3
SLDDIMSTYLE1
100
AcDbAlignedDimension
 13
46.81440353755186
 23
92.0000082527
 33
0.0
 14
-3.735602846648139
 24
69.9979025668
 34
0.0
100
AcDbRotatedDimension
1001
ACAD
1000
DSTYLE
1002
{
1070
   140
1040
3.5
1070
   340
1005
30D
1070
   177
1070
   256
1070
   176
1070
   256
1070
   178
1070
   256
1070
   347
1005
14
1070
   346
1005
14
1070
   345
1005
14
1002
}
  0
DIMENSION
  5
2C8
330
1F
100
AcDbEntity
  8
2
100
AcDbDimension
280
     0
  2
_D_3
 10
46.81440353755186
 20
44.9491192008
 30
0.0
 11
23.30971588626561
 21
44.9491192008
 31
0.0
 70
   160
  1
<>
 71
     5
 42
47.0
 73
     0
 74
     0
 75
     0
  3
SLDDIMSTYLE0
100
AcDbAlignedDimension
 13
-0.1855964624481388
 23
0.0
 33
0.0
 14
46.81440353755186
 24
84.9387130414
 34
0.0
100
AcDbRotatedDimension
1001
ACAD
1000
DSTYLE
1002
{
1070
   140
1040
3.5
1070
   340
1005
30D
1070
   177
1070
   256
1070
   176
1070
   256
1070
   178
1070
   256
1070
   347
1005
14
1070
   346
1005
14
1070
   345
1005
14
1002
}
  0
MTEXT
  5
2D2
330
1F
100
AcDbEntity
  8
SK6
100
AcDbMText
 10
21.08875626716306
 20
-57.6660930354421
 30
0.0
 40
3.5
 41
0.0
 46
0.0
 71
     1
 72
     1
  1
639.683
  7
BMG_Text
 73
     1
 44
1.0
  0
LINE
  5
37B
330
1F
100
AcDbEntity
  8
NOCUT
100
AcDbLine
 10
46.8144030960282
 20
83.7738814952338
 30
0.0
 11
46.81440309602819
 21
40.56042327903882
 31
0.0
  0
LINE
  5
37C
330
1F
100
AcDbEntity
  8
NOCUT
100
AcDbLine
 10
46.81440309602819
 20
40.56042327903882
 30
0.0
 11
23.50203073932882
 21
0.17648343784941
 31
0.0
  0
LINE
  5
37D
330
1F
100
AcDbEntity
  8
NOCUT
100
AcDbLine
 10
23.50203073932882
 20
0.17648343784941
 30
0.0
 11
23.60392351883858
 21
0.0
 31
0.0
  0
LINE
  5
37E
330
1F
100
AcDbEntity
  8
NOCUT
100
AcDbLine
 10
23.60392351883858
 20
0.0
 30
0.0
 11
0.0
 21
0.0
 31
0.0
  0
LINE
  5
37F
330
1F
100
AcDbEntity
  8
NOCUT
100
AcDbLine
 10
0.0
 20
0.0
 30
0.0
 11
0.0207340754447279
 21
70.35269012918504
 31
0.0
  0
LINE
  5
380
330
1F
100
AcDbEntity
  8
NOCUT
100
AcDbLine
 10
0.0207340754447279
 20
70.35269012918504
 30
0.0
 11
9.01439696925186
 21
70.3526901292
 31
0.0
  0
ARC
  5
381
330
1F
100
AcDbEntity
  8
NOCUT
100
AcDbCircle
 10
9.014401191439243
 20
71.15268454791261
 30
0.0
 40
0.7999944187237598
100
AcDbArc
 50
269.9996976059937
 51
0.0003023940065597
  0
LINE
  5
382
330
1F
100
AcDbEntity
  8
NOCUT
100
AcDbLine
 10
9.814395610188054
 20
71.15268877014121
 30
0.0
 11
9.81439561015186
 21
92.0000082527
 31
0.0
  0
LINE
  5
383
330
1F
100
AcDbEntity
  8
NOCUT
100
AcDbLine
 10
9.81439561015186
 20
92.0000082527
 30
0.0
 11
46.87690353755186
 21
92.0000082527
 31
0.0
  0
ARC
  5
385
330
1F
100
AcDbEntity
  8
NOCUT
100
AcDbCircle
 10
47.61438690951086
 20
88.23540832328301
 30
0.0
 40
0.7999833722287307
100
AcDbArc
 50
179.9983728027823
 51
270.0010935944004
  0
ARC
  5
386
330
1F
100
AcDbEntity
  8
NOCUT
100
AcDbCircle
 10
59.60724401396002
 20
87.30208414151527
 30
0.0
 40
0.2071698295642857
100
AcDbArc
 50
0.7109038050065097
 51
107.9080693006183
  0
ARC
  5
387
330
1F
100
AcDbEntity
  8
NOCUT
100
AcDbCircle
 10
59.61418759858746
 20
84.704735534635
 30
0.0
 40
0.200210314788525
100
AcDbArc
 50
262.7869576375658
 51
359.9768264142198
  0
ARC
  5
388
330
1F
100
AcDbEntity
  8
NOCUT
100
AcDbCircle
 10
47.61437954981147
 20
83.77390368241673
 30
0.0
 40
0.7999764540909485
100
AcDbArc
 50
89.99841091634966
 51
180.0015890866977
  0
LINE
  5
389
330
1F
100
AcDbEntity
  8
NOCUT
100
AcDbLine
 10
47.61440217861886
 20
87.43542495117599
 30
0.0
 11
58.80150810795186
 21
87.4354249512
 31
0.0
  0
LINE
  5
38A
330
1F
100
AcDbEntity
  8
NOCUT
100
AcDbLine
 10
58.80150810795186
 20
87.4354249512
 30
0.0
 11
59.54354123185186
 21
87.4992168223
 31
0.0
  0
LINE
  5
38B
330
1F
100
AcDbEntity
  8
NOCUT
100
AcDbLine
 10
59.81439789695186
 20
87.3046545585
 30
0.0
 11
59.81439789700036
 21
84.7046545585
 31
0.0
  0
LINE
  5
38C
330
1F
100
AcDbEntity
  8
NOCUT
100
AcDbLine
 10
59.58904937815186
 20
84.5061096551
 30
0.0
 11
58.80150810795186
 21
84.5738801362
 31
0.0
  0
LINE
  5
38D
330
1F
100
AcDbEntity
  8
NOCUT
100
AcDbLine
 10
58.80150810795186
 20
84.5738801362
 30
0.0
 11
47.61440173695245
 21
84.57388013622366
 31
0.0
  0
LWPOLYLINE
  5
38F
330
1F
100
AcDbEntity
  8
INFTOTAL
100
AcDbPolyline
 90
        4
 70
     1
 43
0.0
 10
-62.67995331064203
 20
135.9034939107691
 10
-62.67995331064203
 20
-127.6940670648406
 10
107.8535832747237
 20
-127.6940670648406
 10
107.8535832747237
 20
135.9034939107691
  0
LINE
  5
39D
330
1F
100
AcDbEntity
  8
4
100
AcDbLine
 10
32.22433741745186
 20
0.0
 30
0.0
 11
0.0
 21
0.0
 31
0.0
  0
LWPOLYLINE
  5
3B2
330
1F
100
AcDbEntity
  8
1
100
AcDbPolyline
 90
       43
 70
     0
 43
0.0
 10
21.14545617552227
 20
-73.50000742527948
 10
21.30767264477999
 20
-73.07093053124107
 10
21.43121027236575
 20
-72.62712447003753
 10
21.51494297215641
 20
-72.1726346799425
 10
21.55810749304277
 20
-71.7116039849338
 10
21.5603103762145
 20
-71.24823483148968
 10
21.52153154166666
 20
-70.78675098190645
 10
21.44212447123559
 20
-70.3313590133154
 10
21.32281298649562
 20
-69.88620997334817
 10
21.16468465088731
 20
-69.45536154197175
 10
20.9691808562188
 20
-69.0427410444005
 10
20.73808368390523
 20
-68.65210965223457
 10
20.47349966071031
 20
-68.28702809914327
 10
20.17784055706171
 20
-67.95082422360606
 10
19.85380140297012
 20
-67.64656263456985
 10
19.50433592194389
 20
-67.37701677653011
 10
19.13262960682745
 20
-67.14464364867172
 10
18.74207068298587
 20
-66.951561408513
 10
18.33621922351582
 20
-66.79953006420298
 10
17.91877469800796
 20
-66.68993543146802
 10
17.49354225066436
 20
-66.62377650144549
 10
17.06439801515706
 20
-66.60165633455088
 10
16.63525378239435
 20
-66.62377656338363
 10
16.21002134325946
 20
-66.68993555477971
 10
15.79257683134963
 20
-66.7995302477642
 10
15.38672539074298
 20
-66.95156165065052
 10
14.99616649085821
 20
-67.14464394717838
 10
14.62446020457362
 20
-67.37701712868493
 10
14.27499475699147
 20
-67.64656303716282
 10
13.95095564065134
 20
-67.95082467296741
 10
13.65529657871746
 20
-68.28702859117692
 10
13.39071260082028
 20
-68.65211018245549
 10
13.15961547697456
 20
-69.04274160797553
 10
12.96411173350221
 20
-69.45536213376373
 10
12.8059834513517
 20
-69.88621058796272
 10
12.6866720218439
 20
-70.3313596451501
 10
12.60726500791589
 20
-70.78675162520192
 10
12.56848623062696
 20
-71.24823548038208
 10
12.57068917129152
 20
-71.71160463350824
 10
12.61385374938057
 20
-72.17263532228704
 10
12.69758650556236
 20
-72.62712510029696
 10
12.82112418821364
 20
-73.07093114367039
 10
12.98334071070936
 20
-73.50000801429618
  0
LWPOLYLINE
  5
3B3
330
1F
100
AcDbEntity
  8
1
100
AcDbPolyline
 90
        6
 70
     0
 43
0.0
 10
-0.3875247675853521
 20
34.49392950782579
 10
-1.050581225136189
 20
34.15236671465149
 10
-1.706998321016639
 20
33.80655564524164
 10
-2.356694402303003
 20
33.45653931566795
 10
-2.999588652110899
 20
33.10236126510211
 10
-3.635601099648196
 20
32.74406555039993
  0
LWPOLYLINE
  5
3B4
330
1F
100
AcDbEntity
  8
1
100
AcDbPolyline
 90
        5
 70
     0
 43
0.0
 10
-0.387528131676163
 20
35.23908151211354
 10
-1.186855013653421
 20
35.62119760177448
 10
-1.994734510792412
 20
35.99727042286402
 10
-2.811029563351823
 20
36.36723617323867
 10
-3.635601683860202
 20
36.73103208684208
  0
LWPOLYLINE
  5
3B5
330
1F
100
AcDbEntity
  8
1
100
AcDbPolyline
 90
        6
 70
     0
 43
0.0
 10
-0.3875262939571331
 20
29.17171668007505
 10
-1.018600129114464
 20
29.6103698988765
 10
-1.659043714179955
 20
30.04447285857725
 10
-2.308758631486587
 20
30.47395885010014
 10
-2.967645038631577
 20
30.89876187386256
 10
-3.635601683819278
 20
31.31881664991869
  0
LWPOLYLINE
  5
3B6
330
1F
100
AcDbEntity
  8
1
100
AcDbPolyline
 90
        4
 70
     0
 43
0.0
 10
-3.635601683758852
 20
-68.21855449917415
 10
-2.550490290356793
 20
-68.07141330218658
 10
-1.467767716631914
 20
-67.91851882878468
 10
-0.3875254724055517
 20
-67.75988400134237
  0
LWPOLYLINE
  5
3B7
330
1F
100
AcDbEntity
  8
1
100
AcDbPolyline
 90
        4
 70
     0
 43
0.0
 10
-3.635601683739945
 20
-66.98935926013145
 10
-2.555823698692118
 20
-67.17519187569926
 10
-1.473101181998291
 20
-67.35522310619756
 10
-0.3875276397684276
 20
-67.52943740376458
  0
LWPOLYLINE
  5
3B8
330
1F
100
AcDbEntity
  8
1
100
AcDbPolyline
 90
        4
 70
     0
 43
0.0
 10
-3.635601099599285
 20
-66.55427006132565
 10
-2.549434281947867
 20
-66.34660444113739
 10
-1.466710156502273
 20
-66.13303021253456
 10
-0.3875251470924042
 20
-65.91356639573165
  0
LWPOLYLINE
  5
3B9
330
1F
100
AcDbEntity
  8
1
100
AcDbPolyline
 90
        4
 70
     0
 43
0.0
 10
-3.635601683752532
 20
-64.86813347610254
 10
-2.556961895610881
 20
-65.11723316330793
 10
-1.47423757748315
 20
-65.36035439917887
 10
-0.3875281349338364
 20
-65.59747486260991
  0
LWPOLYLINE
  5
3BA
330
1F
100
AcDbEntity
  8
1
100
AcDbPolyline
 90
        4
 70
     0
 43
0.0
 10
-3.635601099672783
 20
-64.28973314416626
 10
-2.548177156906327
 20
-64.01565865412947
 10
-1.465450890695777
 20
-63.73545328776004
 10
-0.3875259953788298
 20
-63.44914388075122
  0
LWPOLYLINE
  5
3BB
330
1F
100
AcDbEntity
  8
1
100
AcDbPolyline
 90
        4
 70
     0
 43
0.0
 10
-3.635601683765451
 20
-62.0981096204145
 10
-2.558351483513789
 20
-62.41775971070132
 10
-1.47562426165603
 20
-62.73118077872914
 10
-0.3875280696943688
 20
-63.03834154642853
  0
LWPOLYLINE
  5
3BC
330
1F
100
AcDbEntity
  8
1
100
AcDbPolyline
 90
        4
 70
     0
 43
0.0
 10
-3.635601099645143
 20
-61.35853317627964
 10
-2.546594511482958
 20
-61.00907918847342
 10
-1.463865167099648
 20
-60.65318276877924
 10
-0.3875274004761739
 20
-60.29088149912344
  0
LWPOLYLINE
  5
3BD
330
1F
100
AcDbEntity
  8
1
100
AcDbPolyline
 90
        4
 70
     0
 43
0.0
 10
-3.635601551300347
 20
-69.96194409528984
 10
-2.553114111487492
 20
-69.97977046185184
 10
-1.470394072667562
 20
-69.99201400334314
 10
-0.3875278117701255
 20
-69.998673743002
  0
LWPOLYLINE
  5
3BE
330
1F
100
AcDbEntity
  8
1
100
AcDbPolyline
 90
        4
 70
     0
 43
0.0
 10
-3.635600967183652
 20
-69.9025970263202
 10
-2.552281252099744
 20
-69.86675804592643
 10
-1.469560470832716
 20
-69.82532290605279
 10
-0.3875253467320778
 20
-69.77829492555504
  0
LWPOLYLINE
  5
3BF
330
1F
100
AcDbEntity
  8
1
100
AcDbPolyline
 90
        4
 70
     0
 43
0.0
 10
-3.635601404513412
 20
-69.505206234006
 10
-2.55395433832596
 20
-69.57701189259699
 10
-1.471234037239281
 20
-69.64320676456268
 10
-0.3875278133308467
 20
-69.70378551185614
  0
LWPOLYLINE
  5
3C0
330
1F
100
AcDbEntity
  8
1
100
AcDbPolyline
 90
        4
 70
     0
 43
0.0
 10
-3.635600820337364
 20
-69.32583702759462
 10
-2.551420788327254
 20
-69.23544453077113
 10
-1.468699539997795
 20
-69.13940035574143
 10
-0.387525457718935
 20
-69.03771234257684
  0
LWPOLYLINE
  5
3C1
330
1F
100
AcDbEntity
  8
1
100
AcDbPolyline
 90
        4
 70
     0
 43
0.0
 10
-3.635601683726439
 20
-68.5220676824494
 10
-2.554842310352193
 20
-68.64940272375767
 10
-1.472121185820793
 20
-68.77105582053225
 10
-0.3875279243421343
 20
-68.88701690384045
  0
LWPOLYLINE
  5
3C2
330
1F
100
AcDbEntity
  8
1
100
AcDbPolyline
 90
        4
 70
     0
 43
0.0
 10
-0.1875245533476301
 20
70.35163214669477
 10
-1.270393123645361
 20
70.34497240433792
 10
-2.353115471327804
 20
70.3327288363332
 10
-3.435605218912801
 20
70.31490241944861
  0
LWPOLYLINE
  5
3C3
330
1F
100
AcDbEntity
  8
CUT
100
AcDbPolyline
 90
       14
 70
     0
 43
0.0
 10
59.48140358891975
 20
-84.77004528426647
 10
59.47698692982564
 20
-84.93889312629783
 10
59.47322524012073
 20
-85.10980072843907
 10
59.47012582173635
 20
-85.28243633669732
 10
59.46769469104871
 20
-85.456464842794
 10
59.46593656720019
 20
-85.63154843465382
 10
59.46485486293896
 20
-85.80734725214207
 10
59.46445167799438
 20
-85.98352004677764
 10
59.46472779500112
 20
-86.15972484414091
 10
59.46568267797998
 20
-86.33561960769076
 10
59.46731447337829
 20
-86.51086290270226
 10
59.46962001366792
 20
-86.68511455903601
 10
59.47259482349384
 20
-86.85803633145291
 10
59.47623312836137
 20
-87.02929255619237
  0
LWPOLYLINE
  5
3C4
330
1F
100
AcDbEntity
  8
CUT
100
AcDbPolyline
 90
       20
 70
     0
 43
0.0
 10
50.32848247972933
 20
87.4354279404121
 10
50.22720085288994
 20
87.29063841829365
 10
50.13674911376134
 20
87.14393560319779
 10
50.05726135238354
 20
86.99553697448458
 10
49.98885540526477
 20
86.8456625254704
 10
49.93163268069495
 20
86.69453443729908
 10
49.88567800841313
 20
86.54237674956994
 10
49.85105951385177
 20
86.38941502821048
 10
49.82782851714429
 20
86.23587603108666
 10
49.81601945704563
 20
86.081987371846
 10
49.81564983987858
 20
85.92797718249204
 10
49.82672021358152
 20
85.7740737751905
 10
49.84921416689618
 20
85.62050530380816
 10
49.88309835369643
 20
85.46749942568663
 10
49.92832254242227
 20
85.31528296415193
 10
49.98481969054545
 20
85.1640815722608
 10
50.05250604395658
 20
85.01411939828145
 10
50.13128126112633
 20
84.8656187534055
 10
50.22102856185652
 20
84.718799782183
 10
50.32161490040073
 20
84.5738801361695
  0
ENDSEC
  0
SECTION
  2
OBJECTS
  0
DICTIONARY
  5
C
330
0
100
AcDbDictionary
281
     1
  3
ACAD_DETAILVIEWSTYLE
350
396
  3
ACAD_GROUP
350
D
  3
ACAD_LAYOUT
350
2F5
  3
ACAD_MATERIAL
350
309
  3
ACAD_MLEADERSTYLE
350
323
  3
ACAD_MLINESTYLE
350
17
  3
ACAD_PLOTSETTINGS
350
365
  3
ACAD_PLOTSTYLENAME
350
366
  3
ACAD_SCALELIST
350
2D3
  3
ACAD_SECTIONVIEWSTYLE
350
397
  3
ACAD_TABLESTYLE
350
372
  3
ACAD_VISUALSTYLE
350
2F8
  3
ACDB_RECOMPOSE_DATA
350
3D3
  3
AcDbVariableDictionary
350
321
  3
APPDATA
350
375
  3
FX_DICT_DIMENSION_PALETTE
350
3AF
  0
SUN
  5
398
330
29
100
AcDbSun
 90
        1
290
     0
 63
     7
421
 16777215
 40
1.0
291
     1
 91
  2455826
 92
 54000000
292
     0
 70
     2
 71
   256
280
     1
  0
DICTIONARY
  5
376
330
2
100
AcDbDictionary
280
     1
281
     1
  3
ACAD_LAYERSTATES
360
377
  0
DICTIONARY
  5
396
102
{ACAD_REACTORS
330
C
102
}
330
C
100
AcDbDictionary
281
     1
  0
DICTIONARY
  5
D
102
{ACAD_REACTORS
330
C
102
}
330
C
100
AcDbDictionary
281
     1
  0
DICTIONARY
  5
2F5
102
{ACAD_REACTORS
330
C
102
}
330
C
100
AcDbDictionary
281
     1
  3
Layout1
350
2F7
  3
Model
350
2F6
  0
DICTIONARY
  5
309
102
{ACAD_REACTORS
330
C
102
}
330
C
100
AcDbDictionary
281
     1
  3
ByBlock
350
30B
  3
ByLayer
350
30A
  3
Global
350
30C
  0
DICTIONARY
  5
323
102
{ACAD_REACTORS
330
C
102
}
330
C
100
AcDbDictionary
281
     1
  3
Standard
350
374
  0
DICTIONARY
  5
17
102
{ACAD_REACTORS
330
C
102
}
330
C
100
AcDbDictionary
281
     1
  3
STANDARD
350
18
  0
DICTIONARY
  5
365
102
{ACAD_REACTORS
330
C
102
}
330
C
100
AcDbDictionary
281
     1
  0
ACDBDICTIONARYWDFLT
  5
366
102
{ACAD_REACTORS
330
C
102
}
330
C
100
AcDbDictionary
281
     1
  3
Normal
350
367
100
AcDbDictionaryWithDefault
340
367
  0
DICTIONARY
  5
2D3
102
{ACAD_REACTORS
330
C
102
}
330
C
100
AcDbDictionary
281
     1
  3
A0
350
2D4
  3
A1
350
2D5
  3
A2
350
2D6
  3
A3
350
2D7
  3
A4
350
2D8
  3
A5
350
2D9
  3
A6
350
2DA
  3
A7
350
2DB
  3
A8
350
2DC
  3
A9
350
2DD
  3
B0
350
2DE
  3
B1
350
2DF
  3
B2
350
2E0
  3
B3
350
2E1
  3
B4
350
2E2
  3
B5
350
2E3
  3
B6
350
2E4
  3
B7
350
2E5
  3
B8
350
2E6
  3
B9
350
2E7
  3
C0
350
2E8
  3
C1
350
2E9
  3
C2
350
2EA
  3
C3
350
2EB
  3
C4
350
2EC
  3
C5
350
2ED
  3
C6
350
2EE
  3
C7
350
2EF
  3
C8
350
2F0
  3
C9
350
2F1
  3
D0
350
2F2
  3
D1
350
2F3
  3
D2
350
2F4
  0
DICTIONARY
  5
397
102
{ACAD_REACTORS
330
C
102
}
330
C
100
AcDbDictionary
281
     1
  0
DICTIONARY
  5
372
102
{ACAD_REACTORS
330
C
102
}
330
C
100
AcDbDictionary
281
     1
  3
Standard
350
373
  0
DICTIONARY
  5
2F8
102
{ACAD_REACTORS
330
C
102
}
330
C
100
AcDbDictionary
281
     1
  3
2dWireframe
350
2FD
  3
3D Hidden
350
2FF
  3
3dWireframe
350
2FE
  3
Basic
350
300
  3
Brighten
350
304
  3
ColorChange
350
308
  3
Conceptual
350
302
  3
Dim
350
303
  3
EdgeColorOff
350
36C
  3
Facepattern
350
307
  3
Flat
350
2F9
  3
FlatWithEdges
350
2FA
  3
Gouraud
350
2FB
  3
GouraudWithEdges
350
2FC
  3
Hidden
350
369
  3
JitterOff
350
36A
  3
Linepattern
350
306
  3
OverhangOff
350
36B
  3
Realistic
350
301
  3
Shaded
350
371
  3
Shaded with edges
350
370
  3
Shades of Gray
350
36D
  3
Sketchy
350
36E
  3
Thicken
350
305
  3
Wireframe
350
368
  3
X-Ray
350
36F
  0
XRECORD
  5
3D3
102
{ACAD_REACTORS
330
C
102
}
330
C
100
AcDbXrecord
280
     1
 90
        1
330
373
  0
DICTIONARY
  5
321
102
{ACAD_REACTORS
330
C
102
}
330
C
100
AcDbDictionary
281
     1
  3
CANNOSCALE
350
393
  3
CMLEADERSTYLE
350
395
  3
CTABLESTYLE
350
394
  3
DIMASSOC
350
325
  3
HIDETEXT
350
326
  3
MSLTSCALE
350
324
  0
DICTIONARY
  5
375
102
{ACAD_REACTORS
330
C
102
}
330
C
100
AcDbDictionary
281
     1
  0
DICTIONARY
  5
3AF
102
{ACAD_REACTORS
330
C
102
}
330
C
100
AcDbDictionary
281
     1
1001
FX_DIMP_FAV_VERSION
1071
        1
  0
DICTIONARY
  5
377
102
{ACAD_REACTORS
330
376
102
}
330
376
100
AcDbDictionary
281
     1
  0
LAYOUT
  5
2F7
102
{ACAD_REACTORS
330
2F5
102
}
330
2F5
100
AcDbPlotSettings
  1

  2
none_device
  4

  6

 40
0.0
 41
0.0
 42
0.0
 43
0.0
 44
0.0
 45
0.0
 46
0.0
 47
0.0
 48
0.0
 49
0.0
140
0.0
141
0.0
142
1.0
143
1.0
 70
   688
 72
     0
 73
     0
 74
     5
  7

 75
    16
 76
     0
 77
     2
 78
   300
147
1.0
148
0.0
149
0.0
100
AcDbLayout
  1
Layout1
 70
     1
 71
     1
 10
0.0
 20
0.0
 11
420.0
 21
297.0
 12
0.0
 22
0.0
 32
0.0
 14
1.000000000000000E+20
 24
1.000000000000000E+20
 34
1.000000000000000E+20
 15
-1.000000000000000E+20
 25
-1.000000000000000E+20
 35
-1.000000000000000E+20
146
0.0
 13
0.0
 23
0.0
 33
0.0
 16
1.0
 26
0.0
 36
0.0
 17
0.0
 27
1.0
 37
0.0
 76
     0
330
1B
  0
LAYOUT
  5
2F6
102
{ACAD_REACTORS
330
2F5
102
}
330
2F5
100
AcDbPlotSettings
  1

  2
none_device
  4

  6

 40
0.0
 41
0.0
 42
0.0
 43
0.0
 44
0.0
 45
0.0
 46
0.0
 47
0.0
 48
0.0
 49
0.0
140
0.0
141
0.0
142
1.0
143
1.0
 70
  1712
 72
     0
 73
     0
 74
     0
  7

 75
     0
 76
     0
 77
     2
 78
   300
147
1.0
148
-0.0000001562100806
149
0.0
100
AcDbLayout
  1
Model
 70
     1
 71
     0
 10
0.0
 20
0.0
 11
420.0
 21
297.0
 12
0.0
 22
0.0
 32
0.0
 14
-62.67995331064202
 24
-127.6940670648406
 34
0.0
 15
107.8535832747237
 25
135.9034939107691
 35
0.0
146
0.0
 13
0.0
 23
0.0
 33
0.0
 16
1.0
 26
0.0
 36
0.0
 17
0.0
 27
1.0
 37
0.0
 76
     0
330
1F
331
29
  0
MATERIAL
  5
30B
102
{ACAD_REACTORS
330
309
102
}
330
309
100
AcDbMaterial
  1
ByBlock
 72
     1
 94
      127
  0
MATERIAL
  5
30A
102
{ACAD_REACTORS
330
309
102
}
330
309
100
AcDbMaterial
  1
ByLayer
 72
     1
 94
      127
  0
MATERIAL
  5
30C
102
{ACAD_REACTORS
330
309
102
}
330
309
100
AcDbMaterial
  1
Global
 72
     1
 94
      127
  0
MLEADERSTYLE
  5
374
102
{ACAD_REACTORS
330
323
102
}
330
323
100
AcDbMLeaderStyle
179
     2
170
     2
171
     1
172
     0
 90
        2
 40
0.0
 41
0.0
173
     1
 91
-1056964608
340
14
 92
       -2
290
     1
 42
2.0
291
     1
 43
8.0
  3
Standard
341
0
 44
4.0
300

342
11
174
     1
178
     1
175
     1
176
     0
 93
-1056964608
 45
4.0
292
     0
297
     0
 46
4.0
343
0
 94
-1056964608
 47
1.0
 49
1.0
140
1.0
293
     1
141
0.0
294
     1
177
     0
142
1.0
295
     0
296
     0
143
3.75
271
     0
272
     9
273
     9
298
     0
  0
MLINESTYLE
  5
18
102
{ACAD_REACTORS
330
17
102
}
330
17
100
AcDbMlineStyle
  2
Standard
 70
     0
  3

 62
   256
 51
90.0
 52
90.0
 71
     2
 49
0.5
 62
   256
  6
BYLAYER
 49
-0.5
 62
   256
  6
BYLAYER
  0
ACDBPLACEHOLDER
  5
367
102
{ACAD_REACTORS
330
366
102
}
330
366
  0
SCALE
  5
2D4
102
{ACAD_REACTORS
330
2D3
102
}
330
2D3
100
AcDbScale
 70
     0
300
1:1
140
1.0
141
1.0
290
     1
  0
SCALE
  5
2D5
102
{ACAD_REACTORS
330
2D3
102
}
330
2D3
100
AcDbScale
 70
     0
300
1:2
140
1.0
141
2.0
290
     0
  0
SCALE
  5
2D6
102
{ACAD_REACTORS
330
2D3
102
}
330
2D3
100
AcDbScale
 70
     0
300
1:4
140
1.0
141
4.0
290
     0
  0
SCALE
  5
2D7
102
{ACAD_REACTORS
330
2D3
102
}
330
2D3
100
AcDbScale
 70
     0
300
1:5
140
1.0
141
5.0
290
     0
  0
SCALE
  5
2D8
102
{ACAD_REACTORS
330
2D3
102
}
330
2D3
100
AcDbScale
 70
     0
300
1:8
140
1.0
141
8.0
290
     0
  0
SCALE
  5
2D9
102
{ACAD_REACTORS
330
2D3
102
}
330
2D3
100
AcDbScale
 70
     0
300
1:10
140
1.0
141
10.0
290
     0
  0
SCALE
  5
2DA
102
{ACAD_REACTORS
330
2D3
102
}
330
2D3
100
AcDbScale
 70
     0
300
1:16
140
1.0
141
16.0
290
     0
  0
SCALE
  5
2DB
102
{ACAD_REACTORS
330
2D3
102
}
330
2D3
100
AcDbScale
 70
     0
300
1:20
140
1.0
141
20.0
290
     0
  0
SCALE
  5
2DC
102
{ACAD_REACTORS
330
2D3
102
}
330
2D3
100
AcDbScale
 70
     0
300
1:30
140
1.0
141
30.0
290
     0
  0
SCALE
  5
2DD
102
{ACAD_REACTORS
330
2D3
102
}
330
2D3
100
AcDbScale
 70
     0
300
1:40
140
1.0
141
40.0
290
     0
  0
SCALE
  5
2DE
102
{ACAD_REACTORS
330
2D3
102
}
330
2D3
100
AcDbScale
 70
     0
300
1:50
140
1.0
141
50.0
290
     0
  0
SCALE
  5
2DF
102
{ACAD_REACTORS
330
2D3
102
}
330
2D3
100
AcDbScale
 70
     0
300
1:100
140
1.0
141
100.0
290
     0
  0
SCALE
  5
2E0
102
{ACAD_REACTORS
330
2D3
102
}
330
2D3
100
AcDbScale
 70
     0
300
2:1
140
2.0
141
1.0
290
     0
  0
SCALE
  5
2E1
102
{ACAD_REACTORS
330
2D3
102
}
330
2D3
100
AcDbScale
 70
     0
300
4:1
140
4.0
141
1.0
290
     0
  0
SCALE
  5
2E2
102
{ACAD_REACTORS
330
2D3
102
}
330
2D3
100
AcDbScale
 70
     0
300
8:1
140
8.0
141
1.0
290
     0
  0
SCALE
  5
2E3
102
{ACAD_REACTORS
330
2D3
102
}
330
2D3
100
AcDbScale
 70
     0
300
10:1
140
10.0
141
1.0
290
     0
  0
SCALE
  5
2E4
102
{ACAD_REACTORS
330
2D3
102
}
330
2D3
100
AcDbScale
 70
     0
300
100:1
140
100.0
141
1.0
290
     0
  0
SCALE
  5
2E5
102
{ACAD_REACTORS
330
2D3
102
}
330
2D3
100
AcDbScale
 70
     0
300
1/128" = 1'-0"
140
0.0078125
141
12.0
290
     0
  0
SCALE
  5
2E6
102
{ACAD_REACTORS
330
2D3
102
}
330
2D3
100
AcDbScale
 70
     0
300
1/64" = 1'-0"
140
0.015625
141
12.0
290
     0
  0
SCALE
  5
2E7
102
{ACAD_REACTORS
330
2D3
102
}
330
2D3
100
AcDbScale
 70
     0
300
1/32" = 1'-0"
140
0.03125
141
12.0
290
     0
  0
SCALE
  5
2E8
102
{ACAD_REACTORS
330
2D3
102
}
330
2D3
100
AcDbScale
 70
     0
300
1/16" = 1'-0"
140
0.0625
141
12.0
290
     0
  0
SCALE
  5
2E9
102
{ACAD_REACTORS
330
2D3
102
}
330
2D3
100
AcDbScale
 70
     0
300
3/32" = 1'-0"
140
0.09375
141
12.0
290
     0
  0
SCALE
  5
2EA
102
{ACAD_REACTORS
330
2D3
102
}
330
2D3
100
AcDbScale
 70
     0
300
1/8" = 1'-0"
140
0.125
141
12.0
290
     0
  0
SCALE
  5
2EB
102
{ACAD_REACTORS
330
2D3
102
}
330
2D3
100
AcDbScale
 70
     0
300
3/16" = 1'-0"
140
0.1875
141
12.0
290
     0
  0
SCALE
  5
2EC
102
{ACAD_REACTORS
330
2D3
102
}
330
2D3
100
AcDbScale
 70
     0
300
1/4" = 1'-0"
140
0.25
141
12.0
290
     0
  0
SCALE
  5
2ED
102
{ACAD_REACTORS
330
2D3
102
}
330
2D3
100
AcDbScale
 70
     0
300
3/8" = 1'-0"
140
0.375
141
12.0
290
     0
  0
SCALE
  5
2EE
102
{ACAD_REACTORS
330
2D3
102
}
330
2D3
100
AcDbScale
 70
     0
300
1/2" = 1'-0"
140
0.5
141
12.0
290
     0
  0
SCALE
  5
2EF
102
{ACAD_REACTORS
330
2D3
102
}
330
2D3
100
AcDbScale
 70
     0
300
3/4" = 1'-0"
140
0.75
141
12.0
290
     0
  0
SCALE
  5
2F0
102
{ACAD_REACTORS
330
2D3
102
}
330
2D3
100
AcDbScale
 70
     0
300
1" = 1'-0"
140
1.0
141
12.0
290
     0
  0
SCALE
  5
2F1
102
{ACAD_REACTORS
330
2D3
102
}
330
2D3
100
AcDbScale
 70
     0
300
1-1/2" = 1'-0"
140
1.5
141
12.0
290
     0
  0
SCALE
  5
2F2
102
{ACAD_REACTORS
330
2D3
102
}
330
2D3
100
AcDbScale
 70
     0
300
3" = 1'-0"
140
3.0
141
12.0
290
     0
  0
SCALE
  5
2F3
102
{ACAD_REACTORS
330
2D3
102
}
330
2D3
100
AcDbScale
 70
     0
300
6" = 1'-0"
140
6.0
141
12.0
290
     0
  0
SCALE
  5
2F4
102
{ACAD_REACTORS
330
2D3
102
}
330
2D3
100
AcDbScale
 70
     0
300
1'-0" = 1'-0"
140
12.0
141
12.0
290
     0
  0
TABLESTYLE
  5
373
102
{ACAD_REACTORS
330
372
102
}
102
{ACAD_XDICTIONARY
360
3D1
102
}
330
372
100
AcDbTableStyle
  3
Standard
 70
     0
 71
     0
 40
1.5
 41
1.5
280
     0
281
     0
  7
STANDARD
140
4.5
170
     2
 62
     0
 63
   257
283
     0
 90
        4
 91
        0
  1

274
    -2
284
     1
 64
     0
275
    -2
285
     1
 65
     0
276
    -2
286
     1
 66
     0
277
    -2
287
     1
 67
     0
278
    -2
288
     1
 68
     0
279
    -2
289
     1
 69
     0
  7
STANDARD
140
6.0
170
     5
 62
     0
 63
   257
283
     0
 90
        4
 91
        0
  1

274
    -2
284
     1
 64
     0
275
    -2
285
     1
 65
     0
276
    -2
286
     1
 66
     0
277
    -2
287
     1
 67
     0
278
    -2
288
     1
 68
     0
279
    -2
289
     1
 69
     0
  7
STANDARD
140
4.5
170
     5
 62
     0
 63
   257
283
     0
 90
        4
 91
        0
  1

274
    -2
284
     1
 64
     0
275
    -2
285
     1
 65
     0
276
    -2
286
     1
 66
     0
277
    -2
287
     1
 67
     0
278
    -2
288
     1
 68
     0
279
    -2
289
     1
 69
     0
  0
VISUALSTYLE
  5
2FD
102
{ACAD_REACTORS
330
2F8
102
}
330
2F8
100
AcDbVisualStyle
  2
2dWireframe
 70
     4
177
     3
291
     0
 70
    58
 90
        0
176
     1
 90
        2
176
     1
 90
        0
176
     1
 90
        0
176
     1
 40
-0.6
176
     1
 40
-30.0
176
     1
 62
     7
176
     1
 90
        1
176
     1
 90
        4
176
     1
 62
     7
176
     1
 62
   257
176
     1
 90
        1
176
     1
 90
        1
176
     1
 40
1.0
176
     1
 90
        0
176
     1
 62
   257
176
     1
 40
1.0
176
     1
 90
        1
176
     1
 90
        6
176
     1
 90
        2
176
     1
 62
     7
176
     1
 90
        5
176
     1
 90
        0
176
     1
 90
        0
176
     1
290
     0
176
     1
 90
        1
176
     1
 40
0.0
176
     1
 90
        0
176
     1
290
     1
176
     1
290
     1
176
     1
290
     0
176
     1
290
     0
176
     1
290
     0
176
     1
290
     0
176
     1
290
     0
176
     1
290
     0
176
     1
290
     0
176
     1
 90
       50
176
     1
 40
0.0
176
     1
 40
1.0
176
     1
 90
        0
176
     1
 62
    18
420
        0
176
     1
 90
       50
176
     1
 90
        3
176
     1
 62
     5
420
      255
176
     1
290
     0
176
     1
 90
       50
176
     1
 90
       50
176
     1
 90
       50
176
     1
290
     0
176
     1
 90
       50
176
     1
 62
   256
176
     0
 40
1.0
176
     0
 90
        2
176
     1
  1
strokes_ogs.tif
176
     1
290
     0
176
     1
 40
1.0
176
     1
 40
1.0
176
     1
  0
VISUALSTYLE
  5
2FF
102
{ACAD_REACTORS
330
2F8
102
}
330
2F8
100
AcDbVisualStyle
  2
3D Hidden
 70
     6
177
     3
291
     0
 70
    58
 90
        1
176
     1
 90
        2
176
     1
 90
        2
176
     1
 90
        0
176
     1
 40
-0.6
176
     1
 40
-30.0
176
     1
 62
     7
176
     1
 90
        2
176
     1
 90
        2
176
     1
 62
     7
176
     1
 62
   257
176
     1
 90
        2
176
     1
 90
        1
176
     1
 40
40.0
176
     1
 90
        0
176
     1
 62
   257
176
     1
 40
1.0
176
     1
 90
        1
176
     1
 90
        6
176
     1
 90
        2
176
     1
 62
     7
176
     1
 90
        3
176
     1
 90
        0
176
     1
 90
        0
176
     1
290
     0
176
     1
 90
        1
176
     1
 40
0.0
176
     1
 90
        0
176
     1
290
     0
176
     1
290
     1
176
     1
290
     1
176
     1
290
     0
176
     1
290
     0
176
     1
290
     0
176
     1
290
     0
176
     1
290
     0
176
     1
290
     0
176
     1
 90
       50
176
     1
 40
0.0
176
     1
 40
1.0
176
     1
 90
        0
176
     1
 62
    18
420
        0
176
     1
 90
       50
176
     1
 90
        3
176
     1
 62
     5
420
      255
176
     1
290
     0
176
     1
 90
       50
176
     1
 90
       50
176
     1
 90
       50
176
     1
290
     0
176
     1
 90
       50
176
     1
 62
   256
176
     0
 40
1.0
176
     0
 90
        2
176
     1
  1
strokes_ogs.tif
176
     1
290
     0
176
     1
 40
1.0
176
     1
 40
1.0
176
     1
  0
VISUALSTYLE
  5
2FE
102
{ACAD_REACTORS
330
2F8
102
}
330
2F8
100
AcDbVisualStyle
  2
3dWireframe
 70
     5
177
     3
291
     0
 70
    58
 90
        0
176
     1
 90
        2
176
     1
 90
        0
176
     1
 90
        0
176
     1
 40
-0.6
176
     1
 40
-30.0
176
     1
 62
     7
176
     1
 90
        1
176
     1
 90
        4
176
     1
 62
     7
176
     1
 62
   257
176
     1
 90
        1
176
     1
 90
        1
176
     1
 40
1.0
176
     1
 90
        0
176
     1
 62
   257
176
     1
 40
1.0
176
     1
 90
        1
176
     1
 90
        6
176
     1
 90
        2
176
     1
 62
     7
176
     1
 90
        5
176
     1
 90
        0
176
     1
 90
        0
176
     1
290
     0
176
     1
 90
        1
176
     1
 40
0.0
176
     1
 90
        0
176
     1
290
     0
176
     1
290
     1
176
     1
290
     1
176
     1
290
     0
176
     1
290
     0
176
     1
290
     0
176
     1
290
     0
176
     1
290
     0
176
     1
290
     0
176
     1
 90
       50
176
     1
 40
0.0
176
     1
 40
1.0
176
     1
 90
        0
176
     1
 62
    18
420
        0
176
     1
 90
       50
176
     1
 90
        3
176
     1
 62
     5
420
      255
176
     1
290
     0
176
     1
 90
       50
176
     1
 90
       50
176
     1
 90
       50
176
     1
290
     0
176
     1
 90
       50
176
     1
 62
   256
176
     0
 40
1.0
176
     0
 90
        2
176
     1
  1
strokes_ogs.tif
176
     1
290
     0
176
     1
 40
1.0
176
     1
 40
1.0
176
     1
  0
VISUALSTYLE
  5
300
102
{ACAD_REACTORS
330
2F8
102
}
330
2F8
100
AcDbVisualStyle
  2
Basic
 70
     7
177
     3
291
     1
 70
    58
 90
        1
176
     1
 90
        0
176
     1
 90
        1
176
     1
 90
        0
176
     1
 40
-0.6
176
     1
 40
-30.0
176
     1
 62
     7
176
     1
 90
        0
176
     1
 90
        4
176
     1
 62
     7
176
     1
 62
   257
176
     1
 90
        1
176
     1
 90
        1
176
     1
 40
1.0
176
     1
 90
        8
176
     1
 62
     7
176
     1
 40
1.0
176
     1
 90
        1
176
     1
 90
        6
176
     1
 90
        2
176
     1
 62
     7
176
     1
 90
        5
176
     1
 90
        0
176
     1
 90
        0
176
     1
290
     0
176
     1
 90
        1
176
     1
 40
0.0
176
     1
 90
        0
176
     1
290
     0
176
     1
290
     1
176
     1
290
     1
176
     1
290
     0
176
     1
290
     0
176
     1
290
     0
176
     1
290
     0
176
     1
290
     0
176
     1
290
     0
176
     1
 90
       50
176
     1
 40
0.0
176
     1
 40
1.0
176
     1
 90
        0
176
     1
 62
    18
420
        0
176
     1
 90
       50
176
     1
 90
        3
176
     1
 62
     5
420
      255
176
     1
290
     0
176
     1
 90
       50
176
     1
 90
       50
176
     1
 90
       50
176
     1
290
     0
176
     1
 90
       50
176
     1
 62
   256
176
     0
 40
1.0
176
     0
 90
        2
176
     1
  1
strokes_ogs.tif
176
     1
290
     0
176
     1
 40
1.0
176
     1
 40
1.0
176
     1
  0
VISUALSTYLE
  5
304
102
{ACAD_REACTORS
330
2F8
102
}
330
2F8
100
AcDbVisualStyle
  2
Brighten
 70
    12
177
     3
291
     1
 70
    58
 90
        2
176
     1
 90
        2
176
     1
 90
        0
176
     1
 90
        0
176
     1
 40
-0.6
176
     1
 40
-30.0
176
     1
 62
     7
176
     1
 90
        1
176
     1
 90
        4
176
     1
 62
     7
176
     1
 62
   257
176
     1
 90
        1
176
     1
 90
        1
176
     1
 40
1.0
176
     1
 90
        8
176
     1
 62
     7
176
     1
 40
1.0
176
     1
 90
        1
176
     1
 90
        6
176
     1
 90
        2
176
     1
 62
     7
176
     1
 90
        5
176
     1
 90
        0
176
     1
 90
        0
176
     1
290
     0
176
     1
 90
        1
176
     1
 40
50.0
176
     1
 90
        0
176
     1
290
     0
176
     1
290
     1
176
     1
290
     1
176
     1
290
     0
176
     1
290
     0
176
     1
290
     0
176
     1
290
     0
176
     1
290
     0
176
     1
290
     0
176
     1
 90
       50
176
     1
 40
0.0
176
     1
 40
1.0
176
     1
 90
        0
176
     1
 62
    18
420
        0
176
     1
 90
       50
176
     1
 90
        3
176
     1
 62
     5
420
      255
176
     1
290
     0
176
     1
 90
       50
176
     1
 90
       50
176
     1
 90
       50
176
     1
290
     0
176
     1
 90
       50
176
     1
 62
   256
176
     0
 40
1.0
176
     0
 90
        2
176
     1
  1
strokes_ogs.tif
176
     1
290
     0
176
     1
 40
1.0
176
     1
 40
1.0
176
     1
  0
VISUALSTYLE
  5
308
102
{ACAD_REACTORS
330
2F8
102
}
330
2F8
100
AcDbVisualStyle
  2
ColorChange
 70
    16
177
     3
291
     1
 70
    58
 90
        2
176
     1
 90
        2
176
     1
 90
        3
176
     1
 90
        0
176
     1
 40
-0.6
176
     1
 40
-30.0
176
     1
 62
     8
176
     1
 90
        1
176
     1
 90
        4
176
     1
 62
     7
176
     1
 62
   257
176
     1
 90
        1
176
     1
 90
        1
176
     1
 40
1.0
176
     1
 90
        8
176
     1
 62
     8
176
     1
 40
1.0
176
     1
 90
        1
176
     1
 90
        6
176
     1
 90
        2
176
     1
 62
     7
176
     1
 90
        5
176
     1
 90
        0
176
     1
 90
        0
176
     1
290
     0
176
     1
 90
        1
176
     1
 40
0.0
176
     1
 90
        0
176
     1
290
     0
176
     1
290
     1
176
     1
290
     1
176
     1
290
     0
176
     1
290
     0
176
     1
290
     0
176
     1
290
     0
176
     1
290
     0
176
     1
290
     0
176
     1
 90
       50
176
     1
 40
0.0
176
     1
 40
1.0
176
     1
 90
        0
176
     1
 62
    18
420
        0
176
     1
 90
       50
176
     1
 90
        3
176
     1
 62
     5
420
      255
176
     1
290
     0
176
     1
 90
       50
176
     1
 90
       50
176
     1
 90
       50
176
     1
290
     0
176
     1
 90
       50
176
     1
 62
   256
176
     0
 40
1.0
176
     0
 90
        2
176
     1
  1
strokes_ogs.tif
176
     1
290
     0
176
     1
 40
1.0
176
     1
 40
1.0
176
     1
  0
VISUALSTYLE
  5
302
102
{ACAD_REACTORS
330
2F8
102
}
330
2F8
100
AcDbVisualStyle
  2
Conceptual
 70
     9
177
     3
291
     0
 70
    58
 90
        3
176
     1
 90
        2
176
     1
 90
        0
176
     1
 90
        0
176
     1
 40
-0.6
176
     1
 40
-30.0
176
     1
 62
     7
176
     1
 90
        2
176
     1
 90
        2
176
     1
 62
     7
176
     1
 62
   257
176
     1
 90
        1
176
     1
 90
        1
176
     1
 40
40.0
176
     1
 90
        8
176
     1
 62
     7
176
     1
 40
1.0
176
     1
 90
        1
176
     1
 90
        6
176
     1
 90
        2
176
     1
 62
     7
176
     1
 90
        3
176
     1
 90
        0
176
     1
 90
        0
176
     1
290
     0
176
     1
 90
        1
176
     1
 40
0.0
176
     1
 90
        0
176
     1
290
     0
176
     1
290
     1
176
     1
290
     1
176
     1
290
     0
176
     1
290
     0
176
     1
290
     0
176
     1
290
     0
176
     1
290
     0
176
     1
290
     0
176
     1
 90
       50
176
     1
 40
0.0
176
     1
 40
1.0
176
     1
 90
        0
176
     1
 62
    18
420
        0
176
     1
 90
       50
176
     1
 90
        3
176
     1
 62
     5
420
      255
176
     1
290
     0
176
     1
 90
       50
176
     1
 90
       50
176
     1
 90
       50
176
     1
290
     0
176
     1
 90
       50
176
     1
 62
   256
176
     0
 40
1.0
176
     0
 90
        2
176
     1
  1
strokes_ogs.tif
176
     1
290
     0
176
     1
 40
1.0
176
     1
 40
1.0
176
     1
  0
VISUALSTYLE
  5
303
102
{ACAD_REACTORS
330
2F8
102
}
330
2F8
100
AcDbVisualStyle
  2
Dim
 70
    11
177
     3
291
     1
 70
    58
 90
        2
176
     1
 90
        2
176
     1
 90
        0
176
     1
 90
        0
176
     1
 40
-0.6
176
     1
 40
-30.0
176
     1
 62
     7
176
     1
 90
        1
176
     1
 90
        4
176
     1
 62
     7
176
     1
 62
   257
176
     1
 90
        1
176
     1
 90
        1
176
     1
 40
1.0
176
     1
 90
        8
176
     1
 62
     7
176
     1
 40
1.0
176
     1
 90
        1
176
     1
 90
        6
176
     1
 90
        2
176
     1
 62
     7
176
     1
 90
        5
176
     1
 90
        0
176
     1
 90
        0
176
     1
290
     0
176
     1
 90
        1
176
     1
 40
-50.0
176
     1
 90
        0
176
     1
290
     0
176
     1
290
     1
176
     1
290
     1
176
     1
290
     0
176
     1
290
     0
176
     1
290
     0
176
     1
290
     0
176
     1
290
     0
176
     1
290
     0
176
     1
 90
       50
176
     1
 40
0.0
176
     1
 40
1.0
176
     1
 90
        0
176
     1
 62
    18
420
        0
176
     1
 90
       50
176
     1
 90
        3
176
     1
 62
     5
420
      255
176
     1
290
     0
176
     1
 90
       50
176
     1
 90
       50
176
     1
 90
       50
176
     1
290
     0
176
     1
 90
       50
176
     1
 62
   256
176
     0
 40
1.0
176
     0
 90
        2
176
     1
  1
strokes_ogs.tif
176
     1
290
     0
176
     1
 40
1.0
176
     1
 40
1.0
176
     1
  0
VISUALSTYLE
  5
36C
102
{ACAD_REACTORS
330
2F8
102
}
330
2F8
100
AcDbVisualStyle
  2
EdgeColorOff
 70
    22
177
     3
291
     1
 70
    58
 90
        2
176
     0
 90
        2
176
     0
 90
        0
176
     0
 90
        0
176
     0
 40
0.6
176
     0
 40
30.0
176
     0
 62
     7
420
 16777215
176
     0
 90
        1
176
     0
 90
        4
176
     0
 62
     7
176
     0
 62
   257
176
     0
 90
        1
176
     0
 90
        1
176
     0
 40
1.0
176
     0
 90
        8
176
     2
 62
     7
176
     0
 40
1.0
176
     0
 90
        1
176
     0
 90
        6
176
     0
 90
        2
176
     0
 62
     7
176
     0
 90
        5
176
     0
 90
        0
176
     0
 90
        0
176
     0
290
     0
176
     0
 90
        1
176
     0
 40
0.0
176
     0
 90
        0
176
     0
290
     0
176
     0
290
     1
176
     0
290
     1
176
     0
290
     0
176
     0
290
     0
176
     0
290
     0
176
     0
290
     0
176
     0
290
     0
176
     0
290
     0
176
     0
 90
       50
176
     0
 40
0.0
176
     0
 40
1.0
176
     0
 90
        0
176
     0
 62
    18
420
        0
176
     0
 90
       50
176
     0
 90
        3
176
     0
 62
     5
420
      255
176
     0
290
     0
176
     0
 90
       50
176
     0
 90
       50
176
     0
 90
       50
176
     0
290
     0
176
     0
 90
       50
176
     0
 62
   256
176
     0
 40
1.0
176
     0
 90
        2
176
     0
  1
strokes_ogs.tif
176
     0
290
     0
176
     0
 40
1.0
176
     0
 40
1.0
176
     0
  0
VISUALSTYLE
  5
307
102
{ACAD_REACTORS
330
2F8
102
}
330
2F8
100
AcDbVisualStyle
  2
Facepattern
 70
    15
177
     3
291
     1
 70
    58
 90
        2
176
     1
 90
        2
176
     1
 90
        0
176
     1
 90
        0
176
     1
 40
-0.6
176
     1
 40
-30.0
176
     1
 62
     7
176
     1
 90
        1
176
     1
 90
        4
176
     1
 62
     7
176
     1
 62
   257
176
     1
 90
        1
176
     1
 90
        1
176
     1
 40
1.0
176
     1
 90
        8
176
     1
 62
     7
176
     1
 40
1.0
176
     1
 90
        1
176
     1
 90
        6
176
     1
 90
        2
176
     1
 62
     7
176
     1
 90
        5
176
     1
 90
        0
176
     1
 90
        0
176
     1
290
     0
176
     1
 90
        1
176
     1
 40
0.0
176
     1
 90
        0
176
     1
290
     0
176
     1
290
     1
176
     1
290
     1
176
     1
290
     0
176
     1
290
     0
176
     1
290
     0
176
     1
290
     0
176
     1
290
     0
176
     1
290
     0
176
     1
 90
       50
176
     1
 40
0.0
176
     1
 40
1.0
176
     1
 90
        0
176
     1
 62
    18
420
        0
176
     1
 90
       50
176
     1
 90
        3
176
     1
 62
     5
420
      255
176
     1
290
     0
176
     1
 90
       50
176
     1
 90
       50
176
     1
 90
       50
176
     1
290
     0
176
     1
 90
       50
176
     1
 62
   256
176
     0
 40
1.0
176
     0
 90
        2
176
     1
  1
strokes_ogs.tif
176
     1
290
     0
176
     1
 40
1.0
176
     1
 40
1.0
176
     1
  0
VISUALSTYLE
  5
2F9
102
{ACAD_REACTORS
330
2F8
102
}
330
2F8
100
AcDbVisualStyle
  2
Flat
 70
     0
177
     3
291
     1
 70
    58
 90
        2
176
     1
 90
        1
176
     1
 90
        1
176
     1
 90
        2
176
     1
 40
-0.6
176
     1
 40
30.0
176
     1
 62
     7
176
     1
 90
        0
176
     1
 90
        4
176
     1
 62
     7
176
     1
 62
   257
176
     1
 90
        1
176
     1
 90
        1
176
     1
 40
1.0
176
     1
 90
        8
176
     1
 62
     7
176
     1
 40
1.0
176
     1
 90
        1
176
     1
 90
        6
176
     1
 90
        2
176
     1
 62
     7
176
     1
 90
        5
176
     1
 90
        0
176
     1
 90
        0
176
     1
290
     0
176
     1
 90
       13
176
     1
 40
0.0
176
     1
 90
        0
176
     1
290
     0
176
     1
290
     1
176
     1
290
     1
176
     1
290
     0
176
     1
290
     0
176
     1
290
     0
176
     1
290
     0
176
     1
290
     0
176
     1
290
     0
176
     1
 90
       50
176
     1
 40
0.0
176
     1
 40
1.0
176
     1
 90
        0
176
     1
 62
    18
420
        0
176
     1
 90
       50
176
     1
 90
        3
176
     1
 62
     5
420
      255
176
     1
290
     0
176
     1
 90
       50
176
     1
 90
       50
176
     1
 90
       50
176
     1
290
     0
176
     1
 90
       50
176
     1
 62
   256
176
     0
 40
1.0
176
     0
 90
        2
176
     1
  1
strokes_ogs.tif
176
     1
290
     0
176
     1
 40
1.0
176
     1
 40
1.0
176
     1
  0
VISUALSTYLE
  5
2FA
102
{ACAD_REACTORS
330
2F8
102
}
330
2F8
100
AcDbVisualStyle
  2
FlatWithEdges
 70
     1
177
     3
291
     1
 70
    58
 90
        2
176
     1
 90
        1
176
     1
 90
        1
176
     1
 90
        2
176
     1
 40
-0.6
176
     1
 40
30.0
176
     1
 62
     7
176
     1
 90
        1
176
     1
 90
        4
176
     1
 62
     7
176
     1
 62
   257
176
     1
 90
        1
176
     1
 90
        1
176
     1
 40
1.0
176
     1
 90
        0
176
     1
 62
   257
176
     1
 40
1.0
176
     1
 90
        1
176
     1
 90
        6
176
     1
 90
        2
176
     1
 62
     7
176
     1
 90
        5
176
     1
 90
        0
176
     1
 90
        0
176
     1
290
     0
176
     1
 90
       13
176
     1
 40
0.0
176
     1
 90
        0
176
     1
290
     0
176
     1
290
     1
176
     1
290
     1
176
     1
290
     0
176
     1
290
     0
176
     1
290
     0
176
     1
290
     0
176
     1
290
     0
176
     1
290
     0
176
     1
 90
       50
176
     1
 40
0.0
176
     1
 40
1.0
176
     1
 90
        0
176
     1
 62
    18
420
        0
176
     1
 90
       50
176
     1
 90
        3
176
     1
 62
     5
420
      255
176
     1
290
     0
176
     1
 90
       50
176
     1
 90
       50
176
     1
 90
       50
176
     1
290
     0
176
     1
 90
       50
176
     1
 62
   256
176
     0
 40
1.0
176
     0
 90
        2
176
     1
  1
strokes_ogs.tif
176
     1
290
     0
176
     1
 40
1.0
176
     1
 40
1.0
176
     1
  0
VISUALSTYLE
  5
2FB
102
{ACAD_REACTORS
330
2F8
102
}
330
2F8
100
AcDbVisualStyle
  2
Gouraud
 70
     2
177
     3
291
     1
 70
    58
 90
        2
176
     1
 90
        2
176
     1
 90
        1
176
     1
 90
        2
176
     1
 40
-0.6
176
     1
 40
30.0
176
     1
 62
     7
176
     1
 90
        0
176
     1
 90
        4
176
     1
 62
     7
176
     1
 62
   257
176
     1
 90
        1
176
     1
 90
        1
176
     1
 40
1.0
176
     1
 90
        0
176
     1
 62
     7
176
     1
 40
1.0
176
     1
 90
        1
176
     1
 90
        6
176
     1
 90
        2
176
     1
 62
     7
176
     1
 90
        5
176
     1
 90
        0
176
     1
 90
        0
176
     1
290
     0
176
     1
 90
       13
176
     1
 40
0.0
176
     1
 90
        0
176
     1
290
     0
176
     1
290
     1
176
     1
290
     1
176
     1
290
     0
176
     1
290
     0
176
     1
290
     0
176
     1
290
     0
176
     1
290
     0
176
     1
290
     0
176
     1
 90
       50
176
     1
 40
0.0
176
     1
 40
1.0
176
     1
 90
        0
176
     1
 62
    18
420
        0
176
     1
 90
       50
176
     1
 90
        3
176
     1
 62
     5
420
      255
176
     1
290
     0
176
     1
 90
       50
176
     1
 90
       50
176
     1
 90
       50
176
     1
290
     0
176
     1
 90
       50
176
     1
 62
   256
176
     0
 40
1.0
176
     0
 90
        2
176
     1
  1
strokes_ogs.tif
176
     1
290
     0
176
     1
 40
1.0
176
     1
 40
1.0
176
     1
  0
VISUALSTYLE
  5
2FC
102
{ACAD_REACTORS
330
2F8
102
}
330
2F8
100
AcDbVisualStyle
  2
GouraudWithEdges
 70
     3
177
     3
291
     1
 70
    58
 90
        2
176
     1
 90
        2
176
     1
 90
        1
176
     1
 90
        2
176
     1
 40
-0.6
176
     1
 40
30.0
176
     1
 62
     7
176
     1
 90
        1
176
     1
 90
        4
176
     1
 62
     7
176
     1
 62
   257
176
     1
 90
        1
176
     1
 90
        1
176
     1
 40
1.0
176
     1
 90
        0
176
     1
 62
   257
176
     1
 40
1.0
176
     1
 90
        1
176
     1
 90
        6
176
     1
 90
        2
176
     1
 62
     7
176
     1
 90
        5
176
     1
 90
        0
176
     1
 90
        0
176
     1
290
     0
176
     1
 90
       13
176
     1
 40
0.0
176
     1
 90
        0
176
     1
290
     0
176
     1
290
     1
176
     1
290
     1
176
     1
290
     0
176
     1
290
     0
176
     1
290
     0
176
     1
290
     0
176
     1
290
     0
176
     1
290
     0
176
     1
 90
       50
176
     1
 40
0.0
176
     1
 40
1.0
176
     1
 90
        0
176
     1
 62
    18
420
        0
176
     1
 90
       50
176
     1
 90
        3
176
     1
 62
     5
420
      255
176
     1
290
     0
176
     1
 90
       50
176
     1
 90
       50
176
     1
 90
       50
176
     1
290
     0
176
     1
 90
       50
176
     1
 62
   256
176
     0
 40
1.0
176
     0
 90
        2
176
     1
  1
strokes_ogs.tif
176
     1
290
     0
176
     1
 40
1.0
176
     1
 40
1.0
176
     1
  0
VISUALSTYLE
  5
369
102
{ACAD_REACTORS
330
2F8
102
}
330
2F8
100
AcDbVisualStyle
  2
Hidden
 70
     6
177
     3
291
     0
 70
    58
 90
        1
176
     1
 90
        2
176
     1
 90
        2
176
     1
 90
        0
176
     1
 40
0.6
176
     1
 40
30.0
176
     1
 62
     7
420
 16777215
176
     1
 90
        2
176
     1
 90
        2
176
     1
 62
     7
176
     1
 62
   257
176
     1
 90
        2
176
     1
 90
        1
176
     1
 40
40.0
176
     1
 90
        0
176
     1
 62
   257
176
     1
 40
1.0
176
     1
 90
        1
176
     1
 90
        6
176
     1
 90
        2
176
     1
 62
     7
176
     1
 90
        3
176
     1
 90
        0
176
     1
 90
        0
176
     1
290
     0
176
     1
 90
        1
176
     1
 40
0.0
176
     1
 90
        0
176
     1
290
     0
176
     1
290
     1
176
     1
290
     1
176
     1
290
     0
176
     1
290
     0
176
     1
290
     0
176
     1
290
     0
176
     1
290
     0
176
     1
290
     0
176
     1
 90
       50
176
     1
 40
0.0
176
     1
 40
1.0
176
     1
 90
        0
176
     1
 62
    18
420
        0
176
     1
 90
       50
176
     1
 90
        3
176
     1
 62
     5
420
      255
176
     1
290
     0
176
     1
 90
       50
176
     1
 90
       50
176
     1
 90
       50
176
     1
290
     0
176
     1
 90
       50
176
     1
 62
   256
176
     0
 40
1.0
176
     0
 90
        2
176
     1
  1
strokes_ogs.tif
176
     1
290
     0
176
     1
 40
1.0
176
     1
 40
1.0
176
     1
  0
VISUALSTYLE
  5
36A
102
{ACAD_REACTORS
330
2F8
102
}
330
2F8
100
AcDbVisualStyle
  2
JitterOff
 70
    20
177
     3
291
     1
 70
    58
 90
        2
176
     0
 90
        2
176
     0
 90
        0
176
     0
 90
        0
176
     0
 40
0.6
176
     0
 40
30.0
176
     0
 62
     7
420
 16777215
176
     0
 90
        1
176
     0
 90
        4
176
     0
 62
     7
176
     0
 62
   257
176
     0
 90
        1
176
     0
 90
        1
176
     0
 40
1.0
176
     0
 90
       10
176
     2
 62
     7
176
     0
 40
1.0
176
     0
 90
        1
176
     0
 90
        6
176
     0
 90
        2
176
     0
 62
     7
176
     0
 90
        5
176
     0
 90
        0
176
     0
 90
        0
176
     0
290
     0
176
     0
 90
        1
176
     0
 40
0.0
176
     0
 90
        0
176
     0
290
     0
176
     0
290
     1
176
     0
290
     1
176
     0
290
     0
176
     0
290
     0
176
     0
290
     0
176
     0
290
     0
176
     0
290
     0
176
     0
290
     0
176
     0
 90
       50
176
     0
 40
0.0
176
     0
 40
1.0
176
     0
 90
        0
176
     0
 62
    18
420
        0
176
     0
 90
       50
176
     0
 90
        3
176
     0
 62
     5
420
      255
176
     0
290
     0
176
     0
 90
       50
176
     0
 90
       50
176
     0
 90
       50
176
     0
290
     0
176
     0
 90
       50
176
     0
 62
   256
176
     0
 40
1.0
176
     0
 90
        2
176
     0
  1
strokes_ogs.tif
176
     0
290
     0
176
     0
 40
1.0
176
     0
 40
1.0
176
     0
  0
VISUALSTYLE
  5
306
102
{ACAD_REACTORS
330
2F8
102
}
330
2F8
100
AcDbVisualStyle
  2
Linepattern
 70
    14
177
     3
291
     1
 70
    58
 90
        2
176
     1
 90
        2
176
     1
 90
        0
176
     1
 90
        0
176
     1
 40
-0.6
176
     1
 40
-30.0
176
     1
 62
     7
176
     1
 90
        1
176
     1
 90
        4
176
     1
 62
     7
176
     1
 62
   257
176
     1
 90
        7
176
     1
 90
        7
176
     1
 40
1.0
176
     1
 90
        8
176
     1
 62
     7
176
     1
 40
1.0
176
     1
 90
        1
176
     1
 90
        6
176
     1
 90
        2
176
     1
 62
     7
176
     1
 90
        5
176
     1
 90
        0
176
     1
 90
        0
176
     1
290
     0
176
     1
 90
        1
176
     1
 40
0.0
176
     1
 90
        0
176
     1
290
     0
176
     1
290
     1
176
     1
290
     1
176
     1
290
     0
176
     1
290
     0
176
     1
290
     0
176
     1
290
     0
176
     1
290
     0
176
     1
290
     0
176
     1
 90
       50
176
     1
 40
0.0
176
     1
 40
1.0
176
     1
 90
        0
176
     1
 62
    18
420
        0
176
     1
 90
       50
176
     1
 90
        3
176
     1
 62
     5
420
      255
176
     1
290
     0
176
     1
 90
       50
176
     1
 90
       50
176
     1
 90
       50
176
     1
290
     0
176
     1
 90
       50
176
     1
 62
   256
176
     0
 40
1.0
176
     0
 90
        2
176
     1
  1
strokes_ogs.tif
176
     1
290
     0
176
     1
 40
1.0
176
     1
 40
1.0
176
     1
  0
VISUALSTYLE
  5
36B
102
{ACAD_REACTORS
330
2F8
102
}
330
2F8
100
AcDbVisualStyle
  2
OverhangOff
 70
    21
177
     3
291
     1
 70
    58
 90
        2
176
     0
 90
        2
176
     0
 90
        0
176
     0
 90
        0
176
     0
 40
0.6
176
     0
 40
30.0
176
     0
 62
     7
420
 16777215
176
     0
 90
        1
176
     0
 90
        4
176
     0
 62
     7
176
     0
 62
   257
176
     0
 90
        1
176
     0
 90
        1
176
     0
 40
1.0
176
     0
 90
        9
176
     2
 62
     7
176
     0
 40
1.0
176
     0
 90
        1
176
     0
 90
        6
176
     0
 90
        2
176
     0
 62
     7
176
     0
 90
        5
176
     0
 90
        0
176
     0
 90
        0
176
     0
290
     0
176
     0
 90
        1
176
     0
 40
0.0
176
     0
 90
        0
176
     0
290
     0
176
     0
290
     1
176
     0
290
     1
176
     0
290
     0
176
     0
290
     0
176
     0
290
     0
176
     0
290
     0
176
     0
290
     0
176
     0
290
     0
176
     0
 90
       50
176
     0
 40
0.0
176
     0
 40
1.0
176
     0
 90
        0
176
     0
 62
    18
420
        0
176
     0
 90
       50
176
     0
 90
        3
176
     0
 62
     5
420
      255
176
     0
290
     0
176
     0
 90
       50
176
     0
 90
       50
176
     0
 90
       50
176
     0
290
     0
176
     0
 90
       50
176
     0
 62
   256
176
     0
 40
1.0
176
     0
 90
        2
176
     0
  1
strokes_ogs.tif
176
     0
290
     0
176
     0
 40
1.0
176
     0
 40
1.0
176
     0
  0
VISUALSTYLE
  5
301
102
{ACAD_REACTORS
330
2F8
102
}
330
2F8
100
AcDbVisualStyle
  2
Realistic
 70
     8
177
     3
291
     0
 70
    58
 90
        2
176
     1
 90
        2
176
     1
 90
        0
176
     1
 90
        0
176
     1
 40
-0.6
176
     1
 40
-30.0
176
     1
 62
     7
176
     1
 90
        1
176
     1
 90
        0
176
     1
 62
     7
176
     1
 62
   257
176
     1
 90
        1
176
     1
 90
        1
176
     1
 40
1.0
176
     1
 90
        8
176
     1
 62
     8
176
     1
 40
1.0
176
     1
 90
        1
176
     1
 90
        6
176
     1
 90
        2
176
     1
 62
     7
176
     1
 90
        5
176
     1
 90
        0
176
     1
 90
        0
176
     1
290
     0
176
     1
 90
       13
176
     1
 40
0.0
176
     1
 90
        0
176
     1
290
     0
176
     1
290
     1
176
     1
290
     1
176
     1
290
     0
176
     1
290
     0
176
     1
290
     0
176
     1
290
     0
176
     1
290
     0
176
     1
290
     0
176
     1
 90
       50
176
     1
 40
0.0
176
     1
 40
1.0
176
     1
 90
        0
176
     1
 62
    18
420
        0
176
     1
 90
       50
176
     1
 90
        3
176
     1
 62
     5
420
      255
176
     1
290
     0
176
     1
 90
       50
176
     1
 90
       50
176
     1
 90
       50
176
     1
290
     0
176
     1
 90
       50
176
     1
 62
   256
176
     0
 40
1.0
176
     0
 90
        2
176
     1
  1
strokes_ogs.tif
176
     1
290
     0
176
     1
 40
1.0
176
     1
 40
1.0
176
     1
  0
VISUALSTYLE
  5
371
102
{ACAD_REACTORS
330
2F8
102
}
330
2F8
100
AcDbVisualStyle
  2
Shaded
 70
    27
177
     3
291
     0
 70
    58
 90
        2
176
     1
 90
        2
176
     1
 90
        1
176
     1
 90
        2
176
     1
 40
0.6
176
     1
 40
30.0
176
     1
 62
     7
420
 16777215
176
     1
 90
        0
176
     1
 90
        4
176
     1
 62
     7
176
     1
 62
   257
176
     1
 90
        1
176
     1
 90
        1
176
     1
 40
1.0
176
     1
 90
        8
176
     1
 62
   257
176
     1
 40
1.0
176
     1
 90
        1
176
     1
 90
        6
176
     1
 90
        2
176
     1
 62
     8
420
  7895160
176
     1
 90
        3
176
     1
 90
        0
176
     1
 90
        0
176
     1
290
     0
176
     1
 90
        5
176
     1
 40
0.0
176
     1
 90
        0
176
     1
290
     0
176
     1
290
     1
176
     1
290
     1
176
     1
290
     0
176
     1
290
     0
176
     1
290
     0
176
     1
290
     0
176
     1
290
     0
176
     1
290
     0
176
     1
 90
       50
176
     1
 40
0.0
176
     1
 40
1.0
176
     1
 90
        0
176
     1
 62
    18
420
        0
176
     1
 90
       50
176
     1
 90
        3
176
     1
 62
     5
420
      255
176
     1
290
     0
176
     1
 90
       50
176
     1
 90
       50
176
     1
 90
       50
176
     1
290
     0
176
     1
 90
       50
176
     1
 62
   256
176
     0
 40
1.0
176
     0
 90
        2
176
     1
  1
strokes_ogs.tif
176
     1
290
     0
176
     1
 40
1.0
176
     1
 40
1.0
176
     1
  0
VISUALSTYLE
  5
370
102
{ACAD_REACTORS
330
2F8
102
}
330
2F8
100
AcDbVisualStyle
  2
Shaded with edges
 70
    26
177
     3
291
     0
 70
    58
 90
        2
176
     1
 90
        2
176
     1
 90
        1
176
     1
 90
        2
176
     1
 40
0.6
176
     1
 40
30.0
176
     1
 62
     7
420
 16777215
176
     1
 90
        1
176
     1
 90
       10
176
     1
 62
     7
176
     1
 62
   257
176
     1
 90
        2
176
     1
 90
        1
176
     1
 40
1.0
176
     1
 90
        8
176
     1
 62
   257
176
     1
 40
1.0
176
     1
 90
        1
176
     1
 90
        6
176
     1
 90
        2
176
     1
 62
     7
176
     1
 90
        3
176
     1
 90
        0
176
     1
 90
        0
176
     1
290
     0
176
     1
 90
        5
176
     1
 40
0.0
176
     1
 90
        0
176
     1
290
     0
176
     1
290
     1
176
     1
290
     1
176
     1
290
     0
176
     1
290
     0
176
     1
290
     0
176
     1
290
     0
176
     1
290
     0
176
     1
290
     0
176
     1
 90
       50
176
     1
 40
0.0
176
     1
 40
1.0
176
     1
 90
        0
176
     1
 62
    18
420
        0
176
     1
 90
       50
176
     1
 90
        3
176
     1
 62
     5
420
      255
176
     1
290
     0
176
     1
 90
       50
176
     1
 90
       50
176
     1
 90
       50
176
     1
290
     0
176
     1
 90
       50
176
     1
 62
   256
176
     0
 40
1.0
176
     0
 90
        2
176
     1
  1
strokes_ogs.tif
176
     1
290
     0
176
     1
 40
1.0
176
     1
 40
1.0
176
     1
  0
VISUALSTYLE
  5
36D
102
{ACAD_REACTORS
330
2F8
102
}
330
2F8
100
AcDbVisualStyle
  2
Shades of Gray
 70
    23
177
     3
291
     0
 70
    58
 90
        2
176
     1
 90
        2
176
     1
 90
        3
176
     1
 90
        0
176
     1
 40
0.6
176
     1
 40
30.0
176
     1
 62
     7
420
 16777215
176
     1
 90
        2
176
     1
 90
        2
176
     1
 62
     7
176
     1
 62
     7
176
     1
 90
        1
176
     1
 90
        1
176
     1
 40
40.0
176
     1
 90
        8
176
     1
 62
     7
176
     1
 40
1.0
176
     1
 90
        1
176
     1
 90
        6
176
     1
 90
        2
176
     1
 62
     7
176
     1
 90
        3
176
     1
 90
        0
176
     1
 90
        0
176
     1
290
     0
176
     1
 90
        1
176
     1
 40
0.0
176
     1
 90
        0
176
     1
290
     0
176
     1
290
     1
176
     1
290
     1
176
     1
290
     0
176
     1
290
     0
176
     1
290
     0
176
     1
290
     0
176
     1
290
     0
176
     1
290
     0
176
     1
 90
       50
176
     1
 40
0.0
176
     1
 40
1.0
176
     1
 90
        0
176
     1
 62
    18
420
        0
176
     1
 90
       50
176
     1
 90
        3
176
     1
 62
     5
420
      255
176
     1
290
     0
176
     1
 90
       50
176
     1
 90
       50
176
     1
 90
       50
176
     1
290
     0
176
     1
 90
       50
176
     1
 62
   256
176
     0
 40
1.0
176
     0
 90
        2
176
     1
  1
strokes_ogs.tif
176
     1
290
     0
176
     1
 40
1.0
176
     1
 40
1.0
176
     1
  0
VISUALSTYLE
  5
36E
102
{ACAD_REACTORS
330
2F8
102
}
330
2F8
100
AcDbVisualStyle
  2
Sketchy
 70
    24
177
     3
291
     0
 70
    58
 90
        1
176
     1
 90
        2
176
     1
 90
        2
176
     1
 90
        0
176
     1
 40
0.6
176
     1
 40
30.0
176
     1
 62
     7
420
 16777215
176
     1
 90
        2
176
     1
 90
        2
176
     1
 62
     7
176
     1
 62
     7
176
     1
 90
        1
176
     1
 90
        1
176
     1
 40
40.0
176
     1
 90
       11
176
     1
 62
     7
176
     1
 40
1.0
176
     1
 90
        1
176
     1
 90
        6
176
     1
 90
        2
176
     1
 62
     7
176
     1
 90
        6
176
     1
 90
        0
176
     1
 90
        0
176
     1
290
     0
176
     1
 90
        1
176
     1
 40
0.0
176
     1
 90
        0
176
     1
290
     0
176
     1
290
     1
176
     1
290
     1
176
     1
290
     0
176
     1
290
     0
176
     1
290
     0
176
     1
290
     0
176
     1
290
     0
176
     1
290
     0
176
     1
 90
       50
176
     1
 40
0.0
176
     1
 40
1.0
176
     1
 90
        0
176
     1
 62
    18
420
        0
176
     1
 90
       50
176
     1
 90
        3
176
     1
 62
     5
420
      255
176
     1
290
     0
176
     1
 90
       50
176
     1
 90
       50
176
     1
 90
       50
176
     1
290
     0
176
     1
 90
       50
176
     1
 62
   256
176
     0
 40
1.0
176
     0
 90
        2
176
     1
  1
strokes_ogs.tif
176
     1
290
     0
176
     1
 40
1.0
176
     1
 40
1.0
176
     1
  0
VISUALSTYLE
  5
305
102
{ACAD_REACTORS
330
2F8
102
}
330
2F8
100
AcDbVisualStyle
  2
Thicken
 70
    13
177
     3
291
     1
 70
    58
 90
        2
176
     1
 90
        2
176
     1
 90
        0
176
     1
 90
        0
176
     1
 40
-0.6
176
     1
 40
-30.0
176
     1
 62
     7
176
     1
 90
        1
176
     1
 90
        4
176
     1
 62
     7
176
     1
 62
   257
176
     1
 90
        1
176
     1
 90
        1
176
     1
 40
1.0
176
     1
 90
       12
176
     1
 62
     7
176
     1
 40
1.0
176
     1
 90
        1
176
     1
 90
        6
176
     1
 90
        2
176
     1
 62
     7
176
     1
 90
        5
176
     1
 90
        0
176
     1
 90
        0
176
     1
290
     0
176
     1
 90
        1
176
     1
 40
0.0
176
     1
 90
        0
176
     1
290
     0
176
     1
290
     1
176
     1
290
     1
176
     1
290
     0
176
     1
290
     0
176
     1
290
     0
176
     1
290
     0
176
     1
290
     0
176
     1
290
     0
176
     1
 90
       50
176
     1
 40
0.0
176
     1
 40
1.0
176
     1
 90
        0
176
     1
 62
    18
420
        0
176
     1
 90
       50
176
     1
 90
        3
176
     1
 62
     5
420
      255
176
     1
290
     0
176
     1
 90
       50
176
     1
 90
       50
176
     1
 90
       50
176
     1
290
     0
176
     1
 90
       50
176
     1
 62
   256
176
     0
 40
1.0
176
     0
 90
        2
176
     1
  1
strokes_ogs.tif
176
     1
290
     0
176
     1
 40
1.0
176
     1
 40
1.0
176
     1
  0
VISUALSTYLE
  5
368
102
{ACAD_REACTORS
330
2F8
102
}
330
2F8
100
AcDbVisualStyle
  2
Wireframe
 70
     5
177
     3
291
     0
 70
    58
 90
        0
176
     1
 90
        2
176
     1
 90
        0
176
     1
 90
        0
176
     1
 40
0.6
176
     1
 40
30.0
176
     1
 62
     7
420
 16777215
176
     1
 90
        1
176
     1
 90
        4
176
     1
 62
     7
176
     1
 62
   257
176
     1
 90
        1
176
     1
 90
        1
176
     1
 40
1.0
176
     1
 90
        0
176
     1
 62
   257
176
     1
 40
1.0
176
     1
 90
        1
176
     1
 90
        6
176
     1
 90
        2
176
     1
 62
     7
176
     1
 90
        3
176
     1
 90
        0
176
     1
 90
        0
176
     1
290
     0
176
     1
 90
        1
176
     1
 40
0.0
176
     1
 90
        0
176
     1
290
     0
176
     1
290
     1
176
     1
290
     1
176
     1
290
     0
176
     1
290
     0
176
     1
290
     0
176
     1
290
     0
176
     1
290
     0
176
     1
290
     0
176
     1
 90
       50
176
     1
 40
0.0
176
     1
 40
1.0
176
     1
 90
        0
176
     1
 62
    18
420
        0
176
     1
 90
       50
176
     1
 90
        3
176
     1
 62
     5
420
      255
176
     1
290
     0
176
     1
 90
       50
176
     1
 90
       50
176
     1
 90
       50
176
     1
290
     0
176
     1
 90
       50
176
     1
 62
   256
176
     0
 40
1.0
176
     0
 90
        2
176
     1
  1
strokes_ogs.tif
176
     1
290
     0
176
     1
 40
1.0
176
     1
 40
1.0
176
     1
  0
VISUALSTYLE
  5
36F
102
{ACAD_REACTORS
330
2F8
102
}
330
2F8
100
AcDbVisualStyle
  2
X-Ray
 70
    25
177
     3
291
     0
 70
    58
 90
        2
176
     1
 90
        2
176
     1
 90
        1
176
     1
 90
        1
176
     1
 40
0.5
176
     1
 40
30.0
176
     1
 62
     7
420
 16777215
176
     1
 90
        1
176
     1
 90
        0
176
     1
 62
     7
176
     1
 62
   257
176
     1
 90
        1
176
     1
 90
        1
176
     1
 40
1.0
176
     1
 90
        8
176
     1
 62
     7
176
     1
 40
1.0
176
     1
 90
        1
176
     1
 90
        6
176
     1
 90
        2
176
     1
 62
     7
176
     1
 90
        3
176
     1
 90
        0
176
     1
 90
        0
176
     1
290
     0
176
     1
 90
       13
176
     1
 40
0.0
176
     1
 90
        0
176
     1
290
     0
176
     1
290
     1
176
     1
290
     1
176
     1
290
     0
176
     1
290
     0
176
     1
290
     0
176
     1
290
     0
176
     1
290
     0
176
     1
290
     0
176
     1
 90
       50
176
     1
 40
0.0
176
     1
 40
1.0
176
     1
 90
        0
176
     1
 62
    18
420
        0
176
     1
 90
       50
176
     1
 90
        3
176
     1
 62
     5
420
      255
176
     1
290
     0
176
     1
 90
       50
176
     1
 90
       50
176
     1
 90
       50
176
     1
290
     0
176
     1
 90
       50
176
     1
 62
   256
176
     0
 40
1.0
176
     0
 90
        2
176
     1
  1
strokes_ogs.tif
176
     1
290
     0
176
     1
 40
1.0
176
     1
 40
1.0
176
     1
  0
DICTIONARYVAR
  5
393
102
{ACAD_REACTORS
330
321
102
}
330
321
100
DictionaryVariables
280
     0
  1
1:1
  0
DICTIONARYVAR
  5
395
102
{ACAD_REACTORS
330
321
102
}
330
321
100
DictionaryVariables
280
     0
  1
Standard
  0
DICTIONARYVAR
  5
394
102
{ACAD_REACTORS
330
321
102
}
330
321
100
DictionaryVariables
280
     0
  1
Standard
  0
DICTIONARYVAR
  5
325
102
{ACAD_REACTORS
330
321
102
}
330
321
100
DictionaryVariables
280
     0
  1
2
  0
DICTIONARYVAR
  5
326
102
{ACAD_REACTORS
330
321
102
}
330
321
100
DictionaryVariables
280
     0
  1
1
  0
DICTIONARYVAR
  5
324
102
{ACAD_REACTORS
330
321
102
}
330
321
100
DictionaryVariables
280
     0
  1
0
  0
DICTIONARY
  5
3D1
330
373
100
AcDbDictionary
280
     1
281
     1
  3
ACAD_ROUNDTRIP_2008_TABLESTYLE_CELLSTYLEMAP
360
3D2
  0
CELLSTYLEMAP
  5
3D2
102
{ACAD_REACTORS
330
3D1
102
}
330
3D1
100
AcDbCellStyleMap
 90
        3
300
CELLSTYLE
  1
TABLEFORMAT_BEGIN
 90
        5
170
     1
 91
        0
 92
    32768
 62
   257
 93
        1
300
CONTENTFORMAT
  1
CONTENTFORMAT_BEGIN
 90
        0
 91
        0
 92
        4
 93
        0
300

 40
0.0
140
1.0
 94
        5
 62
     0
340
11
144
6.0
309
CONTENTFORMAT_END
171
     1
301
MARGIN
  1
CELLMARGIN_BEGIN
 40
1.5
 40
1.5
 40
1.5
 40
1.5
 40
1.5
 40
1.5
309
CELLMARGIN_END
 94
        6
 95
        1
302
GRIDFORMAT
  1
GRIDFORMAT_BEGIN
 90
        0
 91
        1
 62
     0
 92
       -2
340
14
 93
        0
 40
0.045
309
GRIDFORMAT_END
 95
        2
302
GRIDFORMAT
  1
GRIDFORMAT_BEGIN
 90
        0
 91
        1
 62
     0
 92
       -2
340
14
 93
        0
 40
0.045
309
GRIDFORMAT_END
 95
        4
302
GRIDFORMAT
  1
GRIDFORMAT_BEGIN
 90
        0
 91
        1
 62
     0
 92
       -2
340
14
 93
        0
 40
0.045
309
GRIDFORMAT_END
 95
        8
302
GRIDFORMAT
  1
GRIDFORMAT_BEGIN
 90
        0
 91
        1
 62
     0
 92
       -2
340
14
 93
        0
 40
0.045
309
GRIDFORMAT_END
 95
       16
302
GRIDFORMAT
  1
GRIDFORMAT_BEGIN
 90
        0
 91
        1
 62
     0
 92
       -2
340
14
 93
        0
 40
0.045
309
GRIDFORMAT_END
 95
       32
302
GRIDFORMAT
  1
GRIDFORMAT_BEGIN
 90
        0
 91
        1
 62
     0
 92
       -2
340
14
 93
        0
 40
0.045
309
GRIDFORMAT_END
309
TABLEFORMAT_END
  1
CELLSTYLE_BEGIN
 90
        1
 91
        1
300
_TITLE
309
CELLSTYLE_END
300
CELLSTYLE
  1
TABLEFORMAT_BEGIN
 90
        5
170
     1
 91
        0
 92
        0
 62
   257
 93
        1
300
CONTENTFORMAT
  1
CONTENTFORMAT_BEGIN
 90
        0
 91
        0
 92
        4
 93
        0
300

 40
0.0
140
1.0
 94
        5
 62
     0
340
11
144
4.5
309
CONTENTFORMAT_END
171
     1
301
MARGIN
  1
CELLMARGIN_BEGIN
 40
1.5
 40
1.5
 40
1.5
 40
1.5
 40
1.5
 40
1.5
309
CELLMARGIN_END
 94
        6
 95
        1
302
GRIDFORMAT
  1
GRIDFORMAT_BEGIN
 90
        0
 91
        1
 62
     0
 92
       -2
340
14
 93
        0
 40
0.045
309
GRIDFORMAT_END
 95
        2
302
GRIDFORMAT
  1
GRIDFORMAT_BEGIN
 90
        0
 91
        1
 62
     0
 92
       -2
340
14
 93
        0
 40
0.045
309
GRIDFORMAT_END
 95
        4
302
GRIDFORMAT
  1
GRIDFORMAT_BEGIN
 90
        0
 91
        1
 62
     0
 92
       -2
340
14
 93
        0
 40
0.045
309
GRIDFORMAT_END
 95
        8
302
GRIDFORMAT
  1
GRIDFORMAT_BEGIN
 90
        0
 91
        1
 62
     0
 92
       -2
340
14
 93
        0
 40
0.045
309
GRIDFORMAT_END
 95
       16
302
GRIDFORMAT
  1
GRIDFORMAT_BEGIN
 90
        0
 91
        1
 62
     0
 92
       -2
340
14
 93
        0
 40
0.045
309
GRIDFORMAT_END
 95
       32
302
GRIDFORMAT
  1
GRIDFORMAT_BEGIN
 90
        0
 91
        1
 62
     0
 92
       -2
340
14
 93
        0
 40
0.045
309
GRIDFORMAT_END
309
TABLEFORMAT_END
  1
CELLSTYLE_BEGIN
 90
        2
 91
        1
300
_HEADER
309
CELLSTYLE_END
300
CELLSTYLE
  1
TABLEFORMAT_BEGIN
 90
        5
170
     1
 91
        0
 92
        0
 62
   257
 93
        1
300
CONTENTFORMAT
  1
CONTENTFORMAT_BEGIN
 90
        0
 91
        0
 92
        4
 93
        0
300

 40
0.0
140
1.0
 94
        2
 62
     0
340
11
144
4.5
309
CONTENTFORMAT_END
171
     1
301
MARGIN
  1
CELLMARGIN_BEGIN
 40
1.5
 40
1.5
 40
1.5
 40
1.5
 40
1.5
 40
1.5
309
CELLMARGIN_END
 94
        6
 95
        1
302
GRIDFORMAT
  1
GRIDFORMAT_BEGIN
 90
        0
 91
        1
 62
     0
 92
       -2
340
14
 93
        0
 40
0.045
309
GRIDFORMAT_END
 95
        2
302
GRIDFORMAT
  1
GRIDFORMAT_BEGIN
 90
        0
 91
        1
 62
     0
 92
       -2
340
14
 93
        0
 40
0.045
309
GRIDFORMAT_END
 95
        4
302
GRIDFORMAT
  1
GRIDFORMAT_BEGIN
 90
        0
 91
        1
 62
     0
 92
       -2
340
14
 93
        0
 40
0.045
309
GRIDFORMAT_END
 95
        8
302
GRIDFORMAT
  1
GRIDFORMAT_BEGIN
 90
        0
 91
        1
 62
     0
 92
       -2
340
14
 93
        0
 40
0.045
309
GRIDFORMAT_END
 95
       16
302
GRIDFORMAT
  1
GRIDFORMAT_BEGIN
 90
        0
 91
        1
 62
     0
 92
       -2
340
14
 93
        0
 40
0.045
309
GRIDFORMAT_END
 95
       32
302
GRIDFORMAT
  1
GRIDFORMAT_BEGIN
 90
        0
 91
        1
 62
     0
 92
       -2
340
14
 93
        0
 40
0.045
309
GRIDFORMAT_END
309
TABLEFORMAT_END
  1
CELLSTYLE_BEGIN
 90
        3
 91
        2
300
_DATA
309
CELLSTYLE_END
  0
ENDSEC
  0
EOF
