  0
SECTION
  2
HEADER
  9
$ACADVER
  1
AC1027
  9
$ACADMAINTVER
 70
   105
  9
$DWGCODEPAGE
  3
ANSI_1252
  9
$REQUIREDVERSIONS
160
                 0
  9
$LASTSAVEDBY
  1
matthias.ochs
  9
$INSBASE
 10
0.0
 20
0.0
 30
0.0
  9
$EXTMIN
 10
-95.37895245483037
 20
-138.9161763646972
 30
0.0
  9
$EXTMAX
 10
168.7216573012669
 20
122.0403785133516
 30
0.0
  9
$LIMMIN
 10
0.0
 20
0.0
  9
$LIMMAX
 10
420.0
 20
297.0
  9
$ORTHOMODE
 70
     0
  9
$REGENMODE
 70
     1
  9
$FILLMODE
 70
     1
  9
$QTEXTMODE
 70
     0
  9
$MIRRTEXT
 70
     1
  9
$LTSCALE
 40
1.0
  9
$ATTMODE
 70
     1
  9
$TEXTSIZE
 40
3.5
  9
$TRACEWID
 40
1.0
  9
$TEXTSTYLE
  7
STANDARD
  9
$CLAYER
  8
1
  9
$CELTYPE
  6
BYLAYER
  9
$CECOLOR
 62
   256
  9
$CELTSCALE
 40
1.0
  9
$DISPSILH
 70
     0
  9
$DIMSCALE
 40
1.0
  9
$DIMASZ
 40
3.5
  9
$DIMEXO
 40
0.0
  9
$DIMDLI
 40
3.75
  9
$DIMRND
 40
0.0
  9
$DIMDLE
 40
0.0
  9
$DIMEXE
 40
1.0
  9
$DIMTP
 40
0.0
  9
$DIMTM
 40
0.0
  9
$DIMTXT
 40
3.5
  9
$DIMCEN
 40
2.5
  9
$DIMTSZ
 40
0.0
  9
$DIMTOL
 70
     0
  9
$DIMLIM
 70
     0
  9
$DIMTIH
 70
     1
  9
$DIMTOH
 70
     1
  9
$DIMSE1
 70
     0
  9
$DIMSE2
 70
     0
  9
$DIMTAD
 70
     1
  9
$DIMZIN
 70
     0
  9
$DIMBLK
  1

  9
$DIMASO
 70
     1
  9
$DIMSHO
 70
     1
  9
$DIMPOST
  1

  9
$DIMAPOST
  1

  9
$DIMALT
 70
     0
  9
$DIMALTD
 70
     3
  9
$DIMALTF
 40
0.0393700787
  9
$DIMLFAC
 40
1.0
  9
$DIMTOFL
 70
     1
  9
$DIMTVP
 40
0.0
  9
$DIMTIX
 70
     0
  9
$DIMSOXD
 70
     0
  9
$DIMSAH
 70
     0
  9
$DIMBLK1
  1

  9
$DIMBLK2
  1

  9
$DIMSTYLE
  2
ISO-25
  9
$DIMCLRD
 70
     0
  9
$DIMCLRE
 70
     0
  9
$DIMCLRT
 70
     0
  9
$DIMTFAC
 40
1.0
  9
$DIMGAP
 40
1.5
  9
$DIMJUST
 70
     0
  9
$DIMSD1
 70
     0
  9
$DIMSD2
 70
     0
  9
$DIMTOLJ
 70
     0
  9
$DIMTZIN
 70
     0
  9
$DIMALTZ
 70
     0
  9
$DIMALTTZ
 70
     0
  9
$DIMUPT
 70
     0
  9
$DIMDEC
 70
     2
  9
$DIMTDEC
 70
     3
  9
$DIMALTU
 70
     2
  9
$DIMALTTD
 70
     3
  9
$DIMTXSTY
  7
STANDARD
  9
$DIMAUNIT
 70
     0
  9
$DIMADEC
 70
     0
  9
$DIMALTRND
 40
0.0
  9
$DIMAZIN
 70
     0
  9
$DIMDSEP
 70
    46
  9
$DIMATFIT
 70
     3
  9
$DIMFRAC
 70
     0
  9
$DIMLDRBLK
  1

  9
$DIMLUNIT
 70
     2
  9
$DIMLWD
 70
    -2
  9
$DIMLWE
 70
    -2
  9
$DIMTMOVE
 70
     2
  9
$DIMFXL
 40
1.0
  9
$DIMFXLON
 70
     0
  9
$DIMJOGANG
 40
0.7853981633974483
  9
$DIMTFILL
 70
     0
  9
$DIMTFILLCLR
 70
     0
  9
$DIMARCSYM
 70
     0
  9
$DIMLTYPE
  6

  9
$DIMLTEX1
  6

  9
$DIMLTEX2
  6

  9
$DIMTXTDIRECTION
 70
     0
  9
$LUNITS
 70
     2
  9
$LUPREC
 70
     2
  9
$SKETCHINC
 40
1.0
  9
$FILLETRAD
 40
10.0
  9
$AUNITS
 70
     0
  9
$AUPREC
 70
     2
  9
$MENU
  1
.
  9
$ELEVATION
 40
0.0
  9
$PELEVATION
 40
0.0
  9
$THICKNESS
 40
0.0
  9
$LIMCHECK
 70
     0
  9
$CHAMFERA
 40
0.0
  9
$CHAMFERB
 40
0.0
  9
$CHAMFERC
 40
0.0
  9
$CHAMFERD
 40
0.0
  9
$SKPOLY
 70
     0
  9
$TDCREATE
 40
2456974.592817199
  9
$TDUCREATE
 40
2456974.509483866
  9
$TDUPDATE
 40
2458677.460784132
  9
$TDUUPDATE
 40
2458677.377450799
  9
$TDINDWG
 40
0.0049654745
  9
$TDUSRTIMER
 40
0.0047809144
  9
$USRTIMER
 70
     1
  9
$ANGBASE
 50
0.0
  9
$ANGDIR
 70
     0
  9
$PDMODE
 70
     0
  9
$PDSIZE
 40
-1.0
  9
$PLINEWID
 40
0.0
  9
$SPLFRAME
 70
     0
  9
$SPLINETYPE
 70
     6
  9
$SPLINESEGS
 70
     8
  9
$HANDSEED
  5
3DF
  9
$SURFTAB1
 70
     6
  9
$SURFTAB2
 70
     6
  9
$SURFTYPE
 70
     6
  9
$SURFU
 70
     6
  9
$SURFV
 70
     6
  9
$UCSBASE
  2

  9
$UCSNAME
  2

  9
$UCSORG
 10
0.0
 20
0.0
 30
0.0
  9
$UCSXDIR
 10
1.0
 20
0.0
 30
0.0
  9
$UCSYDIR
 10
0.0
 20
1.0
 30
0.0
  9
$UCSORTHOREF
  2

  9
$UCSORTHOVIEW
 70
     0
  9
$UCSORGTOP
 10
0.0
 20
0.0
 30
0.0
  9
$UCSORGBOTTOM
 10
0.0
 20
0.0
 30
0.0
  9
$UCSORGLEFT
 10
0.0
 20
0.0
 30
0.0
  9
$UCSORGRIGHT
 10
0.0
 20
0.0
 30
0.0
  9
$UCSORGFRONT
 10
0.0
 20
0.0
 30
0.0
  9
$UCSORGBACK
 10
0.0
 20
0.0
 30
0.0
  9
$PUCSBASE
  2

  9
$PUCSNAME
  2

  9
$PUCSORG
 10
0.0
 20
0.0
 30
0.0
  9
$PUCSXDIR
 10
1.0
 20
0.0
 30
0.0
  9
$PUCSYDIR
 10
0.0
 20
1.0
 30
0.0
  9
$PUCSORTHOREF
  2

  9
$PUCSORTHOVIEW
 70
     0
  9
$PUCSORGTOP
 10
0.0
 20
0.0
 30
0.0
  9
$PUCSORGBOTTOM
 10
0.0
 20
0.0
 30
0.0
  9
$PUCSORGLEFT
 10
0.0
 20
0.0
 30
0.0
  9
$PUCSORGRIGHT
 10
0.0
 20
0.0
 30
0.0
  9
$PUCSORGFRONT
 10
0.0
 20
0.0
 30
0.0
  9
$PUCSORGBACK
 10
0.0
 20
0.0
 30
0.0
  9
$USERI1
 70
     0
  9
$USERI2
 70
     0
  9
$USERI3
 70
     0
  9
$USERI4
 70
     0
  9
$USERI5
 70
     0
  9
$USERR1
 40
0.0
  9
$USERR2
 40
0.0
  9
$USERR3
 40
0.0
  9
$USERR4
 40
0.0
  9
$USERR5
 40
0.0
  9
$WORLDVIEW
 70
     1
  9
$SHADEDGE
 70
     3
  9
$SHADEDIF
 70
    70
  9
$TILEMODE
 70
     1
  9
$MAXACTVP
 70
    64
  9
$PINSBASE
 10
0.0
 20
0.0
 30
0.0
  9
$PLIMCHECK
 70
     0
  9
$PEXTMIN
 10
1.000000000000000E+20
 20
1.000000000000000E+20
 30
1.000000000000000E+20
  9
$PEXTMAX
 10
-1.000000000000000E+20
 20
-1.000000000000000E+20
 30
-1.000000000000000E+20
  9
$PLIMMIN
 10
0.0
 20
0.0
  9
$PLIMMAX
 10
0.0
 20
0.0
  9
$UNITMODE
 70
     0
  9
$VISRETAIN
 70
     1
  9
$PLINEGEN
 70
     0
  9
$PSLTSCALE
 70
     1
  9
$TREEDEPTH
 70
  3020
  9
$CMLSTYLE
  2
STANDARD
  9
$CMLJUST
 70
     0
  9
$CMLSCALE
 40
20.0
  9
$PROXYGRAPHICS
 70
     1
  9
$MEASUREMENT
 70
     1
  9
$CELWEIGHT
370
    -1
  9
$ENDCAPS
280
     0
  9
$JOINSTYLE
280
     0
  9
$LWDISPLAY
290
     0
  9
$INSUNITS
 70
     0
  9
$HYPERLINKBASE
  1

  9
$STYLESHEET
  1

  9
$XEDIT
290
     1
  9
$CEPSNTYPE
380
     0
  9
$PSTYLEMODE
290
     1
  9
$FINGERPRINTGUID
  2
{E401E7DF-AB34-49EF-9DAF-8C0CE3E55AF6}
  9
$VERSIONGUID
  2
{FAEB1C32-E019-11D5-929B-00C0DF256EC4}
  9
$EXTNAMES
290
     1
  9
$PSVPSCALE
 40
0.0
  9
$OLESTARTUP
290
     0
  9
$SORTENTS
280
   127
  9
$INDEXCTL
280
     0
  9
$HIDETEXT
280
     1
  9
$XCLIPFRAME
280
     2
  9
$HALOGAP
280
     0
  9
$OBSCOLOR
 70
   257
  9
$OBSLTYPE
280
     0
  9
$INTERSECTIONDISPLAY
280
     0
  9
$INTERSECTIONCOLOR
 70
   257
  9
$DIMASSOC
280
     2
  9
$PROJECTNAME
  1

  9
$CAMERADISPLAY
290
     0
  9
$LENSLENGTH
 40
50.0
  9
$CAMERAHEIGHT
 40
0.0
  9
$STEPSPERSEC
 40
2.0
  9
$STEPSIZE
 40
6.0
  9
$3DDWFPREC
 40
2.0
  9
$PSOLWIDTH
 40
0.25
  9
$PSOLHEIGHT
 40
4.0
  9
$LOFTANG1
 40
1.570796326794897
  9
$LOFTANG2
 40
1.570796326794897
  9
$LOFTMAG1
 40
0.0
  9
$LOFTMAG2
 40
0.0
  9
$LOFTPARAM
 70
     7
  9
$LOFTNORMALS
280
     1
  9
$LATITUDE
 40
37.795
  9
$LONGITUDE
 40
-122.394
  9
$NORTHDIRECTION
 40
0.0
  9
$TIMEZONE
 70
 -8000
  9
$LIGHTGLYPHDISPLAY
280
     1
  9
$TILEMODELIGHTSYNCH
280
     1
  9
$SOLIDHIST
280
     0
  9
$SHOWHIST
280
     1
  9
$DWFFRAME
280
     2
  9
$DGNFRAME
280
     2
  9
$REALWORLDSCALE
290
     1
  9
$INTERFERECOLOR
 62
   256
  9
$CSHADOW
280
     0
  9
$SHADOWPLANELOCATION
 40
0.0
  0
ENDSEC
  0
SECTION
  2
CLASSES
  0
CLASS
  1
ACDBDICTIONARYWDFLT
  2
AcDbDictionaryWithDefault
  3
ObjectDBX Classes
 90
        0
 91
       18
280
     0
281
     0
  0
CLASS
  1
VISUALSTYLE
  2
AcDbVisualStyle
  3
ObjectDBX Classes
 90
     4095
 91
       18
280
     0
281
     0
  0
CLASS
  1
MATERIAL
  2
AcDbMaterial
  3
ObjectDBX Classes
 90
     1153
 91
       18
280
     0
281
     0
  0
CLASS
  1
SCALE
  2
AcDbScale
  3
ObjectDBX Classes
 90
     1153
 91
       18
280
     0
281
     0
  0
CLASS
  1
SUN
  2
AcDbSun
  3
SCENEOE
 90
     1153
 91
       18
280
     0
281
     0
  0
CLASS
  1
XRECORD
  2
AcDbXrecord
  3
ObjectDBX Classes
 90
        0
 91
        1
280
     0
281
     0
  0
CLASS
  1
LWPOLYLINE
  2
AcDbPolyline
  3
ObjectDBX Classes
 90
        0
 91
        1
280
     0
281
     1
  0
CLASS
  1
HATCH
  2
AcDbHatch
  3
ObjectDBX Classes
 90
        0
 91
        1
280
     0
281
     1
  0
CLASS
  1
DICTIONARYVAR
  2
AcDbDictionaryVar
  3
ObjectDBX Classes
 90
        0
 91
       16
280
     0
281
     0
  0
CLASS
  1
ACDBPLACEHOLDER
  2
AcDbPlaceHolder
  3
ObjectDBX Classes
 90
        0
 91
        1
280
     0
281
     0
  0
CLASS
  1
LAYOUT
  2
AcDbLayout
  3
ObjectDBX Classes
 90
        0
 91
        1
280
     0
281
     0
  0
CLASS
  1
TABLESTYLE
  2
AcDbTableStyle
  3
ObjectDBX Classes
 90
     4095
 91
       18
280
     0
281
     0
  0
CLASS
  1
MLEADERSTYLE
  2
AcDbMLeaderStyle
  3
ACDB_MLEADERSTYLE_CLASS
 90
     4095
 91
       18
280
     0
281
     0
  0
CLASS
  1
CELLSTYLEMAP
  2
AcDbCellStyleMap
  3
ObjectDBX Classes
 90
     1152
 91
       10
280
     0
281
     0
  0
ENDSEC
  0
SECTION
  2
TABLES
  0
TABLE
  2
VPORT
  5
8
330
0
100
AcDbSymbolTable
 70
     1
  0
VPORT
  5
29
330
8
100
AcDbSymbolTableRecord
100
AcDbViewportTableRecord
  2
*ACTIVE
 70
     0
 10
0.0
 20
0.0
 11
1.0
 21
1.0
 12
110.6392384642966
 22
139.3275566470426
 13
0.0
 23
0.0
 14
10.0
 24
10.0
 15
10.0
 25
10.0
 16
0.0
 26
0.0
 36
1.0
 17
0.0
 27
0.0
 37
0.0
 40
831.7310992833081
 41
1.831002331002331
 42
50.0
 43
0.0
 44
0.0
 50
0.0
 51
0.0
 71
    16
 72
  2000
 73
     1
 74
     3
 75
     1
 76
     0
 77
     0
 78
     0
281
     0
 65
     1
110
0.0
120
0.0
130
0.0
111
1.0
121
0.0
131
0.0
112
0.0
122
1.0
132
0.0
 79
     0
146
0.0
348
306
 60
     3
 61
     5
292
     1
282
     1
141
0.0
142
0.0
 63
   256
361
39F
  0
ENDTAB
  0
TABLE
  2
LTYPE
  5
5
330
0
100
AcDbSymbolTable
 70
     9
  0
LTYPE
  5
14
330
5
100
AcDbSymbolTableRecord
100
AcDbLinetypeTableRecord
  2
BYBLOCK
 70
     0
  3

 72
    65
 73
     0
 40
0.0
  0
LTYPE
  5
15
330
5
100
AcDbSymbolTableRecord
100
AcDbLinetypeTableRecord
  2
BYLAYER
 70
     0
  3

 72
    65
 73
     0
 40
0.0
  0
LTYPE
  5
16
330
5
100
AcDbSymbolTableRecord
100
AcDbLinetypeTableRecord
  2
CONTINUOUS
 70
     0
  3
Solid line
 72
    65
 73
     0
 40
0.0
  0
LTYPE
  5
6A
330
5
100
AcDbSymbolTableRecord
100
AcDbLinetypeTableRecord
  2
HIDDEN
 70
     0
  3
Hidden __ __ __ __ __ __ __ __ __ __ __ __ __ __
 72
    65
 73
     2
 40
1.905
 49
1.27
 74
     0
 49
-0.635
 74
     0
  0
LTYPE
  5
6B
330
5
100
AcDbSymbolTableRecord
100
AcDbLinetypeTableRecord
  2
PHANTOM
 70
     0
  3
Phantom ______  __  __  ______  __  __  ______
 72
    65
 73
     6
 40
12.7
 49
6.35
 74
     0
 49
-1.27
 74
     0
 49
1.27
 74
     0
 49
-1.27
 74
     0
 49
1.27
 74
     0
 49
-1.27
 74
     0
  0
LTYPE
  5
6C
330
5
100
AcDbSymbolTableRecord
100
AcDbLinetypeTableRecord
  2
CENTER
 70
     0
  3
Center ____ _ ____ _ ____ _ ____ _ ____ _ ____
 72
    65
 73
     4
 40
10.16
 49
6.35
 74
     0
 49
-1.27
 74
     0
 49
1.27
 74
     0
 49
-1.27
 74
     0
  0
LTYPE
  5
6D
330
5
100
AcDbSymbolTableRecord
100
AcDbLinetypeTableRecord
  2
CENTERX2
 70
     0
  3
Center (2x) ________  __  ________  __  _____
 72
    65
 73
     4
 40
20.32
 49
12.7
 74
     0
 49
-2.54
 74
     0
 49
2.54
 74
     0
 49
-2.54
 74
     0
  0
LTYPE
  5
6E
330
5
100
AcDbSymbolTableRecord
100
AcDbLinetypeTableRecord
  2
DOT2
 70
     0
  3
Dot (.5x) ........................................
 72
    65
 73
     2
 40
0.635
 49
0.0
 74
     0
 49
-0.635
 74
     0
  0
LTYPE
  5
35A
330
5
100
AcDbSymbolTableRecord
100
AcDbLinetypeTableRecord
  2
DASH
 70
     0
  3
DASH _ _ _ _ _
 72
    65
 73
     2
 40
0.75
 49
0.4
 74
     0
 49
-0.35
 74
     0
  0
LTYPE
  5
35B
330
5
100
AcDbSymbolTableRecord
100
AcDbLinetypeTableRecord
  2
LONGDASH_DASH
 70
     0
  3
LONGDASH_DASH __ . __ . __
 72
    65
 73
     4
 40
0.85
 49
0.4
 74
     0
 49
-0.2
 74
     0
 49
0.05
 74
     0
 49
-0.2
 74
     0
  0
LTYPE
  5
35C
330
5
100
AcDbSymbolTableRecord
100
AcDbLinetypeTableRecord
  2
LONGDASH_DASH_DASH
 70
     0
  3
LONGDASH_DASH_DASH __ . . __ . . __
 72
    65
 73
     6
 40
1.1
 49
0.4
 74
     0
 49
-0.2
 74
     0
 49
0.05
 74
     0
 49
-0.2
 74
     0
 49
0.05
 74
     0
 49
-0.2
 74
     0
  0
ENDTAB
  0
TABLE
  2
LAYER
  5
2
102
{ACAD_XDICTIONARY
360
37C
102
}
330
0
100
AcDbSymbolTable
 70
    16
  0
LAYER
  5
317
330
2
100
AcDbSymbolTableRecord
100
AcDbLayerTableRecord
  2
200
 70
     0
 62
     2
  6
CONTINUOUS
370
    50
390
36D
347
315
348
0
  0
LAYER
  5
31A
330
2
100
AcDbSymbolTableRecord
100
AcDbLayerTableRecord
  2
Defpoints
 70
     0
 62
     7
  6
CONTINUOUS
290
     0
370
    -3
390
36D
347
315
348
0
  0
LAYER
  5
35D
330
2
100
AcDbSymbolTableRecord
100
AcDbLayerTableRecord
  2
0
 70
     0
 62
     1
  6
CONTINUOUS
370
    -3
390
36D
347
315
348
0
  0
LAYER
  5
35E
330
2
100
AcDbSymbolTableRecord
100
AcDbLayerTableRecord
  2
1
 70
     0
 62
     4
  6
CONTINUOUS
370
    50
390
36D
347
315
348
0
  0
LAYER
  5
35F
330
2
100
AcDbSymbolTableRecord
100
AcDbLayerTableRecord
  2
2
 70
     0
 62
     7
  6
CONTINUOUS
370
    25
390
36D
347
315
348
0
  0
LAYER
  5
360
330
2
100
AcDbSymbolTableRecord
100
AcDbLayerTableRecord
  2
3
 70
     0
 62
     1
  6
DASH
370
    35
390
36D
347
315
348
0
  0
LAYER
  5
361
330
2
100
AcDbSymbolTableRecord
100
AcDbLayerTableRecord
  2
4
 70
     0
 62
     2
  6
LONGDASH_DASH
370
    25
390
36D
347
315
348
0
  0
LAYER
  5
362
330
2
100
AcDbSymbolTableRecord
100
AcDbLayerTableRecord
  2
6
 70
     0
 62
     5
  6
CONTINUOUS
370
    -3
390
36D
347
315
348
0
  0
LAYER
  5
363
330
2
100
AcDbSymbolTableRecord
100
AcDbLayerTableRecord
  2
CUT
 70
     0
 62
     1
  6
CONTINUOUS
370
    25
390
36D
347
315
348
0
  0
LAYER
  5
364
330
2
100
AcDbSymbolTableRecord
100
AcDbLayerTableRecord
  2
NOCUT
 70
     0
 62
     7
  6
CONTINUOUS
370
    25
390
36D
347
315
348
0
  0
LAYER
  5
365
330
2
100
AcDbSymbolTableRecord
100
AcDbLayerTableRecord
  2
SK1
 70
     0
 62
     4
  6
CONTINUOUS
370
    50
390
36D
347
315
348
0
  0
LAYER
  5
366
330
2
100
AcDbSymbolTableRecord
100
AcDbLayerTableRecord
  2
SK2
 70
     0
 62
     7
  6
CONTINUOUS
370
    25
390
36D
347
315
348
0
  0
LAYER
  5
367
330
2
100
AcDbSymbolTableRecord
100
AcDbLayerTableRecord
  2
SK3
 70
     0
 62
     1
  6
DASH
370
    35
390
36D
347
315
348
0
  0
LAYER
  5
368
330
2
100
AcDbSymbolTableRecord
100
AcDbLayerTableRecord
  2
SK4
 70
     0
 62
     2
  6
LONGDASH_DASH
370
    25
390
36D
347
315
348
0
  0
LAYER
  5
369
330
2
100
AcDbSymbolTableRecord
100
AcDbLayerTableRecord
  2
SK6
 70
     0
 62
     5
  6
CONTINUOUS
370
    -3
390
36D
347
315
348
0
  0
LAYER
  5
36A
330
2
100
AcDbSymbolTableRecord
100
AcDbLayerTableRecord
  2
INFTOTAL
 70
     0
 62
     9
  6
CONTINUOUS
370
    18
390
36D
347
315
348
0
  0
ENDTAB
  0
TABLE
  2
STYLE
  5
3
330
0
100
AcDbSymbolTable
 70
     3
  0
STYLE
  5
11
330
3
100
AcDbSymbolTableRecord
100
AcDbTextStyleTableRecord
  2
STANDARD
 70
     0
 40
0.0
 41
1.0
 50
0.0
 71
     0
 42
3.5
  3
txt
  4

  0
STYLE
  5
2BB
330
3
100
AcDbSymbolTableRecord
100
AcDbTextStyleTableRecord
  2
SLDTEXTSTYLE0
 70
     0
 40
0.0
 41
0.605
 50
0.0
 71
     0
 42
3.5
  3
TXT
  4

  0
STYLE
  5
316
330
3
100
AcDbSymbolTableRecord
100
AcDbTextStyleTableRecord
  2
BMG_Text
 70
     0
 40
3.5
 41
1.0
 50
0.0
 71
     0
 42
3.5
  3
monos.ttf
  4

1001
ACAD
1000
Monospac821 BT
1071
       49
  0
ENDTAB
  0
TABLE
  2
VIEW
  5
6
330
0
100
AcDbSymbolTable
 70
     0
  0
ENDTAB
  0
TABLE
  2
UCS
  5
7
330
0
100
AcDbSymbolTable
 70
     0
  0
ENDTAB
  0
TABLE
  2
APPID
  5
9
330
0
100
AcDbSymbolTable
 70
     4
  0
APPID
  5
12
330
9
100
AcDbSymbolTableRecord
100
AcDbRegAppTableRecord
  2
ACAD
 70
     0
  0
APPID
  5
32D
330
9
100
AcDbSymbolTableRecord
100
AcDbRegAppTableRecord
  2
ACAD_DSTYLE_DIM_LINETYPE
 70
     0
  0
APPID
  5
32E
330
9
100
AcDbSymbolTableRecord
100
AcDbRegAppTableRecord
  2
ACAD_DSTYLE_DIM_EXT1_LINETYPE
 70
     0
  0
APPID
  5
32F
330
9
100
AcDbSymbolTableRecord
100
AcDbRegAppTableRecord
  2
ACAD_DSTYLE_DIM_EXT2_LINETYPE
 70
     0
  0
ENDTAB
  0
TABLE
  2
DIMSTYLE
  5
A
330
0
100
AcDbSymbolTable
 70
     3
100
AcDbDimStyleTable
  0
DIMSTYLE
105
27
330
A
100
AcDbSymbolTableRecord
100
AcDbDimStyleTableRecord
  2
ISO-25
 70
     0
 41
2.5
 42
0.625
 43
3.75
 44
1.25
 73
     0
 74
     0
 77
     1
 78
     8
140
2.5
141
2.5
143
0.0393700787
147
0.625
171
     3
172
     1
178
     0
271
     2
272
     2
274
     3
283
     0
284
     8
340
11
  0
DIMSTYLE
105
2BC
102
{ACAD_REACTORS
330
2BA
330
2C8
102
}
330
A
100
AcDbSymbolTableRecord
100
AcDbDimStyleTableRecord
  2
SLDDIMSTYLE0
 70
     0
 41
3.5
 44
0.0
 45
0.000000001
 73
     0
 74
     0
 77
     1
 78
    12
140
3.5
147
0.875
173
     1
178
     0
271
     2
272
     3
284
    12
340
2BB
  0
DIMSTYLE
105
2D4
102
{ACAD_REACTORS
330
2D3
102
}
330
A
100
AcDbSymbolTableRecord
100
AcDbDimStyleTableRecord
  2
SLDDIMSTYLE1
 70
     0
 41
3.5
 44
0.0
 45
0.000000001
 73
     0
 74
     0
 77
     1
 78
    12
140
3.5
147
0.875
173
     1
178
     0
271
     2
272
     3
284
    12
340
2BB
  0
ENDTAB
  0
TABLE
  2
BLOCK_RECORD
  5
1
330
0
100
AcDbSymbolTable
 70
     3
  0
BLOCK_RECORD
  5
1F
330
1
100
AcDbSymbolTableRecord
100
AcDbBlockTableRecord
  2
*MODEL_SPACE
340
2FF
 70
     0
280
     1
281
     0
  0
BLOCK_RECORD
  5
1B
330
1
100
AcDbSymbolTableRecord
100
AcDbBlockTableRecord
  2
*PAPER_SPACE
340
300
 70
     0
280
     1
281
     0
  0
BLOCK_RECORD
  5
2BD
330
1
100
AcDbSymbolTableRecord
100
AcDbBlockTableRecord
  2
_D
340
0
 70
     0
280
     1
281
     0
  0
BLOCK_RECORD
  5
2C9
330
1
100
AcDbSymbolTableRecord
100
AcDbBlockTableRecord
  2
_D_1
340
0
 70
     0
280
     1
281
     0
  0
BLOCK_RECORD
  5
2D5
330
1
100
AcDbSymbolTableRecord
100
AcDbBlockTableRecord
  2
_D_2
340
0
 70
     0
280
     1
281
     0
  0
ENDTAB
  0
ENDSEC
  0
SECTION
  2
BLOCKS
  0
BLOCK
  5
20
330
1F
100
AcDbEntity
  8
0
100
AcDbBlockBegin
  2
*MODEL_SPACE
 70
     0
 10
0.0
 20
0.0
 30
0.0
  3
*MODEL_SPACE
  1

  0
ENDBLK
  5
21
330
1F
100
AcDbEntity
  8
0
100
AcDbBlockEnd
  0
BLOCK
  5
1C
330
1B
100
AcDbEntity
 67
     1
  8
0
100
AcDbBlockBegin
  2
*PAPER_SPACE
 70
     0
 10
0.0
 20
0.0
 30
0.0
  3
*PAPER_SPACE
  1

  0
ENDBLK
  5
1D
330
1B
100
AcDbEntity
 67
     1
  8
0
100
AcDbBlockEnd
  0
BLOCK
  5
2BE
330
2BD
100
AcDbEntity
  8
0
100
AcDbBlockBegin
  2
_D
 70
     0
 10
0.0
 20
0.0
 30
0.0
  3
_D
  1
_D
  0
LINE
  5
2C0
330
2BD
100
AcDbEntity
  8
SK2
  6
ByBlock
370
    -2
100
AcDbLine
 10
59.7915955612
 20
73.9992199357
 30
0.0
 11
68.70427168630002
 21
73.9992199357
 31
0.0
  0
LINE
  5
2C1
330
2BD
100
AcDbEntity
  8
SK2
  6
ByBlock
370
    -2
100
AcDbLine
 10
59.9000391675
 20
-74.0010905809
 30
0.0
 11
68.70427168629999
 21
-74.0010905809
 31
0.0
  0
LINE
  5
2C2
330
2BD
100
AcDbEntity
  8
SK2
  6
ByBlock
370
    -2
100
AcDbLine
 10
68.70427168630002
 20
70.4992199357
 30
0.0
 11
68.70427168629999
 21
-70.5010905809
 31
0.0
  0
SOLID
  5
2C3
330
2BD
100
AcDbEntity
  8
SK2
100
AcDbTrace
 10
69.28760501963335
 20
70.4992199357
 30
0.0
 11
68.12093835296669
 21
70.4992199357
 31
0.0
 12
68.70427168630002
 22
73.9992199357
 32
0.0
 13
68.70427168630002
 23
73.9992199357
 33
0.0
  0
SOLID
  5
2C4
330
2BD
100
AcDbEntity
  8
SK2
100
AcDbTrace
 10
68.12093835296666
 20
-70.5010905809
 30
0.0
 11
69.28760501963332
 21
-70.5010905809
 31
0.0
 12
68.70427168629999
 22
-74.0010905809
 32
0.0
 13
68.70427168629999
 23
-74.0010905809
 33
0.0
  0
MTEXT
  5
2C5
330
2BD
100
AcDbEntity
  8
SK2
100
AcDbMText
 10
65.96727168630001
 20
-0.0009353225999997
 30
0.0
 40
3.5
 41
0.0
 46
0.0
 71
     5
 72
     1
  1
\A1;%%c148 - 176
  7
BMG_Text
 11
9.601908716001030E-17
 21
1.0
 31
0.0
 73
     1
 44
1.0
  0
POINT
  5
2C6
330
2BD
100
AcDbEntity
  8
Defpoints
 62
     0
100
AcDbPoint
 10
59.7290955612
 20
73.9992199357
 30
0.0
  0
POINT
  5
2C7
330
2BD
100
AcDbEntity
  8
Defpoints
 62
     0
100
AcDbPoint
 10
59.8375391675
 20
-74.0010905809
 30
0.0
  0
POINT
  5
31B
330
2BD
100
AcDbEntity
  8
Defpoints
 62
     0
100
AcDbPoint
 10
68.70427168629999
 20
-74.0010905809
 30
0.0
  0
ENDBLK
  5
2BF
330
2BD
100
AcDbEntity
  8
0
100
AcDbBlockEnd
  0
BLOCK
  5
2CA
330
2C9
100
AcDbEntity
  8
0
100
AcDbBlockBegin
  2
_D_1
 70
     0
 10
0.0
 20
0.0
 30
0.0
  3
_D_1
  1
_D_1
  0
LINE
  5
2CC
330
2C9
100
AcDbEntity
  8
SK2
  6
ByBlock
370
    -2
100
AcDbLine
 10
47.0624574253
 20
-78.5000100732
 30
0.0
 11
78.8026456173
 21
-78.5000100732
 31
0.0
  0
LINE
  5
2CD
330
2C9
100
AcDbEntity
  8
SK2
  6
ByBlock
370
    -2
100
AcDbLine
 10
47.0624574253
 20
78.5000100732
 30
0.0
 11
78.8026456173
 21
78.5000100732
 31
0.0
  0
LINE
  5
2CE
330
2C9
100
AcDbEntity
  8
SK2
  6
ByBlock
370
    -2
100
AcDbLine
 10
78.8026456173
 20
-75.0000100732
 30
0.0
 11
78.8026456173
 21
75.0000100732
 31
0.0
  0
SOLID
  5
2CF
330
2C9
100
AcDbEntity
  8
SK2
100
AcDbTrace
 10
78.21931228396667
 20
-75.0000100732
 30
0.0
 11
79.38597895063333
 21
-75.0000100732
 31
0.0
 12
78.8026456173
 22
-78.5000100732
 32
0.0
 13
78.8026456173
 23
-78.5000100732
 33
0.0
  0
SOLID
  5
2D0
330
2C9
100
AcDbEntity
  8
SK2
100
AcDbTrace
 10
79.38597895063333
 20
75.0000100732
 30
0.0
 11
78.21931228396667
 21
75.0000100732
 31
0.0
 12
78.8026456173
 22
78.5000100732
 32
0.0
 13
78.8026456173
 23
78.5000100732
 33
0.0
  0
MTEXT
  5
2D1
330
2C9
100
AcDbEntity
  8
SK2
100
AcDbMText
 10
76.0656456173
 20
0.0000000000000002
 30
0.0
 40
3.5
 41
0.0
 46
0.0
 71
     5
 72
     1
  1
\A1;%%c159 - 187
  7
BMG_Text
 11
9.051498657102469E-17
 21
1.0
 31
0.0
 73
     1
 44
1.0
  0
POINT
  5
2D2
330
2C9
100
AcDbEntity
  8
Defpoints
 62
     0
100
AcDbPoint
 10
46.9999574253
 20
-78.5000100732
 30
0.0
  0
POINT
  5
31C
330
2C9
100
AcDbEntity
  8
Defpoints
 62
     0
100
AcDbPoint
 10
46.9999574253
 20
78.5000100732
 30
0.0
  0
POINT
  5
31D
330
2C9
100
AcDbEntity
  8
Defpoints
 62
     0
100
AcDbPoint
 10
78.8026456173
 20
78.5000100732
 30
0.0
  0
ENDBLK
  5
2CB
330
2C9
100
AcDbEntity
  8
0
100
AcDbBlockEnd
  0
BLOCK
  5
2D6
330
2D5
100
AcDbEntity
  8
0
100
AcDbBlockBegin
  2
_D_2
 70
     0
 10
0.0
 20
0.0
 30
0.0
  3
_D_2
  1
_D_2
  0
LINE
  5
2D8
330
2D5
100
AcDbEntity
  8
2
  6
ByBlock
370
    -2
100
AcDbLine
 10
59.99994987548893
 20
73.86715634759999
 30
0.0
 11
59.99994054086405
 21
87.62333202409597
 31
0.0
  0
LINE
  5
2D9
330
2D5
100
AcDbEntity
  8
2
  6
ByBlock
370
    -2
100
AcDbLine
 10
-3.550047061011064
 20
69.70743706429998
 30
0.0
 11
-3.550059218296612
 21
87.62328890052576
 31
0.0
  0
LINE
  5
2DA
330
2D5
100
AcDbEntity
  8
2
  6
ByBlock
370
    -2
100
AcDbLine
 10
56.49994054086486
 20
87.62332964907637
 30
0.0
 11
-0.050059218297418
 21
87.62329127554537
 31
0.0
  0
SOLID
  5
2DB
330
2D5
100
AcDbEntity
  8
2
100
AcDbTrace
 10
56.49994093670146
 20
87.03999631574317
 30
0.0
 11
56.49994014502825
 21
88.20666298240957
 31
0.0
 12
59.99994054086405
 22
87.62333202409597
 32
0.0
 13
59.99994054086405
 23
87.62333202409597
 33
0.0
  0
SOLID
  5
31E
330
2D5
100
AcDbEntity
  8
2
100
AcDbTrace
 10
-0.0500596141340199
 20
88.20662460887857
 30
0.0
 11
-0.0500588224608161
 21
87.03995794221217
 31
0.0
 12
-3.550059218296612
 22
87.62328890052576
 32
0.0
 13
-3.550059218296612
 23
87.62328890052576
 33
0.0
  0
MTEXT
  5
31F
330
2D5
100
AcDbEntity
  8
2
100
AcDbMText
 10
13.81963123677245
 20
90.30955068719938
 30
0.0
 40
3.5
 41
0.0
 46
0.0
 71
     5
 72
     1
  1
\A1;143
  7
BMG_Text
 11
0.9999999999997697
 21
6.785770318095879E-7
 31
0.0
 73
     1
 44
1.0
  0
POINT
  5
320
330
2D5
100
AcDbEntity
  8
Defpoints
 62
     0
100
AcDbPoint
 10
59.9999499179
 20
73.8046563476
 30
0.0
  0
POINT
  5
321
330
2D5
100
AcDbEntity
  8
Defpoints
 62
     0
100
AcDbPoint
 10
-3.5500470186
 20
69.6449370643
 30
0.0
  0
POINT
  5
322
330
2D5
100
AcDbEntity
  8
Defpoints
 62
     0
100
AcDbPoint
 10
-3.550059218296627
 20
87.62328890052576
 30
0.0
  0
ENDBLK
  5
2D7
330
2D5
100
AcDbEntity
  8
0
100
AcDbBlockEnd
  0
ENDSEC
  0
SECTION
  2
ENTITIES
  0
LINE
  5
75
330
1F
100
AcDbEntity
  8
1
100
AcDbLine
 10
9.7720809409
 20
70.2408403158
 30
0.0
 11
9.7196810075
 21
70.1918303967
 31
0.0
  0
LINE
  5
76
330
1F
100
AcDbEntity
  8
1
100
AcDbLine
 10
13.1688940781
 20
-60.00000743
 30
0.0
 11
13.6020667979
 21
-60.967747122
 31
0.0
  0
LINE
  5
77
330
1F
100
AcDbEntity
  8
1
100
AcDbLine
 10
13.6020667979
 20
-60.967747122
 30
0.0
 11
14.1869969794
 21
-61.851285398
 31
0.0
  0
LINE
  5
78
330
1F
100
AcDbEntity
  8
1
100
AcDbLine
 10
14.1869969794
 20
-61.851285398
 30
0.0
 11
14.6801956126
 21
-62.3910762369
 31
0.0
  0
LINE
  5
79
330
1F
100
AcDbEntity
  8
1
100
AcDbLine
 10
14.6801956126
 20
-62.3910762369
 30
0.0
 11
15.2541808912
 21
-62.8573074937
 31
0.0
  0
LINE
  5
7A
330
1F
100
AcDbEntity
  8
1
100
AcDbLine
 10
15.2541808912
 20
-62.8573074937
 30
0.0
 11
15.7426931092
 21
-63.1441995501
 31
0.0
  0
LINE
  5
7B
330
1F
100
AcDbEntity
  8
1
100
AcDbLine
 10
15.7426931092
 20
-63.1441995501
 30
0.0
 11
16.2760056683
 21
-63.3586347103
 31
0.0
  0
LINE
  5
7C
330
1F
100
AcDbEntity
  8
1
100
AcDbLine
 10
16.2760056683
 20
-63.3586347103
 30
0.0
 11
17.2253959009
 21
-63.5083019733
 31
0.0
  0
LINE
  5
7D
330
1F
100
AcDbEntity
  8
1
100
AcDbLine
 10
17.2253959009
 20
-63.5083019733
 30
0.0
 11
18.1788839528
 21
-63.3722841739
 31
0.0
  0
LINE
  5
7E
330
1F
100
AcDbEntity
  8
1
100
AcDbLine
 10
18.1788839528
 20
-63.3722841739
 30
0.0
 11
18.7225304672
 21
-63.1611272692
 31
0.0
  0
LINE
  5
7F
330
1F
100
AcDbEntity
  8
1
100
AcDbLine
 10
18.7225304672
 20
-63.1611272692
 30
0.0
 11
19.2206092307
 21
-62.8743693232
 31
0.0
  0
LINE
  5
80
330
1F
100
AcDbEntity
  8
1
100
AcDbLine
 10
19.2206092307
 20
-62.8743693232
 30
0.0
 11
19.8560767004
 21
-62.356185168
 31
0.0
  0
LINE
  5
81
330
1F
100
AcDbEntity
  8
1
100
AcDbLine
 10
19.8560767004
 20
-62.356185168
 30
0.0
 11
20.3926377126
 21
-61.7489553988
 31
0.0
  0
LINE
  5
82
330
1F
100
AcDbEntity
  8
1
100
AcDbLine
 10
20.3926377126
 20
-61.7489553988
 30
0.0
 11
20.9285132715
 21
-60.9107874334
 31
0.0
  0
LINE
  5
83
330
1F
100
AcDbEntity
  8
1
100
AcDbLine
 10
20.9285132715
 20
-60.9107874334
 30
0.0
 11
21.3310103296
 21
-60.00000743
 31
0.0
  0
LINE
  5
84
330
1F
100
AcDbEntity
  8
1
100
AcDbLine
 10
21.3310103296
 20
-60.00000743
 30
0.0
 11
46.9999574253
 21
-60.0000061095
 31
0.0
  0
LINE
  5
85
330
1F
100
AcDbEntity
  8
1
100
AcDbLine
 10
46.9999574253
 20
-78.5000100732
 30
0.0
 11
46.9999574253
 21
-41.1302261054
 31
0.0
  0
LINE
  5
86
330
1F
100
AcDbEntity
  8
1
100
AcDbLine
 10
9.9999496248
 20
-78.5000100732
 30
0.0
 11
46.9999574253
 21
-78.5000100732
 31
0.0
  0
LINE
  5
87
330
1F
100
AcDbEntity
  8
1
100
AcDbLine
 10
9.9999496248
 20
-78.5000100732
 30
0.0
 11
9.9999496248
 21
-61.3010451197
 31
0.0
  0
LINE
  5
88
330
1F
100
AcDbEntity
  8
1
100
AcDbLine
 10
9.1999509838
 20
-60.0444003939
 30
0.0
 11
9.3893819955
 21
-60.0797683
 31
0.0
  0
LINE
  5
89
330
1F
100
AcDbEntity
  8
1
100
AcDbLine
 10
9.3893819955
 20
-60.0797683
 30
0.0
 11
9.5529967454
 21
-60.1721517741
 31
0.0
  0
LINE
  5
8A
330
1F
100
AcDbEntity
  8
1
100
AcDbLine
 10
9.5529967454
 20
-60.1721517741
 30
0.0
 11
9.7462722567
 21
-60.3803992271
 31
0.0
  0
LINE
  5
8B
330
1F
100
AcDbEntity
  8
1
100
AcDbLine
 10
9.7462722567
 20
-60.3803992271
 30
0.0
 11
9.9318736699
 21
-60.7905127108
 31
0.0
  0
LINE
  5
8C
330
1F
100
AcDbEntity
  8
1
100
AcDbLine
 10
9.9318736699
 20
-60.7905127108
 30
0.0
 11
9.9999496248
 21
-61.3010451197
 31
0.0
  0
LINE
  5
8D
330
1F
100
AcDbEntity
  8
1
100
AcDbLine
 10
9.1999509838
 20
-60.0444003939
 30
0.0
 11
0.0476874539
 21
-60.0444003939
 31
0.0
  0
LINE
  5
8E
330
1F
100
AcDbEntity
  8
1
100
AcDbLine
 10
0.0476874539
 20
-60.0444003939
 30
0.0
 11
0.0480301806
 21
-60.0000061095
 31
0.0
  0
LINE
  5
8F
330
1F
100
AcDbEntity
  8
1
100
AcDbLine
 10
0.0480301806
 20
-60.0000061095
 30
0.0
 11
13.1688940781
 21
-60.00000743
 31
0.0
  0
LINE
  5
90
330
1F
100
AcDbEntity
  8
1
100
AcDbLine
 10
17.2499530145
 20
-77.5476396084
 30
0.0
 11
18.3171220252
 21
-77.5925591588
 31
0.0
  0
LINE
  5
91
330
1F
100
AcDbEntity
  8
1
100
AcDbLine
 10
18.3171220252
 20
-77.5925591588
 30
0.0
 11
19.2639865109
 21
-77.716179192
 31
0.0
  0
LINE
  5
92
330
1F
100
AcDbEntity
  8
1
100
AcDbLine
 10
19.2639865109
 20
-77.716179192
 30
0.0
 11
19.9862010905
 21
-77.8891444206
 31
0.0
  0
LINE
  5
93
330
1F
100
AcDbEntity
  8
1
100
AcDbLine
 10
19.9862010905
 20
-77.8891444206
 30
0.0
 11
20.4083062836
 21
-78.074760735
 31
0.0
  0
LINE
  5
94
330
1F
100
AcDbEntity
  8
1
100
AcDbLine
 10
20.4083062836
 20
-78.074760735
 30
0.0
 11
20.4849057027
 21
-78.2405734062
 31
0.0
  0
LINE
  5
95
330
1F
100
AcDbEntity
  8
1
100
AcDbLine
 10
20.4849057027
 20
-78.2405734062
 30
0.0
 11
20.1940424868
 21
-78.3653259277
 31
0.0
  0
LINE
  5
96
330
1F
100
AcDbEntity
  8
1
100
AcDbLine
 10
20.1940424868
 20
-78.3653259277
 30
0.0
 11
19.5444487163
 21
-78.4415155649
 31
0.0
  0
LINE
  5
97
330
1F
100
AcDbEntity
  8
1
100
AcDbLine
 10
19.5444487163
 20
-78.4415155649
 30
0.0
 11
19.1081799695
 21
-78.4630551934
 31
0.0
  0
LINE
  5
98
330
1F
100
AcDbEntity
  8
1
100
AcDbLine
 10
19.1081799695
 20
-78.4630551934
 30
0.0
 11
18.6115168163
 21
-78.4765481949
 31
0.0
  0
LINE
  5
99
330
1F
100
AcDbEntity
  8
1
100
AcDbLine
 10
18.6115168163
 20
-78.4765481949
 30
0.0
 11
17.5491534301
 21
-78.48700881
 31
0.0
  0
LINE
  5
9A
330
1F
100
AcDbEntity
  8
1
100
AcDbLine
 10
17.5491534301
 20
-78.48700881
 30
0.0
 11
16.5079049894
 21
-78.4846544266
 31
0.0
  0
LINE
  5
9B
330
1F
100
AcDbEntity
  8
1
100
AcDbLine
 10
16.5079049894
 20
-78.4846544266
 30
0.0
 11
15.5665688345
 21
-78.4688219428
 31
0.0
  0
LINE
  5
9C
330
1F
100
AcDbEntity
  8
1
100
AcDbLine
 10
15.5665688345
 20
-78.4688219428
 30
0.0
 11
14.7775150963
 21
-78.4282013774
 31
0.0
  0
LINE
  5
9D
330
1F
100
AcDbEntity
  8
1
100
AcDbLine
 10
14.7775150963
 20
-78.4282013774
 30
0.0
 11
14.2219253012
 21
-78.3452913165
 31
0.0
  0
LINE
  5
9E
330
1F
100
AcDbEntity
  8
1
100
AcDbLine
 10
14.2219253012
 20
-78.3452913165
 30
0.0
 11
14.0008814761
 21
-78.2078579068
 31
0.0
  0
LINE
  5
9F
330
1F
100
AcDbEntity
  8
1
100
AcDbLine
 10
14.0008814761
 20
-78.2078579068
 30
0.0
 11
14.1726695129
 21
-78.0255571007
 31
0.0
  0
LINE
  5
A0
330
1F
100
AcDbEntity
  8
1
100
AcDbLine
 10
14.1726695129
 20
-78.0255571007
 30
0.0
 11
14.7105269262
 21
-77.8318792581
 31
0.0
  0
LINE
  5
A1
330
1F
100
AcDbEntity
  8
1
100
AcDbLine
 10
14.7105269262
 20
-77.8318792581
 30
0.0
 11
15.5321695038
 21
-77.6676237583
 31
0.0
  0
LINE
  5
A2
330
1F
100
AcDbEntity
  8
1
100
AcDbLine
 10
15.5321695038
 20
-77.6676237583
 30
0.0
 11
16.5384821722
 21
-77.5674208998
 31
0.0
  0
LINE
  5
A3
330
1F
100
AcDbEntity
  8
1
100
AcDbLine
 10
16.5384821722
 20
-77.5674208998
 30
0.0
 11
17.2499530145
 21
-77.5476396084
 31
0.0
  0
LINE
  5
A4
330
1F
100
AcDbEntity
  8
1
100
AcDbLine
 10
0.0480301806
 20
-16.0500071943
 30
0.0
 11
0.0480301806
 21
-16.950007528
 31
0.0
  0
LINE
  5
A5
330
1F
100
AcDbEntity
  8
1
100
AcDbLine
 10
0.0479258725
 20
-16.950007528
 30
0.0
 11
0.0480301806
 21
-16.950007528
 31
0.0
  0
LINE
  5
A6
330
1F
100
AcDbEntity
  8
1
100
AcDbLine
 10
0.0479258725
 20
-16.950007528
 30
0.0
 11
0.0479258725
 21
-17.0500073582
 31
0.0
  0
LINE
  5
A7
330
1F
100
AcDbEntity
  8
1
100
AcDbLine
 10
0.0479258725
 20
-17.0500073582
 30
0.0
 11
0.0480301806
 21
-17.0500073582
 31
0.0
  0
LINE
  5
A8
330
1F
100
AcDbEntity
  8
1
100
AcDbLine
 10
0.0480301806
 20
-17.0500073582
 30
0.0
 11
0.0480301806
 21
-17.950007692
 31
0.0
  0
LINE
  5
A9
330
1F
100
AcDbEntity
  8
1
100
AcDbLine
 10
0.0479258725
 20
-17.950007692
 30
0.0
 11
0.0480301806
 21
-17.950007692
 31
0.0
  0
LINE
  5
AA
330
1F
100
AcDbEntity
  8
1
100
AcDbLine
 10
0.0479258725
 20
-17.950007692
 30
0.0
 11
0.0479258725
 21
-18.0500075221
 31
0.0
  0
LINE
  5
AB
330
1F
100
AcDbEntity
  8
1
100
AcDbLine
 10
0.0479258725
 20
-18.0500075221
 30
0.0
 11
0.0480301806
 21
-18.0500075221
 31
0.0
  0
LINE
  5
AC
330
1F
100
AcDbEntity
  8
1
100
AcDbLine
 10
0.0480301806
 20
-18.0500075221
 30
0.0
 11
0.0480301806
 21
-18.9500078559
 31
0.0
  0
LINE
  5
AD
330
1F
100
AcDbEntity
  8
1
100
AcDbLine
 10
0.0479258725
 20
-18.9500078559
 30
0.0
 11
0.0480301806
 21
-18.9500078559
 31
0.0
  0
LINE
  5
AE
330
1F
100
AcDbEntity
  8
1
100
AcDbLine
 10
0.0479258725
 20
-18.9500078559
 30
0.0
 11
0.0479258725
 21
-19.050007686
 31
0.0
  0
LINE
  5
AF
330
1F
100
AcDbEntity
  8
1
100
AcDbLine
 10
0.0479258725
 20
-19.050007686
 30
0.0
 11
0.0480301806
 21
-19.050007686
 31
0.0
  0
LINE
  5
B0
330
1F
100
AcDbEntity
  8
1
100
AcDbLine
 10
0.0480301806
 20
-19.050007686
 30
0.0
 11
0.0480301806
 21
-19.9500080198
 31
0.0
  0
LINE
  5
B1
330
1F
100
AcDbEntity
  8
1
100
AcDbLine
 10
0.0479258725
 20
-19.9500080198
 30
0.0
 11
0.0480301806
 21
-19.9500080198
 31
0.0
  0
LINE
  5
B2
330
1F
100
AcDbEntity
  8
1
100
AcDbLine
 10
0.0479258725
 20
-19.9500080198
 30
0.0
 11
0.0479258725
 21
-20.0500078499
 31
0.0
  0
LINE
  5
B3
330
1F
100
AcDbEntity
  8
1
100
AcDbLine
 10
0.0479258725
 20
-20.0500078499
 30
0.0
 11
0.0480301806
 21
-20.0500078499
 31
0.0
  0
LINE
  5
B4
330
1F
100
AcDbEntity
  8
1
100
AcDbLine
 10
0.0480301806
 20
-20.0500078499
 30
0.0
 11
0.0480301806
 21
-20.9500081837
 31
0.0
  0
LINE
  5
B5
330
1F
100
AcDbEntity
  8
1
100
AcDbLine
 10
0.0479258725
 20
-20.9500081837
 30
0.0
 11
0.0480301806
 21
-20.9500081837
 31
0.0
  0
LINE
  5
B6
330
1F
100
AcDbEntity
  8
1
100
AcDbLine
 10
0.0479258725
 20
-20.9500081837
 30
0.0
 11
0.0479258725
 21
-21.0500080138
 31
0.0
  0
LINE
  5
B7
330
1F
100
AcDbEntity
  8
1
100
AcDbLine
 10
0.0479258725
 20
-21.0500080138
 30
0.0
 11
0.0480301806
 21
-21.0500080138
 31
0.0
  0
LINE
  5
B8
330
1F
100
AcDbEntity
  8
1
100
AcDbLine
 10
0.0480301806
 20
-21.0500080138
 30
0.0
 11
0.0480301806
 21
-21.9500083476
 31
0.0
  0
LINE
  5
B9
330
1F
100
AcDbEntity
  8
1
100
AcDbLine
 10
0.0479258725
 20
-21.9500083476
 30
0.0
 11
0.0480301806
 21
-21.9500083476
 31
0.0
  0
LINE
  5
BA
330
1F
100
AcDbEntity
  8
1
100
AcDbLine
 10
0.0479258725
 20
-21.9500083476
 30
0.0
 11
0.0479258725
 21
-22.0500081777
 31
0.0
  0
LINE
  5
BB
330
1F
100
AcDbEntity
  8
1
100
AcDbLine
 10
0.0479258725
 20
-22.0500081777
 30
0.0
 11
0.0480301806
 21
-22.0500081777
 31
0.0
  0
LINE
  5
BC
330
1F
100
AcDbEntity
  8
1
100
AcDbLine
 10
0.0480301806
 20
-22.0500081777
 30
0.0
 11
0.0480301806
 21
-22.9500066489
 31
0.0
  0
LINE
  5
BD
330
1F
100
AcDbEntity
  8
1
100
AcDbLine
 10
0.0479258725
 20
-22.9500066489
 30
0.0
 11
0.0480301806
 21
-22.9500066489
 31
0.0
  0
LINE
  5
BE
330
1F
100
AcDbEntity
  8
1
100
AcDbLine
 10
0.0479258725
 20
-22.9500066489
 30
0.0
 11
0.0479258725
 21
-23.0500083416
 31
0.0
  0
LINE
  5
BF
330
1F
100
AcDbEntity
  8
1
100
AcDbLine
 10
0.0479258725
 20
-23.0500083416
 30
0.0
 11
0.0480301806
 21
-23.0500083416
 31
0.0
  0
LINE
  5
C0
330
1F
100
AcDbEntity
  8
1
100
AcDbLine
 10
0.0480301806
 20
-23.0500083416
 30
0.0
 11
0.0480301806
 21
-23.9500068128
 31
0.0
  0
LINE
  5
C1
330
1F
100
AcDbEntity
  8
1
100
AcDbLine
 10
0.0479258725
 20
-23.9500068128
 30
0.0
 11
0.0480301806
 21
-23.9500068128
 31
0.0
  0
LINE
  5
C2
330
1F
100
AcDbEntity
  8
1
100
AcDbLine
 10
0.0479258725
 20
-23.9500068128
 30
0.0
 11
0.0479258725
 21
-24.0500066429
 31
0.0
  0
LINE
  5
C3
330
1F
100
AcDbEntity
  8
1
100
AcDbLine
 10
0.0479258725
 20
-24.0500066429
 30
0.0
 11
0.0480301806
 21
-24.0500066429
 31
0.0
  0
LINE
  5
C4
330
1F
100
AcDbEntity
  8
1
100
AcDbLine
 10
0.0480301806
 20
-24.0500066429
 30
0.0
 11
0.0480301806
 21
-24.9500069767
 31
0.0
  0
LINE
  5
C5
330
1F
100
AcDbEntity
  8
1
100
AcDbLine
 10
0.0479258725
 20
-24.9500069767
 30
0.0
 11
0.0480301806
 21
-24.9500069767
 31
0.0
  0
LINE
  5
C6
330
1F
100
AcDbEntity
  8
1
100
AcDbLine
 10
0.0479258725
 20
-24.9500069767
 30
0.0
 11
0.0479258725
 21
-25.0500068068
 31
0.0
  0
LINE
  5
C7
330
1F
100
AcDbEntity
  8
1
100
AcDbLine
 10
0.0479258725
 20
-25.0500068068
 30
0.0
 11
0.0480301806
 21
-25.0500068068
 31
0.0
  0
LINE
  5
C8
330
1F
100
AcDbEntity
  8
1
100
AcDbLine
 10
0.0480301806
 20
-25.0500068068
 30
0.0
 11
0.0480301806
 21
-25.9500071406
 31
0.0
  0
LINE
  5
C9
330
1F
100
AcDbEntity
  8
1
100
AcDbLine
 10
0.0479258725
 20
-25.9500071406
 30
0.0
 11
0.0480301806
 21
-25.9500071406
 31
0.0
  0
LINE
  5
CA
330
1F
100
AcDbEntity
  8
1
100
AcDbLine
 10
0.0479258725
 20
-25.9500071406
 30
0.0
 11
0.0479258725
 21
-26.0500069707
 31
0.0
  0
LINE
  5
CB
330
1F
100
AcDbEntity
  8
1
100
AcDbLine
 10
0.0479258725
 20
-26.0500069707
 30
0.0
 11
0.0480301806
 21
-26.0500069707
 31
0.0
  0
LINE
  5
CC
330
1F
100
AcDbEntity
  8
1
100
AcDbLine
 10
0.0480301806
 20
-26.0500069707
 30
0.0
 11
0.0480301806
 21
-26.9500073045
 31
0.0
  0
LINE
  5
CD
330
1F
100
AcDbEntity
  8
1
100
AcDbLine
 10
0.0479258725
 20
-26.9500073045
 30
0.0
 11
0.0480301806
 21
-26.9500073045
 31
0.0
  0
LINE
  5
CE
330
1F
100
AcDbEntity
  8
1
100
AcDbLine
 10
0.0479258725
 20
-26.9500073045
 30
0.0
 11
0.0479258725
 21
-27.0500071347
 31
0.0
  0
LINE
  5
CF
330
1F
100
AcDbEntity
  8
1
100
AcDbLine
 10
0.0479258725
 20
-27.0500071347
 30
0.0
 11
0.0480301806
 21
-27.0500071347
 31
0.0
  0
LINE
  5
D0
330
1F
100
AcDbEntity
  8
1
100
AcDbLine
 10
0.0480301806
 20
-27.0500071347
 30
0.0
 11
0.0480301806
 21
-27.9500074684
 31
0.0
  0
LINE
  5
D1
330
1F
100
AcDbEntity
  8
1
100
AcDbLine
 10
0.0479258725
 20
-27.9500074684
 30
0.0
 11
0.0480301806
 21
-27.9500074684
 31
0.0
  0
LINE
  5
D2
330
1F
100
AcDbEntity
  8
1
100
AcDbLine
 10
0.0479258725
 20
-27.9500074684
 30
0.0
 11
0.0479258725
 21
-28.0500072986
 31
0.0
  0
LINE
  5
D3
330
1F
100
AcDbEntity
  8
1
100
AcDbLine
 10
0.0479258725
 20
-28.0500072986
 30
0.0
 11
0.0480301806
 21
-28.0500072986
 31
0.0
  0
LINE
  5
D4
330
1F
100
AcDbEntity
  8
1
100
AcDbLine
 10
0.0480301806
 20
-28.0500072986
 30
0.0
 11
0.0480301806
 21
-28.9500076324
 31
0.0
  0
LINE
  5
D5
330
1F
100
AcDbEntity
  8
1
100
AcDbLine
 10
0.0479258725
 20
-28.9500076324
 30
0.0
 11
0.0480301806
 21
-28.9500076324
 31
0.0
  0
LINE
  5
D6
330
1F
100
AcDbEntity
  8
1
100
AcDbLine
 10
0.0479258725
 20
-28.9500076324
 30
0.0
 11
0.0479258725
 21
-29.0500074625
 31
0.0
  0
LINE
  5
D7
330
1F
100
AcDbEntity
  8
1
100
AcDbLine
 10
0.0479258725
 20
-29.0500074625
 30
0.0
 11
0.0480301806
 21
-29.0500074625
 31
0.0
  0
LINE
  5
D8
330
1F
100
AcDbEntity
  8
1
100
AcDbLine
 10
0.0480301806
 20
-29.0500074625
 30
0.0
 11
0.0480301806
 21
-29.9500077963
 31
0.0
  0
LINE
  5
D9
330
1F
100
AcDbEntity
  8
1
100
AcDbLine
 10
0.0479258725
 20
-29.9500077963
 30
0.0
 11
0.0480301806
 21
-29.9500077963
 31
0.0
  0
LINE
  5
DA
330
1F
100
AcDbEntity
  8
1
100
AcDbLine
 10
0.0479258725
 20
-29.9500077963
 30
0.0
 11
0.0479258725
 21
-30.0500076264
 31
0.0
  0
LINE
  5
DB
330
1F
100
AcDbEntity
  8
1
100
AcDbLine
 10
0.0479258725
 20
-30.0500076264
 30
0.0
 11
0.0480301806
 21
-30.0500076264
 31
0.0
  0
LINE
  5
DC
330
1F
100
AcDbEntity
  8
1
100
AcDbLine
 10
0.0480301806
 20
-30.0500076264
 30
0.0
 11
0.0480301806
 21
-60.0000061095
 31
0.0
  0
LINE
  5
DD
330
1F
100
AcDbEntity
  8
1
100
AcDbLine
 10
0.0480318256
 20
28.6356356069
 30
0.0
 11
0.0480318256
 21
-15.9500073641
 31
0.0
  0
LINE
  5
DE
330
1F
100
AcDbEntity
  8
1
100
AcDbLine
 10
0.0479258725
 20
-15.9500073641
 30
0.0
 11
0.0480318256
 21
-15.9500073641
 31
0.0
  0
LINE
  5
DF
330
1F
100
AcDbEntity
  8
1
100
AcDbLine
 10
0.0479258725
 20
-15.9500073641
 30
0.0
 11
0.0479258725
 21
-16.0500071943
 31
0.0
  0
LINE
  5
E0
330
1F
100
AcDbEntity
  8
1
100
AcDbLine
 10
0.0479258725
 20
-16.0500071943
 30
0.0
 11
0.0480301806
 21
-16.0500071943
 31
0.0
  0
LINE
  5
E1
330
1F
100
AcDbEntity
  8
1
100
AcDbLine
 10
-3.450047212
 20
32.7440649271
 30
0.0
 11
-3.450047212
 21
32.1539975703
 31
0.0
  0
LINE
  5
E2
330
1F
100
AcDbEntity
  8
1
100
AcDbLine
 10
-3.450047212
 20
37.4999940396
 30
0.0
 11
-3.4500477961
 21
36.7310314635
 31
0.0
  0
LINE
  5
E3
330
1F
100
AcDbEntity
  8
1
100
AcDbLine
 10
16.6499503085
 20
37.4999940396
 30
0.0
 11
-3.450047212
 21
37.4999940396
 31
0.0
  0
LINE
  5
E4
330
1F
100
AcDbEntity
  8
1
100
AcDbLine
 10
17.1499513218
 20
36.9999930263
 30
0.0
 11
16.6499503085
 21
37.4999940396
 31
0.0
  0
LINE
  5
E6
330
1F
100
AcDbEntity
  8
1
100
AcDbLine
 10
17.1499513218
 20
28.6356356069
 30
0.0
 11
0.0480318256
 21
28.6356356069
 31
0.0
  0
LINE
  5
E7
330
1F
100
AcDbEntity
  8
1
100
AcDbLine
 10
-3.450047212
 20
31.9387763739
 30
0.0
 11
-3.4500477961
 21
31.3188160266
 31
0.0
  0
LINE
  5
E8
330
1F
100
AcDbEntity
  8
SK4
100
AcDbLine
 10
-5.2404816828
 20
0.0
 30
0.0
 11
30.8122799527
 21
0.0
 31
0.0
  0
LINE
  5
E9
330
1F
100
AcDbEntity
  8
1
100
AcDbLine
 10
17.1499513218
 20
3.0764880199
 30
0.0
 11
17.1499513218
 21
36.9999930263
 31
0.0
  0
LINE
  5
EA
330
1F
100
AcDbEntity
  8
1
100
AcDbLine
 10
18.0541919824
 20
0.2086043326
 30
0.0
 11
46.9999574253
 21
-41.1302261054
 31
0.0
  0
LINE
  5
EC
330
1F
100
AcDbEntity
  8
1
100
AcDbLine
 10
-0.2019737521
 20
-67.5294380271
 30
0.0
 11
-0.188883082
 21
-67.5315688932
 31
0.0
  0
LINE
  5
ED
330
1F
100
AcDbEntity
  8
1
100
AcDbLine
 10
-0.188883082
 20
-67.5315688932
 30
0.0
 11
-0.0667233626
 21
-67.5605293
 31
0.0
  0
LINE
  5
EE
330
1F
100
AcDbEntity
  8
1
100
AcDbLine
 10
-0.0667233626
 20
-67.5605293
 30
0.0
 11
0.016156896
 21
-67.5991531098
 31
0.0
  0
LINE
  5
EF
330
1F
100
AcDbEntity
  8
1
100
AcDbLine
 10
0.016156896
 20
-67.5991531098
 30
0.0
 11
0.0479485234
 21
-67.6437522852
 31
0.0
  0
LINE
  5
F0
330
1F
100
AcDbEntity
  8
1
100
AcDbLine
 10
0.0479485234
 20
-67.6437522852
 30
0.0
 11
0.020984573
 21
-67.6890984177
 31
0.0
  0
LINE
  5
F1
330
1F
100
AcDbEntity
  8
1
100
AcDbLine
 10
0.020984573
 20
-67.6890984177
 30
0.0
 11
-0.0636167696
 21
-67.7291601896
 31
0.0
  0
LINE
  5
F2
330
1F
100
AcDbEntity
  8
1
100
AcDbLine
 10
-0.0636167696
 20
-67.7291601896
 30
0.0
 11
-0.194039183
 21
-67.7586719393
 31
0.0
  0
LINE
  5
F3
330
1F
100
AcDbEntity
  8
1
100
AcDbLine
 10
-0.194039183
 20
-67.7586719393
 30
0.0
 11
-0.2019715848
 21
-67.7598846246
 31
0.0
  0
LINE
  5
F4
330
1F
100
AcDbEntity
  8
1
100
AcDbLine
 10
-3.450047212
 20
-66.5542706847
 30
0.0
 11
-3.4500477961
 21
-66.9893598834
 31
0.0
  0
LINE
  5
F5
330
1F
100
AcDbEntity
  8
1
100
AcDbLine
 10
-0.2019742472
 20
-65.5974754859
 30
0.0
 11
-0.1934060795
 21
-65.5993604828
 31
0.0
  0
LINE
  5
F6
330
1F
100
AcDbEntity
  8
1
100
AcDbLine
 10
-0.1934060795
 20
-65.5993604828
 30
0.0
 11
-0.0730941041
 21
-65.6371349264
 31
0.0
  0
LINE
  5
F7
330
1F
100
AcDbEntity
  8
1
100
AcDbLine
 10
-0.0730941041
 20
-65.6371349264
 30
0.0
 11
0.0117531078
 21
-65.6885960866
 31
0.0
  0
LINE
  5
F8
330
1F
100
AcDbEntity
  8
1
100
AcDbLine
 10
0.0117531078
 20
-65.6885960866
 30
0.0
 11
0.0476276534
 21
-65.7498100568
 31
0.0
  0
LINE
  5
F9
330
1F
100
AcDbEntity
  8
1
100
AcDbLine
 10
0.0476276534
 20
-65.7498100568
 30
0.0
 11
0.023138116
 21
-65.81378901
 31
0.0
  0
LINE
  5
FA
330
1F
100
AcDbEntity
  8
1
100
AcDbLine
 10
0.023138116
 20
-65.81378901
 30
0.0
 11
-0.0630725521
 21
-65.8709871172
 31
0.0
  0
LINE
  5
FB
330
1F
100
AcDbEntity
  8
1
100
AcDbLine
 10
-0.0630725521
 20
-65.8709871172
 30
0.0
 11
-0.1973320144
 21
-65.9125986099
 31
0.0
  0
LINE
  5
FC
330
1F
100
AcDbEntity
  8
1
100
AcDbLine
 10
-0.1973320144
 20
-65.9125986099
 30
0.0
 11
-0.2019712595
 21
-65.9135670191
 31
0.0
  0
LINE
  5
FD
330
1F
100
AcDbEntity
  8
1
100
AcDbLine
 10
-3.450047212
 20
-64.2897337675
 30
0.0
 11
-3.4500477962
 21
-64.8681340994
 31
0.0
  0
LINE
  5
FE
330
1F
100
AcDbEntity
  8
1
100
AcDbLine
 10
-0.201974182
 20
-63.0383421698
 30
0.0
 11
-0.1984798597
 21
-63.0393256464
 31
0.0
  0
LINE
  5
FF
330
1F
100
AcDbEntity
  8
1
100
AcDbLine
 10
-0.1984798597
 20
-63.0393256464
 30
0.0
 11
-0.0809245991
 21
-63.0854968944
 31
0.0
  0
LINE
  5
100
330
1F
100
AcDbEntity
  8
1
100
AcDbLine
 10
-0.0809245991
 20
-63.0854968944
 30
0.0
 11
0.0059566213
 21
-63.1499444166
 31
0.0
  0
LINE
  5
101
330
1F
100
AcDbEntity
  8
1
100
AcDbLine
 10
0.0059566213
 20
-63.1499444166
 30
0.0
 11
0.0468752099
 21
-63.2294644633
 31
0.0
  0
LINE
  5
102
330
1F
100
AcDbEntity
  8
1
100
AcDbLine
 10
0.0468752099
 20
-63.2294644633
 30
0.0
 11
0.025640663
 21
-63.3155235484
 31
0.0
  0
LINE
  5
103
330
1F
100
AcDbEntity
  8
1
100
AcDbLine
 10
0.025640663
 20
-63.3155235484
 30
0.0
 11
-0.0632447635
 21
-63.3937695458
 31
0.0
  0
LINE
  5
104
330
1F
100
AcDbEntity
  8
1
100
AcDbLine
 10
-0.0632447635
 20
-63.3937695458
 30
0.0
 11
-0.2019721077
 21
-63.4491445041
 31
0.0
  0
LINE
  5
105
330
1F
100
AcDbEntity
  8
1
100
AcDbLine
 10
-3.450047212
 20
-61.3585337996
 30
0.0
 11
-3.4500477962
 21
-62.0981102437
 31
0.0
  0
LINE
  5
106
330
1F
100
AcDbEntity
  8
1
100
AcDbLine
 10
0.0062847045
 20
-69.9997323488
 30
0.0
 11
9.1999509838
 21
-69.9997323488
 31
0.0
  0
LINE
  5
107
330
1F
100
AcDbEntity
  8
1
100
AcDbLine
 10
-3.4500470797
 20
-69.9025976497
 30
0.0
 11
-3.4500476637
 21
-69.9619447186
 31
0.0
  0
LINE
  5
108
330
1F
100
AcDbEntity
  8
1
100
AcDbLine
 10
-0.2019739258
 20
-69.7037861352
 30
0.0
 11
-0.0726765501
 21
-69.7135985499
 31
0.0
  0
LINE
  5
109
330
1F
100
AcDbEntity
  8
1
100
AcDbLine
 10
-0.0726765501
 20
-69.7135985499
 30
0.0
 11
0.013727833
 21
-69.7265029555
 31
0.0
  0
LINE
  5
10A
330
1F
100
AcDbEntity
  8
1
100
AcDbLine
 10
0.013727833
 20
-69.7265029555
 30
0.0
 11
0.0477248323
 21
-69.7408974772
 31
0.0
  0
LINE
  5
10B
330
1F
100
AcDbEntity
  8
1
100
AcDbLine
 10
0.0477248323
 20
-69.7408974772
 30
0.0
 11
0.0251272213
 21
-69.7551057344
 31
0.0
  0
LINE
  5
10C
330
1F
100
AcDbEntity
  8
1
100
AcDbLine
 10
0.0251272213
 20
-69.7551057344
 30
0.0
 11
-0.0517106163
 21
-69.7675258522
 31
0.0
  0
LINE
  5
10D
330
1F
100
AcDbEntity
  8
1
100
AcDbLine
 10
-0.0517106163
 20
-69.7675258522
 30
0.0
 11
-0.173885237
 21
-69.7768986826
 31
0.0
  0
LINE
  5
10E
330
1F
100
AcDbEntity
  8
1
100
AcDbLine
 10
-0.173885237
 20
-69.7768986826
 30
0.0
 11
-0.2019714592
 21
-69.7782955489
 31
0.0
  0
LINE
  5
10F
330
1F
100
AcDbEntity
  8
1
100
AcDbLine
 10
-3.4500469329
 20
-69.3258376509
 30
0.0
 11
-3.4500475169
 21
-69.5052068573
 31
0.0
  0
LINE
  5
110
330
1F
100
AcDbEntity
  8
1
100
AcDbLine
 10
-0.2019740368
 20
-68.8870175271
 30
0.0
 11
-0.1853741433
 21
-68.8888280182
 31
0.0
  0
LINE
  5
111
330
1F
100
AcDbEntity
  8
1
100
AcDbLine
 10
-0.1853741433
 20
-68.8888280182
 30
0.0
 11
-0.0620521332
 21
-68.9085720567
 31
0.0
  0
LINE
  5
112
330
1F
100
AcDbEntity
  8
1
100
AcDbLine
 10
-0.0620521332
 20
-68.9085720567
 30
0.0
 11
0.0192038988
 21
-68.9344404726
 31
0.0
  0
LINE
  5
113
330
1F
100
AcDbEntity
  8
1
100
AcDbLine
 10
0.0192038988
 20
-68.9344404726
 30
0.0
 11
0.0480301951
 21
-68.9635871439
 31
0.0
  0
LINE
  5
114
330
1F
100
AcDbEntity
  8
1
100
AcDbLine
 10
0.0480301951
 20
-68.9635871439
 30
0.0
 11
0.019360361
 21
-68.9925922541
 31
0.0
  0
LINE
  5
115
330
1F
100
AcDbEntity
  8
1
100
AcDbLine
 10
0.019360361
 20
-68.9925922541
 30
0.0
 11
-0.0642724062
 21
-69.0179614811
 31
0.0
  0
LINE
  5
116
330
1F
100
AcDbEntity
  8
1
100
AcDbLine
 10
-0.0642724062
 20
-69.0179614811
 30
0.0
 11
-0.1924149419
 21
-69.0367667465
 31
0.0
  0
LINE
  5
117
330
1F
100
AcDbEntity
  8
1
100
AcDbLine
 10
-0.1924149419
 20
-69.0367667465
 30
0.0
 11
-0.2019715702
 21
-69.0377129659
 31
0.0
  0
LINE
  5
118
330
1F
100
AcDbEntity
  8
1
100
AcDbLine
 10
-3.4500477962
 20
-68.2185551225
 30
0.0
 11
-3.4500477962
 21
-68.5220683058
 31
0.0
  0
LINE
  5
119
330
1F
100
AcDbEntity
  8
1
100
AcDbLine
 10
-3.450047212
 20
-61.3585337996
 30
0.0
 11
-3.5000480584
 21
-61.3173432648
 31
0.0
  0
LINE
  5
11A
330
1F
100
AcDbEntity
  8
1
100
AcDbLine
 10
-3.5000480584
 20
31.2764309347
 30
0.0
 11
-3.4500477961
 21
31.3188160266
 31
0.0
  0
LINE
  5
11B
330
1F
100
AcDbEntity
  8
1
100
AcDbLine
 10
-3.7500448397
 20
37.0384603739
 30
0.0
 11
-3.7500448397
 21
-61.51590868830001
 31
0.0
  0
LINE
  5
11C
330
1F
100
AcDbEntity
  8
1
100
AcDbLine
 10
-3.5000480584
 20
-61.3173432648
 30
0.0
 11
-3.5801641515
 21
-61.2575002014
 31
0.0
  0
LINE
  5
11D
330
1F
100
AcDbEntity
  8
1
100
AcDbLine
 10
-3.5801641515
 20
-61.2575002014
 30
0.0
 11
-3.6570690444
 21
-61.2164586782
 31
0.0
  0
LINE
  5
11E
330
1F
100
AcDbEntity
  8
1
100
AcDbLine
 10
-3.6570690444
 20
-61.2164586782
 30
0.0
 11
-3.7154219917
 21
-61.2087659538
 31
0.0
  0
LINE
  5
11F
330
1F
100
AcDbEntity
  8
1
100
AcDbLine
 10
-3.7154219917
 20
-61.2087659538
 30
0.0
 11
-3.7431232503
 21
-61.2316578626
 31
0.0
  0
LINE
  5
120
330
1F
100
AcDbEntity
  8
1
100
AcDbLine
 10
-3.7431232503
 20
-61.2316578626
 30
0.0
 11
-3.7500448397
 21
-61.2688288092
 31
0.0
  0
LINE
  5
121
330
1F
100
AcDbEntity
  8
1
100
AcDbLine
 10
-3.5000480584
 20
-62.0267018676
 30
0.0
 11
-3.4500477962
 21
-62.0981102437
 31
0.0
  0
LINE
  5
122
330
1F
100
AcDbEntity
  8
1
100
AcDbLine
 10
-3.450047212
 20
31.9387763739
 30
0.0
 11
-3.4600458911
 21
31.931810081
 31
0.0
  0
LINE
  5
123
330
1F
100
AcDbEntity
  8
1
100
AcDbLine
 10
-3.7500448397
 20
31.3730463386
 30
0.0
 11
-3.7401653698
 21
31.2823727727
 31
0.0
  0
LINE
  5
124
330
1F
100
AcDbEntity
  8
1
100
AcDbLine
 10
-3.7401653698
 20
31.2823727727
 30
0.0
 11
-3.7133283785
 21
31.2264449895
 31
0.0
  0
LINE
  5
125
330
1F
100
AcDbEntity
  8
1
100
AcDbLine
 10
-3.7133283785
 20
31.2264449895
 30
0.0
 11
-3.6737806967
 21
31.2015078962
 31
0.0
  0
LINE
  5
126
330
1F
100
AcDbEntity
  8
1
100
AcDbLine
 10
-3.6737806967
 20
31.2015078962
 30
0.0
 11
-3.6187879613
 21
31.2045812607
 31
0.0
  0
LINE
  5
127
330
1F
100
AcDbEntity
  8
1
100
AcDbLine
 10
-3.6187879613
 20
31.2045812607
 30
0.0
 11
-3.5620517901
 21
31.2308687717
 31
0.0
  0
LINE
  5
128
330
1F
100
AcDbEntity
  8
1
100
AcDbLine
 10
-3.5620517901
 20
31.2308687717
 30
0.0
 11
-3.5000480584
 21
31.2764309347
 31
0.0
  0
LINE
  5
12A
330
1F
100
AcDbEntity
  8
1
100
AcDbLine
 10
-3.450047212
 20
32.7440649271
 30
0.0
 11
-3.5000480584
 21
32.6452180744
 31
0.0
  0
LINE
  5
12B
330
1F
100
AcDbEntity
  8
1
100
AcDbLine
 10
-3.4600458911
 20
32.1470275522
 30
0.0
 11
-3.450047212
 21
32.1539975703
 31
0.0
  0
LINE
  5
12C
330
1F
100
AcDbEntity
  8
1
100
AcDbLine
 10
-3.4600458911
 20
32.1470275522
 30
0.0
 11
-3.4600458911
 21
31.931810081
 31
0.0
  0
LINE
  5
12E
330
1F
100
AcDbEntity
  8
1
100
AcDbLine
 10
-3.450047212
 20
-64.2897337675
 30
0.0
 11
-3.5000480584
 21
-64.2477273941
 31
0.0
  0
LINE
  5
12F
330
1F
100
AcDbEntity
  8
1
100
AcDbLine
 10
-3.5000480584
 20
36.6901792586
 30
0.0
 11
-3.4500477961
 21
36.7310314635
 31
0.0
  0
LINE
  5
131
330
1F
100
AcDbEntity
  8
1
100
AcDbLine
 10
-3.5000480584
 20
-64.2477273941
 30
0.0
 11
-3.5888589791
 21
-64.1791447997
 31
0.0
  0
LINE
  5
132
330
1F
100
AcDbEntity
  8
1
100
AcDbLine
 10
-3.5888589791
 20
-64.1791447997
 30
0.0
 11
-3.667291241
 21
-64.1333758831
 31
0.0
  0
LINE
  5
133
330
1F
100
AcDbEntity
  8
1
100
AcDbLine
 10
-3.667291241
 20
-64.1333758831
 30
0.0
 11
-3.7241242698
 21
-64.1214698553
 31
0.0
  0
LINE
  5
134
330
1F
100
AcDbEntity
  8
1
100
AcDbLine
 10
-3.7241242698
 20
-64.1214698553
 30
0.0
 11
-3.7474073342
 21
-64.1420185566
 31
0.0
  0
LINE
  5
135
330
1F
100
AcDbEntity
  8
1
100
AcDbLine
 10
-3.7474073342
 20
-64.1420185566
 30
0.0
 11
-3.7500448397
 21
-64.1609504819
 31
0.0
  0
LINE
  5
136
330
1F
100
AcDbEntity
  8
1
100
AcDbLine
 10
-3.5000480584
 20
-64.8024529218
 30
0.0
 11
-3.4500477962
 21
-64.8681340994
 31
0.0
  0
LINE
  5
137
330
1F
100
AcDbEntity
  8
1
100
AcDbLine
 10
-3.7500448397
 20
36.7018505931
 30
0.0
 11
-3.7442110351
 21
36.6524830461
 31
0.0
  0
LINE
  5
138
330
1F
100
AcDbEntity
  8
1
100
AcDbLine
 10
-3.7442110351
 20
36.6524830461
 30
0.0
 11
-3.716606634
 21
36.6095602513
 31
0.0
  0
LINE
  5
139
330
1F
100
AcDbEntity
  8
1
100
AcDbLine
 10
-3.716606634
 20
36.6095602513
 30
0.0
 11
-3.6731101445
 21
36.5989021957
 31
0.0
  0
LINE
  5
13A
330
1F
100
AcDbEntity
  8
1
100
AcDbLine
 10
-3.6731101445
 20
36.5989021957
 30
0.0
 11
-3.6142207554
 21
36.6153419018
 31
0.0
  0
LINE
  5
13B
330
1F
100
AcDbEntity
  8
1
100
AcDbLine
 10
-3.6142207554
 20
36.6153419018
 30
0.0
 11
-3.5287104419
 21
36.6677492857
 31
0.0
  0
LINE
  5
13C
330
1F
100
AcDbEntity
  8
1
100
AcDbLine
 10
-3.5287104419
 20
36.6677492857
 30
0.0
 11
-3.5000480584
 21
36.6901792586
 31
0.0
  0
LINE
  5
13E
330
1F
100
AcDbEntity
  8
1
100
AcDbLine
 10
-3.703761833
 20
37.2462794185
 30
0.0
 11
-3.7451423577
 21
37.0948947966
 31
0.0
  0
LINE
  5
13F
330
1F
100
AcDbEntity
  8
1
100
AcDbLine
 10
-3.7451423577
 20
37.0948947966
 30
0.0
 11
-3.7500448397
 21
37.0384603739
 31
0.0
  0
LINE
  5
140
330
1F
100
AcDbEntity
  8
1
100
AcDbLine
 10
-3.450047212
 20
37.4999940396
 30
0.0
 11
-3.703761833
 21
37.2462794185
 31
0.0
  0
LINE
  5
143
330
1F
100
AcDbEntity
  8
1
100
AcDbLine
 10
-3.450047212
 20
-66.5542706847
 30
0.0
 11
-3.5000480584
 21
-66.5110871196
 31
0.0
  0
LINE
  5
145
330
1F
100
AcDbEntity
  8
1
100
AcDbLine
 10
-3.5000480584
 20
-66.5110871196
 30
0.0
 11
-3.5971440247
 21
-66.4327666163
 31
0.0
  0
LINE
  5
146
330
1F
100
AcDbEntity
  8
1
100
AcDbLine
 10
-3.5971440247
 20
-66.4327666163
 30
0.0
 11
-3.676440554
 21
-66.3814395666
 31
0.0
  0
LINE
  5
147
330
1F
100
AcDbEntity
  8
1
100
AcDbLine
 10
-3.676440554
 20
-66.3814395666
 30
0.0
 11
-3.7311948708
 21
-66.3643032312
 31
0.0
  0
LINE
  5
148
330
1F
100
AcDbEntity
  8
1
100
AcDbLine
 10
-3.7311948708
 20
-66.3643032312
 30
0.0
 11
-3.7495829037
 21
-66.3817375898
 31
0.0
  0
LINE
  5
149
330
1F
100
AcDbEntity
  8
1
100
AcDbLine
 10
-3.7495829037
 20
-66.3817375898
 30
0.0
 11
-3.7500448397
 21
-66.3881450891
 31
0.0
  0
LINE
  5
14A
330
1F
100
AcDbEntity
  8
1
100
AcDbLine
 10
-3.5000480584
 20
-66.9283494353
 30
0.0
 11
-3.4500477961
 21
-66.9893598834
 31
0.0
  0
LINE
  5
14B
330
1F
100
AcDbEntity
  8
1
100
AcDbLine
 10
-3.7500448397
 20
-61.5159086883
 30
0.0
 11
-3.7500448397
 21
-66.3881450891
 31
0.0
  0
LINE
  5
14C
330
1F
100
AcDbEntity
  8
1
100
AcDbLine
 10
-3.4500477962
 20
-68.2185551225
 30
0.0
 11
-3.5000480584
 21
-68.1738853454
 31
0.0
  0
LINE
  5
14E
330
1F
100
AcDbEntity
  8
1
100
AcDbLine
 10
-3.5000480584
 20
-68.1738853454
 30
0.0
 11
-3.6051384977
 21
-68.084642291
 31
0.0
  0
LINE
  5
14F
330
1F
100
AcDbEntity
  8
1
100
AcDbLine
 10
-3.6051384977
 20
-68.084642291
 30
0.0
 11
-3.6847479514
 21
-68.0269375443
 31
0.0
  0
LINE
  5
150
330
1F
100
AcDbEntity
  8
1
100
AcDbLine
 10
-3.6847479514
 20
-68.0269375443
 30
0.0
 11
-3.7310458592
 21
-68.0045261979
 31
0.0
  0
LINE
  5
151
330
1F
100
AcDbEntity
  8
1
100
AcDbLine
 10
-3.7310458592
 20
-68.0045261979
 30
0.0
 11
-3.74979152
 21
-68.0124238133
 31
0.0
  0
LINE
  5
152
330
1F
100
AcDbEntity
  8
1
100
AcDbLine
 10
-3.74979152
 20
-68.0124238133
 30
0.0
 11
-3.7500448397
 21
-68.0157542228
 31
0.0
  0
LINE
  5
153
330
1F
100
AcDbEntity
  8
1
100
AcDbLine
 10
-3.5000480585
 20
-68.464949727
 30
0.0
 11
-3.4500477962
 21
-68.5220683058
 31
0.0
  0
LINE
  5
155
330
1F
100
AcDbEntity
  8
1
100
AcDbLine
 10
-3.4500469329
 20
-69.3258376509
 30
0.0
 11
-3.5000477793
 21
-69.2793832809
 31
0.0
  0
LINE
  5
157
330
1F
100
AcDbEntity
  8
1
100
AcDbLine
 10
-3.5000477793
 20
-69.4513948351
 30
0.0
 11
-3.4500475169
 21
-69.5052068573
 31
0.0
  0
LINE
  5
158
330
1F
100
AcDbEntity
  8
1
100
AcDbLine
 10
-3.7500448397
 20
-66.3881450891
 30
0.0
 11
-3.7500448397
 21
-69.1460445523
 31
0.0
  0
LINE
  5
159
330
1F
100
AcDbEntity
  8
1
100
AcDbLine
 10
-3.4500470797
 20
-69.9025976497
 30
0.0
 11
-3.5000479261
 21
-69.8540496665
 31
0.0
  0
LINE
  5
15A
330
1F
100
AcDbEntity
  8
1
100
AcDbLine
 10
-3.5000479261
 20
-69.9109572011
 30
0.0
 11
-3.4500476637
 21
-69.9619447186
 31
0.0
  0
LINE
  5
15B
330
1F
100
AcDbEntity
  8
1
100
AcDbLine
 10
-3.7500448397
 20
-69.1460445523
 30
0.0
 11
-3.7500448397
 21
-69.6449354291
 31
0.0
  0
LINE
  5
15D
330
1F
100
AcDbEntity
  8
CUT
100
AcDbLine
 10
47.7999560663
 20
-73.5292956233
 30
0.0
 11
59.6617870161
 21
-73.5292956233
 31
0.0
  0
LINE
  5
15E
330
1F
100
AcDbEntity
  8
CUT
100
AcDbLine
 10
47.799955698
 20
-71.2700483507
 30
0.0
 11
59.6669573507
 21
-71.2700483507
 31
0.0
  0
LINE
  5
15F
330
1F
100
AcDbEntity
  8
CUT
100
AcDbLine
 10
59.9999522039
 20
-73.804654181
 30
0.0
 11
59.9999541361
 21
-71.2046555667
 31
0.0
  0
LINE
  5
160
330
1F
100
AcDbEntity
  8
CUT
100
AcDbLine
 10
59.9512158862
 20
-73.9354950171
 30
0.0
 11
59.6617870161
 21
-73.5292956233
 31
0.0
  0
LINE
  5
161
330
1F
100
AcDbEntity
  8
CUT
100
AcDbLine
 10
59.6669573507
 20
-71.2700483507
 30
0.0
 11
59.9342235121
 21
-71.0564274401
 31
0.0
  0
LINE
  5
162
330
1F
100
AcDbEntity
  8
CUT
100
AcDbLine
 10
59.7290955612
 20
-73.9992186427
 30
0.0
 11
59.8375391675
 21
-74.0010905809
 31
0.0
  0
LINE
  5
163
330
1F
100
AcDbEntity
  8
CUT
100
AcDbLine
 10
58.9999519416
 20
-73.9354267716
 30
0.0
 11
59.7290955612
 21
-73.9992186427
 31
0.0
  0
LINE
  5
164
330
1F
100
AcDbEntity
  8
CUT
100
AcDbLine
 10
47.7999522039
 20
-73.935427317
 30
0.0
 11
58.9999519416
 21
-73.9354267716
 31
0.0
  0
LINE
  5
165
330
1F
100
AcDbEntity
  8
CUT
100
AcDbLine
 10
59.7746033392
 20
-71.0061040826
 30
0.0
 11
58.9999515733
 21
-71.0738820143
 31
0.0
  0
LINE
  5
166
330
1F
100
AcDbEntity
  8
CUT
100
AcDbLine
 10
59.8200071773
 20
-71.0056644983
 30
0.0
 11
59.7746033392
 21
-71.0061040826
 31
0.0
  0
LINE
  5
167
330
1F
100
AcDbEntity
  8
CUT
100
AcDbLine
 10
58.9999515733
 20
-71.0738820143
 30
0.0
 11
47.7999518356
 21
-71.0738809762
 31
0.0
  0
LINE
  5
168
330
1F
100
AcDbEntity
  8
CUT
100
AcDbLine
 10
47.7999543233
 20
73.9354280647
 30
0.0
 11
58.9999519416
 21
73.9354280647
 31
0.0
  0
LINE
  5
169
330
1F
100
AcDbEntity
  8
CUT
100
AcDbLine
 10
50.5071675137
 20
71.0738812437
 30
0.0
 11
47.7999560663
 21
71.0738822818
 31
0.0
  0
LINE
  5
16A
330
1F
100
AcDbEntity
  8
CUT
100
AcDbLine
 10
57.9999499151
 20
73.9354280647
 30
0.0
 11
57.9999499151
 21
71.0738822818
 31
0.0
  0
LINE
  5
16B
330
1F
100
AcDbEntity
  8
CUT
100
AcDbLine
 10
57.9999499151
 20
71.0738822818
 30
0.0
 11
50.5071675137
 21
71.0738812437
 31
0.0
  0
LINE
  5
16D
330
1F
100
AcDbEntity
  8
CUT
100
AcDbLine
 10
59.7746037075
 20
71.0061043501
 30
0.0
 11
58.9999519416
 21
71.0738822818
 31
0.0
  0
LINE
  5
16E
330
1F
100
AcDbEntity
  8
CUT
100
AcDbLine
 10
58.9999519416
 20
73.9354280647
 30
0.0
 11
59.7290955612
 21
73.9992199357
 31
0.0
  0
LINE
  5
16F
330
1F
100
AcDbEntity
  8
CUT
100
AcDbLine
 10
59.7290955612
 20
73.9992199357
 30
0.0
 11
59.8375462123
 21
74.0010900315
 31
0.0
  0
LINE
  5
170
330
1F
100
AcDbEntity
  8
CUT
100
AcDbLine
 10
59.8200075456
 20
71.0056647659
 30
0.0
 11
59.7746037075
 21
71.0061043501
 31
0.0
  0
LINE
  5
171
330
1F
100
AcDbEntity
  8
CUT
100
AcDbLine
 10
59.9999499179
 20
73.8046563476
 30
0.0
 11
59.9999516822
 21
71.2046569396
 31
0.0
  0
LINE
  5
177
330
1F
100
AcDbEntity
  8
CUT
100
AcDbLine
 10
58.9999519416
 20
71.0738822818
 30
0.0
 11
57.9999499151
 21
71.0738822818
 31
0.0
  0
LINE
  5
178
330
1F
100
AcDbEntity
  8
1
100
AcDbLine
 10
25.8659757802
 20
-74.0000084042
 30
0.0
 11
26.7320014664
 21
-72.5000053644
 31
0.0
  0
LINE
  5
179
330
1F
100
AcDbEntity
  8
1
100
AcDbLine
 10
25.8659757802
 20
-71.0000097751
 30
0.0
 11
24.1339244076
 21
-71.0000097751
 31
0.0
  0
LINE
  5
17A
330
1F
100
AcDbEntity
  8
1
100
AcDbLine
 10
23.2678987214
 20
-72.5000053644
 30
0.0
 11
24.1339244076
 21
-74.0000084042
 31
0.0
  0
LINE
  5
17B
330
1F
100
AcDbEntity
  8
1
100
AcDbLine
 10
24.1339244076
 20
-74.0000084042
 30
0.0
 11
25.8659757802
 21
-74.0000084042
 31
0.0
  0
LINE
  5
17C
330
1F
100
AcDbEntity
  8
1
100
AcDbLine
 10
24.1339244076
 20
-71.0000097751
 30
0.0
 11
23.2678987214
 21
-72.5000053644
 31
0.0
  0
LINE
  5
17D
330
1F
100
AcDbEntity
  8
1
100
AcDbLine
 10
26.7320014664
 20
-72.5000053644
 30
0.0
 11
25.8659757802
 21
-71.0000097751
 31
0.0
  0
LINE
  5
17E
330
1F
100
AcDbEntity
  8
1
100
AcDbLine
 10
39.8659743496
 20
-74.0000084042
 30
0.0
 11
40.7320000359
 21
-72.5000053644
 31
0.0
  0
LINE
  5
17F
330
1F
100
AcDbEntity
  8
1
100
AcDbLine
 10
39.8659743496
 20
-71.0000097751
 30
0.0
 11
38.1339304277
 21
-71.0000097751
 31
0.0
  0
LINE
  5
180
330
1F
100
AcDbEntity
  8
1
100
AcDbLine
 10
37.2679047414
 20
-72.5000053644
 30
0.0
 11
38.1339304277
 21
-74.0000084042
 31
0.0
  0
LINE
  5
181
330
1F
100
AcDbEntity
  8
1
100
AcDbLine
 10
38.1339304277
 20
-71.0000097751
 30
0.0
 11
37.2679047414
 21
-72.5000053644
 31
0.0
  0
LINE
  5
182
330
1F
100
AcDbEntity
  8
1
100
AcDbLine
 10
38.1339304277
 20
-74.0000084042
 30
0.0
 11
39.8659743496
 21
-74.0000084042
 31
0.0
  0
LINE
  5
183
330
1F
100
AcDbEntity
  8
1
100
AcDbLine
 10
40.7320000359
 20
-72.5000053644
 30
0.0
 11
39.8659743496
 21
-71.0000097751
 31
0.0
  0
LINE
  5
184
330
1F
100
AcDbEntity
  8
1
100
AcDbLine
 10
20.0458951422
 20
73.3044818044
 30
0.0
 11
20.283360047
 21
73.8028138876
 31
0.0
  0
LINE
  5
185
330
1F
100
AcDbEntity
  8
1
100
AcDbLine
 10
20.283360047
 20
73.8028138876
 30
0.0
 11
20.4185508319
 21
74.3329972029
 31
0.0
  0
LINE
  5
186
330
1F
100
AcDbEntity
  8
1
100
AcDbLine
 10
20.4185508319
 20
74.3329972029
 30
0.0
 11
20.4469002911
 21
74.877165258
 31
0.0
  0
LINE
  5
187
330
1F
100
AcDbEntity
  8
1
100
AcDbLine
 10
20.4469002911
 20
74.877165258
 30
0.0
 11
20.3674622008
 21
75.4169672728
 31
0.0
  0
LINE
  5
188
330
1F
100
AcDbEntity
  8
1
100
AcDbLine
 10
20.3674622008
 20
75.4169672728
 30
0.0
 11
20.1829113194
 21
75.934201479
 31
0.0
  0
LINE
  5
189
330
1F
100
AcDbEntity
  8
1
100
AcDbLine
 10
20.1829113194
 20
75.934201479
 30
0.0
 11
19.8994688818
 21
76.411433518
 31
0.0
  0
LINE
  5
18A
330
1F
100
AcDbEntity
  8
1
100
AcDbLine
 10
19.8994688818
 20
76.411433518
 30
0.0
 11
19.5267014333
 21
76.832562685
 31
0.0
  0
LINE
  5
18B
330
1F
100
AcDbEntity
  8
1
100
AcDbLine
 10
19.5267014333
 20
76.832562685
 30
0.0
 11
19.0771557519
 21
77.1833881736
 31
0.0
  0
LINE
  5
18C
330
1F
100
AcDbEntity
  8
1
100
AcDbLine
 10
19.0771557519
 20
77.1833881736
 30
0.0
 11
18.5660161206
 21
77.4521008134
 31
0.0
  0
LINE
  5
18D
330
1F
100
AcDbEntity
  8
1
100
AcDbLine
 10
18.5660161206
 20
77.4521008134
 30
0.0
 11
18.0104933807
 21
77.6296183467
 31
0.0
  0
LINE
  5
18E
330
1F
100
AcDbEntity
  8
1
100
AcDbLine
 10
18.0104933807
 20
77.6296183467
 30
0.0
 11
17.429333193
 21
77.7099728585
 31
0.0
  0
LINE
  5
18F
330
1F
100
AcDbEntity
  8
1
100
AcDbLine
 10
17.429333193
 20
77.7099728585
 30
0.0
 11
16.8421156832
 21
77.6904374361
 31
0.0
  0
LINE
  5
190
330
1F
100
AcDbEntity
  8
1
100
AcDbLine
 10
16.8421156832
 20
77.6904374361
 30
0.0
 11
16.2686593958
 21
77.5716900826
 31
0.0
  0
LINE
  5
191
330
1F
100
AcDbEntity
  8
1
100
AcDbLine
 10
16.2686593958
 20
77.5716900826
 30
0.0
 11
15.7282836863
 21
77.3577168584
 31
0.0
  0
LINE
  5
192
330
1F
100
AcDbEntity
  8
1
100
AcDbLine
 10
15.7282836863
 20
77.3577168584
 30
0.0
 11
15.2392201253
 21
77.0557448268
 31
0.0
  0
LINE
  5
193
330
1F
100
AcDbEntity
  8
1
100
AcDbLine
 10
15.2392201253
 20
77.0557448268
 30
0.0
 11
14.8179419467
 21
76.6759514809
 31
0.0
  0
LINE
  5
194
330
1F
100
AcDbEntity
  8
1
100
AcDbLine
 10
14.8179419467
 20
76.6759514809
 30
0.0
 11
14.4786723086
 21
76.2311443687
 31
0.0
  0
LINE
  5
195
330
1F
100
AcDbEntity
  8
1
100
AcDbLine
 10
14.4786723086
 20
76.2311443687
 30
0.0
 11
14.2328404018
 21
75.7363140583
 31
0.0
  0
LINE
  5
196
330
1F
100
AcDbEntity
  8
1
100
AcDbLine
 10
14.2328404018
 20
75.7363140583
 30
0.0
 11
14.0887312719
 21
75.2081498504
 31
0.0
  0
LINE
  5
197
330
1F
100
AcDbEntity
  8
1
100
AcDbLine
 10
14.0887312719
 20
75.2081498504
 30
0.0
 11
14.051210148
 21
74.6644586325
 31
0.0
  0
LINE
  5
198
330
1F
100
AcDbEntity
  8
1
100
AcDbLine
 10
14.051210148
 20
74.6644586325
 30
0.0
 11
14.1215436288
 21
74.1235688329
 31
0.0
  0
LINE
  5
199
330
1F
100
AcDbEntity
  8
1
100
AcDbLine
 10
14.1215436288
 20
74.1235688329
 30
0.0
 11
14.2973549792
 21
73.6037269235
 31
0.0
  0
LINE
  5
19A
330
1F
100
AcDbEntity
  8
1
100
AcDbLine
 10
14.2973549792
 20
73.6037269235
 30
0.0
 11
14.5727135369
 21
73.1224492193
 31
0.0
  0
LINE
  5
19B
330
1F
100
AcDbEntity
  8
1
100
AcDbLine
 10
14.5727135369
 20
73.1224492193
 30
0.0
 11
14.9383507797
 21
72.6959705353
 31
0.0
  0
LINE
  5
19C
330
1F
100
AcDbEntity
  8
1
100
AcDbLine
 10
14.9383507797
 20
72.6959705353
 30
0.0
 11
15.3819210955
 21
72.3386704922
 31
0.0
  0
LINE
  5
19D
330
1F
100
AcDbEntity
  8
1
100
AcDbLine
 10
15.3819210955
 20
72.3386704922
 30
0.0
 11
15.8884786197
 21
72.0625892282
 31
0.0
  0
LINE
  5
19E
330
1F
100
AcDbEntity
  8
1
100
AcDbLine
 10
15.8884786197
 20
72.0625892282
 30
0.0
 11
16.440939171
 21
71.8770474196
 31
0.0
  0
LINE
  5
19F
330
1F
100
AcDbEntity
  8
1
100
AcDbLine
 10
16.440939171
 20
71.8770474196
 30
0.0
 11
17.0206762978
 21
71.7882812023
 31
0.0
  0
LINE
  5
1A0
330
1F
100
AcDbEntity
  8
1
100
AcDbLine
 10
17.0206762978
 20
71.7882812023
 30
0.0
 11
17.6081471273
 21
71.7993080616
 31
0.0
  0
LINE
  5
1A1
330
1F
100
AcDbEntity
  8
1
100
AcDbLine
 10
17.6081471273
 20
71.7993080616
 30
0.0
 11
18.1835331151
 21
71.9097331167
 31
0.0
  0
LINE
  5
1A2
330
1F
100
AcDbEntity
  8
1
100
AcDbLine
 10
18.1835331151
 20
71.9097331167
 30
0.0
 11
18.7274478504
 21
72.1158459783
 31
0.0
  0
LINE
  5
1A3
330
1F
100
AcDbEntity
  8
1
100
AcDbLine
 10
18.7274478504
 20
72.1158459783
 30
0.0
 11
19.2215480038
 21
72.4107027054
 31
0.0
  0
LINE
  5
1A4
330
1F
100
AcDbEntity
  8
1
100
AcDbLine
 10
19.2215480038
 20
72.4107027054
 30
0.0
 11
19.6491666266
 21
72.7843418718
 31
0.0
  0
LINE
  5
1A5
330
1F
100
AcDbEntity
  8
1
100
AcDbLine
 10
19.6491666266
 20
72.7843418718
 30
0.0
 11
19.9958942958
 21
73.2241868973
 31
0.0
  0
LINE
  5
1A6
330
1F
100
AcDbEntity
  8
1
100
AcDbLine
 10
19.9958942958
 20
73.2241868973
 30
0.0
 11
20.0045593211
 21
73.2158049941
 31
0.0
  0
LINE
  5
1A7
330
1F
100
AcDbEntity
  8
1
100
AcDbLine
 10
20.0545601674
 20
73.2960999012
 30
0.0
 11
20.0458951422
 21
73.3044818044
 31
0.0
  0
LINE
  5
1A8
330
1F
100
AcDbEntity
  8
1
100
AcDbLine
 10
18.9544074365
 20
73.7817063928
 30
0.0
 11
19.9958942958
 21
73.2241868973
 31
0.0
  0
LINE
  5
1A9
330
1F
100
AcDbEntity
  8
1
100
AcDbLine
 10
20.0458951422
 20
73.3044818044
 30
0.0
 11
19.0044082829
 21
73.8620012999
 31
0.0
  0
LINE
  5
1AA
330
1F
100
AcDbEntity
  8
1
100
AcDbLine
 10
18.9544074365
 20
73.7817063928
 30
0.0
 11
18.6708159873
 21
73.4457299114
 31
0.0
  0
LINE
  5
1AB
330
1F
100
AcDbEntity
  8
1
100
AcDbLine
 10
18.6708159873
 20
73.4457299114
 30
0.0
 11
18.3118321129
 21
73.1788277626
 31
0.0
  0
LINE
  5
1AC
330
1F
100
AcDbEntity
  8
1
100
AcDbLine
 10
18.3118321129
 20
73.1788277626
 30
0.0
 11
17.8965069481
 21
72.9951709509
 31
0.0
  0
LINE
  5
1AD
330
1F
100
AcDbEntity
  8
1
100
AcDbLine
 10
17.8965069481
 20
72.9951709509
 30
0.0
 11
17.4468793103
 21
72.904497385
 31
0.0
  0
LINE
  5
1AE
330
1F
100
AcDbEntity
  8
1
100
AcDbLine
 10
17.4468793103
 20
72.904497385
 30
0.0
 11
16.9867985078
 21
72.9116126895
 31
0.0
  0
LINE
  5
1AF
330
1F
100
AcDbEntity
  8
1
100
AcDbLine
 10
16.9867985078
 20
72.9116126895
 30
0.0
 11
16.5406800934
 21
73.0161517859
 31
0.0
  0
LINE
  5
1B0
330
1F
100
AcDbEntity
  8
1
100
AcDbLine
 10
16.5406800934
 20
73.0161517859
 30
0.0
 11
16.1322020122
 21
73.212556541
 31
0.0
  0
LINE
  5
1B1
330
1F
100
AcDbEntity
  8
1
100
AcDbLine
 10
16.1322020122
 20
73.212556541
 30
0.0
 11
15.783023102
 21
73.4904110432
 31
0.0
  0
LINE
  5
1B2
330
1F
100
AcDbEntity
  8
1
100
AcDbLine
 10
15.783023102
 20
73.4904110432
 30
0.0
 11
15.5116804072
 21
73.8349780441
 31
0.0
  0
LINE
  5
1B3
330
1F
100
AcDbEntity
  8
1
100
AcDbLine
 10
15.5116804072
 20
73.8349780441
 30
0.0
 11
15.3325609991
 21
74.2279663682
 31
0.0
  0
LINE
  5
1B4
330
1F
100
AcDbEntity
  8
1
100
AcDbLine
 10
15.3325609991
 20
74.2279663682
 30
0.0
 11
15.255179269
 21
74.6485218406
 31
0.0
  0
LINE
  5
1B5
330
1F
100
AcDbEntity
  8
1
100
AcDbLine
 10
15.255179269
 20
74.6485218406
 30
0.0
 11
15.2836404869
 21
75.0743448735
 31
0.0
  0
LINE
  5
1B6
330
1F
100
AcDbEntity
  8
1
100
AcDbLine
 10
15.2836404869
 20
75.0743448735
 30
0.0
 11
15.4164321848
 21
75.4828304053
 31
0.0
  0
LINE
  5
1B7
330
1F
100
AcDbEntity
  8
1
100
AcDbLine
 10
15.4164321848
 20
75.4828304053
 30
0.0
 11
15.6464986631
 21
75.8523121476
 31
0.0
  0
LINE
  5
1B8
330
1F
100
AcDbEntity
  8
1
100
AcDbLine
 10
15.6464986631
 20
75.8523121476
 30
0.0
 11
15.9616507718
 21
76.1631727219
 31
0.0
  0
LINE
  5
1B9
330
1F
100
AcDbEntity
  8
1
100
AcDbLine
 10
15.9616507718
 20
76.1631727219
 30
0.0
 11
16.3451545068
 21
76.3989388943
 31
0.0
  0
LINE
  5
1BA
330
1F
100
AcDbEntity
  8
1
100
AcDbLine
 10
16.3451545068
 20
76.3989388943
 30
0.0
 11
16.7766623327
 21
76.5470862389
 31
0.0
  0
LINE
  5
1BB
330
1F
100
AcDbEntity
  8
1
100
AcDbLine
 10
16.7766623327
 20
76.5470862389
 30
0.0
 11
17.2332860657
 21
76.5997543931
 31
0.0
  0
LINE
  5
1BC
330
1F
100
AcDbEntity
  8
1
100
AcDbLine
 10
17.2332860657
 20
76.5997543931
 30
0.0
 11
17.6907889673
 21
76.5541568399
 31
0.0
  0
LINE
  5
1BD
330
1F
100
AcDbEntity
  8
1
100
AcDbLine
 10
17.6907889673
 20
76.5541568399
 30
0.0
 11
18.1249044963
 21
76.4127075672
 31
0.0
  0
LINE
  5
1BE
330
1F
100
AcDbEntity
  8
1
100
AcDbLine
 10
18.1249044963
 20
76.4127075672
 30
0.0
 11
18.5126029083
 21
76.1829093099
 31
0.0
  0
LINE
  5
1BF
330
1F
100
AcDbEntity
  8
1
100
AcDbLine
 10
18.5126029083
 20
76.1829093099
 30
0.0
 11
18.8332982489
 21
75.8769661188
 31
0.0
  0
LINE
  5
1C0
330
1F
100
AcDbEntity
  8
1
100
AcDbLine
 10
18.8332982489
 20
75.8769661188
 30
0.0
 11
19.0699882933
 21
75.511097908
 31
0.0
  0
LINE
  5
1C1
330
1F
100
AcDbEntity
  8
1
100
AcDbLine
 10
19.0699882933
 20
75.511097908
 30
0.0
 11
19.2101113626
 21
75.1047208905
 31
0.0
  0
LINE
  5
1C2
330
1F
100
AcDbEntity
  8
1
100
AcDbLine
 10
19.2101113626
 20
75.1047208905
 30
0.0
 11
19.2462243268
 21
74.6794044972
 31
0.0
  0
LINE
  5
1C3
330
1F
100
AcDbEntity
  8
1
100
AcDbLine
 10
19.2462243268
 20
74.6794044972
 30
0.0
 11
19.1764272877
 21
74.2577016354
 31
0.0
  0
LINE
  5
1C4
330
1F
100
AcDbEntity
  8
1
100
AcDbLine
 10
19.1764272877
 20
74.2577016354
 30
0.0
 11
19.0044082829
 21
73.8620012999
 31
0.0
  0
LINE
  5
1C5
330
1F
100
AcDbEntity
  8
1
100
AcDbLine
 10
18.9494080969
 20
73.7806335092
 30
0.0
 11
18.9544074365
 21
73.7817063928
 31
0.0
  0
LINE
  5
1C6
330
1F
100
AcDbEntity
  8
1
100
AcDbLine
 10
19.0044082829
 20
73.8620012999
 30
0.0
 11
18.9994089433
 21
73.8609284163
 31
0.0
  0
LINE
  5
1C7
330
1F
100
AcDbEntity
  8
1
100
AcDbLine
 10
20.0545601674
 20
73.2960999012
 30
0.0
 11
18.9994089433
 21
73.8609284163
 31
0.0
  0
LINE
  5
1C8
330
1F
100
AcDbEntity
  8
1
100
AcDbLine
 10
18.1159787008
 20
74.4526907802
 30
0.0
 11
18.1159787008
 21
75.9661048651
 31
0.0
  0
LINE
  5
1C9
330
1F
100
AcDbEntity
  8
1
100
AcDbLine
 10
18.1159787008
 20
74.4526907802
 30
0.0
 11
18.5489915439
 21
73.7573057413
 31
0.0
  0
LINE
  5
1CA
330
1F
100
AcDbEntity
  8
1
100
AcDbLine
 10
16.3839273283
 20
74.4526907802
 30
0.0
 11
16.3839273283
 21
75.9661048651
 31
0.0
  0
LINE
  5
1CB
330
1F
100
AcDbEntity
  8
1
100
AcDbLine
 10
15.9509144851
 20
73.7573057413
 30
0.0
 11
16.3839273283
 21
74.4526907802
 31
0.0
  0
LINE
  5
1CD
330
1F
100
AcDbEntity
  8
1
100
AcDbLine
 10
18.1159787008
 20
74.4526907802
 30
0.0
 11
16.3839273283
 21
74.4526907802
 31
0.0
  0
LINE
  5
1CE
330
1F
100
AcDbEntity
  8
1
100
AcDbLine
 10
16.0840042063
 20
-63.2814317941
 30
0.0
 11
16.2630491087
 21
-62.929354608
 31
0.0
  0
LINE
  5
1CF
330
1F
100
AcDbEntity
  8
1
100
AcDbLine
 10
16.2630491087
 20
-62.929354608
 30
0.0
 11
16.3839273282
 21
-62.6655966044
 31
0.0
  0
LINE
  5
1D0
330
1F
100
AcDbEntity
  8
1
100
AcDbLine
 10
18.4149108955
 20
-63.2806047797
 30
0.0
 11
18.2283558079
 21
-62.9114210605
 31
0.0
  0
LINE
  5
1D1
330
1F
100
AcDbEntity
  8
1
100
AcDbLine
 10
18.2283558079
 20
-62.9114210605
 30
0.0
 11
18.1159787007
 21
-62.6655966044
 31
0.0
  0
LINE
  5
1D2
330
1F
100
AcDbEntity
  8
1
100
AcDbLine
 10
16.3839273282
 20
-63.3756443858
 30
0.0
 11
16.3839273282
 21
-62.6655966044
 31
0.0
  0
LINE
  5
1D3
330
1F
100
AcDbEntity
  8
1
100
AcDbLine
 10
18.1159787007
 20
-63.381254673
 30
0.0
 11
18.1159787007
 21
-62.6655966044
 31
0.0
  0
LINE
  5
1D6
330
1F
100
AcDbEntity
  8
1
100
AcDbLine
 10
17.1999521681
 20
71.5028345585
 30
0.0
 11
17.1999521681
 21
70.50871104
 31
0.0
  0
LINE
  5
1D7
330
1F
100
AcDbEntity
  8
1
100
AcDbLine
 10
17.1999521681
 20
70.50871104
 30
0.0
 11
17.2999538609
 21
70.50871104
 31
0.0
  0
LINE
  5
1D8
330
1F
100
AcDbEntity
  8
1
100
AcDbLine
 10
17.2999538609
 20
70.50871104
 30
0.0
 11
17.2999538609
 21
71.5028345585
 31
0.0
  0
LINE
  5
1D9
330
1F
100
AcDbEntity
  8
1
100
AcDbLine
 10
17.1749554702
 20
68.6387121678
 30
0.0
 11
17.3249505588
 21
68.6387121678
 31
0.0
  0
LINE
  5
1DA
330
1F
100
AcDbEntity
  8
1
100
AcDbLine
 10
17.3249505588
 20
68.6387121678
 30
0.0
 11
17.3249505588
 21
69.8387101293
 31
0.0
  0
LINE
  5
1DB
330
1F
100
AcDbEntity
  8
1
100
AcDbLine
 10
17.3249505588
 20
69.8387101293
 30
0.0
 11
17.1749554702
 21
69.8387101293
 31
0.0
  0
LINE
  5
1DC
330
1F
100
AcDbEntity
  8
1
100
AcDbLine
 10
17.1749554702
 20
69.8387101293
 30
0.0
 11
17.1749554702
 21
68.6387121678
 31
0.0
  0
LINE
  5
1DD
330
1F
100
AcDbEntity
  8
1
100
AcDbLine
 10
46.9999574253
 20
78.5000100732
 30
0.0
 11
46.9999574253
 21
66.5000424084
 31
0.0
  0
LINE
  5
1DE
330
1F
100
AcDbEntity
  8
1
100
AcDbLine
 10
46.9999574253
 20
66.5000424084
 30
0.0
 11
9.9999535723
 21
66.500017301
 31
0.0
  0
LINE
  5
1DF
330
1F
100
AcDbEntity
  8
1
100
AcDbLine
 10
9.9999535723
 20
66.500017301
 30
0.0
 11
9.9999454294
 21
78.5000100732
 31
0.0
  0
LINE
  5
1E0
330
1F
100
AcDbEntity
  8
1
100
AcDbLine
 10
23.633059127
 20
72.3616331816
 30
0.0
 11
23.604173226
 21
72.2229778767
 31
0.0
  0
LINE
  5
1E1
330
1F
100
AcDbEntity
  8
1
100
AcDbLine
 10
23.604173226
 20
72.2229778767
 30
0.0
 11
23.5171876976
 21
72.1070691943
 31
0.0
  0
LINE
  5
1E2
330
1F
100
AcDbEntity
  8
1
100
AcDbLine
 10
23.5171876976
 20
72.1070691943
 30
0.0
 11
23.2518799731
 21
71.9695091248
 31
0.0
  0
LINE
  5
1E3
330
1F
100
AcDbEntity
  8
1
100
AcDbLine
 10
23.2518799731
 20
71.9695091248
 30
0.0
 11
22.6466842124
 21
71.8965530396
 31
0.0
  0
LINE
  5
1E4
330
1F
100
AcDbEntity
  8
1
100
AcDbLine
 10
22.6466842124
 20
72.823740542
 30
0.0
 11
23.2509710023
 21
72.7517157793
 31
0.0
  0
LINE
  5
1E5
330
1F
100
AcDbEntity
  8
1
100
AcDbLine
 10
23.2509710023
 20
72.7517157793
 30
0.0
 11
23.516308529
 21
72.6151540876
 31
0.0
  0
LINE
  5
1E6
330
1F
100
AcDbEntity
  8
1
100
AcDbLine
 10
23.516308529
 20
72.6151540876
 30
0.0
 11
23.6036665865
 21
72.4998936057
 31
0.0
  0
LINE
  5
1E7
330
1F
100
AcDbEntity
  8
1
100
AcDbLine
 10
23.6036665865
 20
72.4998936057
 30
0.0
 11
23.633059127
 21
72.3616331816
 31
0.0
  0
LINE
  5
1E8
330
1F
100
AcDbEntity
  8
1
100
AcDbLine
 10
21.6586999723
 20
72.3616331816
 30
0.0
 11
21.6881372162
 21
72.5000575185
 31
0.0
  0
LINE
  5
1E9
330
1F
100
AcDbEntity
  8
1
100
AcDbLine
 10
21.6881372162
 20
72.5000575185
 30
0.0
 11
21.7758752533
 21
72.6153403521
 31
0.0
  0
LINE
  5
1EA
330
1F
100
AcDbEntity
  8
1
100
AcDbLine
 10
21.7758752533
 20
72.6153403521
 30
0.0
 11
22.0416747161
 21
72.7517604828
 31
0.0
  0
LINE
  5
1EB
330
1F
100
AcDbEntity
  8
1
100
AcDbLine
 10
22.0416747161
 20
72.7517604828
 30
0.0
 11
22.6466842124
 21
72.823740542
 31
0.0
  0
LINE
  5
1EC
330
1F
100
AcDbEntity
  8
1
100
AcDbLine
 10
22.6466842124
 20
71.8965530396
 30
0.0
 11
22.040966911
 21
71.9695016742
 31
0.0
  0
LINE
  5
1ED
330
1F
100
AcDbEntity
  8
1
100
AcDbLine
 10
22.040966911
 20
71.9695016742
 30
0.0
 11
21.7753686139
 21
72.1072480083
 31
0.0
  0
LINE
  5
1EE
330
1F
100
AcDbEntity
  8
1
100
AcDbLine
 10
21.7753686139
 20
72.1072480083
 30
0.0
 11
21.6879286
 21
72.2229555249
 31
0.0
  0
LINE
  5
1EF
330
1F
100
AcDbEntity
  8
1
100
AcDbLine
 10
21.6879286
 20
72.2229555249
 30
0.0
 11
21.6586999723
 21
72.3616331816
 31
0.0
  0
LINE
  5
1F0
330
1F
100
AcDbEntity
  8
1
100
AcDbLine
 10
20.749595029
 20
74.7940093279
 30
0.0
 11
20.6840001175
 21
75.3746405244
 31
0.0
  0
LINE
  5
1F1
330
1F
100
AcDbEntity
  8
1
100
AcDbLine
 10
20.6840001175
 20
75.3746405244
 30
0.0
 11
20.5072648951
 21
75.9349837899
 31
0.0
  0
LINE
  5
1F2
330
1F
100
AcDbEntity
  8
1
100
AcDbLine
 10
20.5072648951
 20
75.9349837899
 30
0.0
 11
20.2251114079
 21
76.4568969608
 31
0.0
  0
LINE
  5
1F3
330
1F
100
AcDbEntity
  8
1
100
AcDbLine
 10
20.2251114079
 20
76.4568969608
 30
0.0
 11
19.8466591665
 21
76.9234970212
 31
0.0
  0
LINE
  5
1F4
330
1F
100
AcDbEntity
  8
1
100
AcDbLine
 10
19.8466591665
 20
76.9234970212
 30
0.0
 11
19.3841643759
 21
77.3196667433
 31
0.0
  0
LINE
  5
1F5
330
1F
100
AcDbEntity
  8
1
100
AcDbLine
 10
19.3841643759
 20
77.3196667433
 30
0.0
 11
18.8525952527
 21
77.6325911284
 31
0.0
  0
LINE
  5
1F6
330
1F
100
AcDbEntity
  8
1
100
AcDbLine
 10
18.8525952527
 20
77.6325911284
 30
0.0
 11
18.2691551873
 21
77.852152288
 31
0.0
  0
LINE
  5
1F7
330
1F
100
AcDbEntity
  8
1
100
AcDbLine
 10
18.2691551873
 20
77.852152288
 30
0.0
 11
17.6527314016
 21
77.9712274671
 31
0.0
  0
LINE
  5
1F8
330
1F
100
AcDbEntity
  8
1
100
AcDbLine
 10
17.6527314016
 20
77.9712274671
 30
0.0
 11
17.0232690999
 21
77.9859796167
 31
0.0
  0
LINE
  5
1F9
330
1F
100
AcDbEntity
  8
1
100
AcDbLine
 10
17.0232690999
 20
77.9859796167
 30
0.0
 11
16.40114562
 21
77.8959169984
 31
0.0
  0
LINE
  5
1FA
330
1F
100
AcDbEntity
  8
1
100
AcDbLine
 10
16.40114562
 20
77.8959169984
 30
0.0
 11
15.8064924308
 21
77.7039602399
 31
0.0
  0
LINE
  5
1FB
330
1F
100
AcDbEntity
  8
1
100
AcDbLine
 10
15.8064924308
 20
77.7039602399
 30
0.0
 11
15.2585618326
 21
77.4163231254
 31
0.0
  0
LINE
  5
1FC
330
1F
100
AcDbEntity
  8
1
100
AcDbLine
 10
15.2585618326
 20
77.4163231254
 30
0.0
 11
14.7750787565
 21
77.04231143
 31
0.0
  0
LINE
  5
1FD
330
1F
100
AcDbEntity
  8
1
100
AcDbLine
 10
14.7750787565
 20
77.04231143
 30
0.0
 11
14.3716968724
 21
76.5940323472
 31
0.0
  0
LINE
  5
1FE
330
1F
100
AcDbEntity
  8
1
100
AcDbLine
 10
14.3716968724
 20
76.5940323472
 30
0.0
 11
14.0614695975
 21
76.0859996081
 31
0.0
  0
LINE
  5
1FF
330
1F
100
AcDbEntity
  8
1
100
AcDbLine
 10
14.0614695975
 20
76.0859996081
 30
0.0
 11
13.8544328639
 21
75.5346417427
 31
0.0
  0
LINE
  5
200
330
1F
100
AcDbEntity
  8
1
100
AcDbLine
 10
13.8544328639
 20
75.5346417427
 30
0.0
 11
13.7572996446
 21
74.9578177929
 31
0.0
  0
LINE
  5
201
330
1F
100
AcDbEntity
  8
1
100
AcDbLine
 10
13.7572996446
 20
74.9578177929
 30
0.0
 11
13.7732066342
 21
74.374191463
 31
0.0
  0
LINE
  5
202
330
1F
100
AcDbEntity
  8
1
100
AcDbLine
 10
13.7732066342
 20
74.374191463
 30
0.0
 11
13.9016397425
 21
73.8026574254
 31
0.0
  0
LINE
  5
203
330
1F
100
AcDbEntity
  8
1
100
AcDbLine
 10
13.9016397425
 20
73.8026574254
 30
0.0
 11
14.1384340951
 21
73.2617005706
 31
0.0
  0
LINE
  5
204
330
1F
100
AcDbEntity
  8
1
100
AcDbLine
 10
14.1384340951
 20
73.2617005706
 30
0.0
 11
14.4759379455
 21
72.7688372135
 31
0.0
  0
LINE
  5
205
330
1F
100
AcDbEntity
  8
1
100
AcDbLine
 10
14.4759379455
 20
72.7688372135
 30
0.0
 11
14.9032287427
 21
72.3400264979
 31
0.0
  0
LINE
  5
206
330
1F
100
AcDbEntity
  8
1
100
AcDbLine
 10
14.9032287427
 20
72.3400264979
 30
0.0
 11
15.406463308
 21
71.9891339541
 31
0.0
  0
LINE
  5
207
330
1F
100
AcDbEntity
  8
1
100
AcDbLine
 10
15.406463308
 20
71.9891339541
 30
0.0
 11
15.9693695733
 21
71.727514267
 31
0.0
  0
LINE
  5
208
330
1F
100
AcDbEntity
  8
1
100
AcDbLine
 10
15.9693695733
 20
71.727514267
 30
0.0
 11
16.5737159678
 21
71.5636536479
 31
0.0
  0
LINE
  5
209
330
1F
100
AcDbEntity
  8
1
100
AcDbLine
 10
16.5737159678
 20
71.5636536479
 30
0.0
 11
17.1999521681
 21
71.5028345585
 31
0.0
  0
LINE
  5
20A
330
1F
100
AcDbEntity
  8
1
100
AcDbLine
 10
9.9999454294
 20
78.5000100732
 30
0.0
 11
46.9999574253
 21
78.5000100732
 31
0.0
  0
LINE
  5
20D
330
1F
100
AcDbEntity
  8
1
100
AcDbLine
 10
20.2557332941
 20
73.0850920081
 30
0.0
 11
21.1220644541
 21
72.6213380695
 31
0.0
  0
LINE
  5
20E
330
1F
100
AcDbEntity
  8
1
100
AcDbLine
 10
21.1220644541
 20
72.6213380695
 30
0.0
 11
21.1720653005
 21
72.7016329766
 31
0.0
  0
LINE
  5
20F
330
1F
100
AcDbEntity
  8
1
100
AcDbLine
 10
21.1720653005
 20
72.7016329766
 30
0.0
 11
20.3057341404
 21
73.1653869152
 31
0.0
  0
LINE
  5
210
330
1F
100
AcDbEntity
  8
1
100
AcDbLine
 10
20.7495950289
 20
74.7012868524
 30
0.0
 11
21.7499546834
 21
74.7012868524
 31
0.0
  0
LINE
  5
211
330
1F
100
AcDbEntity
  8
1
100
AcDbLine
 10
21.7499546834
 20
74.7012868524
 30
0.0
 11
21.7499546834
 21
74.7940093279
 31
0.0
  0
LINE
  5
212
330
1F
100
AcDbEntity
  8
1
100
AcDbLine
 10
21.7499546834
 20
74.7940093279
 30
0.0
 11
20.749595029
 21
74.7940093279
 31
0.0
  0
LINE
  5
213
330
1F
100
AcDbEntity
  8
1
100
AcDbLine
 10
23.8499529788
 20
74.8171880842
 30
0.0
 11
23.3249552676
 21
74.8171880842
 31
0.0
  0
LINE
  5
215
330
1F
100
AcDbEntity
  8
1
100
AcDbLine
 10
23.3249552676
 20
75.3039568663
 30
0.0
 11
23.1749527284
 21
75.3039568663
 31
0.0
  0
LINE
  5
217
330
1F
100
AcDbEntity
  8
1
100
AcDbLine
 10
23.1749527284
 20
74.8171880842
 30
0.0
 11
22.6499550172
 21
74.8171880842
 31
0.0
  0
LINE
  5
218
330
1F
100
AcDbEntity
  8
1
100
AcDbLine
 10
22.6499550172
 20
74.8171880842
 30
0.0
 11
22.6499550172
 21
74.6781080961
 31
0.0
  0
LINE
  5
219
330
1F
100
AcDbEntity
  8
1
100
AcDbLine
 10
22.6499550172
 20
74.6781080961
 30
0.0
 11
23.1749527284
 21
74.6781080961
 31
0.0
  0
LINE
  5
21A
330
1F
100
AcDbEntity
  8
1
100
AcDbLine
 10
23.1749527284
 20
74.6781080961
 30
0.0
 11
23.1749527284
 21
74.191339314
 31
0.0
  0
LINE
  5
21B
330
1F
100
AcDbEntity
  8
1
100
AcDbLine
 10
23.1749527284
 20
74.191339314
 30
0.0
 11
23.3249552676
 21
74.191339314
 31
0.0
  0
LINE
  5
21C
330
1F
100
AcDbEntity
  8
1
100
AcDbLine
 10
23.3249552676
 20
74.191339314
 30
0.0
 11
23.3249552676
 21
74.6781080961
 31
0.0
  0
LINE
  5
21D
330
1F
100
AcDbEntity
  8
1
100
AcDbLine
 10
23.3249552676
 20
74.6781080961
 30
0.0
 11
23.8499529788
 21
74.6781080961
 31
0.0
  0
LINE
  5
21E
330
1F
100
AcDbEntity
  8
1
100
AcDbLine
 10
23.8499529788
 20
74.6781080961
 30
0.0
 11
23.8499529788
 21
74.8171880842
 31
0.0
  0
LINE
  5
221
330
1F
100
AcDbEntity
  8
1
100
AcDbLine
 10
17.1999521681
 20
71.4367702604
 30
0.0
 11
17.2999538609
 21
71.4367702604
 31
0.0
  0
LINE
  5
222
330
1F
100
AcDbEntity
  8
1
100
AcDbLine
 10
20.3057341404
 20
73.1653869152
 30
0.0
 11
20.3057341404
 21
73.1616392732
 31
0.0
  0
LINE
  5
223
330
1F
100
AcDbEntity
  8
1
100
AcDbLine
 10
20.749595029
 20
74.7940093279
 30
0.0
 11
20.749595029
 21
74.7902616859
 31
0.0
  0
LINE
  5
224
330
1F
100
AcDbEntity
  8
1
100
AcDbLine
 10
22.6466842124
 20
72.8199928999
 30
0.0
 11
23.2509710023
 21
72.7479681373
 31
0.0
  0
LINE
  5
225
330
1F
100
AcDbEntity
  8
1
100
AcDbLine
 10
23.2509710023
 20
72.7479681373
 30
0.0
 11
23.516308529
 21
72.6114138961
 31
0.0
  0
LINE
  5
226
330
1F
100
AcDbEntity
  8
1
100
AcDbLine
 10
23.516308529
 20
72.6114138961
 30
0.0
 11
23.6036665865
 21
72.4961534143
 31
0.0
  0
LINE
  5
227
330
1F
100
AcDbEntity
  8
1
100
AcDbLine
 10
23.6036665865
 20
72.4961534143
 30
0.0
 11
23.633059127
 21
72.3578855396
 31
0.0
  0
LINE
  5
228
330
1F
100
AcDbEntity
  8
1
100
AcDbLine
 10
21.6586999723
 20
72.3578855396
 30
0.0
 11
21.6881372162
 21
72.496317327
 31
0.0
  0
LINE
  5
229
330
1F
100
AcDbEntity
  8
1
100
AcDbLine
 10
21.6881372162
 20
72.496317327
 30
0.0
 11
21.7758752533
 21
72.61159271
 31
0.0
  0
LINE
  5
22A
330
1F
100
AcDbEntity
  8
1
100
AcDbLine
 10
21.7758752533
 20
72.61159271
 30
0.0
 11
22.0416747161
 21
72.7480128408
 31
0.0
  0
LINE
  5
22B
330
1F
100
AcDbEntity
  8
1
100
AcDbLine
 10
22.0416747161
 20
72.7480128408
 30
0.0
 11
22.6466842124
 21
72.8199928999
 31
0.0
  0
LINE
  5
22C
330
1F
100
AcDbEntity
  8
1
100
AcDbLine
 10
21.735627217
 20
72.3552852869
 30
0.0
 11
21.7653624841
 21
72.2310543061
 31
0.0
  0
LINE
  5
22D
330
1F
100
AcDbEntity
  8
1
100
AcDbLine
 10
21.7653624841
 20
72.2310543061
 30
0.0
 11
21.8517743179
 21
72.1320286393
 31
0.0
  0
LINE
  5
22E
330
1F
100
AcDbEntity
  8
1
100
AcDbLine
 10
21.8517743179
 20
72.1320286393
 30
0.0
 11
22.0989547798
 21
72.0208212734
 31
0.0
  0
LINE
  5
22F
330
1F
100
AcDbEntity
  8
1
100
AcDbLine
 10
22.0989547798
 20
72.0208212734
 30
0.0
 11
22.6470790931
 21
71.9641298056
 31
0.0
  0
LINE
  5
230
330
1F
100
AcDbEntity
  8
1
100
AcDbLine
 10
22.6470790931
 20
71.9641298056
 30
0.0
 11
23.1942497322
 21
72.0206722617
 31
0.0
  0
LINE
  5
231
330
1F
100
AcDbEntity
  8
1
100
AcDbLine
 10
23.1942497322
 20
72.0206722617
 30
0.0
 11
23.4407447406
 21
72.1321254969
 31
0.0
  0
LINE
  5
232
330
1F
100
AcDbEntity
  8
1
100
AcDbLine
 10
23.4407447406
 20
72.1321254969
 30
0.0
 11
23.5265679785
 21
72.2313001752
 31
0.0
  0
LINE
  5
233
330
1F
100
AcDbEntity
  8
1
100
AcDbLine
 10
23.5265679785
 20
72.2313001752
 30
0.0
 11
23.5561393329
 21
72.3552852869
 31
0.0
  0
LINE
  5
234
330
1F
100
AcDbEntity
  8
1
100
AcDbLine
 10
21.735627217
 20
72.359032929
 30
0.0
 11
21.7653624841
 21
72.2348019481
 31
0.0
  0
LINE
  5
235
330
1F
100
AcDbEntity
  8
1
100
AcDbLine
 10
21.7653624841
 20
72.2348019481
 30
0.0
 11
21.8517743179
 21
72.1357762814
 31
0.0
  0
LINE
  5
236
330
1F
100
AcDbEntity
  8
1
100
AcDbLine
 10
21.8517743179
 20
72.1357762814
 30
0.0
 11
22.0989547798
 21
72.0245614648
 31
0.0
  0
LINE
  5
237
330
1F
100
AcDbEntity
  8
1
100
AcDbLine
 10
22.0989547798
 20
72.0245614648
 30
0.0
 11
22.6470790931
 21
71.9678774476
 31
0.0
  0
LINE
  5
238
330
1F
100
AcDbEntity
  8
1
100
AcDbLine
 10
22.6470790931
 20
72.7524161339
 30
0.0
 11
22.0985226461
 21
72.6948156953
 31
0.0
  0
LINE
  5
239
330
1F
100
AcDbEntity
  8
1
100
AcDbLine
 10
22.0985226461
 20
72.6948156953
 30
0.0
 11
21.8514464923
 21
72.5828260184
 31
0.0
  0
LINE
  5
23A
330
1F
100
AcDbEntity
  8
1
100
AcDbLine
 10
21.8514464923
 20
72.5828260184
 30
0.0
 11
21.7654146382
 21
72.4833756686
 31
0.0
  0
LINE
  5
23B
330
1F
100
AcDbEntity
  8
1
100
AcDbLine
 10
21.7654146382
 20
72.4833756686
 30
0.0
 11
21.735627217
 21
72.359032929
 31
0.0
  0
LINE
  5
23C
330
1F
100
AcDbEntity
  8
1
100
AcDbLine
 10
23.5561393329
 20
72.359032929
 30
0.0
 11
23.5268212983
 21
72.4832639098
 31
0.0
  0
LINE
  5
23D
330
1F
100
AcDbEntity
  8
1
100
AcDbLine
 10
23.5268212983
 20
72.4832639098
 30
0.0
 11
23.4410800168
 21
72.5827068091
 31
0.0
  0
LINE
  5
23E
330
1F
100
AcDbEntity
  8
1
100
AcDbLine
 10
23.4410800168
 20
72.5827068091
 30
0.0
 11
23.1947563716
 21
72.6950541139
 31
0.0
  0
LINE
  5
23F
330
1F
100
AcDbEntity
  8
1
100
AcDbLine
 10
23.1947563716
 20
72.6950541139
 30
0.0
 11
22.6470790931
 21
72.7524161339
 31
0.0
  0
LINE
  5
240
330
1F
100
AcDbEntity
  8
1
100
AcDbLine
 10
22.6470790931
 20
71.9678774476
 30
0.0
 11
23.1942497322
 21
72.0244199038
 31
0.0
  0
LINE
  5
241
330
1F
100
AcDbEntity
  8
1
100
AcDbLine
 10
23.1942497322
 20
72.0244199038
 30
0.0
 11
23.4407447406
 21
72.1358731389
 31
0.0
  0
LINE
  5
242
330
1F
100
AcDbEntity
  8
1
100
AcDbLine
 10
23.4407447406
 20
72.1358731389
 30
0.0
 11
23.5265679785
 21
72.2350478173
 31
0.0
  0
LINE
  5
243
330
1F
100
AcDbEntity
  8
1
100
AcDbLine
 10
23.5265679785
 20
72.2350478173
 30
0.0
 11
23.5561393329
 21
72.359032929
 31
0.0
  0
LINE
  5
244
330
1F
100
AcDbEntity
  8
1
100
AcDbLine
 10
23.5561393329
 20
72.3552852869
 30
0.0
 11
23.5561393329
 21
72.359032929
 31
0.0
  0
LINE
  5
245
330
1F
100
AcDbEntity
  8
1
100
AcDbLine
 10
22.6470790931
 20
71.9641298056
 30
0.0
 11
22.6470790931
 21
71.9678774476
 31
0.0
  0
LINE
  5
246
330
1F
100
AcDbEntity
  8
1
100
AcDbLine
 10
21.735627217
 20
72.3552852869
 30
0.0
 11
21.735627217
 21
72.359032929
 31
0.0
  0
LINE
  5
247
330
1F
100
AcDbEntity
  8
1
100
AcDbLine
 10
22.6466842124
 20
72.8199928999
 30
0.0
 11
22.6466842124
 21
72.823740542
 31
0.0
  0
LINE
  5
248
330
1F
100
AcDbEntity
  8
1
100
AcDbLine
 10
21.1703144141
 20
72.6988241077
 30
0.0
 11
20.3057341404
 21
73.1616392732
 31
0.0
  0
LINE
  5
249
330
1F
100
AcDbEntity
  8
1
100
AcDbLine
 10
23.1749527284
 20
74.8134404421
 30
0.0
 11
22.6499550172
 21
74.8134404421
 31
0.0
  0
LINE
  5
24A
330
1F
100
AcDbEntity
  8
1
100
AcDbLine
 10
23.3249552676
 20
75.3002092242
 30
0.0
 11
23.1749527284
 21
75.3002092242
 31
0.0
  0
LINE
  5
24B
330
1F
100
AcDbEntity
  8
1
100
AcDbLine
 10
23.8499529788
 20
74.8134404421
 30
0.0
 11
23.3249552676
 21
74.8134404421
 31
0.0
  0
LINE
  5
24C
330
1F
100
AcDbEntity
  8
1
100
AcDbLine
 10
21.7499546834
 20
74.7902616859
 30
0.0
 11
20.749595029
 21
74.7902616859
 31
0.0
  0
LINE
  5
24D
330
1F
100
AcDbEntity
  8
1
100
AcDbLine
 10
23.1749527284
 20
74.8134404421
 30
0.0
 11
23.1749527284
 21
75.3039568663
 31
0.0
  0
LINE
  5
24E
330
1F
100
AcDbEntity
  8
1
100
AcDbLine
 10
23.3249552676
 20
74.8134404421
 30
0.0
 11
23.3249552676
 21
75.3039568663
 31
0.0
  0
LINE
  5
24F
330
1F
100
AcDbEntity
  8
1
100
AcDbLine
 10
9.1999554742
 20
65.7000181171
 30
0.0
 11
9.3388789057
 21
65.8389342867
 31
0.0
  0
LINE
  5
250
330
1F
100
AcDbEntity
  8
1
100
AcDbLine
 10
9.3388789057
 20
65.8389342867
 30
0.0
 11
9.4735704104
 21
65.9736334247
 31
0.0
  0
LINE
  5
251
330
1F
100
AcDbEntity
  8
1
100
AcDbLine
 10
9.4735704104
 20
65.9736334247
 30
0.0
 11
9.5999545232
 21
66.100017709
 31
0.0
  0
LINE
  5
252
330
1F
100
AcDbEntity
  8
1
100
AcDbLine
 10
9.5999545232
 20
66.100017709
 30
0.0
 11
9.7141867475
 21
66.2142500884
 31
0.0
  0
LINE
  5
253
330
1F
100
AcDbEntity
  8
1
100
AcDbLine
 10
9.7141867475
 20
66.2142500884
 30
0.0
 11
9.8127951148
 21
66.3128511389
 31
0.0
  0
LINE
  5
254
330
1F
100
AcDbEntity
  8
1
100
AcDbLine
 10
9.8127951148
 20
66.3128511389
 30
0.0
 11
9.8927770432
 21
66.3928331759
 31
0.0
  0
LINE
  5
255
330
1F
100
AcDbEntity
  8
1
100
AcDbLine
 10
9.8927770432
 20
66.3928331759
 30
0.0
 11
9.9517110957
 21
66.4517673083
 31
0.0
  0
LINE
  5
256
330
1F
100
AcDbEntity
  8
1
100
AcDbLine
 10
9.9517110957
 20
66.4517673083
 30
0.0
 11
9.9878016836
 21
66.4878653958
 31
0.0
  0
LINE
  5
257
330
1F
100
AcDbEntity
  8
1
100
AcDbLine
 10
9.9878016836
 20
66.4878653958
 30
0.0
 11
9.9999535723
 21
66.500017301
 31
0.0
  0
LINE
  5
258
330
1F
100
AcDbEntity
  8
1
100
AcDbLine
 10
46.9999574253
 20
66.5000424084
 30
0.0
 11
46.9999746406
 21
41.1302604076
 31
0.0
  0
LINE
  5
259
330
1F
100
AcDbEntity
  8
1
100
AcDbLine
 10
18.2003047938
 20
0.0000147593
 30
0.0
 11
46.9999746406
 21
41.1302604076
 31
0.0
  0
LINE
  5
25A
330
1F
100
AcDbEntity
  8
1
100
AcDbLine
 10
0.2063117163
 20
37.4999965886
 30
0.0
 11
0.2062896628
 21
69.9997271756
 31
0.0
  0
LINE
  5
25B
330
1F
100
AcDbEntity
  8
1
100
AcDbLine
 10
0.2062896628
 20
69.9997271756
 30
0.0
 11
9.1999525565
 21
69.9997332785
 31
0.0
  0
LINE
  5
25D
330
1F
100
AcDbEntity
  8
1
100
AcDbLine
 10
-3.3000429671
 20
69.9109527636
 30
0.0
 11
-3.2500496059
 21
69.9619371205
 31
0.0
  0
LINE
  5
25E
330
1F
100
AcDbEntity
  8
1
100
AcDbLine
 10
-3.5500251379
 20
37.399993982
 30
0.0
 11
-3.5500470186
 21
69.6449370643
 31
0.0
  0
LINE
  5
25F
330
1F
100
AcDbEntity
  8
1
100
AcDbLine
 10
9.1999509838
 20
-69.9997323488
 30
0.0
 11
9.1999509838
 21
-60.0444003939
 31
0.0
  0
LINE
  5
260
330
1F
100
AcDbEntity
  8
CUT
100
AcDbLine
 10
47.7999560663
 20
-73.5292956233
 30
0.0
 11
47.7999522039
 21
-73.935427317
 31
0.0
  0
LINE
  5
261
330
1F
100
AcDbEntity
  8
CUT
100
AcDbLine
 10
47.7999518356
 20
-71.0738809762
 30
0.0
 11
47.799955698
 21
-71.2700483507
 31
0.0
  0
LINE
  5
262
330
1F
100
AcDbEntity
  8
CUT
100
AcDbLine
 10
58.9870624372
 20
73.9354280647
 30
0.0
 11
58.9870624372
 21
71.0738822818
 31
0.0
  0
LINE
  5
263
330
1F
100
AcDbEntity
  8
CUT
100
AcDbLine
 10
58.194901807
 20
73.9354280647
 30
0.0
 11
58.194901807
 21
71.0738822818
 31
0.0
  0
LINE
  5
264
330
1F
100
AcDbEntity
  8
1
100
AcDbLine
 10
9.1999554742
 20
65.7000181171
 30
0.0
 11
9.1999525565
 21
69.9997332785
 31
0.0
  0
LINE
  5
265
330
1F
100
AcDbEntity
  8
1
100
AcDbLine
 10
46.9999579681
 20
65.7000437673
 30
0.0
 11
9.1999554742
 21
65.7000181171
 31
0.0
  0
ARC
  5
266
330
1F
100
AcDbEntity
  8
1
100
AcDbCircle
 10
9.1999522039
 20
-70.80000743
 30
0.0
 40
0.7999999999999754
100
AcDbArc
 50
0.0
 51
49.3881844905
  0
ARC
  5
267
330
1F
100
AcDbEntity
  8
1
100
AcDbCircle
 10
17.2908078641
 20
-64.3475203554
 30
0.0
 40
4.635972132097666
100
AcDbArc
 50
42.15831380829999
 51
90.50492985799998
  0
ARC
  5
268
330
1F
100
AcDbEntity
  8
1
100
AcDbCircle
 10
17.2089245367
 20
-64.346743148
 30
0.0
 40
4.635196488519521
100
AcDbArc
 50
89.492839338
 51
137.9908994417
  0
CIRCLE
  5
269
330
1F
100
AcDbEntity
  8
1
100
AcDbCircle
 10
39.0005993061
 20
-72.5030277083
 30
0.0
 40
3.249361074452423
  0
CIRCLE
  5
26A
330
1F
100
AcDbEntity
  8
1
100
AcDbCircle
 10
25.0005998024
 20
-72.5030552547
 30
0.0
 40
3.249354583845118
  0
ARC
  5
26B
330
1F
100
AcDbEntity
  8
1
100
AcDbCircle
 10
-0.2747649035
 20
-59.9674703636
 30
0.0
 40
0.3315022658939496
100
AcDbArc
 50
282.6843873844
 51
346.581330173
  0
ARC
  5
26C
330
1F
100
AcDbEntity
  8
1
100
AcDbCircle
 10
-0.5825952046
 20
28.6678747159
 30
0.0
 40
0.631450561312956
100
AcDbArc
 50
357.0734552697
 51
52.9310768467
  0
ARC
  5
26D
330
1F
100
AcDbEntity
  8
1
100
AcDbCircle
 10
-0.36789365
 20
34.8665041376
 30
0.0
 40
0.4078513023419809
100
AcDbArc
 50
294.0053362301001
 51
65.9951811044
  0
ARC
  5
26E
330
1F
100
AcDbEntity
  8
1
100
AcDbCircle
 10
9.2188331539
 20
-70.7123659269
 30
0.0
 40
0.7128836883387885
100
AcDbArc
 50
45.92200312400001
 51
91.51777241170001
  0
ARC
  5
26F
330
1F
100
AcDbEntity
  8
1
100
AcDbCircle
 10
22.1499517628
 20
3.0764879132
 30
0.0
 40
5.000000441050006
100
AcDbArc
 50
179.9999987771
 51
215.0000160294
  0
ARC
  5
270
330
1F
100
AcDbEntity
  8
1
100
AcDbCircle
 10
-0.4608995713
 20
-141.4647828082
 30
0.0
 40
71.46657749133429
100
AcDbArc
 50
89.62544900219999
 51
89.7924151434
  0
ARC
  5
271
330
1F
100
AcDbEntity
  8
1
100
AcDbCircle
 10
-2.668308851
 20
-61.3030505522
 30
0.0
 40
1.102479630411965
100
AcDbArc
 50
191.1321271618
 51
221.0247669754
  0
ARC
  5
272
330
1F
100
AcDbEntity
  8
1
100
AcDbCircle
 10
-2.0703796146
 20
31.7585249982
 30
0.0
 40
1.682312833769704
100
AcDbArc
 50
148.1924427814
 51
176.7850952165
  0
ARC
  5
273
330
1F
100
AcDbEntity
  8
1
100
AcDbCircle
 10
-2.5802196619
 20
-63.9956987372
 30
0.0
 40
1.223493601686099
100
AcDbArc
 50
197.0332157151
 51
221.2530395708
  0
ARC
  5
274
330
1F
100
AcDbEntity
  8
1
100
AcDbCircle
 10
17.2926497537
 20
-64.2112691426
 30
0.0
 40
3.572612266692175
100
AcDbArc
 50
37.2387284551
 51
90.68476537870002
  0
ARC
  5
275
330
1F
100
AcDbEntity
  8
1
100
AcDbCircle
 10
17.2071433713
 20
-64.2108592109
 30
0.0
 40
3.572203715551765
100
AcDbArc
 50
89.3133452651
 51
142.8523064295
  0
ARC
  5
276
330
1F
100
AcDbEntity
  8
1
100
AcDbCircle
 10
-2.6645416724
 20
-66.1229118584
 30
0.0
 40
1.160517389489474
100
AcDbArc
 50
200.7133901298
 51
223.950224314
  0
ARC
  5
277
330
1F
100
AcDbEntity
  8
1
100
AcDbCircle
 10
17.2505794857
 20
-71.6081019248
 30
0.0
 40
6.787340644627796
100
AcDbArc
 50
247.1397042227
 51
292.7993456715
  0
ARC
  5
278
330
1F
100
AcDbEntity
  8
1
100
AcDbCircle
 10
-2.7220398194
 20
-67.642106422
 30
0.0
 40
1.132416851109666
100
AcDbArc
 50
204.7972850223
 51
226.6042641252
  0
ARC
  5
279
330
1F
100
AcDbEntity
  8
1
100
AcDbCircle
 10
-3.9899665907
 20
-69.6549927974
 30
0.0
 40
0.6173353631684464
100
AcDbArc
 50
37.4765547931
 51
67.1300434073
  0
ARC
  5
27A
330
1F
100
AcDbEntity
  8
1
100
AcDbCircle
 10
-2.5611813071
 20
-68.4277097804
 30
0.0
 40
1.389028921187877
100
AcDbArc
 50
211.1411985998
 51
227.4746990741
  0
ARC
  5
27B
330
1F
100
AcDbEntity
  8
1
100
AcDbCircle
 10
-4.9037540898
 20
-71.1360433726
 30
0.0
 40
1.901025737956409
100
AcDbArc
 50
42.40520450900001
 51
52.63519371060001
  0
ARC
  5
27C
330
1F
100
AcDbEntity
  8
1
100
AcDbCircle
 10
-1.3097851514
 20
-67.6021538683
 30
0.0
 40
3.182424209883402
100
AcDbArc
 50
219.9332557188
 51
226.509269373
  0
ARC
  5
27D
330
1F
100
AcDbEntity
  8
CUT
100
AcDbCircle
 10
47.815054172
 20
-74.3448527338
 30
0.0
 40
0.8156968513605475
100
AcDbArc
 50
91.06057432520001
 51
182.1979274505
  0
ARC
  5
27E
330
1F
100
AcDbEntity
  8
CUT
100
AcDbCircle
 10
47.8130412029
 20
-70.4569282935
 30
0.0
 40
0.8132253427031558
100
AcDbArc
 50
178.9322959742
 51
269.078021157
  0
ARC
  5
27F
330
1F
100
AcDbEntity
  8
CUT
100
AcDbCircle
 10
59.7999553316
 20
-71.2046555667
 30
0.0
 40
0.1999988045571826
100
AcDbArc
 50
0.0
 51
84.2458672896
  0
ARC
  5
281
330
1F
100
AcDbEntity
  8
CUT
100
AcDbCircle
 10
47.7999522039
 20
-74.735427317
 30
0.0
 40
0.8000000000000256
100
AcDbArc
 50
90.0
 51
180.0
  0
ARC
  5
282
330
1F
100
AcDbEntity
  8
CUT
100
AcDbCircle
 10
59.7999522039
 20
-73.8046542804
 30
0.0
 40
0.2000000000000242
100
AcDbArc
 50
280.8322870219
 51
0.0000284757000006
  0
ARC
  5
283
330
1F
100
AcDbEntity
  8
CUT
100
AcDbCircle
 10
47.7999518356
 20
-70.2738809762
 30
0.0
 40
0.8000000000000256
100
AcDbArc
 50
180.0
 51
270.0
  0
ARC
  5
285
330
1F
100
AcDbEntity
  8
CUT
100
AcDbCircle
 10
47.7999390539
 20
74.7354114363
 30
0.0
 40
0.7999833717364593
100
AcDbArc
 50
179.9989063854
 51
270.0010936146001
  0
ARC
  5
286
330
1F
100
AcDbEntity
  8
CUT
100
AcDbCircle
 10
47.7999434887
 20
70.2738962183
 30
0.0
 40
0.7999860635789575
100
AcDbArc
 50
89.9990991801
 51
180.0009008166
  0
ARC
  5
287
330
1F
100
AcDbEntity
  8
CUT
100
AcDbCircle
 10
59.7999501606
 20
73.8046557173
 30
0.0
 40
0.1999997572454978
100
AcDbArc
 50
0.0001805652
 51
79.1650489093
  0
ARC
  5
288
330
1F
100
AcDbEntity
  8
CUT
100
AcDbCircle
 10
59.7999519955
 20
71.2046563476
 30
0.0
 40
0.1999996866578421
100
AcDbArc
 50
275.755173835
 51
0.000169594
  0
CIRCLE
  5
289
330
1F
100
AcDbEntity
  8
1
100
AcDbCircle
 10
24.9999522039
 20
-72.50000743
 30
0.0
 40
2.299999999999994
  0
CIRCLE
  5
28A
330
1F
100
AcDbEntity
  8
1
100
AcDbCircle
 10
24.9999522039
 20
-72.50000743
 30
0.0
 40
3.0
  0
CIRCLE
  5
28B
330
1F
100
AcDbEntity
  8
1
100
AcDbCircle
 10
38.9999522039
 20
-72.50000743
 30
0.0
 40
2.300000000000018
  0
CIRCLE
  5
28C
330
1F
100
AcDbEntity
  8
1
100
AcDbCircle
 10
38.9999522039
 20
-72.50000743
 30
0.0
 40
3.0
  0
ARC
  5
28D
330
1F
100
AcDbEntity
  8
1
100
AcDbCircle
 10
17.2506119036
 20
-72.4838113427
 30
0.0
 40
5.520815522047798
100
AcDbArc
 50
250.6600850408
 51
289.2221277301
  0
ARC
  5
28E
330
1F
100
AcDbEntity
  8
1
100
AcDbCircle
 10
17.2236047713
 20
74.3883939675
 30
0.0
 40
3.53882751104819
100
AcDbArc
 50
4.9128345607
 51
148.1115616512
  0
ARC
  5
28F
330
1F
100
AcDbEntity
  8
1
100
AcDbCircle
 10
16.8178010125
 20
74.6274699445
 30
0.0
 40
3.067993492497723
100
AcDbArc
 50
147.8990637059
 51
178.8048868284
  0
ARC
  5
290
330
1F
100
AcDbEntity
  8
1
100
AcDbCircle
 10
17.5136847267
 20
74.8226256612
 30
0.0
 40
2.964174235903169
100
AcDbArc
 50
327.1746287389
 51
329.0030855638
  0
ARC
  5
291
330
1F
100
AcDbEntity
  8
1
100
AcDbCircle
 10
12.2626016015
 20
77.5673980873
 30
0.0
 40
4.421477776609142
100
AcDbArc
 50
317.4126968506
 51
338.7669410205999
  0
ARC
  5
292
330
1F
100
AcDbEntity
  8
1
100
AcDbCircle
 10
19.3009681308
 20
75.9659893238
 30
0.0
 40
4.030574750688793
100
AcDbArc
 50
200.18351775
 51
223.6368443782
  0
ARC
  5
293
330
1F
100
AcDbEntity
  8
1
100
AcDbCircle
 10
17.2499530145
 20
75.6702353241
 30
0.0
 40
2.632229657856062
100
AcDbArc
 50
250.7913991178
 51
289.208600882
  0
ARC
  5
294
330
1F
100
AcDbEntity
  8
1
100
AcDbCircle
 10
14.8606786603
 20
76.176620559
 30
0.0
 40
4.42147777663887
100
AcDbArc
 50
317.4126968498999
 51
338.7669410205999
  0
ARC
  5
295
330
1F
100
AcDbEntity
  8
1
100
AcDbCircle
 10
22.3235791791
 20
77.6211206631
 30
0.0
 40
4.521391276618997
100
AcDbArc
 50
201.4716781951
 51
222.3486839377
  0
ARC
  5
296
330
1F
100
AcDbEntity
  8
1
100
AcDbCircle
 10
17.2499530145
 20
78.4517437663
 30
0.0
 40
2.632185638659292
100
AcDbArc
 50
250.7910652812
 51
289.2089347177
  0
ARC
  5
297
330
1F
100
AcDbEntity
  8
1
100
AcDbCircle
 10
17.4216247007
 20
74.787722803
 30
0.0
 40
1.829849980595445
100
AcDbArc
 50
326.6077962974
 51
329.5699179435
  0
ARC
  5
298
330
1F
100
AcDbEntity
  8
1
100
AcDbCircle
 10
17.2499769058
 20
72.4371401253
 30
0.0
 40
1.569557897715185
100
AcDbArc
 50
42.91978237699999
 51
137.1815265499
  0
ARC
  5
299
330
1F
100
AcDbEntity
  8
1
100
AcDbCircle
 10
17.2300777866
 20
72.9287695271
 30
0.0
 40
1.524050855529316
100
AcDbArc
 50
89.2527815271
 51
147.0681710299
  0
ARC
  5
29A
330
1F
100
AcDbEntity
  8
1
100
AcDbCircle
 10
17.2698197179
 20
72.9287536028
 30
0.0
 40
1.524066667334326
100
AcDbArc
 50
32.9321572162
 51
90.7468902277
  0
ARC
  5
29B
330
1F
100
AcDbEntity
  8
1
100
AcDbCircle
 10
17.2499436614
 20
-64.232615912
 30
0.0
 40
3.325636235984231
100
AcDbArc
 50
35.966581831
 51
144.0195396647
  0
ARC
  5
29C
330
1F
100
AcDbEntity
  8
1
100
AcDbCircle
 10
17.2499448555
 20
-64.083665753
 30
0.0
 40
2.062898214795495
100
AcDbArc
 50
31.63234493690001
 51
148.3557451284
  0
ARC
  5
29D
330
1F
100
AcDbEntity
  8
1
100
AcDbCircle
 10
17.2499530145
 20
-60.1799577031
 30
0.0
 40
2.632185638718572
100
AcDbArc
 50
250.7910652822
 51
289.2089347178
  0
ARC
  5
29E
330
1F
100
AcDbEntity
  8
1
100
AcDbCircle
 10
17.2970766164
 20
75.0601506254
 30
0.0
 40
3.557317230501857
100
AcDbArc
 50
270.0463422219
 51
326.274809697
  0
ARC
  5
29F
330
1F
100
AcDbEntity
  8
1
100
AcDbCircle
 10
17.6841925247
 20
74.7550740324
 30
0.0
 40
3.065874357102636
100
AcDbArc
 50
328.767628579
 51
358.9947609852
  0
ARC
  5
2A0
330
1F
100
AcDbEntity
  8
1
100
AcDbCircle
 10
17.2499530145
 20
75.312083032
 30
0.0
 40
3.813323938772458
100
AcDbArc
 50
269.2487080528
 51
270.7512919472
  0
ARC
  5
2A1
330
1F
100
AcDbEntity
  8
1
100
AcDbCircle
 10
17.7448221816
 20
74.7439004481
 30
0.0
 40
3.005130484406068
100
AcDbArc
 50
359.1160421651
 51
0.8839578349
  0
ARC
  5
2A2
330
1F
100
AcDbEntity
  8
1
100
AcDbCircle
 10
17.5368356599
 20
74.8301584117
 30
0.0
 40
3.232762736564156
100
AcDbArc
 50
327.2505914597
 51
328.9271227813001
  0
ARC
  5
2A3
330
1F
100
AcDbEntity
  8
1
100
AcDbCircle
 10
9.2006333838
 20
70.7990518164
 30
0.0
 40
0.7993188278252232
100
AcDbArc
 50
269.9511977786
 51
359.8869679786001
  0
ARC
  5
2A4
330
1F
100
AcDbEntity
  8
1
100
AcDbCircle
 10
-0.2611643454
 20
141.5083210579
 30
0.0
 40
71.51012174704654
100
AcDbArc
 50
270.2076745711
 51
270.3745390426001
  0
ARC
  5
2A5
330
1F
100
AcDbEntity
  8
1
100
AcDbCircle
 10
-1.1068381643
 20
67.5992723742
 30
0.0
 40
3.186536290389546
100
AcDbArc
 50
133.4935050675
 51
140.0610317023
  0
POINT
  5
2B9
330
1F
100
AcDbEntity
  8
1
100
AcDbPoint
 10
0.0
 20
0.0
 30
0.0
  0
DIMENSION
  5
2BA
330
1F
100
AcDbEntity
  8
SK2
100
AcDbDimension
280
     0
  2
_D
 10
68.70427168629999
 20
-74.0010905809
 30
0.0
 11
68.7042716863
 21
-0.0009353226
 31
0.0
 70
   160
  1
%%c<> - 176
 71
     5
 42
148.0003105166
 73
     0
 74
     0
 75
     0
  3
SLDDIMSTYLE0
100
AcDbAlignedDimension
 13
59.7290955612
 23
73.9992199357
 33
0.0
 14
59.8375391675
 24
-74.0010905809
 34
0.0
 50
90.0
100
AcDbRotatedDimension
1001
ACAD
1000
DSTYLE
1002
{
1070
   140
1040
3.5
1070
   340
1005
316
1070
   177
1070
   256
1070
   176
1070
   256
1070
   178
1070
   256
1070
   347
1005
14
1070
   346
1005
14
1070
   345
1005
14
1002
}
  0
DIMENSION
  5
2C8
330
1F
100
AcDbEntity
  8
SK2
100
AcDbDimension
280
     0
  2
_D_1
 10
78.8026456173
 20
78.5000100732
 30
0.0
 11
78.8026456173
 21
0.0
 31
0.0
 70
   160
  1
%%c159 - 187
 71
     5
 42
157.0000201464
 73
     0
 74
     0
 75
     0
  3
SLDDIMSTYLE0
100
AcDbAlignedDimension
 13
46.9999574253
 23
-78.5000100732
 33
0.0
 14
46.9999574253
 24
78.5000100732
 34
0.0
 50
90.0
100
AcDbRotatedDimension
1001
ACAD
1000
DSTYLE
1002
{
1070
   140
1040
3.5
1070
   340
1005
316
1070
   177
1070
   256
1070
   176
1070
   256
1070
   178
1070
   256
1070
   347
1005
14
1070
   346
1005
14
1070
   345
1005
14
1002
}
  0
DIMENSION
  5
2D3
330
1F
100
AcDbEntity
  8
2
100
AcDbDimension
280
     0
  2
_D_2
 10
-3.550059218296612
 20
87.62328890052576
 30
0.0
 11
13.8196330596
 21
87.6233006872
 31
0.0
 70
   160
  1
143
 71
     5
 42
63.54999975917533
 73
     0
 74
     0
 75
     0
  3
SLDDIMSTYLE1
100
AcDbAlignedDimension
 13
59.9999499179
 23
73.8046563476
 33
0.0
 14
-3.5500470186
 24
69.6449370643
 34
0.0
 50
0.0000388796
100
AcDbRotatedDimension
1001
ACAD
1000
DSTYLE
1002
{
1070
   140
1040
3.5
1070
   340
1005
316
1070
   177
1070
   256
1070
   176
1070
   256
1070
   178
1070
   256
1070
   347
1005
14
1070
   346
1005
14
1070
   345
1005
14
1002
}
  0
LINE
  5
382
330
1F
100
AcDbEntity
  8
NOCUT
100
AcDbLine
 10
0.0
 20
0.0
 30
0.0
 11
0.0000000000000042
 21
69.99867621566833
 31
0.0
  0
LINE
  5
386
330
1F
100
AcDbEntity
  8
NOCUT
100
AcDbLine
 10
-0.001968965363852
 20
69.99866905180792
 30
0.0
 11
9.1999525565
 21
69.9997332785
 31
0.0
  0
ARC
  5
387
330
1F
100
AcDbEntity
  8
NOCUT
100
AcDbCircle
 10
9.199437527660757
 20
70.80025105503708
 30
0.0
 40
0.8005179422140232
100
AcDbArc
 50
270.0368623603491
 51
359.8013033971954
  0
LINE
  5
388
330
1F
100
AcDbEntity
  8
NOCUT
100
AcDbLine
 10
9.999950656205398
 20
70.79747493647942
 30
0.0
 11
9.999950656205398
 21
78.48572466452298
 31
0.0
  0
LINE
  5
389
330
1F
100
AcDbEntity
  8
NOCUT
100
AcDbLine
 10
9.999950656205398
 20
78.48572466452298
 30
0.0
 11
46.99995742530001
 21
78.48572466452298
 31
0.0
  0
LINE
  5
38A
330
1F
100
AcDbEntity
  8
NOCUT
100
AcDbLine
 10
46.99995742530001
 20
78.48572466452298
 30
0.0
 11
46.99995742530001
 21
74.72613380177965
 31
0.0
  0
ARC
  5
38B
330
1F
100
AcDbEntity
  8
NOCUT
100
AcDbCircle
 10
47.79993905389998
 20
74.73541143629998
 30
0.0
 40
0.799983371736444
100
AcDbArc
 50
179.9989063853987
 51
270.0010936146013
  0
LINE
  5
38C
330
1F
100
AcDbEntity
  8
NOCUT
100
AcDbLine
 10
47.7999543233
 20
73.9354280647
 30
0.0
 11
58.9999519416
 21
73.9354280647
 31
0.0
  0
LINE
  5
38D
330
1F
100
AcDbEntity
  8
NOCUT
100
AcDbLine
 10
58.9999519416
 20
73.9354280647
 30
0.0
 11
59.7290955612
 21
73.9992199357
 31
0.0
  0
LINE
  5
38E
330
1F
100
AcDbEntity
  8
NOCUT
100
AcDbLine
 10
59.7290955612
 20
73.9992199357
 30
0.0
 11
59.83754621222931
 21
74.00109003151252
 31
0.0
  0
ARC
  5
394
330
1F
100
AcDbEntity
  8
NOCUT
100
AcDbCircle
 10
59.79995016059784
 20
73.80465571729923
 30
0.0
 40
0.1999997572476567
100
AcDbArc
 50
0.000180565419709
 51
79.16504888817082
  0
LINE
  5
395
330
1F
100
AcDbEntity
  8
NOCUT
100
AcDbLine
 10
59.9999499178445
 20
73.80465634759068
 30
0.0
 11
59.9999499178445
 21
71.1962290867704
 31
0.0
  0
ARC
  5
396
330
1F
100
AcDbEntity
  8
NOCUT
100
AcDbCircle
 10
59.7996070126391
 20
71.205077748347
 30
0.0
 40
0.2005382219873246
100
AcDbArc
 50
262.8376659505935
 51
357.4710276245871
  0
LINE
  5
397
330
1F
100
AcDbEntity
  8
NOCUT
100
AcDbLine
 10
59.7746037075
 20
71.0061043501
 30
0.0
 11
58.9999519416
 21
71.0738822818
 31
0.0
  0
LINE
  5
398
330
1F
100
AcDbEntity
  8
NOCUT
100
AcDbLine
 10
58.9999519416
 20
71.0738822818
 30
0.0
 11
47.79995606629947
 21
71.07388228178007
 31
0.0
  0
ARC
  5
399
330
1F
100
AcDbEntity
  8
NOCUT
100
AcDbCircle
 10
47.7999434887
 20
70.2738962183
 30
0.0
 40
0.7999860635789542
100
AcDbArc
 50
89.99909918010015
 51
180.0009008166002
  0
LINE
  5
39A
330
1F
100
AcDbEntity
  8
NOCUT
100
AcDbLine
 10
46.99995742521992
 20
70.2738836407466
 30
0.0
 11
46.99995742521991
 21
41.12974431596538
 31
0.0
  0
LINE
  5
39B
330
1F
100
AcDbEntity
  8
NOCUT
100
AcDbLine
 10
46.99995742521991
 20
41.12974431596538
 30
0.0
 11
18.2003047938
 21
0.0000147593
 31
0.0
  0
LINE
  5
39C
330
1F
100
AcDbEntity
  8
NOCUT
100
AcDbLine
 10
18.2003047938
 20
0.0000147593
 30
0.0
 11
0.0042401281686537
 21
0.0000147593000022
 31
0.0
  0
LWPOLYLINE
  5
39E
330
1F
100
AcDbEntity
  8
INFTOTAL
100
AcDbPolyline
 90
        4
 70
     1
 43
0.0
 10
-95.37895245483037
 20
122.0403785133516
 10
-95.37895245483037
 20
-138.9161763646972
 10
168.7216573012669
 20
-138.9161763646972
 10
168.7216573012669
 20
122.0403785133516
  0
LINE
  5
3B1
330
1F
100
AcDbEntity
  8
4
100
AcDbLine
 10
30.8122799527
 20
0.0
 30
0.0
 11
0.0
 21
0.0
 31
0.0
  0
LWPOLYLINE
  5
3C9
330
1F
100
AcDbEntity
  8
1
100
AcDbPolyline
 90
       43
 70
     0
 43
0.0
 10
21.33101032964763
 20
-60.00000742996568
 10
21.49322672819181
 20
-59.5709305565486
 10
21.61676429127469
 20
-59.12712452446184
 10
21.70049693359387
 20
-58.67263477087748
 10
21.74366140472177
 20
-58.21160411858417
 10
21.74586424638297
 20
-57.74823501280212
 10
21.70708537895507
 20
-57.28675121452012
 10
21.62767828450104
 20
-56.83135929953232
 10
21.50836678466458
 20
-56.38621031412369
 10
21.35023844279905
 20
-55.95536193692516
 10
21.15473465047167
 20
-55.54274149184545
 10
20.9236374887079
 20
-55.15211014922878
 10
20.65905348373984
 20
-54.78702864155679
 10
20.36339440533051
 20
-54.45082480620702
 10
20.03935528270342
 20
-54.14656325112662
 10
19.6898898384696
 20
-53.87701741992822
 10
19.31818356447964
 20
-53.64464431104419
 10
18.92762468502334
 20
-53.45156208138205
 10
18.52177327205693
 20
-53.29953073863134
 10
18.10432879398247
 20
-53.18993609821776
 10
17.6790963937831
 20
-53.12377715114218
 10
17.24995220389992
 20
-53.10165695785086
 10
16.82080801401675
 20
-53.12377715114219
 10
16.39557561381738
 20
-53.18993609821779
 10
15.97813113574292
 20
-53.29953073863139
 10
15.57227972277652
 20
-53.45156208138211
 10
15.18172084332023
 20
-53.64464431104427
 10
14.81001456933027
 20
-53.87701741992831
 10
14.46054912509646
 20
-54.14656325112672
 10
14.13651000246939
 20
-54.45082480620714
 10
13.84085092406006
 20
-54.78702864155692
 10
13.57626691909201
 20
-55.15211014922892
 10
13.34516975732826
 20
-55.5427414918456
 10
13.1496659650009
 20
-55.95536193692531
 10
12.99153762313538
 20
-56.38621031412384
 10
12.87222612329893
 20
-56.83135929953247
 10
12.79281902884492
 20
-57.28675121452027
 10
12.75404016141702
 20
-57.74823501280228
 10
12.75624300307824
 20
-58.21160411858432
 10
12.79940747420616
 20
-58.67263477087763
 10
12.88314011652535
 20
-59.12712452446198
 10
13.00667767960823
 20
-59.57093055654873
 10
13.16889407815243
 20
-60.00000742996581
  0
LWPOLYLINE
  5
3CA
330
1F
100
AcDbEntity
  8
1
100
AcDbPolyline
 90
        6
 70
     0
 43
0.0
 10
-0.2019708799377141
 20
34.49392888452554
 10
-0.8650273374884374
 20
34.15236609135129
 10
-1.521444433368773
 20
33.80655502194149
 10
-2.171140514655031
 20
33.45653869236785
 10
-2.81403476446282
 20
33.10236064180207
 10
-3.450047212000024
 20
32.74406492709995
  0
LWPOLYLINE
  5
3CB
330
1F
100
AcDbEntity
  8
1
100
AcDbPolyline
 90
        5
 70
     0
 43
0.0
 10
-0.2019742440175098
 20
35.23908088883527
 10
-1.001301125971981
 20
35.62119697848456
 10
-1.809180623087688
 20
35.99726979956279
 10
-2.62547567562331
 20
36.3672355499265
 10
-3.450047796107438
 20
36.73103146351932
  0
LWPOLYLINE
  5
3CC
330
1F
100
AcDbEntity
  8
1
100
AcDbPolyline
 90
        6
 70
     0
 43
0.0
 10
-0.2019724063241658
 20
29.17171605676075
 10
-0.833046241477134
 20
29.61036927555932
 10
-1.473489826538148
 20
30.04447223525725
 10
-2.123204743840184
 20
30.47395822677737
 10
-2.782091150980463
 20
30.89876125053708
 10
-3.450047796163333
 20
31.31881602659058
  0
LWPOLYLINE
  5
3CD
330
1F
100
AcDbEntity
  8
1
100
AcDbPolyline
 90
        4
 70
     0
 43
0.0
 10
-3.450047796111147
 20
-68.218555122473
 10
-2.364936402709103
 20
-68.07141392548544
 10
-1.282213828984241
 20
-67.91851945208354
 10
-0.2019715847578967
 20
-67.75988462464124
  0
LWPOLYLINE
  5
3CE
330
1F
100
AcDbEntity
  8
1
100
AcDbPolyline
 90
        4
 70
     0
 43
0.0
 10
-3.450047796091882
 20
-66.98935988343246
 10
-2.370269811011804
 20
-67.17519249900572
 10
-1.287547294285541
 20
-67.35522372950913
 10
-0.201973752023085
 20
-67.5294380270809
  0
LWPOLYLINE
  5
3CF
330
1F
100
AcDbEntity
  8
1
100
AcDbPolyline
 90
        4
 70
     0
 43
0.0
 10
-3.450047212051222
 20
-66.55427068472444
 10
-2.363880394399926
 20
-66.3466050645362
 10
-1.281156268954446
 20
-66.1330308359334
 10
-0.2019712595446972
 20
-65.9135670191305
  0
LWPOLYLINE
  5
3D0
330
1F
100
AcDbEntity
  8
1
100
AcDbPolyline
 90
        4
 70
     0
 43
0.0
 10
-3.450047796104946
 20
-64.86813409940348
 10
-2.371408007931428
 20
-65.11723378661611
 10
-1.28868368977158
 20
-65.36035502249396
 10
-0.2019742471899298
 20
-65.59747548593157
  0
LWPOLYLINE
  5
3D1
330
1F
100
AcDbEntity
  8
1
100
AcDbPolyline
 90
        4
 70
     0
 43
0.0
 10
-3.450047212019107
 20
-64.28973376748843
 10
-2.362623269221159
 20
-64.01565927744421
 10
-1.279897002979367
 20
-63.73545391106703
 10
-0.2019721076314618
 20
-63.44914450405008
  0
LWPOLYLINE
  5
3D2
330
1F
100
AcDbEntity
  8
1
100
AcDbPolyline
 90
        4
 70
     0
 43
0.0
 10
-3.450047796118099
 20
-62.09811024371537
 10
-2.372797595835593
 20
-62.41776033401122
 10
-1.29007037394669
 20
-62.73118140204772
 10
-0.2019741819535807
 20
-63.03834216975545
  0
LWPOLYLINE
  5
3D3
330
1F
100
AcDbEntity
  8
1
100
AcDbPolyline
 90
        4
 70
     0
 43
0.0
 10
-3.450047212088045
 20
-61.35853379960712
 10
-2.361040623909226
 20
-61.0090798117962
 10
-1.278311279509453
 20
-60.65318339209711
 10
-0.2019735128697072
 20
-60.29088212243622
  0
LWPOLYLINE
  5
3D4
330
1F
100
AcDbEntity
  8
1
100
AcDbPolyline
 90
        4
 70
     0
 43
0.0
 10
-3.450047663752265
 20
-69.96194471859081
 10
-2.367560223939395
 20
-69.97977108515282
 10
-1.28484018511945
 20
-69.99201462664412
 10
-0.2019739242219973
 20
-69.99867436630298
  0
LWPOLYLINE
  5
3D5
330
1F
100
AcDbEntity
  8
1
100
AcDbPolyline
 90
        4
 70
     0
 43
0.0
 10
-3.450047079735509
 20
-69.90259764971904
 10
-2.366727364651618
 20
-69.86675866932528
 10
-1.284006583384611
 20
-69.82532352945164
 10
-0.201971459283989
 20
-69.7782955489539
  0
LWPOLYLINE
  5
3D6
330
1F
100
AcDbEntity
  8
1
100
AcDbPolyline
 90
        4
 70
     0
 43
0.0
 10
-3.450047516965476
 20
-69.50520685730699
 10
-2.36840045077801
 20
-69.57701251589798
 10
-1.285680149691313
 20
-69.64320738786367
 10
-0.2019739257828644
 20
-69.70378613515713
  0
LWPOLYLINE
  5
3D7
330
1F
100
AcDbEntity
  8
1
100
AcDbPolyline
 90
        4
 70
     0
 43
0.0
 10
-3.450046932889375
 20
-69.32583765089346
 10
-2.365866900879287
 20
-69.23544515406998
 10
-1.283145652549848
 20
-69.13940097904029
 10
-0.2019715702709991
 20
-69.03771296587568
  0
LWPOLYLINE
  5
3D8
330
1F
100
AcDbEntity
  8
1
100
AcDbPolyline
 90
        4
 70
     0
 43
0.0
 10
-3.450047796178648
 20
-68.52206830575037
 10
-2.369288422804285
 20
-68.64940334705865
 10
-1.286567298272761
 20
-68.77105644383325
 10
-0.2019740367939815
 20
-68.88701752714144
  0
LWPOLYLINE
  5
3D9
330
1F
100
AcDbEntity
  8
CUT
100
AcDbPolyline
 90
       14
 70
     0
 43
0.0
 10
59.66695735063288
 20
-71.27004835071503
 10
59.66254070108472
 20
-71.43889622227148
 10
59.65877902101918
 20
-71.60980384907118
 10
59.65567961234864
 20
-71.78243947708458
 10
59.65324849143023
 20
-71.95646799800603
 10
59.65149037738723
 20
-72.13155159974283
 10
59.65040868294866
 20
-72.30735042215257
 10
59.65000550782473
 20
-72.48352321675605
 10
59.65028163463102
 20
-72.65972800914524
 10
59.65123652736933
 20
-72.83562276280021
 10
59.65286833246812
 20
-73.0108660430267
 10
59.65517388238052
 20
-73.18511767972548
 10
59.65814870173298
 20
-73.35803942770698
 10
59.66178701601252
 20
-73.52929562326932
  0
LWPOLYLINE
  5
3DA
330
1F
100
AcDbEntity
  8
CUT
100
AcDbPolyline
 90
       20
 70
     0
 43
0.0
 10
50.51403692205862
 20
73.93542806468612
 10
50.41275527373769
 20
73.790638605465
 10
50.3223035045547
 20
73.6439358534399
 10
50.24281570449786
 20
73.49553728772113
 10
50.17440971004807
 20
73.34566290137357
 10
50.11718692949253
 20
73.1945348752885
 10
50.07123219259235
 20
73.04237724881217
 10
50.03661362482679
 20
72.88941558761921
 10
50.01338254640095
 20
72.73587664932344
 10
50.00157339616614
 20
72.58198804732157
 10
50.00120368056619
 20
72.4279779133684
 10
50.01227394768502
 20
72.27407455938338
 10
50.03476778643414
 20
72.12050613899036
 10
50.06865185088127
 20
71.96750030929172
 10
50.11387590968383
 20
71.81528389337875
 10
50.17037292055438
 20
71.66408254407833
 10
50.23805912964719
 20
71.5141204094345
 10
50.31683419571898
 20
71.36561980042079
 10
50.40658133887946
 20
71.2188008613759
 10
50.50716751371145
 20
71.07388124365127
  0
LWPOLYLINE
  5
3DB
330
1F
100
AcDbEntity
  8
1
100
AcDbPolyline
 90
        4
 70
     0
 43
0.0
 10
-0.0019689653858169
 20
69.99866905184612
 10
-1.084837531130896
 20
69.99200857467925
 10
-2.167559870471636
 20
69.97976427196407
 10
-3.250049605926547
 20
69.96193712052721
  0
ENDSEC
  0
SECTION
  2
OBJECTS
  0
DICTIONARY
  5
C
330
0
100
AcDbDictionary
281
     1
  3
ACAD_DETAILVIEWSTYLE
350
392
  3
ACAD_GROUP
350
D
  3
ACAD_LAYOUT
350
2FE
  3
ACAD_MATERIAL
350
312
  3
ACAD_MLEADERSTYLE
350
329
  3
ACAD_MLINESTYLE
350
17
  3
ACAD_PLOTSETTINGS
350
36B
  3
ACAD_PLOTSTYLENAME
350
36C
  3
ACAD_SCALELIST
350
2DC
  3
ACAD_SECTIONVIEWSTYLE
350
393
  3
ACAD_TABLESTYLE
350
378
  3
ACAD_VISUALSTYLE
350
301
  3
ACDB_RECOMPOSE_DATA
350
3DE
  3
AcDbVariableDictionary
350
327
  3
APPDATA
350
37B
  0
SUN
  5
39F
330
29
100
AcDbSun
 90
        1
290
     0
 63
     7
421
 16777215
 40
1.0
291
     1
 91
  2455826
 92
 54000000
292
     0
 70
     2
 71
   256
280
     1
  0
DICTIONARY
  5
37C
330
2
100
AcDbDictionary
280
     1
281
     1
  3
ACAD_LAYERSTATES
360
37D
  0
DICTIONARY
  5
392
102
{ACAD_REACTORS
330
C
102
}
330
C
100
AcDbDictionary
281
     1
  0
DICTIONARY
  5
D
102
{ACAD_REACTORS
330
C
102
}
330
C
100
AcDbDictionary
281
     1
  0
DICTIONARY
  5
2FE
102
{ACAD_REACTORS
330
C
102
}
330
C
100
AcDbDictionary
281
     1
  3
Layout1
350
300
  3
Model
350
2FF
  0
DICTIONARY
  5
312
102
{ACAD_REACTORS
330
C
102
}
330
C
100
AcDbDictionary
281
     1
  3
ByBlock
350
314
  3
ByLayer
350
313
  3
Global
350
315
  0
DICTIONARY
  5
329
102
{ACAD_REACTORS
330
C
102
}
330
C
100
AcDbDictionary
281
     1
  3
Standard
350
37A
  0
DICTIONARY
  5
17
102
{ACAD_REACTORS
330
C
102
}
330
C
100
AcDbDictionary
281
     1
  3
STANDARD
350
18
  0
DICTIONARY
  5
36B
102
{ACAD_REACTORS
330
C
102
}
330
C
100
AcDbDictionary
281
     1
  0
ACDBDICTIONARYWDFLT
  5
36C
102
{ACAD_REACTORS
330
C
102
}
330
C
100
AcDbDictionary
281
     1
  3
Normal
350
36D
100
AcDbDictionaryWithDefault
340
36D
  0
DICTIONARY
  5
2DC
102
{ACAD_REACTORS
330
C
102
}
330
C
100
AcDbDictionary
281
     1
  3
A0
350
2DD
  3
A1
350
2DE
  3
A2
350
2DF
  3
A3
350
2E0
  3
A4
350
2E1
  3
A5
350
2E2
  3
A6
350
2E3
  3
A7
350
2E4
  3
A8
350
2E5
  3
A9
350
2E6
  3
B0
350
2E7
  3
B1
350
2E8
  3
B2
350
2E9
  3
B3
350
2EA
  3
B4
350
2EB
  3
B5
350
2EC
  3
B6
350
2ED
  3
B7
350
2EE
  3
B8
350
2EF
  3
B9
350
2F0
  3
C0
350
2F1
  3
C1
350
2F2
  3
C2
350
2F3
  3
C3
350
2F4
  3
C4
350
2F5
  3
C5
350
2F6
  3
C6
350
2F7
  3
C7
350
2F8
  3
C8
350
2F9
  3
C9
350
2FA
  3
D0
350
2FB
  3
D1
350
2FC
  3
D2
350
2FD
  0
DICTIONARY
  5
393
102
{ACAD_REACTORS
330
C
102
}
330
C
100
AcDbDictionary
281
     1
  0
DICTIONARY
  5
378
102
{ACAD_REACTORS
330
C
102
}
330
C
100
AcDbDictionary
281
     1
  3
Standard
350
379
  0
DICTIONARY
  5
301
102
{ACAD_REACTORS
330
C
102
}
330
C
100
AcDbDictionary
281
     1
  3
2dWireframe
350
306
  3
3D Hidden
350
308
  3
3dWireframe
350
307
  3
Basic
350
309
  3
Brighten
350
30D
  3
ColorChange
350
311
  3
Conceptual
350
30B
  3
Dim
350
30C
  3
EdgeColorOff
350
372
  3
Facepattern
350
310
  3
Flat
350
302
  3
FlatWithEdges
350
303
  3
Gouraud
350
304
  3
GouraudWithEdges
350
305
  3
Hidden
350
36F
  3
JitterOff
350
370
  3
Linepattern
350
30F
  3
OverhangOff
350
371
  3
Realistic
350
30A
  3
Shaded
350
377
  3
Shaded with edges
350
376
  3
Shades of Gray
350
373
  3
Sketchy
350
374
  3
Thicken
350
30E
  3
Wireframe
350
36E
  3
X-Ray
350
375
  0
XRECORD
  5
3DE
102
{ACAD_REACTORS
330
C
102
}
330
C
100
AcDbXrecord
280
     1
 90
        1
330
379
  0
DICTIONARY
  5
327
102
{ACAD_REACTORS
330
C
102
}
330
C
100
AcDbDictionary
281
     1
  3
CANNOSCALE
350
38F
  3
CMLEADERSTYLE
350
391
  3
CTABLESTYLE
350
390
  3
DIMASSOC
350
32B
  3
HIDETEXT
350
32C
  3
MSLTSCALE
350
32A
  0
DICTIONARY
  5
37B
102
{ACAD_REACTORS
330
C
102
}
330
C
100
AcDbDictionary
281
     1
  0
DICTIONARY
  5
37D
102
{ACAD_REACTORS
330
37C
102
}
330
37C
100
AcDbDictionary
281
     1
  0
LAYOUT
  5
300
102
{ACAD_REACTORS
330
2FE
102
}
330
2FE
100
AcDbPlotSettings
  1

  2
none_device
  4

  6

 40
0.0
 41
0.0
 42
0.0
 43
0.0
 44
0.0
 45
0.0
 46
0.0
 47
0.0
 48
0.0
 49
0.0
140
0.0
141
0.0
142
1.0
143
1.0
 70
   688
 72
     0
 73
     0
 74
     5
  7

 75
    16
 76
     0
 77
     2
 78
   300
147
1.0
148
0.0
149
0.0
100
AcDbLayout
  1
Layout1
 70
     1
 71
     1
 10
0.0
 20
0.0
 11
420.0
 21
297.0
 12
0.0
 22
0.0
 32
0.0
 14
1.000000000000000E+20
 24
1.000000000000000E+20
 34
1.000000000000000E+20
 15
-1.000000000000000E+20
 25
-1.000000000000000E+20
 35
-1.000000000000000E+20
146
0.0
 13
0.0
 23
0.0
 33
0.0
 16
1.0
 26
0.0
 36
0.0
 17
0.0
 27
1.0
 37
0.0
 76
     0
330
1B
  0
LAYOUT
  5
2FF
102
{ACAD_REACTORS
330
2FE
102
}
330
2FE
100
AcDbPlotSettings
  1

  2
none_device
  4

  6

 40
0.0
 41
0.0
 42
0.0
 43
0.0
 44
0.0
 45
0.0
 46
0.0
 47
0.0
 48
0.0
 49
0.0
140
0.0
141
0.0
142
1.0
143
1.0
 70
  1712
 72
     0
 73
     0
 74
     0
  7

 75
     0
 76
     0
 77
     2
 78
   300
147
1.0
148
-0.0000001562100806
149
0.0
100
AcDbLayout
  1
Model
 70
     1
 71
     0
 10
0.0
 20
0.0
 11
420.0
 21
297.0
 12
0.0
 22
0.0
 32
0.0
 14
-95.37895245483037
 24
-138.9161763646972
 34
0.0
 15
168.7216573012669
 25
122.0403785133516
 35
0.0
146
0.0
 13
0.0
 23
0.0
 33
0.0
 16
1.0
 26
0.0
 36
0.0
 17
0.0
 27
1.0
 37
0.0
 76
     0
330
1F
331
29
  0
MATERIAL
  5
314
102
{ACAD_REACTORS
330
312
102
}
330
312
100
AcDbMaterial
  1
ByBlock
 72
     1
 94
      127
  0
MATERIAL
  5
313
102
{ACAD_REACTORS
330
312
102
}
330
312
100
AcDbMaterial
  1
ByLayer
 72
     1
 94
      127
  0
MATERIAL
  5
315
102
{ACAD_REACTORS
330
312
102
}
330
312
100
AcDbMaterial
  1
Global
 72
     1
 94
      127
  0
MLEADERSTYLE
  5
37A
102
{ACAD_REACTORS
330
329
102
}
330
329
100
AcDbMLeaderStyle
179
     2
170
     2
171
     1
172
     0
 90
        2
 40
0.0
 41
0.0
173
     1
 91
-1056964608
340
14
 92
       -2
290
     1
 42
2.0
291
     1
 43
8.0
  3
Standard
341
0
 44
4.0
300

342
11
174
     1
178
     1
175
     1
176
     0
 93
-1056964608
 45
4.0
292
     0
297
     0
 46
4.0
343
0
 94
-1056964608
 47
1.0
 49
1.0
140
1.0
293
     1
141
0.0
294
     1
177
     0
142
1.0
295
     0
296
     0
143
3.75
271
     0
272
     9
273
     9
298
     0
  0
MLINESTYLE
  5
18
102
{ACAD_REACTORS
330
17
102
}
330
17
100
AcDbMlineStyle
  2
Standard
 70
     0
  3

 62
   256
 51
90.0
 52
90.0
 71
     2
 49
0.5
 62
   256
  6
BYLAYER
 49
-0.5
 62
   256
  6
BYLAYER
  0
ACDBPLACEHOLDER
  5
36D
102
{ACAD_REACTORS
330
36C
102
}
330
36C
  0
SCALE
  5
2DD
102
{ACAD_REACTORS
330
2DC
102
}
330
2DC
100
AcDbScale
 70
     0
300
1:1
140
1.0
141
1.0
290
     1
  0
SCALE
  5
2DE
102
{ACAD_REACTORS
330
2DC
102
}
330
2DC
100
AcDbScale
 70
     0
300
1:2
140
1.0
141
2.0
290
     0
  0
SCALE
  5
2DF
102
{ACAD_REACTORS
330
2DC
102
}
330
2DC
100
AcDbScale
 70
     0
300
1:4
140
1.0
141
4.0
290
     0
  0
SCALE
  5
2E0
102
{ACAD_REACTORS
330
2DC
102
}
330
2DC
100
AcDbScale
 70
     0
300
1:5
140
1.0
141
5.0
290
     0
  0
SCALE
  5
2E1
102
{ACAD_REACTORS
330
2DC
102
}
330
2DC
100
AcDbScale
 70
     0
300
1:8
140
1.0
141
8.0
290
     0
  0
SCALE
  5
2E2
102
{ACAD_REACTORS
330
2DC
102
}
330
2DC
100
AcDbScale
 70
     0
300
1:10
140
1.0
141
10.0
290
     0
  0
SCALE
  5
2E3
102
{ACAD_REACTORS
330
2DC
102
}
330
2DC
100
AcDbScale
 70
     0
300
1:16
140
1.0
141
16.0
290
     0
  0
SCALE
  5
2E4
102
{ACAD_REACTORS
330
2DC
102
}
330
2DC
100
AcDbScale
 70
     0
300
1:20
140
1.0
141
20.0
290
     0
  0
SCALE
  5
2E5
102
{ACAD_REACTORS
330
2DC
102
}
330
2DC
100
AcDbScale
 70
     0
300
1:30
140
1.0
141
30.0
290
     0
  0
SCALE
  5
2E6
102
{ACAD_REACTORS
330
2DC
102
}
330
2DC
100
AcDbScale
 70
     0
300
1:40
140
1.0
141
40.0
290
     0
  0
SCALE
  5
2E7
102
{ACAD_REACTORS
330
2DC
102
}
330
2DC
100
AcDbScale
 70
     0
300
1:50
140
1.0
141
50.0
290
     0
  0
SCALE
  5
2E8
102
{ACAD_REACTORS
330
2DC
102
}
330
2DC
100
AcDbScale
 70
     0
300
1:100
140
1.0
141
100.0
290
     0
  0
SCALE
  5
2E9
102
{ACAD_REACTORS
330
2DC
102
}
330
2DC
100
AcDbScale
 70
     0
300
2:1
140
2.0
141
1.0
290
     0
  0
SCALE
  5
2EA
102
{ACAD_REACTORS
330
2DC
102
}
330
2DC
100
AcDbScale
 70
     0
300
4:1
140
4.0
141
1.0
290
     0
  0
SCALE
  5
2EB
102
{ACAD_REACTORS
330
2DC
102
}
330
2DC
100
AcDbScale
 70
     0
300
8:1
140
8.0
141
1.0
290
     0
  0
SCALE
  5
2EC
102
{ACAD_REACTORS
330
2DC
102
}
330
2DC
100
AcDbScale
 70
     0
300
10:1
140
10.0
141
1.0
290
     0
  0
SCALE
  5
2ED
102
{ACAD_REACTORS
330
2DC
102
}
330
2DC
100
AcDbScale
 70
     0
300
100:1
140
100.0
141
1.0
290
     0
  0
SCALE
  5
2EE
102
{ACAD_REACTORS
330
2DC
102
}
330
2DC
100
AcDbScale
 70
     0
300
1/128" = 1'-0"
140
0.0078125
141
12.0
290
     0
  0
SCALE
  5
2EF
102
{ACAD_REACTORS
330
2DC
102
}
330
2DC
100
AcDbScale
 70
     0
300
1/64" = 1'-0"
140
0.015625
141
12.0
290
     0
  0
SCALE
  5
2F0
102
{ACAD_REACTORS
330
2DC
102
}
330
2DC
100
AcDbScale
 70
     0
300
1/32" = 1'-0"
140
0.03125
141
12.0
290
     0
  0
SCALE
  5
2F1
102
{ACAD_REACTORS
330
2DC
102
}
330
2DC
100
AcDbScale
 70
     0
300
1/16" = 1'-0"
140
0.0625
141
12.0
290
     0
  0
SCALE
  5
2F2
102
{ACAD_REACTORS
330
2DC
102
}
330
2DC
100
AcDbScale
 70
     0
300
3/32" = 1'-0"
140
0.09375
141
12.0
290
     0
  0
SCALE
  5
2F3
102
{ACAD_REACTORS
330
2DC
102
}
330
2DC
100
AcDbScale
 70
     0
300
1/8" = 1'-0"
140
0.125
141
12.0
290
     0
  0
SCALE
  5
2F4
102
{ACAD_REACTORS
330
2DC
102
}
330
2DC
100
AcDbScale
 70
     0
300
3/16" = 1'-0"
140
0.1875
141
12.0
290
     0
  0
SCALE
  5
2F5
102
{ACAD_REACTORS
330
2DC
102
}
330
2DC
100
AcDbScale
 70
     0
300
1/4" = 1'-0"
140
0.25
141
12.0
290
     0
  0
SCALE
  5
2F6
102
{ACAD_REACTORS
330
2DC
102
}
330
2DC
100
AcDbScale
 70
     0
300
3/8" = 1'-0"
140
0.375
141
12.0
290
     0
  0
SCALE
  5
2F7
102
{ACAD_REACTORS
330
2DC
102
}
330
2DC
100
AcDbScale
 70
     0
300
1/2" = 1'-0"
140
0.5
141
12.0
290
     0
  0
SCALE
  5
2F8
102
{ACAD_REACTORS
330
2DC
102
}
330
2DC
100
AcDbScale
 70
     0
300
3/4" = 1'-0"
140
0.75
141
12.0
290
     0
  0
SCALE
  5
2F9
102
{ACAD_REACTORS
330
2DC
102
}
330
2DC
100
AcDbScale
 70
     0
300
1" = 1'-0"
140
1.0
141
12.0
290
     0
  0
SCALE
  5
2FA
102
{ACAD_REACTORS
330
2DC
102
}
330
2DC
100
AcDbScale
 70
     0
300
1-1/2" = 1'-0"
140
1.5
141
12.0
290
     0
  0
SCALE
  5
2FB
102
{ACAD_REACTORS
330
2DC
102
}
330
2DC
100
AcDbScale
 70
     0
300
3" = 1'-0"
140
3.0
141
12.0
290
     0
  0
SCALE
  5
2FC
102
{ACAD_REACTORS
330
2DC
102
}
330
2DC
100
AcDbScale
 70
     0
300
6" = 1'-0"
140
6.0
141
12.0
290
     0
  0
SCALE
  5
2FD
102
{ACAD_REACTORS
330
2DC
102
}
330
2DC
100
AcDbScale
 70
     0
300
1'-0" = 1'-0"
140
12.0
141
12.0
290
     0
  0
TABLESTYLE
  5
379
102
{ACAD_REACTORS
330
378
102
}
102
{ACAD_XDICTIONARY
360
3DC
102
}
330
378
100
AcDbTableStyle
  3
Standard
 70
     0
 71
     0
 40
1.5
 41
1.5
280
     0
281
     0
  7
STANDARD
140
4.5
170
     2
 62
     0
 63
   257
283
     0
 90
        4
 91
        0
  1

274
    -2
284
     1
 64
     0
275
    -2
285
     1
 65
     0
276
    -2
286
     1
 66
     0
277
    -2
287
     1
 67
     0
278
    -2
288
     1
 68
     0
279
    -2
289
     1
 69
     0
  7
STANDARD
140
6.0
170
     5
 62
     0
 63
   257
283
     0
 90
        4
 91
        0
  1

274
    -2
284
     1
 64
     0
275
    -2
285
     1
 65
     0
276
    -2
286
     1
 66
     0
277
    -2
287
     1
 67
     0
278
    -2
288
     1
 68
     0
279
    -2
289
     1
 69
     0
  7
STANDARD
140
4.5
170
     5
 62
     0
 63
   257
283
     0
 90
        4
 91
        0
  1

274
    -2
284
     1
 64
     0
275
    -2
285
     1
 65
     0
276
    -2
286
     1
 66
     0
277
    -2
287
     1
 67
     0
278
    -2
288
     1
 68
     0
279
    -2
289
     1
 69
     0
  0
VISUALSTYLE
  5
306
102
{ACAD_REACTORS
330
301
102
}
330
301
100
AcDbVisualStyle
  2
2dWireframe
 70
     4
177
     3
291
     0
 70
    58
 90
        0
176
     1
 90
        2
176
     1
 90
        0
176
     1
 90
        0
176
     1
 40
-0.6
176
     1
 40
-30.0
176
     1
 62
     7
176
     1
 90
        1
176
     1
 90
        4
176
     1
 62
     7
176
     1
 62
   257
176
     1
 90
        1
176
     1
 90
        1
176
     1
 40
1.0
176
     1
 90
        0
176
     1
 62
   257
176
     1
 40
1.0
176
     1
 90
        1
176
     1
 90
        6
176
     1
 90
        2
176
     1
 62
     7
176
     1
 90
        5
176
     1
 90
        0
176
     1
 90
        0
176
     1
290
     0
176
     1
 90
        1
176
     1
 40
0.0
176
     1
 90
        0
176
     1
290
     1
176
     1
290
     1
176
     1
290
     0
176
     1
290
     0
176
     1
290
     0
176
     1
290
     0
176
     1
290
     0
176
     1
290
     0
176
     1
290
     0
176
     1
 90
       50
176
     1
 40
0.0
176
     1
 40
1.0
176
     1
 90
        0
176
     1
 62
    18
420
        0
176
     1
 90
       50
176
     1
 90
        3
176
     1
 62
     5
420
      255
176
     1
290
     0
176
     1
 90
       50
176
     1
 90
       50
176
     1
 90
       50
176
     1
290
     0
176
     1
 90
       50
176
     1
 62
   256
176
     0
 40
1.0
176
     0
 90
        2
176
     1
  1
strokes_ogs.tif
176
     1
290
     0
176
     1
 40
1.0
176
     1
 40
1.0
176
     1
  0
VISUALSTYLE
  5
308
102
{ACAD_REACTORS
330
301
102
}
330
301
100
AcDbVisualStyle
  2
3D Hidden
 70
     6
177
     3
291
     0
 70
    58
 90
        1
176
     1
 90
        2
176
     1
 90
        2
176
     1
 90
        0
176
     1
 40
-0.6
176
     1
 40
-30.0
176
     1
 62
     7
176
     1
 90
        2
176
     1
 90
        2
176
     1
 62
     7
176
     1
 62
   257
176
     1
 90
        2
176
     1
 90
        1
176
     1
 40
40.0
176
     1
 90
        0
176
     1
 62
   257
176
     1
 40
1.0
176
     1
 90
        1
176
     1
 90
        6
176
     1
 90
        2
176
     1
 62
     7
176
     1
 90
        3
176
     1
 90
        0
176
     1
 90
        0
176
     1
290
     0
176
     1
 90
        1
176
     1
 40
0.0
176
     1
 90
        0
176
     1
290
     0
176
     1
290
     1
176
     1
290
     1
176
     1
290
     0
176
     1
290
     0
176
     1
290
     0
176
     1
290
     0
176
     1
290
     0
176
     1
290
     0
176
     1
 90
       50
176
     1
 40
0.0
176
     1
 40
1.0
176
     1
 90
        0
176
     1
 62
    18
420
        0
176
     1
 90
       50
176
     1
 90
        3
176
     1
 62
     5
420
      255
176
     1
290
     0
176
     1
 90
       50
176
     1
 90
       50
176
     1
 90
       50
176
     1
290
     0
176
     1
 90
       50
176
     1
 62
   256
176
     0
 40
1.0
176
     0
 90
        2
176
     1
  1
strokes_ogs.tif
176
     1
290
     0
176
     1
 40
1.0
176
     1
 40
1.0
176
     1
  0
VISUALSTYLE
  5
307
102
{ACAD_REACTORS
330
301
102
}
330
301
100
AcDbVisualStyle
  2
3dWireframe
 70
     5
177
     3
291
     0
 70
    58
 90
        0
176
     1
 90
        2
176
     1
 90
        0
176
     1
 90
        0
176
     1
 40
-0.6
176
     1
 40
-30.0
176
     1
 62
     7
176
     1
 90
        1
176
     1
 90
        4
176
     1
 62
     7
176
     1
 62
   257
176
     1
 90
        1
176
     1
 90
        1
176
     1
 40
1.0
176
     1
 90
        0
176
     1
 62
   257
176
     1
 40
1.0
176
     1
 90
        1
176
     1
 90
        6
176
     1
 90
        2
176
     1
 62
     7
176
     1
 90
        5
176
     1
 90
        0
176
     1
 90
        0
176
     1
290
     0
176
     1
 90
        1
176
     1
 40
0.0
176
     1
 90
        0
176
     1
290
     0
176
     1
290
     1
176
     1
290
     1
176
     1
290
     0
176
     1
290
     0
176
     1
290
     0
176
     1
290
     0
176
     1
290
     0
176
     1
290
     0
176
     1
 90
       50
176
     1
 40
0.0
176
     1
 40
1.0
176
     1
 90
        0
176
     1
 62
    18
420
        0
176
     1
 90
       50
176
     1
 90
        3
176
     1
 62
     5
420
      255
176
     1
290
     0
176
     1
 90
       50
176
     1
 90
       50
176
     1
 90
       50
176
     1
290
     0
176
     1
 90
       50
176
     1
 62
   256
176
     0
 40
1.0
176
     0
 90
        2
176
     1
  1
strokes_ogs.tif
176
     1
290
     0
176
     1
 40
1.0
176
     1
 40
1.0
176
     1
  0
VISUALSTYLE
  5
309
102
{ACAD_REACTORS
330
301
102
}
330
301
100
AcDbVisualStyle
  2
Basic
 70
     7
177
     3
291
     1
 70
    58
 90
        1
176
     1
 90
        0
176
     1
 90
        1
176
     1
 90
        0
176
     1
 40
-0.6
176
     1
 40
-30.0
176
     1
 62
     7
176
     1
 90
        0
176
     1
 90
        4
176
     1
 62
     7
176
     1
 62
   257
176
     1
 90
        1
176
     1
 90
        1
176
     1
 40
1.0
176
     1
 90
        8
176
     1
 62
     7
176
     1
 40
1.0
176
     1
 90
        1
176
     1
 90
        6
176
     1
 90
        2
176
     1
 62
     7
176
     1
 90
        5
176
     1
 90
        0
176
     1
 90
        0
176
     1
290
     0
176
     1
 90
        1
176
     1
 40
0.0
176
     1
 90
        0
176
     1
290
     0
176
     1
290
     1
176
     1
290
     1
176
     1
290
     0
176
     1
290
     0
176
     1
290
     0
176
     1
290
     0
176
     1
290
     0
176
     1
290
     0
176
     1
 90
       50
176
     1
 40
0.0
176
     1
 40
1.0
176
     1
 90
        0
176
     1
 62
    18
420
        0
176
     1
 90
       50
176
     1
 90
        3
176
     1
 62
     5
420
      255
176
     1
290
     0
176
     1
 90
       50
176
     1
 90
       50
176
     1
 90
       50
176
     1
290
     0
176
     1
 90
       50
176
     1
 62
   256
176
     0
 40
1.0
176
     0
 90
        2
176
     1
  1
strokes_ogs.tif
176
     1
290
     0
176
     1
 40
1.0
176
     1
 40
1.0
176
     1
  0
VISUALSTYLE
  5
30D
102
{ACAD_REACTORS
330
301
102
}
330
301
100
AcDbVisualStyle
  2
Brighten
 70
    12
177
     3
291
     1
 70
    58
 90
        2
176
     1
 90
        2
176
     1
 90
        0
176
     1
 90
        0
176
     1
 40
-0.6
176
     1
 40
-30.0
176
     1
 62
     7
176
     1
 90
        1
176
     1
 90
        4
176
     1
 62
     7
176
     1
 62
   257
176
     1
 90
        1
176
     1
 90
        1
176
     1
 40
1.0
176
     1
 90
        8
176
     1
 62
     7
176
     1
 40
1.0
176
     1
 90
        1
176
     1
 90
        6
176
     1
 90
        2
176
     1
 62
     7
176
     1
 90
        5
176
     1
 90
        0
176
     1
 90
        0
176
     1
290
     0
176
     1
 90
        1
176
     1
 40
50.0
176
     1
 90
        0
176
     1
290
     0
176
     1
290
     1
176
     1
290
     1
176
     1
290
     0
176
     1
290
     0
176
     1
290
     0
176
     1
290
     0
176
     1
290
     0
176
     1
290
     0
176
     1
 90
       50
176
     1
 40
0.0
176
     1
 40
1.0
176
     1
 90
        0
176
     1
 62
    18
420
        0
176
     1
 90
       50
176
     1
 90
        3
176
     1
 62
     5
420
      255
176
     1
290
     0
176
     1
 90
       50
176
     1
 90
       50
176
     1
 90
       50
176
     1
290
     0
176
     1
 90
       50
176
     1
 62
   256
176
     0
 40
1.0
176
     0
 90
        2
176
     1
  1
strokes_ogs.tif
176
     1
290
     0
176
     1
 40
1.0
176
     1
 40
1.0
176
     1
  0
VISUALSTYLE
  5
311
102
{ACAD_REACTORS
330
301
102
}
330
301
100
AcDbVisualStyle
  2
ColorChange
 70
    16
177
     3
291
     1
 70
    58
 90
        2
176
     1
 90
        2
176
     1
 90
        3
176
     1
 90
        0
176
     1
 40
-0.6
176
     1
 40
-30.0
176
     1
 62
     8
176
     1
 90
        1
176
     1
 90
        4
176
     1
 62
     7
176
     1
 62
   257
176
     1
 90
        1
176
     1
 90
        1
176
     1
 40
1.0
176
     1
 90
        8
176
     1
 62
     8
176
     1
 40
1.0
176
     1
 90
        1
176
     1
 90
        6
176
     1
 90
        2
176
     1
 62
     7
176
     1
 90
        5
176
     1
 90
        0
176
     1
 90
        0
176
     1
290
     0
176
     1
 90
        1
176
     1
 40
0.0
176
     1
 90
        0
176
     1
290
     0
176
     1
290
     1
176
     1
290
     1
176
     1
290
     0
176
     1
290
     0
176
     1
290
     0
176
     1
290
     0
176
     1
290
     0
176
     1
290
     0
176
     1
 90
       50
176
     1
 40
0.0
176
     1
 40
1.0
176
     1
 90
        0
176
     1
 62
    18
420
        0
176
     1
 90
       50
176
     1
 90
        3
176
     1
 62
     5
420
      255
176
     1
290
     0
176
     1
 90
       50
176
     1
 90
       50
176
     1
 90
       50
176
     1
290
     0
176
     1
 90
       50
176
     1
 62
   256
176
     0
 40
1.0
176
     0
 90
        2
176
     1
  1
strokes_ogs.tif
176
     1
290
     0
176
     1
 40
1.0
176
     1
 40
1.0
176
     1
  0
VISUALSTYLE
  5
30B
102
{ACAD_REACTORS
330
301
102
}
330
301
100
AcDbVisualStyle
  2
Conceptual
 70
     9
177
     3
291
     0
 70
    58
 90
        3
176
     1
 90
        2
176
     1
 90
        0
176
     1
 90
        0
176
     1
 40
-0.6
176
     1
 40
-30.0
176
     1
 62
     7
176
     1
 90
        2
176
     1
 90
        2
176
     1
 62
     7
176
     1
 62
   257
176
     1
 90
        1
176
     1
 90
        1
176
     1
 40
40.0
176
     1
 90
        8
176
     1
 62
     7
176
     1
 40
1.0
176
     1
 90
        1
176
     1
 90
        6
176
     1
 90
        2
176
     1
 62
     7
176
     1
 90
        3
176
     1
 90
        0
176
     1
 90
        0
176
     1
290
     0
176
     1
 90
        1
176
     1
 40
0.0
176
     1
 90
        0
176
     1
290
     0
176
     1
290
     1
176
     1
290
     1
176
     1
290
     0
176
     1
290
     0
176
     1
290
     0
176
     1
290
     0
176
     1
290
     0
176
     1
290
     0
176
     1
 90
       50
176
     1
 40
0.0
176
     1
 40
1.0
176
     1
 90
        0
176
     1
 62
    18
420
        0
176
     1
 90
       50
176
     1
 90
        3
176
     1
 62
     5
420
      255
176
     1
290
     0
176
     1
 90
       50
176
     1
 90
       50
176
     1
 90
       50
176
     1
290
     0
176
     1
 90
       50
176
     1
 62
   256
176
     0
 40
1.0
176
     0
 90
        2
176
     1
  1
strokes_ogs.tif
176
     1
290
     0
176
     1
 40
1.0
176
     1
 40
1.0
176
     1
  0
VISUALSTYLE
  5
30C
102
{ACAD_REACTORS
330
301
102
}
330
301
100
AcDbVisualStyle
  2
Dim
 70
    11
177
     3
291
     1
 70
    58
 90
        2
176
     1
 90
        2
176
     1
 90
        0
176
     1
 90
        0
176
     1
 40
-0.6
176
     1
 40
-30.0
176
     1
 62
     7
176
     1
 90
        1
176
     1
 90
        4
176
     1
 62
     7
176
     1
 62
   257
176
     1
 90
        1
176
     1
 90
        1
176
     1
 40
1.0
176
     1
 90
        8
176
     1
 62
     7
176
     1
 40
1.0
176
     1
 90
        1
176
     1
 90
        6
176
     1
 90
        2
176
     1
 62
     7
176
     1
 90
        5
176
     1
 90
        0
176
     1
 90
        0
176
     1
290
     0
176
     1
 90
        1
176
     1
 40
-50.0
176
     1
 90
        0
176
     1
290
     0
176
     1
290
     1
176
     1
290
     1
176
     1
290
     0
176
     1
290
     0
176
     1
290
     0
176
     1
290
     0
176
     1
290
     0
176
     1
290
     0
176
     1
 90
       50
176
     1
 40
0.0
176
     1
 40
1.0
176
     1
 90
        0
176
     1
 62
    18
420
        0
176
     1
 90
       50
176
     1
 90
        3
176
     1
 62
     5
420
      255
176
     1
290
     0
176
     1
 90
       50
176
     1
 90
       50
176
     1
 90
       50
176
     1
290
     0
176
     1
 90
       50
176
     1
 62
   256
176
     0
 40
1.0
176
     0
 90
        2
176
     1
  1
strokes_ogs.tif
176
     1
290
     0
176
     1
 40
1.0
176
     1
 40
1.0
176
     1
  0
VISUALSTYLE
  5
372
102
{ACAD_REACTORS
330
301
102
}
330
301
100
AcDbVisualStyle
  2
EdgeColorOff
 70
    22
177
     3
291
     1
 70
    58
 90
        2
176
     0
 90
        2
176
     0
 90
        0
176
     0
 90
        0
176
     0
 40
0.6
176
     0
 40
30.0
176
     0
 62
     7
420
 16777215
176
     0
 90
        1
176
     0
 90
        4
176
     0
 62
     7
176
     0
 62
   257
176
     0
 90
        1
176
     0
 90
        1
176
     0
 40
1.0
176
     0
 90
        8
176
     2
 62
     7
176
     0
 40
1.0
176
     0
 90
        1
176
     0
 90
        6
176
     0
 90
        2
176
     0
 62
     7
176
     0
 90
        5
176
     0
 90
        0
176
     0
 90
        0
176
     0
290
     0
176
     0
 90
        1
176
     0
 40
0.0
176
     0
 90
        0
176
     0
290
     0
176
     0
290
     1
176
     0
290
     1
176
     0
290
     0
176
     0
290
     0
176
     0
290
     0
176
     0
290
     0
176
     0
290
     0
176
     0
290
     0
176
     0
 90
       50
176
     0
 40
0.0
176
     0
 40
1.0
176
     0
 90
        0
176
     0
 62
    18
420
        0
176
     0
 90
       50
176
     0
 90
        3
176
     0
 62
     5
420
      255
176
     0
290
     0
176
     0
 90
       50
176
     0
 90
       50
176
     0
 90
       50
176
     0
290
     0
176
     0
 90
       50
176
     0
 62
   256
176
     0
 40
1.0
176
     0
 90
        2
176
     0
  1
strokes_ogs.tif
176
     0
290
     0
176
     0
 40
1.0
176
     0
 40
1.0
176
     0
  0
VISUALSTYLE
  5
310
102
{ACAD_REACTORS
330
301
102
}
330
301
100
AcDbVisualStyle
  2
Facepattern
 70
    15
177
     3
291
     1
 70
    58
 90
        2
176
     1
 90
        2
176
     1
 90
        0
176
     1
 90
        0
176
     1
 40
-0.6
176
     1
 40
-30.0
176
     1
 62
     7
176
     1
 90
        1
176
     1
 90
        4
176
     1
 62
     7
176
     1
 62
   257
176
     1
 90
        1
176
     1
 90
        1
176
     1
 40
1.0
176
     1
 90
        8
176
     1
 62
     7
176
     1
 40
1.0
176
     1
 90
        1
176
     1
 90
        6
176
     1
 90
        2
176
     1
 62
     7
176
     1
 90
        5
176
     1
 90
        0
176
     1
 90
        0
176
     1
290
     0
176
     1
 90
        1
176
     1
 40
0.0
176
     1
 90
        0
176
     1
290
     0
176
     1
290
     1
176
     1
290
     1
176
     1
290
     0
176
     1
290
     0
176
     1
290
     0
176
     1
290
     0
176
     1
290
     0
176
     1
290
     0
176
     1
 90
       50
176
     1
 40
0.0
176
     1
 40
1.0
176
     1
 90
        0
176
     1
 62
    18
420
        0
176
     1
 90
       50
176
     1
 90
        3
176
     1
 62
     5
420
      255
176
     1
290
     0
176
     1
 90
       50
176
     1
 90
       50
176
     1
 90
       50
176
     1
290
     0
176
     1
 90
       50
176
     1
 62
   256
176
     0
 40
1.0
176
     0
 90
        2
176
     1
  1
strokes_ogs.tif
176
     1
290
     0
176
     1
 40
1.0
176
     1
 40
1.0
176
     1
  0
VISUALSTYLE
  5
302
102
{ACAD_REACTORS
330
301
102
}
330
301
100
AcDbVisualStyle
  2
Flat
 70
     0
177
     3
291
     1
 70
    58
 90
        2
176
     1
 90
        1
176
     1
 90
        1
176
     1
 90
        2
176
     1
 40
-0.6
176
     1
 40
30.0
176
     1
 62
     7
176
     1
 90
        0
176
     1
 90
        4
176
     1
 62
     7
176
     1
 62
   257
176
     1
 90
        1
176
     1
 90
        1
176
     1
 40
1.0
176
     1
 90
        8
176
     1
 62
     7
176
     1
 40
1.0
176
     1
 90
        1
176
     1
 90
        6
176
     1
 90
        2
176
     1
 62
     7
176
     1
 90
        5
176
     1
 90
        0
176
     1
 90
        0
176
     1
290
     0
176
     1
 90
       13
176
     1
 40
0.0
176
     1
 90
        0
176
     1
290
     0
176
     1
290
     1
176
     1
290
     1
176
     1
290
     0
176
     1
290
     0
176
     1
290
     0
176
     1
290
     0
176
     1
290
     0
176
     1
290
     0
176
     1
 90
       50
176
     1
 40
0.0
176
     1
 40
1.0
176
     1
 90
        0
176
     1
 62
    18
420
        0
176
     1
 90
       50
176
     1
 90
        3
176
     1
 62
     5
420
      255
176
     1
290
     0
176
     1
 90
       50
176
     1
 90
       50
176
     1
 90
       50
176
     1
290
     0
176
     1
 90
       50
176
     1
 62
   256
176
     0
 40
1.0
176
     0
 90
        2
176
     1
  1
strokes_ogs.tif
176
     1
290
     0
176
     1
 40
1.0
176
     1
 40
1.0
176
     1
  0
VISUALSTYLE
  5
303
102
{ACAD_REACTORS
330
301
102
}
330
301
100
AcDbVisualStyle
  2
FlatWithEdges
 70
     1
177
     3
291
     1
 70
    58
 90
        2
176
     1
 90
        1
176
     1
 90
        1
176
     1
 90
        2
176
     1
 40
-0.6
176
     1
 40
30.0
176
     1
 62
     7
176
     1
 90
        1
176
     1
 90
        4
176
     1
 62
     7
176
     1
 62
   257
176
     1
 90
        1
176
     1
 90
        1
176
     1
 40
1.0
176
     1
 90
        0
176
     1
 62
   257
176
     1
 40
1.0
176
     1
 90
        1
176
     1
 90
        6
176
     1
 90
        2
176
     1
 62
     7
176
     1
 90
        5
176
     1
 90
        0
176
     1
 90
        0
176
     1
290
     0
176
     1
 90
       13
176
     1
 40
0.0
176
     1
 90
        0
176
     1
290
     0
176
     1
290
     1
176
     1
290
     1
176
     1
290
     0
176
     1
290
     0
176
     1
290
     0
176
     1
290
     0
176
     1
290
     0
176
     1
290
     0
176
     1
 90
       50
176
     1
 40
0.0
176
     1
 40
1.0
176
     1
 90
        0
176
     1
 62
    18
420
        0
176
     1
 90
       50
176
     1
 90
        3
176
     1
 62
     5
420
      255
176
     1
290
     0
176
     1
 90
       50
176
     1
 90
       50
176
     1
 90
       50
176
     1
290
     0
176
     1
 90
       50
176
     1
 62
   256
176
     0
 40
1.0
176
     0
 90
        2
176
     1
  1
strokes_ogs.tif
176
     1
290
     0
176
     1
 40
1.0
176
     1
 40
1.0
176
     1
  0
VISUALSTYLE
  5
304
102
{ACAD_REACTORS
330
301
102
}
330
301
100
AcDbVisualStyle
  2
Gouraud
 70
     2
177
     3
291
     1
 70
    58
 90
        2
176
     1
 90
        2
176
     1
 90
        1
176
     1
 90
        2
176
     1
 40
-0.6
176
     1
 40
30.0
176
     1
 62
     7
176
     1
 90
        0
176
     1
 90
        4
176
     1
 62
     7
176
     1
 62
   257
176
     1
 90
        1
176
     1
 90
        1
176
     1
 40
1.0
176
     1
 90
        0
176
     1
 62
     7
176
     1
 40
1.0
176
     1
 90
        1
176
     1
 90
        6
176
     1
 90
        2
176
     1
 62
     7
176
     1
 90
        5
176
     1
 90
        0
176
     1
 90
        0
176
     1
290
     0
176
     1
 90
       13
176
     1
 40
0.0
176
     1
 90
        0
176
     1
290
     0
176
     1
290
     1
176
     1
290
     1
176
     1
290
     0
176
     1
290
     0
176
     1
290
     0
176
     1
290
     0
176
     1
290
     0
176
     1
290
     0
176
     1
 90
       50
176
     1
 40
0.0
176
     1
 40
1.0
176
     1
 90
        0
176
     1
 62
    18
420
        0
176
     1
 90
       50
176
     1
 90
        3
176
     1
 62
     5
420
      255
176
     1
290
     0
176
     1
 90
       50
176
     1
 90
       50
176
     1
 90
       50
176
     1
290
     0
176
     1
 90
       50
176
     1
 62
   256
176
     0
 40
1.0
176
     0
 90
        2
176
     1
  1
strokes_ogs.tif
176
     1
290
     0
176
     1
 40
1.0
176
     1
 40
1.0
176
     1
  0
VISUALSTYLE
  5
305
102
{ACAD_REACTORS
330
301
102
}
330
301
100
AcDbVisualStyle
  2
GouraudWithEdges
 70
     3
177
     3
291
     1
 70
    58
 90
        2
176
     1
 90
        2
176
     1
 90
        1
176
     1
 90
        2
176
     1
 40
-0.6
176
     1
 40
30.0
176
     1
 62
     7
176
     1
 90
        1
176
     1
 90
        4
176
     1
 62
     7
176
     1
 62
   257
176
     1
 90
        1
176
     1
 90
        1
176
     1
 40
1.0
176
     1
 90
        0
176
     1
 62
   257
176
     1
 40
1.0
176
     1
 90
        1
176
     1
 90
        6
176
     1
 90
        2
176
     1
 62
     7
176
     1
 90
        5
176
     1
 90
        0
176
     1
 90
        0
176
     1
290
     0
176
     1
 90
       13
176
     1
 40
0.0
176
     1
 90
        0
176
     1
290
     0
176
     1
290
     1
176
     1
290
     1
176
     1
290
     0
176
     1
290
     0
176
     1
290
     0
176
     1
290
     0
176
     1
290
     0
176
     1
290
     0
176
     1
 90
       50
176
     1
 40
0.0
176
     1
 40
1.0
176
     1
 90
        0
176
     1
 62
    18
420
        0
176
     1
 90
       50
176
     1
 90
        3
176
     1
 62
     5
420
      255
176
     1
290
     0
176
     1
 90
       50
176
     1
 90
       50
176
     1
 90
       50
176
     1
290
     0
176
     1
 90
       50
176
     1
 62
   256
176
     0
 40
1.0
176
     0
 90
        2
176
     1
  1
strokes_ogs.tif
176
     1
290
     0
176
     1
 40
1.0
176
     1
 40
1.0
176
     1
  0
VISUALSTYLE
  5
36F
102
{ACAD_REACTORS
330
301
102
}
330
301
100
AcDbVisualStyle
  2
Hidden
 70
     6
177
     3
291
     0
 70
    58
 90
        1
176
     1
 90
        2
176
     1
 90
        2
176
     1
 90
        0
176
     1
 40
0.6
176
     1
 40
30.0
176
     1
 62
     7
420
 16777215
176
     1
 90
        2
176
     1
 90
        2
176
     1
 62
     7
176
     1
 62
   257
176
     1
 90
        2
176
     1
 90
        1
176
     1
 40
40.0
176
     1
 90
        0
176
     1
 62
   257
176
     1
 40
1.0
176
     1
 90
        1
176
     1
 90
        6
176
     1
 90
        2
176
     1
 62
     7
176
     1
 90
        3
176
     1
 90
        0
176
     1
 90
        0
176
     1
290
     0
176
     1
 90
        1
176
     1
 40
0.0
176
     1
 90
        0
176
     1
290
     0
176
     1
290
     1
176
     1
290
     1
176
     1
290
     0
176
     1
290
     0
176
     1
290
     0
176
     1
290
     0
176
     1
290
     0
176
     1
290
     0
176
     1
 90
       50
176
     1
 40
0.0
176
     1
 40
1.0
176
     1
 90
        0
176
     1
 62
    18
420
        0
176
     1
 90
       50
176
     1
 90
        3
176
     1
 62
     5
420
      255
176
     1
290
     0
176
     1
 90
       50
176
     1
 90
       50
176
     1
 90
       50
176
     1
290
     0
176
     1
 90
       50
176
     1
 62
   256
176
     0
 40
1.0
176
     0
 90
        2
176
     1
  1
strokes_ogs.tif
176
     1
290
     0
176
     1
 40
1.0
176
     1
 40
1.0
176
     1
  0
VISUALSTYLE
  5
370
102
{ACAD_REACTORS
330
301
102
}
330
301
100
AcDbVisualStyle
  2
JitterOff
 70
    20
177
     3
291
     1
 70
    58
 90
        2
176
     0
 90
        2
176
     0
 90
        0
176
     0
 90
        0
176
     0
 40
0.6
176
     0
 40
30.0
176
     0
 62
     7
420
 16777215
176
     0
 90
        1
176
     0
 90
        4
176
     0
 62
     7
176
     0
 62
   257
176
     0
 90
        1
176
     0
 90
        1
176
     0
 40
1.0
176
     0
 90
       10
176
     2
 62
     7
176
     0
 40
1.0
176
     0
 90
        1
176
     0
 90
        6
176
     0
 90
        2
176
     0
 62
     7
176
     0
 90
        5
176
     0
 90
        0
176
     0
 90
        0
176
     0
290
     0
176
     0
 90
        1
176
     0
 40
0.0
176
     0
 90
        0
176
     0
290
     0
176
     0
290
     1
176
     0
290
     1
176
     0
290
     0
176
     0
290
     0
176
     0
290
     0
176
     0
290
     0
176
     0
290
     0
176
     0
290
     0
176
     0
 90
       50
176
     0
 40
0.0
176
     0
 40
1.0
176
     0
 90
        0
176
     0
 62
    18
420
        0
176
     0
 90
       50
176
     0
 90
        3
176
     0
 62
     5
420
      255
176
     0
290
     0
176
     0
 90
       50
176
     0
 90
       50
176
     0
 90
       50
176
     0
290
     0
176
     0
 90
       50
176
     0
 62
   256
176
     0
 40
1.0
176
     0
 90
        2
176
     0
  1
strokes_ogs.tif
176
     0
290
     0
176
     0
 40
1.0
176
     0
 40
1.0
176
     0
  0
VISUALSTYLE
  5
30F
102
{ACAD_REACTORS
330
301
102
}
330
301
100
AcDbVisualStyle
  2
Linepattern
 70
    14
177
     3
291
     1
 70
    58
 90
        2
176
     1
 90
        2
176
     1
 90
        0
176
     1
 90
        0
176
     1
 40
-0.6
176
     1
 40
-30.0
176
     1
 62
     7
176
     1
 90
        1
176
     1
 90
        4
176
     1
 62
     7
176
     1
 62
   257
176
     1
 90
        7
176
     1
 90
        7
176
     1
 40
1.0
176
     1
 90
        8
176
     1
 62
     7
176
     1
 40
1.0
176
     1
 90
        1
176
     1
 90
        6
176
     1
 90
        2
176
     1
 62
     7
176
     1
 90
        5
176
     1
 90
        0
176
     1
 90
        0
176
     1
290
     0
176
     1
 90
        1
176
     1
 40
0.0
176
     1
 90
        0
176
     1
290
     0
176
     1
290
     1
176
     1
290
     1
176
     1
290
     0
176
     1
290
     0
176
     1
290
     0
176
     1
290
     0
176
     1
290
     0
176
     1
290
     0
176
     1
 90
       50
176
     1
 40
0.0
176
     1
 40
1.0
176
     1
 90
        0
176
     1
 62
    18
420
        0
176
     1
 90
       50
176
     1
 90
        3
176
     1
 62
     5
420
      255
176
     1
290
     0
176
     1
 90
       50
176
     1
 90
       50
176
     1
 90
       50
176
     1
290
     0
176
     1
 90
       50
176
     1
 62
   256
176
     0
 40
1.0
176
     0
 90
        2
176
     1
  1
strokes_ogs.tif
176
     1
290
     0
176
     1
 40
1.0
176
     1
 40
1.0
176
     1
  0
VISUALSTYLE
  5
371
102
{ACAD_REACTORS
330
301
102
}
330
301
100
AcDbVisualStyle
  2
OverhangOff
 70
    21
177
     3
291
     1
 70
    58
 90
        2
176
     0
 90
        2
176
     0
 90
        0
176
     0
 90
        0
176
     0
 40
0.6
176
     0
 40
30.0
176
     0
 62
     7
420
 16777215
176
     0
 90
        1
176
     0
 90
        4
176
     0
 62
     7
176
     0
 62
   257
176
     0
 90
        1
176
     0
 90
        1
176
     0
 40
1.0
176
     0
 90
        9
176
     2
 62
     7
176
     0
 40
1.0
176
     0
 90
        1
176
     0
 90
        6
176
     0
 90
        2
176
     0
 62
     7
176
     0
 90
        5
176
     0
 90
        0
176
     0
 90
        0
176
     0
290
     0
176
     0
 90
        1
176
     0
 40
0.0
176
     0
 90
        0
176
     0
290
     0
176
     0
290
     1
176
     0
290
     1
176
     0
290
     0
176
     0
290
     0
176
     0
290
     0
176
     0
290
     0
176
     0
290
     0
176
     0
290
     0
176
     0
 90
       50
176
     0
 40
0.0
176
     0
 40
1.0
176
     0
 90
        0
176
     0
 62
    18
420
        0
176
     0
 90
       50
176
     0
 90
        3
176
     0
 62
     5
420
      255
176
     0
290
     0
176
     0
 90
       50
176
     0
 90
       50
176
     0
 90
       50
176
     0
290
     0
176
     0
 90
       50
176
     0
 62
   256
176
     0
 40
1.0
176
     0
 90
        2
176
     0
  1
strokes_ogs.tif
176
     0
290
     0
176
     0
 40
1.0
176
     0
 40
1.0
176
     0
  0
VISUALSTYLE
  5
30A
102
{ACAD_REACTORS
330
301
102
}
330
301
100
AcDbVisualStyle
  2
Realistic
 70
     8
177
     3
291
     0
 70
    58
 90
        2
176
     1
 90
        2
176
     1
 90
        0
176
     1
 90
        0
176
     1
 40
-0.6
176
     1
 40
-30.0
176
     1
 62
     7
176
     1
 90
        1
176
     1
 90
        0
176
     1
 62
     7
176
     1
 62
   257
176
     1
 90
        1
176
     1
 90
        1
176
     1
 40
1.0
176
     1
 90
        8
176
     1
 62
     8
176
     1
 40
1.0
176
     1
 90
        1
176
     1
 90
        6
176
     1
 90
        2
176
     1
 62
     7
176
     1
 90
        5
176
     1
 90
        0
176
     1
 90
        0
176
     1
290
     0
176
     1
 90
       13
176
     1
 40
0.0
176
     1
 90
        0
176
     1
290
     0
176
     1
290
     1
176
     1
290
     1
176
     1
290
     0
176
     1
290
     0
176
     1
290
     0
176
     1
290
     0
176
     1
290
     0
176
     1
290
     0
176
     1
 90
       50
176
     1
 40
0.0
176
     1
 40
1.0
176
     1
 90
        0
176
     1
 62
    18
420
        0
176
     1
 90
       50
176
     1
 90
        3
176
     1
 62
     5
420
      255
176
     1
290
     0
176
     1
 90
       50
176
     1
 90
       50
176
     1
 90
       50
176
     1
290
     0
176
     1
 90
       50
176
     1
 62
   256
176
     0
 40
1.0
176
     0
 90
        2
176
     1
  1
strokes_ogs.tif
176
     1
290
     0
176
     1
 40
1.0
176
     1
 40
1.0
176
     1
  0
VISUALSTYLE
  5
377
102
{ACAD_REACTORS
330
301
102
}
330
301
100
AcDbVisualStyle
  2
Shaded
 70
    27
177
     3
291
     0
 70
    58
 90
        2
176
     1
 90
        2
176
     1
 90
        1
176
     1
 90
        2
176
     1
 40
0.6
176
     1
 40
30.0
176
     1
 62
     7
420
 16777215
176
     1
 90
        0
176
     1
 90
        4
176
     1
 62
     7
176
     1
 62
   257
176
     1
 90
        1
176
     1
 90
        1
176
     1
 40
1.0
176
     1
 90
        8
176
     1
 62
   257
176
     1
 40
1.0
176
     1
 90
        1
176
     1
 90
        6
176
     1
 90
        2
176
     1
 62
     8
420
  7895160
176
     1
 90
        3
176
     1
 90
        0
176
     1
 90
        0
176
     1
290
     0
176
     1
 90
        5
176
     1
 40
0.0
176
     1
 90
        0
176
     1
290
     0
176
     1
290
     1
176
     1
290
     1
176
     1
290
     0
176
     1
290
     0
176
     1
290
     0
176
     1
290
     0
176
     1
290
     0
176
     1
290
     0
176
     1
 90
       50
176
     1
 40
0.0
176
     1
 40
1.0
176
     1
 90
        0
176
     1
 62
    18
420
        0
176
     1
 90
       50
176
     1
 90
        3
176
     1
 62
     5
420
      255
176
     1
290
     0
176
     1
 90
       50
176
     1
 90
       50
176
     1
 90
       50
176
     1
290
     0
176
     1
 90
       50
176
     1
 62
   256
176
     0
 40
1.0
176
     0
 90
        2
176
     1
  1
strokes_ogs.tif
176
     1
290
     0
176
     1
 40
1.0
176
     1
 40
1.0
176
     1
  0
VISUALSTYLE
  5
376
102
{ACAD_REACTORS
330
301
102
}
330
301
100
AcDbVisualStyle
  2
Shaded with edges
 70
    26
177
     3
291
     0
 70
    58
 90
        2
176
     1
 90
        2
176
     1
 90
        1
176
     1
 90
        2
176
     1
 40
0.6
176
     1
 40
30.0
176
     1
 62
     7
420
 16777215
176
     1
 90
        1
176
     1
 90
       10
176
     1
 62
     7
176
     1
 62
   257
176
     1
 90
        2
176
     1
 90
        1
176
     1
 40
1.0
176
     1
 90
        8
176
     1
 62
   257
176
     1
 40
1.0
176
     1
 90
        1
176
     1
 90
        6
176
     1
 90
        2
176
     1
 62
     7
176
     1
 90
        3
176
     1
 90
        0
176
     1
 90
        0
176
     1
290
     0
176
     1
 90
        5
176
     1
 40
0.0
176
     1
 90
        0
176
     1
290
     0
176
     1
290
     1
176
     1
290
     1
176
     1
290
     0
176
     1
290
     0
176
     1
290
     0
176
     1
290
     0
176
     1
290
     0
176
     1
290
     0
176
     1
 90
       50
176
     1
 40
0.0
176
     1
 40
1.0
176
     1
 90
        0
176
     1
 62
    18
420
        0
176
     1
 90
       50
176
     1
 90
        3
176
     1
 62
     5
420
      255
176
     1
290
     0
176
     1
 90
       50
176
     1
 90
       50
176
     1
 90
       50
176
     1
290
     0
176
     1
 90
       50
176
     1
 62
   256
176
     0
 40
1.0
176
     0
 90
        2
176
     1
  1
strokes_ogs.tif
176
     1
290
     0
176
     1
 40
1.0
176
     1
 40
1.0
176
     1
  0
VISUALSTYLE
  5
373
102
{ACAD_REACTORS
330
301
102
}
330
301
100
AcDbVisualStyle
  2
Shades of Gray
 70
    23
177
     3
291
     0
 70
    58
 90
        2
176
     1
 90
        2
176
     1
 90
        3
176
     1
 90
        0
176
     1
 40
0.6
176
     1
 40
30.0
176
     1
 62
     7
420
 16777215
176
     1
 90
        2
176
     1
 90
        2
176
     1
 62
     7
176
     1
 62
     7
176
     1
 90
        1
176
     1
 90
        1
176
     1
 40
40.0
176
     1
 90
        8
176
     1
 62
     7
176
     1
 40
1.0
176
     1
 90
        1
176
     1
 90
        6
176
     1
 90
        2
176
     1
 62
     7
176
     1
 90
        3
176
     1
 90
        0
176
     1
 90
        0
176
     1
290
     0
176
     1
 90
        1
176
     1
 40
0.0
176
     1
 90
        0
176
     1
290
     0
176
     1
290
     1
176
     1
290
     1
176
     1
290
     0
176
     1
290
     0
176
     1
290
     0
176
     1
290
     0
176
     1
290
     0
176
     1
290
     0
176
     1
 90
       50
176
     1
 40
0.0
176
     1
 40
1.0
176
     1
 90
        0
176
     1
 62
    18
420
        0
176
     1
 90
       50
176
     1
 90
        3
176
     1
 62
     5
420
      255
176
     1
290
     0
176
     1
 90
       50
176
     1
 90
       50
176
     1
 90
       50
176
     1
290
     0
176
     1
 90
       50
176
     1
 62
   256
176
     0
 40
1.0
176
     0
 90
        2
176
     1
  1
strokes_ogs.tif
176
     1
290
     0
176
     1
 40
1.0
176
     1
 40
1.0
176
     1
  0
VISUALSTYLE
  5
374
102
{ACAD_REACTORS
330
301
102
}
330
301
100
AcDbVisualStyle
  2
Sketchy
 70
    24
177
     3
291
     0
 70
    58
 90
        1
176
     1
 90
        2
176
     1
 90
        2
176
     1
 90
        0
176
     1
 40
0.6
176
     1
 40
30.0
176
     1
 62
     7
420
 16777215
176
     1
 90
        2
176
     1
 90
        2
176
     1
 62
     7
176
     1
 62
     7
176
     1
 90
        1
176
     1
 90
        1
176
     1
 40
40.0
176
     1
 90
       11
176
     1
 62
     7
176
     1
 40
1.0
176
     1
 90
        1
176
     1
 90
        6
176
     1
 90
        2
176
     1
 62
     7
176
     1
 90
        6
176
     1
 90
        0
176
     1
 90
        0
176
     1
290
     0
176
     1
 90
        1
176
     1
 40
0.0
176
     1
 90
        0
176
     1
290
     0
176
     1
290
     1
176
     1
290
     1
176
     1
290
     0
176
     1
290
     0
176
     1
290
     0
176
     1
290
     0
176
     1
290
     0
176
     1
290
     0
176
     1
 90
       50
176
     1
 40
0.0
176
     1
 40
1.0
176
     1
 90
        0
176
     1
 62
    18
420
        0
176
     1
 90
       50
176
     1
 90
        3
176
     1
 62
     5
420
      255
176
     1
290
     0
176
     1
 90
       50
176
     1
 90
       50
176
     1
 90
       50
176
     1
290
     0
176
     1
 90
       50
176
     1
 62
   256
176
     0
 40
1.0
176
     0
 90
        2
176
     1
  1
strokes_ogs.tif
176
     1
290
     0
176
     1
 40
1.0
176
     1
 40
1.0
176
     1
  0
VISUALSTYLE
  5
30E
102
{ACAD_REACTORS
330
301
102
}
330
301
100
AcDbVisualStyle
  2
Thicken
 70
    13
177
     3
291
     1
 70
    58
 90
        2
176
     1
 90
        2
176
     1
 90
        0
176
     1
 90
        0
176
     1
 40
-0.6
176
     1
 40
-30.0
176
     1
 62
     7
176
     1
 90
        1
176
     1
 90
        4
176
     1
 62
     7
176
     1
 62
   257
176
     1
 90
        1
176
     1
 90
        1
176
     1
 40
1.0
176
     1
 90
       12
176
     1
 62
     7
176
     1
 40
1.0
176
     1
 90
        1
176
     1
 90
        6
176
     1
 90
        2
176
     1
 62
     7
176
     1
 90
        5
176
     1
 90
        0
176
     1
 90
        0
176
     1
290
     0
176
     1
 90
        1
176
     1
 40
0.0
176
     1
 90
        0
176
     1
290
     0
176
     1
290
     1
176
     1
290
     1
176
     1
290
     0
176
     1
290
     0
176
     1
290
     0
176
     1
290
     0
176
     1
290
     0
176
     1
290
     0
176
     1
 90
       50
176
     1
 40
0.0
176
     1
 40
1.0
176
     1
 90
        0
176
     1
 62
    18
420
        0
176
     1
 90
       50
176
     1
 90
        3
176
     1
 62
     5
420
      255
176
     1
290
     0
176
     1
 90
       50
176
     1
 90
       50
176
     1
 90
       50
176
     1
290
     0
176
     1
 90
       50
176
     1
 62
   256
176
     0
 40
1.0
176
     0
 90
        2
176
     1
  1
strokes_ogs.tif
176
     1
290
     0
176
     1
 40
1.0
176
     1
 40
1.0
176
     1
  0
VISUALSTYLE
  5
36E
102
{ACAD_REACTORS
330
301
102
}
330
301
100
AcDbVisualStyle
  2
Wireframe
 70
     5
177
     3
291
     0
 70
    58
 90
        0
176
     1
 90
        2
176
     1
 90
        0
176
     1
 90
        0
176
     1
 40
0.6
176
     1
 40
30.0
176
     1
 62
     7
420
 16777215
176
     1
 90
        1
176
     1
 90
        4
176
     1
 62
     7
176
     1
 62
   257
176
     1
 90
        1
176
     1
 90
        1
176
     1
 40
1.0
176
     1
 90
        0
176
     1
 62
   257
176
     1
 40
1.0
176
     1
 90
        1
176
     1
 90
        6
176
     1
 90
        2
176
     1
 62
     7
176
     1
 90
        3
176
     1
 90
        0
176
     1
 90
        0
176
     1
290
     0
176
     1
 90
        1
176
     1
 40
0.0
176
     1
 90
        0
176
     1
290
     0
176
     1
290
     1
176
     1
290
     1
176
     1
290
     0
176
     1
290
     0
176
     1
290
     0
176
     1
290
     0
176
     1
290
     0
176
     1
290
     0
176
     1
 90
       50
176
     1
 40
0.0
176
     1
 40
1.0
176
     1
 90
        0
176
     1
 62
    18
420
        0
176
     1
 90
       50
176
     1
 90
        3
176
     1
 62
     5
420
      255
176
     1
290
     0
176
     1
 90
       50
176
     1
 90
       50
176
     1
 90
       50
176
     1
290
     0
176
     1
 90
       50
176
     1
 62
   256
176
     0
 40
1.0
176
     0
 90
        2
176
     1
  1
strokes_ogs.tif
176
     1
290
     0
176
     1
 40
1.0
176
     1
 40
1.0
176
     1
  0
VISUALSTYLE
  5
375
102
{ACAD_REACTORS
330
301
102
}
330
301
100
AcDbVisualStyle
  2
X-Ray
 70
    25
177
     3
291
     0
 70
    58
 90
        2
176
     1
 90
        2
176
     1
 90
        1
176
     1
 90
        1
176
     1
 40
0.5
176
     1
 40
30.0
176
     1
 62
     7
420
 16777215
176
     1
 90
        1
176
     1
 90
        0
176
     1
 62
     7
176
     1
 62
   257
176
     1
 90
        1
176
     1
 90
        1
176
     1
 40
1.0
176
     1
 90
        8
176
     1
 62
     7
176
     1
 40
1.0
176
     1
 90
        1
176
     1
 90
        6
176
     1
 90
        2
176
     1
 62
     7
176
     1
 90
        3
176
     1
 90
        0
176
     1
 90
        0
176
     1
290
     0
176
     1
 90
       13
176
     1
 40
0.0
176
     1
 90
        0
176
     1
290
     0
176
     1
290
     1
176
     1
290
     1
176
     1
290
     0
176
     1
290
     0
176
     1
290
     0
176
     1
290
     0
176
     1
290
     0
176
     1
290
     0
176
     1
 90
       50
176
     1
 40
0.0
176
     1
 40
1.0
176
     1
 90
        0
176
     1
 62
    18
420
        0
176
     1
 90
       50
176
     1
 90
        3
176
     1
 62
     5
420
      255
176
     1
290
     0
176
     1
 90
       50
176
     1
 90
       50
176
     1
 90
       50
176
     1
290
     0
176
     1
 90
       50
176
     1
 62
   256
176
     0
 40
1.0
176
     0
 90
        2
176
     1
  1
strokes_ogs.tif
176
     1
290
     0
176
     1
 40
1.0
176
     1
 40
1.0
176
     1
  0
DICTIONARYVAR
  5
38F
102
{ACAD_REACTORS
330
327
102
}
330
327
100
DictionaryVariables
280
     0
  1
1:1
  0
DICTIONARYVAR
  5
391
102
{ACAD_REACTORS
330
327
102
}
330
327
100
DictionaryVariables
280
     0
  1
Standard
  0
DICTIONARYVAR
  5
390
102
{ACAD_REACTORS
330
327
102
}
330
327
100
DictionaryVariables
280
     0
  1
Standard
  0
DICTIONARYVAR
  5
32B
102
{ACAD_REACTORS
330
327
102
}
330
327
100
DictionaryVariables
280
     0
  1
2
  0
DICTIONARYVAR
  5
32C
102
{ACAD_REACTORS
330
327
102
}
330
327
100
DictionaryVariables
280
     0
  1
1
  0
DICTIONARYVAR
  5
32A
102
{ACAD_REACTORS
330
327
102
}
330
327
100
DictionaryVariables
280
     0
  1
0
  0
DICTIONARY
  5
3DC
330
379
100
AcDbDictionary
280
     1
281
     1
  3
ACAD_ROUNDTRIP_2008_TABLESTYLE_CELLSTYLEMAP
360
3DD
  0
CELLSTYLEMAP
  5
3DD
102
{ACAD_REACTORS
330
3DC
102
}
330
3DC
100
AcDbCellStyleMap
 90
        3
300
CELLSTYLE
  1
TABLEFORMAT_BEGIN
 90
        5
170
     1
 91
        0
 92
    32768
 62
   257
 93
        1
300
CONTENTFORMAT
  1
CONTENTFORMAT_BEGIN
 90
        0
 91
        0
 92
        4
 93
        0
300

 40
0.0
140
1.0
 94
        5
 62
     0
340
11
144
6.0
309
CONTENTFORMAT_END
171
     1
301
MARGIN
  1
CELLMARGIN_BEGIN
 40
1.5
 40
1.5
 40
1.5
 40
1.5
 40
1.5
 40
1.5
309
CELLMARGIN_END
 94
        6
 95
        1
302
GRIDFORMAT
  1
GRIDFORMAT_BEGIN
 90
        0
 91
        1
 62
     0
 92
       -2
340
14
 93
        0
 40
0.045
309
GRIDFORMAT_END
 95
        2
302
GRIDFORMAT
  1
GRIDFORMAT_BEGIN
 90
        0
 91
        1
 62
     0
 92
       -2
340
14
 93
        0
 40
0.045
309
GRIDFORMAT_END
 95
        4
302
GRIDFORMAT
  1
GRIDFORMAT_BEGIN
 90
        0
 91
        1
 62
     0
 92
       -2
340
14
 93
        0
 40
0.045
309
GRIDFORMAT_END
 95
        8
302
GRIDFORMAT
  1
GRIDFORMAT_BEGIN
 90
        0
 91
        1
 62
     0
 92
       -2
340
14
 93
        0
 40
0.045
309
GRIDFORMAT_END
 95
       16
302
GRIDFORMAT
  1
GRIDFORMAT_BEGIN
 90
        0
 91
        1
 62
     0
 92
       -2
340
14
 93
        0
 40
0.045
309
GRIDFORMAT_END
 95
       32
302
GRIDFORMAT
  1
GRIDFORMAT_BEGIN
 90
        0
 91
        1
 62
     0
 92
       -2
340
14
 93
        0
 40
0.045
309
GRIDFORMAT_END
309
TABLEFORMAT_END
  1
CELLSTYLE_BEGIN
 90
        1
 91
        1
300
_TITLE
309
CELLSTYLE_END
300
CELLSTYLE
  1
TABLEFORMAT_BEGIN
 90
        5
170
     1
 91
        0
 92
        0
 62
   257
 93
        1
300
CONTENTFORMAT
  1
CONTENTFORMAT_BEGIN
 90
        0
 91
        0
 92
        4
 93
        0
300

 40
0.0
140
1.0
 94
        5
 62
     0
340
11
144
4.5
309
CONTENTFORMAT_END
171
     1
301
MARGIN
  1
CELLMARGIN_BEGIN
 40
1.5
 40
1.5
 40
1.5
 40
1.5
 40
1.5
 40
1.5
309
CELLMARGIN_END
 94
        6
 95
        1
302
GRIDFORMAT
  1
GRIDFORMAT_BEGIN
 90
        0
 91
        1
 62
     0
 92
       -2
340
14
 93
        0
 40
0.045
309
GRIDFORMAT_END
 95
        2
302
GRIDFORMAT
  1
GRIDFORMAT_BEGIN
 90
        0
 91
        1
 62
     0
 92
       -2
340
14
 93
        0
 40
0.045
309
GRIDFORMAT_END
 95
        4
302
GRIDFORMAT
  1
GRIDFORMAT_BEGIN
 90
        0
 91
        1
 62
     0
 92
       -2
340
14
 93
        0
 40
0.045
309
GRIDFORMAT_END
 95
        8
302
GRIDFORMAT
  1
GRIDFORMAT_BEGIN
 90
        0
 91
        1
 62
     0
 92
       -2
340
14
 93
        0
 40
0.045
309
GRIDFORMAT_END
 95
       16
302
GRIDFORMAT
  1
GRIDFORMAT_BEGIN
 90
        0
 91
        1
 62
     0
 92
       -2
340
14
 93
        0
 40
0.045
309
GRIDFORMAT_END
 95
       32
302
GRIDFORMAT
  1
GRIDFORMAT_BEGIN
 90
        0
 91
        1
 62
     0
 92
       -2
340
14
 93
        0
 40
0.045
309
GRIDFORMAT_END
309
TABLEFORMAT_END
  1
CELLSTYLE_BEGIN
 90
        2
 91
        1
300
_HEADER
309
CELLSTYLE_END
300
CELLSTYLE
  1
TABLEFORMAT_BEGIN
 90
        5
170
     1
 91
        0
 92
        0
 62
   257
 93
        1
300
CONTENTFORMAT
  1
CONTENTFORMAT_BEGIN
 90
        0
 91
        0
 92
        4
 93
        0
300

 40
0.0
140
1.0
 94
        2
 62
     0
340
11
144
4.5
309
CONTENTFORMAT_END
171
     1
301
MARGIN
  1
CELLMARGIN_BEGIN
 40
1.5
 40
1.5
 40
1.5
 40
1.5
 40
1.5
 40
1.5
309
CELLMARGIN_END
 94
        6
 95
        1
302
GRIDFORMAT
  1
GRIDFORMAT_BEGIN
 90
        0
 91
        1
 62
     0
 92
       -2
340
14
 93
        0
 40
0.045
309
GRIDFORMAT_END
 95
        2
302
GRIDFORMAT
  1
GRIDFORMAT_BEGIN
 90
        0
 91
        1
 62
     0
 92
       -2
340
14
 93
        0
 40
0.045
309
GRIDFORMAT_END
 95
        4
302
GRIDFORMAT
  1
GRIDFORMAT_BEGIN
 90
        0
 91
        1
 62
     0
 92
       -2
340
14
 93
        0
 40
0.045
309
GRIDFORMAT_END
 95
        8
302
GRIDFORMAT
  1
GRIDFORMAT_BEGIN
 90
        0
 91
        1
 62
     0
 92
       -2
340
14
 93
        0
 40
0.045
309
GRIDFORMAT_END
 95
       16
302
GRIDFORMAT
  1
GRIDFORMAT_BEGIN
 90
        0
 91
        1
 62
     0
 92
       -2
340
14
 93
        0
 40
0.045
309
GRIDFORMAT_END
 95
       32
302
GRIDFORMAT
  1
GRIDFORMAT_BEGIN
 90
        0
 91
        1
 62
     0
 92
       -2
340
14
 93
        0
 40
0.045
309
GRIDFORMAT_END
309
TABLEFORMAT_END
  1
CELLSTYLE_BEGIN
 90
        3
 91
        2
300
_DATA
309
CELLSTYLE_END
  0
ENDSEC
  0
EOF
