  0
SECTION
  2
HEADER
  9
$ACADVER
  1
AC1027
  9
$ACADMAINTVER
 70
   105
  9
$DWGCODEPAGE
  3
ANSI_1252
  9
$REQUIREDVERSIONS
160
                 0
  9
$LASTSAVEDBY
  1
matthias.ochs
  9
$INSBASE
 10
0.0
 20
0.0
 30
0.0
  9
$EXTMIN
 10
-75.08036514972358
 20
-113.9512230015523
 30
0.0
  9
$EXTMAX
 10
154.4356409478371
 20
110.0626870594233
 30
0.0
  9
$LIMMIN
 10
0.0
 20
0.0
  9
$LIMMAX
 10
210.0
 20
297.0
  9
$ORTHOMODE
 70
     0
  9
$REGENMODE
 70
     1
  9
$FILLMODE
 70
     1
  9
$QTEXTMODE
 70
     0
  9
$MIRRTEXT
 70
     1
  9
$LTSCALE
 40
1.0
  9
$ATTMODE
 70
     1
  9
$TEXTSIZE
 40
3.5
  9
$TRACEWID
 40
1.0
  9
$TEXTSTYLE
  7
STANDARD
  9
$CLAYER
  8
SK6
  9
$CELTYPE
  6
BYLAYER
  9
$CECOLOR
 62
   256
  9
$CELTSCALE
 40
1.0
  9
$DISPSILH
 70
     0
  9
$DIMSCALE
 40
1.0
  9
$DIMASZ
 40
3.5
  9
$DIMEXO
 40
0.0
  9
$DIMDLI
 40
3.75
  9
$DIMRND
 40
0.0
  9
$DIMDLE
 40
0.0
  9
$DIMEXE
 40
1.0
  9
$DIMTP
 40
0.0
  9
$DIMTM
 40
0.0
  9
$DIMTXT
 40
3.5
  9
$DIMCEN
 40
2.5
  9
$DIMTSZ
 40
0.0
  9
$DIMTOL
 70
     0
  9
$DIMLIM
 70
     0
  9
$DIMTIH
 70
     1
  9
$DIMTOH
 70
     1
  9
$DIMSE1
 70
     0
  9
$DIMSE2
 70
     0
  9
$DIMTAD
 70
     1
  9
$DIMZIN
 70
     0
  9
$DIMBLK
  1

  9
$DIMASO
 70
     1
  9
$DIMSHO
 70
     1
  9
$DIMPOST
  1

  9
$DIMAPOST
  1

  9
$DIMALT
 70
     0
  9
$DIMALTD
 70
     3
  9
$DIMALTF
 40
0.0393700787
  9
$DIMLFAC
 40
1.0
  9
$DIMTOFL
 70
     1
  9
$DIMTVP
 40
0.0
  9
$DIMTIX
 70
     0
  9
$DIMSOXD
 70
     0
  9
$DIMSAH
 70
     0
  9
$DIMBLK1
  1

  9
$DIMBLK2
  1

  9
$DIMSTYLE
  2
ISO-25
  9
$DIMCLRD
 70
     0
  9
$DIMCLRE
 70
     0
  9
$DIMCLRT
 70
     0
  9
$DIMTFAC
 40
1.0
  9
$DIMGAP
 40
1.5
  9
$DIMJUST
 70
     0
  9
$DIMSD1
 70
     0
  9
$DIMSD2
 70
     0
  9
$DIMTOLJ
 70
     0
  9
$DIMTZIN
 70
     0
  9
$DIMALTZ
 70
     0
  9
$DIMALTTZ
 70
     0
  9
$DIMUPT
 70
     0
  9
$DIMDEC
 70
     2
  9
$DIMTDEC
 70
     3
  9
$DIMALTU
 70
     2
  9
$DIMALTTD
 70
     3
  9
$DIMTXSTY
  7
STANDARD
  9
$DIMAUNIT
 70
     0
  9
$DIMADEC
 70
     0
  9
$DIMALTRND
 40
0.0
  9
$DIMAZIN
 70
     0
  9
$DIMDSEP
 70
    46
  9
$DIMATFIT
 70
     3
  9
$DIMFRAC
 70
     0
  9
$DIMLDRBLK
  1

  9
$DIMLUNIT
 70
     2
  9
$DIMLWD
 70
    -2
  9
$DIMLWE
 70
    -2
  9
$DIMTMOVE
 70
     2
  9
$DIMFXL
 40
1.0
  9
$DIMFXLON
 70
     0
  9
$DIMJOGANG
 40
0.7853981633974483
  9
$DIMTFILL
 70
     0
  9
$DIMTFILLCLR
 70
     0
  9
$DIMARCSYM
 70
     0
  9
$DIMLTYPE
  6

  9
$DIMLTEX1
  6

  9
$DIMLTEX2
  6

  9
$DIMTXTDIRECTION
 70
     0
  9
$LUNITS
 70
     2
  9
$LUPREC
 70
     2
  9
$SKETCHINC
 40
1.0
  9
$FILLETRAD
 40
10.0
  9
$AUNITS
 70
     0
  9
$AUPREC
 70
     2
  9
$MENU
  1
.
  9
$ELEVATION
 40
0.0
  9
$PELEVATION
 40
0.0
  9
$THICKNESS
 40
0.0
  9
$LIMCHECK
 70
     0
  9
$CHAMFERA
 40
0.0
  9
$CHAMFERB
 40
0.0
  9
$CHAMFERC
 40
0.0
  9
$CHAMFERD
 40
0.0
  9
$SKPOLY
 70
     0
  9
$TDCREATE
 40
2456974.567200428
  9
$TDUCREATE
 40
2456974.483867095
  9
$TDUPDATE
 40
2458677.465249132
  9
$TDUUPDATE
 40
2458677.381915798
  9
$TDINDWG
 40
0.0203957639
  9
$TDUSRTIMER
 40
0.0038645486
  9
$USRTIMER
 70
     1
  9
$ANGBASE
 50
0.0
  9
$ANGDIR
 70
     0
  9
$PDMODE
 70
     0
  9
$PDSIZE
 40
-1.0
  9
$PLINEWID
 40
0.0
  9
$SPLFRAME
 70
     0
  9
$SPLINETYPE
 70
     6
  9
$SPLINESEGS
 70
     8
  9
$HANDSEED
  5
414
  9
$SURFTAB1
 70
     6
  9
$SURFTAB2
 70
     6
  9
$SURFTYPE
 70
     6
  9
$SURFU
 70
     6
  9
$SURFV
 70
     6
  9
$UCSBASE
  2

  9
$UCSNAME
  2

  9
$UCSORG
 10
0.0
 20
0.0
 30
0.0
  9
$UCSXDIR
 10
1.0
 20
0.0
 30
0.0
  9
$UCSYDIR
 10
0.0
 20
1.0
 30
0.0
  9
$UCSORTHOREF
  2

  9
$UCSORTHOVIEW
 70
     0
  9
$UCSORGTOP
 10
0.0
 20
0.0
 30
0.0
  9
$UCSORGBOTTOM
 10
0.0
 20
0.0
 30
0.0
  9
$UCSORGLEFT
 10
0.0
 20
0.0
 30
0.0
  9
$UCSORGRIGHT
 10
0.0
 20
0.0
 30
0.0
  9
$UCSORGFRONT
 10
0.0
 20
0.0
 30
0.0
  9
$UCSORGBACK
 10
0.0
 20
0.0
 30
0.0
  9
$PUCSBASE
  2

  9
$PUCSNAME
  2

  9
$PUCSORG
 10
0.0
 20
0.0
 30
0.0
  9
$PUCSXDIR
 10
1.0
 20
0.0
 30
0.0
  9
$PUCSYDIR
 10
0.0
 20
1.0
 30
0.0
  9
$PUCSORTHOREF
  2

  9
$PUCSORTHOVIEW
 70
     0
  9
$PUCSORGTOP
 10
0.0
 20
0.0
 30
0.0
  9
$PUCSORGBOTTOM
 10
0.0
 20
0.0
 30
0.0
  9
$PUCSORGLEFT
 10
0.0
 20
0.0
 30
0.0
  9
$PUCSORGRIGHT
 10
0.0
 20
0.0
 30
0.0
  9
$PUCSORGFRONT
 10
0.0
 20
0.0
 30
0.0
  9
$PUCSORGBACK
 10
0.0
 20
0.0
 30
0.0
  9
$USERI1
 70
     0
  9
$USERI2
 70
     0
  9
$USERI3
 70
     0
  9
$USERI4
 70
     0
  9
$USERI5
 70
     0
  9
$USERR1
 40
0.0
  9
$USERR2
 40
0.0
  9
$USERR3
 40
0.0
  9
$USERR4
 40
0.0
  9
$USERR5
 40
0.0
  9
$WORLDVIEW
 70
     1
  9
$SHADEDGE
 70
     3
  9
$SHADEDIF
 70
    70
  9
$TILEMODE
 70
     1
  9
$MAXACTVP
 70
    64
  9
$PINSBASE
 10
0.0
 20
0.0
 30
0.0
  9
$PLIMCHECK
 70
     0
  9
$PEXTMIN
 10
1.000000000000000E+20
 20
1.000000000000000E+20
 30
1.000000000000000E+20
  9
$PEXTMAX
 10
-1.000000000000000E+20
 20
-1.000000000000000E+20
 30
-1.000000000000000E+20
  9
$PLIMMIN
 10
0.0
 20
0.0
  9
$PLIMMAX
 10
0.0
 20
0.0
  9
$UNITMODE
 70
     0
  9
$VISRETAIN
 70
     1
  9
$PLINEGEN
 70
     0
  9
$PSLTSCALE
 70
     1
  9
$TREEDEPTH
 70
  3020
  9
$CMLSTYLE
  2
STANDARD
  9
$CMLJUST
 70
     0
  9
$CMLSCALE
 40
20.0
  9
$PROXYGRAPHICS
 70
     1
  9
$MEASUREMENT
 70
     1
  9
$CELWEIGHT
370
    -1
  9
$ENDCAPS
280
     0
  9
$JOINSTYLE
280
     0
  9
$LWDISPLAY
290
     0
  9
$INSUNITS
 70
     0
  9
$HYPERLINKBASE
  1

  9
$STYLESHEET
  1

  9
$XEDIT
290
     1
  9
$CEPSNTYPE
380
     0
  9
$PSTYLEMODE
290
     1
  9
$FINGERPRINTGUID
  2
{06251C25-3081-4FC0-8FD9-D3B2B45ABA23}
  9
$VERSIONGUID
  2
{FAEB1C32-E019-11D5-929B-00C0DF256EC4}
  9
$EXTNAMES
290
     1
  9
$PSVPSCALE
 40
0.0
  9
$OLESTARTUP
290
     0
  9
$SORTENTS
280
   127
  9
$INDEXCTL
280
     0
  9
$HIDETEXT
280
     1
  9
$XCLIPFRAME
280
     2
  9
$HALOGAP
280
     0
  9
$OBSCOLOR
 70
   257
  9
$OBSLTYPE
280
     0
  9
$INTERSECTIONDISPLAY
280
     0
  9
$INTERSECTIONCOLOR
 70
   257
  9
$DIMASSOC
280
     2
  9
$PROJECTNAME
  1

  9
$CAMERADISPLAY
290
     0
  9
$LENSLENGTH
 40
50.0
  9
$CAMERAHEIGHT
 40
0.0
  9
$STEPSPERSEC
 40
2.0
  9
$STEPSIZE
 40
6.0
  9
$3DDWFPREC
 40
2.0
  9
$PSOLWIDTH
 40
0.25
  9
$PSOLHEIGHT
 40
4.0
  9
$LOFTANG1
 40
1.570796326794897
  9
$LOFTANG2
 40
1.570796326794897
  9
$LOFTMAG1
 40
0.0
  9
$LOFTMAG2
 40
0.0
  9
$LOFTPARAM
 70
     7
  9
$LOFTNORMALS
280
     1
  9
$LATITUDE
 40
37.795
  9
$LONGITUDE
 40
-122.394
  9
$NORTHDIRECTION
 40
0.0
  9
$TIMEZONE
 70
 -8000
  9
$LIGHTGLYPHDISPLAY
280
     1
  9
$TILEMODELIGHTSYNCH
280
     1
  9
$SOLIDHIST
280
     0
  9
$SHOWHIST
280
     1
  9
$DWFFRAME
280
     2
  9
$DGNFRAME
280
     2
  9
$REALWORLDSCALE
290
     1
  9
$INTERFERECOLOR
 62
   256
  9
$CSHADOW
280
     0
  9
$SHADOWPLANELOCATION
 40
0.0
  0
ENDSEC
  0
SECTION
  2
CLASSES
  0
CLASS
  1
ACDBDICTIONARYWDFLT
  2
AcDbDictionaryWithDefault
  3
ObjectDBX Classes
 90
        0
 91
       17
280
     0
281
     0
  0
CLASS
  1
VISUALSTYLE
  2
AcDbVisualStyle
  3
ObjectDBX Classes
 90
     4095
 91
       17
280
     0
281
     0
  0
CLASS
  1
MATERIAL
  2
AcDbMaterial
  3
ObjectDBX Classes
 90
     1153
 91
       17
280
     0
281
     0
  0
CLASS
  1
SCALE
  2
AcDbScale
  3
ObjectDBX Classes
 90
     1153
 91
       17
280
     0
281
     0
  0
CLASS
  1
SUN
  2
AcDbSun
  3
SCENEOE
 90
     1153
 91
       17
280
     0
281
     0
  0
CLASS
  1
XRECORD
  2
AcDbXrecord
  3
ObjectDBX Classes
 90
        0
 91
        1
280
     0
281
     0
  0
CLASS
  1
LWPOLYLINE
  2
AcDbPolyline
  3
ObjectDBX Classes
 90
        0
 91
        1
280
     0
281
     1
  0
CLASS
  1
HATCH
  2
AcDbHatch
  3
ObjectDBX Classes
 90
        0
 91
        1
280
     0
281
     1
  0
CLASS
  1
DICTIONARYVAR
  2
AcDbDictionaryVar
  3
ObjectDBX Classes
 90
        0
 91
       15
280
     0
281
     0
  0
CLASS
  1
ACDBPLACEHOLDER
  2
AcDbPlaceHolder
  3
ObjectDBX Classes
 90
        0
 91
        1
280
     0
281
     0
  0
CLASS
  1
LAYOUT
  2
AcDbLayout
  3
ObjectDBX Classes
 90
        0
 91
        1
280
     0
281
     0
  0
CLASS
  1
TABLESTYLE
  2
AcDbTableStyle
  3
ObjectDBX Classes
 90
     4095
 91
       17
280
     0
281
     0
  0
CLASS
  1
MLEADERSTYLE
  2
AcDbMLeaderStyle
  3
ACDB_MLEADERSTYLE_CLASS
 90
     4095
 91
       17
280
     0
281
     0
  0
CLASS
  1
CELLSTYLEMAP
  2
AcDbCellStyleMap
  3
ObjectDBX Classes
 90
     1152
 91
        9
280
     0
281
     0
  0
ENDSEC
  0
SECTION
  2
TABLES
  0
TABLE
  2
VPORT
  5
8
330
0
100
AcDbSymbolTable
 70
     1
  0
VPORT
  5
29
330
8
100
AcDbSymbolTableRecord
100
AcDbViewportTableRecord
  2
*ACTIVE
 70
     0
 10
0.0
 20
0.0
 11
1.0
 21
1.0
 12
109.5510386507792
 22
80.53926988889916
 13
0.0
 23
0.0
 14
10.0
 24
10.0
 15
10.0
 25
10.0
 16
0.0
 26
0.0
 36
1.0
 17
0.0
 27
0.0
 37
0.0
 40
665.3848794266373
 41
1.831002331002331
 42
50.0
 43
0.0
 44
0.0
 50
0.0
 51
0.0
 71
    16
 72
  2000
 73
     1
 74
     3
 75
     0
 76
     0
 77
     0
 78
     0
281
     0
 65
     1
110
0.0
120
0.0
130
0.0
111
1.0
121
0.0
131
0.0
112
0.0
122
1.0
132
0.0
 79
     0
146
0.0
348
321
 60
     3
 61
     5
292
     1
282
     1
141
0.0
142
0.0
 63
   256
361
3CF
  0
ENDTAB
  0
TABLE
  2
LTYPE
  5
5
330
0
100
AcDbSymbolTable
 70
     9
  0
LTYPE
  5
14
330
5
100
AcDbSymbolTableRecord
100
AcDbLinetypeTableRecord
  2
BYBLOCK
 70
     0
  3

 72
    65
 73
     0
 40
0.0
  0
LTYPE
  5
15
330
5
100
AcDbSymbolTableRecord
100
AcDbLinetypeTableRecord
  2
BYLAYER
 70
     0
  3

 72
    65
 73
     0
 40
0.0
  0
LTYPE
  5
16
330
5
100
AcDbSymbolTableRecord
100
AcDbLinetypeTableRecord
  2
CONTINUOUS
 70
     0
  3
Solid line
 72
    65
 73
     0
 40
0.0
  0
LTYPE
  5
6A
330
5
100
AcDbSymbolTableRecord
100
AcDbLinetypeTableRecord
  2
HIDDEN
 70
     0
  3
Hidden __ __ __ __ __ __ __ __ __ __ __ __ __ __
 72
    65
 73
     2
 40
1.905
 49
1.27
 74
     0
 49
-0.635
 74
     0
  0
LTYPE
  5
6B
330
5
100
AcDbSymbolTableRecord
100
AcDbLinetypeTableRecord
  2
PHANTOM
 70
     0
  3
Phantom ______  __  __  ______  __  __  ______
 72
    65
 73
     6
 40
12.7
 49
6.35
 74
     0
 49
-1.27
 74
     0
 49
1.27
 74
     0
 49
-1.27
 74
     0
 49
1.27
 74
     0
 49
-1.27
 74
     0
  0
LTYPE
  5
6C
330
5
100
AcDbSymbolTableRecord
100
AcDbLinetypeTableRecord
  2
CENTER
 70
     0
  3
Center ____ _ ____ _ ____ _ ____ _ ____ _ ____
 72
    65
 73
     4
 40
10.16
 49
6.35
 74
     0
 49
-1.27
 74
     0
 49
1.27
 74
     0
 49
-1.27
 74
     0
  0
LTYPE
  5
6D
330
5
100
AcDbSymbolTableRecord
100
AcDbLinetypeTableRecord
  2
CENTERX2
 70
     0
  3
Center (2x) ________  __  ________  __  _____
 72
    65
 73
     4
 40
20.32
 49
12.7
 74
     0
 49
-2.54
 74
     0
 49
2.54
 74
     0
 49
-2.54
 74
     0
  0
LTYPE
  5
6E
330
5
100
AcDbSymbolTableRecord
100
AcDbLinetypeTableRecord
  2
DOT2
 70
     0
  3
Dot (.5x) ........................................
 72
    65
 73
     2
 40
0.635
 49
0.0
 74
     0
 49
-0.635
 74
     0
  0
LTYPE
  5
375
330
5
100
AcDbSymbolTableRecord
100
AcDbLinetypeTableRecord
  2
DASH
 70
     0
  3
DASH _ _ _ _ _
 72
    65
 73
     2
 40
0.75
 49
0.4
 74
     0
 49
-0.35
 74
     0
  0
LTYPE
  5
376
330
5
100
AcDbSymbolTableRecord
100
AcDbLinetypeTableRecord
  2
LONGDASH_DASH
 70
     0
  3
LONGDASH_DASH __ . __ . __
 72
    65
 73
     4
 40
0.85
 49
0.4
 74
     0
 49
-0.2
 74
     0
 49
0.05
 74
     0
 49
-0.2
 74
     0
  0
LTYPE
  5
377
330
5
100
AcDbSymbolTableRecord
100
AcDbLinetypeTableRecord
  2
LONGDASH_DASH_DASH
 70
     0
  3
LONGDASH_DASH_DASH __ . . __ . . __
 72
    65
 73
     6
 40
1.1
 49
0.4
 74
     0
 49
-0.2
 74
     0
 49
0.05
 74
     0
 49
-0.2
 74
     0
 49
0.05
 74
     0
 49
-0.2
 74
     0
  0
ENDTAB
  0
TABLE
  2
LAYER
  5
2
102
{ACAD_XDICTIONARY
360
39C
102
}
330
0
100
AcDbSymbolTable
 70
    16
  0
LAYER
  5
332
330
2
100
AcDbSymbolTableRecord
100
AcDbLayerTableRecord
  2
200
 70
     0
 62
     2
  6
CONTINUOUS
370
    50
390
388
347
330
348
0
  0
LAYER
  5
335
330
2
100
AcDbSymbolTableRecord
100
AcDbLayerTableRecord
  2
Defpoints
 70
     0
 62
     7
  6
CONTINUOUS
290
     0
370
    -3
390
388
347
330
348
0
  0
LAYER
  5
378
330
2
100
AcDbSymbolTableRecord
100
AcDbLayerTableRecord
  2
0
 70
     0
 62
     1
  6
CONTINUOUS
370
    -3
390
388
347
330
348
0
  0
LAYER
  5
379
330
2
100
AcDbSymbolTableRecord
100
AcDbLayerTableRecord
  2
1
 70
     0
 62
     4
  6
CONTINUOUS
370
    50
390
388
347
330
348
0
  0
LAYER
  5
37A
330
2
100
AcDbSymbolTableRecord
100
AcDbLayerTableRecord
  2
2
 70
     0
 62
     7
  6
CONTINUOUS
370
    25
390
388
347
330
348
0
  0
LAYER
  5
37B
330
2
100
AcDbSymbolTableRecord
100
AcDbLayerTableRecord
  2
3
 70
     0
 62
     1
  6
DASH
370
    35
390
388
347
330
348
0
  0
LAYER
  5
37C
330
2
100
AcDbSymbolTableRecord
100
AcDbLayerTableRecord
  2
4
 70
     0
 62
     2
  6
LONGDASH_DASH
370
    25
390
388
347
330
348
0
  0
LAYER
  5
37D
330
2
100
AcDbSymbolTableRecord
100
AcDbLayerTableRecord
  2
6
 70
     0
 62
     5
  6
CONTINUOUS
370
    -3
390
388
347
330
348
0
  0
LAYER
  5
37E
330
2
100
AcDbSymbolTableRecord
100
AcDbLayerTableRecord
  2
CUT
 70
     0
 62
     1
  6
CONTINUOUS
370
    25
390
388
347
330
348
0
  0
LAYER
  5
37F
330
2
100
AcDbSymbolTableRecord
100
AcDbLayerTableRecord
  2
NOCUT
 70
     0
 62
     7
  6
CONTINUOUS
370
    25
390
388
347
330
348
0
  0
LAYER
  5
380
330
2
100
AcDbSymbolTableRecord
100
AcDbLayerTableRecord
  2
SK1
 70
     0
 62
     4
  6
CONTINUOUS
370
    50
390
388
347
330
348
0
  0
LAYER
  5
381
330
2
100
AcDbSymbolTableRecord
100
AcDbLayerTableRecord
  2
SK2
 70
     0
 62
     7
  6
CONTINUOUS
370
    25
390
388
347
330
348
0
  0
LAYER
  5
382
330
2
100
AcDbSymbolTableRecord
100
AcDbLayerTableRecord
  2
SK3
 70
     0
 62
     1
  6
DASH
370
    35
390
388
347
330
348
0
  0
LAYER
  5
383
330
2
100
AcDbSymbolTableRecord
100
AcDbLayerTableRecord
  2
SK4
 70
     0
 62
     2
  6
LONGDASH_DASH
370
    25
390
388
347
330
348
0
  0
LAYER
  5
384
330
2
100
AcDbSymbolTableRecord
100
AcDbLayerTableRecord
  2
SK6
 70
     0
 62
     5
  6
CONTINUOUS
370
    -3
390
388
347
330
348
0
  0
LAYER
  5
385
330
2
100
AcDbSymbolTableRecord
100
AcDbLayerTableRecord
  2
INFTOTAL
 70
     0
 62
     9
  6
CONTINUOUS
370
    18
390
388
347
330
348
0
  0
ENDTAB
  0
TABLE
  2
STYLE
  5
3
330
0
100
AcDbSymbolTable
 70
     3
  0
STYLE
  5
11
330
3
100
AcDbSymbolTableRecord
100
AcDbTextStyleTableRecord
  2
STANDARD
 70
     0
 40
0.0
 41
1.0
 50
0.0
 71
     0
 42
3.5
  3
txt
  4

  0
STYLE
  5
75
330
3
100
AcDbSymbolTableRecord
100
AcDbTextStyleTableRecord
  2
SLDTEXTSTYLE0
 70
     0
 40
0.0
 41
0.605
 50
0.0
 71
     0
 42
3.5
  3
TXT
  4

  0
STYLE
  5
331
330
3
100
AcDbSymbolTableRecord
100
AcDbTextStyleTableRecord
  2
BMG_Text
 70
     0
 40
3.5
 41
1.0
 50
0.0
 71
     0
 42
3.5
  3
monos.ttf
  4

1001
ACAD
1000
Monospac821 BT
1071
       49
  0
ENDTAB
  0
TABLE
  2
VIEW
  5
6
330
0
100
AcDbSymbolTable
 70
     0
  0
ENDTAB
  0
TABLE
  2
UCS
  5
7
330
0
100
AcDbSymbolTable
 70
     0
  0
ENDTAB
  0
TABLE
  2
APPID
  5
9
330
0
100
AcDbSymbolTable
 70
     5
  0
APPID
  5
12
330
9
100
AcDbSymbolTableRecord
100
AcDbRegAppTableRecord
  2
ACAD
 70
     0
  0
APPID
  5
348
330
9
100
AcDbSymbolTableRecord
100
AcDbRegAppTableRecord
  2
ACAD_DSTYLE_DIM_LINETYPE
 70
     0
  0
APPID
  5
349
330
9
100
AcDbSymbolTableRecord
100
AcDbRegAppTableRecord
  2
ACAD_DSTYLE_DIM_EXT1_LINETYPE
 70
     0
  0
APPID
  5
34A
330
9
100
AcDbSymbolTableRecord
100
AcDbRegAppTableRecord
  2
ACAD_DSTYLE_DIM_EXT2_LINETYPE
 70
     0
  0
APPID
  5
3C5
330
9
100
AcDbSymbolTableRecord
100
AcDbRegAppTableRecord
  2
AcLayerTools
 70
     0
  0
ENDTAB
  0
TABLE
  2
DIMSTYLE
  5
A
330
0
100
AcDbSymbolTable
 70
     4
100
AcDbDimStyleTable
  0
DIMSTYLE
105
27
330
A
100
AcDbSymbolTableRecord
100
AcDbDimStyleTableRecord
  2
ISO-25
 70
     0
 41
2.5
 42
0.625
 43
3.75
 44
1.25
 73
     0
 74
     0
 77
     1
 78
     8
140
2.5
141
2.5
143
0.0393700787
147
0.625
171
     3
172
     1
178
     0
271
     2
272
     2
274
     3
283
     0
284
     8
340
11
  0
DIMSTYLE
105
2D6
102
{ACAD_REACTORS
330
2D5
102
}
330
A
100
AcDbSymbolTableRecord
100
AcDbDimStyleTableRecord
  2
SLDDIMSTYLE0
 70
     0
 41
3.5
 44
0.0
 45
0.000000001
 73
     0
 74
     0
 77
     1
 78
    12
140
3.5
147
0.875
173
     1
178
     0
271
     0
272
     3
284
    12
340
75
  0
DIMSTYLE
105
2E3
102
{ACAD_REACTORS
330
2E2
102
}
330
A
100
AcDbSymbolTableRecord
100
AcDbDimStyleTableRecord
  2
SLDDIMSTYLE1
 70
     0
 41
3.5
 44
0.0
 45
0.000000001
 73
     0
 74
     0
 77
     1
 78
    12
140
3.5
147
0.875
173
     1
178
     0
271
     2
272
     3
284
    12
340
75
  0
DIMSTYLE
105
2EF
102
{ACAD_REACTORS
330
2EE
102
}
330
A
100
AcDbSymbolTableRecord
100
AcDbDimStyleTableRecord
  2
SLDDIMSTYLE2
 70
     0
 41
3.5
 44
0.0
 45
0.000000001
 73
     0
 74
     0
 77
     1
 78
    12
140
3.5
147
0.875
173
     1
178
     0
271
     2
272
     3
284
    12
340
75
  0
ENDTAB
  0
TABLE
  2
BLOCK_RECORD
  5
1
330
0
100
AcDbSymbolTable
 70
     3
  0
BLOCK_RECORD
  5
1F
330
1
100
AcDbSymbolTableRecord
100
AcDbBlockTableRecord
  2
*MODEL_SPACE
340
31A
 70
     0
280
     1
281
     0
  0
BLOCK_RECORD
  5
1B
330
1
100
AcDbSymbolTableRecord
100
AcDbBlockTableRecord
  2
*PAPER_SPACE
340
31B
 70
     0
280
     1
281
     0
  0
BLOCK_RECORD
  5
2D7
330
1
100
AcDbSymbolTableRecord
100
AcDbBlockTableRecord
  2
_D
340
0
 70
     0
280
     1
281
     0
  0
BLOCK_RECORD
  5
2E4
330
1
100
AcDbSymbolTableRecord
100
AcDbBlockTableRecord
  2
_D_1
340
0
 70
     0
280
     1
281
     0
  0
BLOCK_RECORD
  5
2F0
330
1
100
AcDbSymbolTableRecord
100
AcDbBlockTableRecord
  2
_D_2
340
0
 70
     0
280
     1
281
     0
  0
ENDTAB
  0
ENDSEC
  0
SECTION
  2
BLOCKS
  0
BLOCK
  5
20
330
1F
100
AcDbEntity
  8
0
100
AcDbBlockBegin
  2
*MODEL_SPACE
 70
     0
 10
0.0
 20
0.0
 30
0.0
  3
*MODEL_SPACE
  1

  0
ENDBLK
  5
21
330
1F
100
AcDbEntity
  8
0
100
AcDbBlockEnd
  0
BLOCK
  5
1C
330
1B
100
AcDbEntity
 67
     1
  8
0
100
AcDbBlockBegin
  2
*PAPER_SPACE
 70
     0
 10
0.0
 20
0.0
 30
0.0
  3
*PAPER_SPACE
  1

  0
ENDBLK
  5
1D
330
1B
100
AcDbEntity
 67
     1
  8
0
100
AcDbBlockEnd
  0
BLOCK
  5
2D8
330
2D7
100
AcDbEntity
  8
0
100
AcDbBlockBegin
  2
_D
 70
     0
 10
0.0
 20
0.0
 30
0.0
  3
_D
  1
_D
  0
LINE
  5
2DA
330
2D7
100
AcDbEntity
  8
SK2
  6
ByBlock
370
    -2
100
AcDbLine
 10
59.5853002486319
 20
62.4992187501
 30
0.0
 11
70.71969276063189
 21
62.49921875010001
 31
0.0
  0
LINE
  5
2DB
330
2D7
100
AcDbEntity
  8
SK2
  6
ByBlock
370
    -2
100
AcDbLine
 10
59.80742176583189
 20
-62.4354950171
 30
0.0
 11
70.71969276063189
 21
-62.4354950171
 31
0.0
  0
LINE
  5
2DC
330
2D7
100
AcDbEntity
  8
SK2
  6
ByBlock
370
    -2
100
AcDbLine
 10
70.71969276063189
 20
58.99921875010001
 30
0.0
 11
70.71969276063189
 21
-58.9354950171
 31
0.0
  0
SOLID
  5
2DD
330
2D7
100
AcDbEntity
  8
SK2
100
AcDbTrace
 10
71.30302609396522
 20
58.99921875010001
 30
0.0
 11
70.13635942729856
 21
58.99921875010001
 31
0.0
 12
70.71969276063189
 22
62.49921875010001
 32
0.0
 13
70.71969276063189
 23
62.49921875010001
 33
0.0
  0
SOLID
  5
2DE
330
2D7
100
AcDbEntity
  8
SK2
100
AcDbTrace
 10
70.13635942729856
 20
-58.9354950171
 30
0.0
 11
71.30302609396522
 21
-58.9354950171
 31
0.0
 12
70.71969276063189
 22
-62.4354950171
 32
0.0
 13
70.71969276063189
 23
-62.4354950171
 33
0.0
  0
MTEXT
  5
2DF
330
2D7
100
AcDbEntity
  8
SK2
100
AcDbMText
 10
67.98269276063189
 20
0.0318618665000004
 30
0.0
 40
3.5
 41
0.0
 46
0.0
 71
     5
 72
     1
  1
\A1;%%c125 - 153
  7
BMG_Text
 11
1.137462462329095E-16
 21
1.0
 31
0.0
 73
     1
 44
1.0
  0
POINT
  5
2E0
330
2D7
100
AcDbEntity
  8
Defpoints
 62
     0
100
AcDbPoint
 10
59.5228002486319
 20
62.4992187501
 30
0.0
  0
POINT
  5
2E1
330
2D7
100
AcDbEntity
  8
Defpoints
 62
     0
100
AcDbPoint
 10
59.74492176583189
 20
-62.4354950171
 30
0.0
  0
POINT
  5
336
330
2D7
100
AcDbEntity
  8
Defpoints
 62
     0
100
AcDbPoint
 10
70.71969276063189
 20
-62.4354950171
 30
0.0
  0
ENDBLK
  5
2D9
330
2D7
100
AcDbEntity
  8
0
100
AcDbBlockEnd
  0
BLOCK
  5
2E5
330
2E4
100
AcDbEntity
  8
0
100
AcDbBlockBegin
  2
_D_1
 70
     0
 10
0.0
 20
0.0
 30
0.0
  3
_D_1
  1
_D_1
  0
LINE
  5
2E7
330
2E4
100
AcDbEntity
  8
SK2
  6
ByBlock
370
    -2
100
AcDbLine
 10
46.85615466213189
 20
-67.0000091195
 30
0.0
 11
79.71901339763187
 21
-67.0000091195
 31
0.0
  0
LINE
  5
2E8
330
2E4
100
AcDbEntity
  8
SK2
  6
ByBlock
370
    -2
100
AcDbLine
 10
46.85615466213189
 20
67.0000091195
 30
0.0
 11
79.7190133976319
 21
67.0000091195
 31
0.0
  0
LINE
  5
2E9
330
2E4
100
AcDbEntity
  8
SK2
  6
ByBlock
370
    -2
100
AcDbLine
 10
79.71901339763187
 20
-63.50000911950001
 30
0.0
 11
79.7190133976319
 21
63.50000911950001
 31
0.0
  0
SOLID
  5
2EA
330
2E4
100
AcDbEntity
  8
SK2
100
AcDbTrace
 10
79.13568006429854
 20
-63.50000911950001
 30
0.0
 11
80.3023467309652
 21
-63.50000911950001
 31
0.0
 12
79.71901339763187
 22
-67.0000091195
 32
0.0
 13
79.71901339763187
 23
-67.0000091195
 33
0.0
  0
SOLID
  5
2EB
330
2E4
100
AcDbEntity
  8
SK2
100
AcDbTrace
 10
80.30234673096523
 20
63.50000911950001
 30
0.0
 11
79.13568006429857
 21
63.50000911950001
 31
0.0
 12
79.7190133976319
 22
67.0000091195
 32
0.0
 13
79.7190133976319
 23
67.0000091195
 33
0.0
  0
MTEXT
  5
2EC
330
2E4
100
AcDbEntity
  8
SK2
100
AcDbMText
 10
76.98201339763189
 20
0.0000000000000004
 30
0.0
 40
3.5
 41
0.0
 46
0.0
 71
     5
 72
     1
  1
\A1;%%c136 - 164
  7
BMG_Text
 11
1.060511401562333E-16
 21
1.0
 31
0.0
 73
     1
 44
1.0
  0
POINT
  5
2ED
330
2E4
100
AcDbEntity
  8
Defpoints
 62
     0
100
AcDbPoint
 10
46.79365466213189
 20
-67.0000091195
 30
0.0
  0
POINT
  5
337
330
2E4
100
AcDbEntity
  8
Defpoints
 62
     0
100
AcDbPoint
 10
46.79365466213189
 20
67.0000091195
 30
0.0
  0
POINT
  5
338
330
2E4
100
AcDbEntity
  8
Defpoints
 62
     0
100
AcDbPoint
 10
79.7190133976319
 20
67.0000091195
 30
0.0
  0
ENDBLK
  5
2E6
330
2E4
100
AcDbEntity
  8
0
100
AcDbBlockEnd
  0
BLOCK
  5
2F1
330
2F0
100
AcDbEntity
  8
0
100
AcDbBlockBegin
  2
_D_2
 70
     0
 10
0.0
 20
0.0
 30
0.0
  3
_D_2
  1
_D_2
  0
LINE
  5
2F3
330
2F0
100
AcDbEntity
  8
2
  6
ByBlock
370
    -2
100
AcDbLine
 10
46.79365466213189
 20
67.0625091195
 30
0.0
 11
46.7936546621319
 21
74.1936123655
 31
0.0
  0
LINE
  5
2F4
330
2F0
100
AcDbEntity
  8
2
  6
ByBlock
370
    -2
100
AcDbLine
 10
-3.756340492168109
 20
44.6765870076
 30
0.0
 11
-3.756340492168111
 21
74.1936123655
 31
0.0
  0
LINE
  5
2F5
330
2F0
100
AcDbEntity
  8
2
  6
ByBlock
370
    -2
100
AcDbLine
 10
43.2936546621319
 20
74.1936123655
 30
0.0
 11
-0.2563404921681105
 21
74.1936123655
 31
0.0
  0
SOLID
  5
2F6
330
2F0
100
AcDbEntity
  8
2
100
AcDbTrace
 10
43.2936546621319
 20
73.61027903216667
 30
0.0
 11
43.2936546621319
 21
74.77694569883333
 31
0.0
 12
46.7936546621319
 22
74.1936123655
 32
0.0
 13
46.7936546621319
 23
74.1936123655
 33
0.0
  0
SOLID
  5
339
330
2F0
100
AcDbEntity
  8
2
100
AcDbTrace
 10
-0.2563404921681105
 20
74.77694569883333
 30
0.0
 11
-0.2563404921681105
 21
73.61027903216667
 31
0.0
 12
-3.756340492168111
 22
74.1936123655
 32
0.0
 13
-3.756340492168111
 23
74.1936123655
 33
0.0
  0
MTEXT
  5
33A
330
2F0
100
AcDbEntity
  8
2
100
AcDbMText
 10
14.34876001553189
 20
76.8798623655
 30
0.0
 40
3.5
 41
0.0
 46
0.0
 71
     5
 72
     1
  1
\A1;113
  7
BMG_Text
 73
     1
 44
1.0
  0
POINT
  5
33B
330
2F0
100
AcDbEntity
  8
Defpoints
 62
     0
100
AcDbPoint
 10
46.79365466213189
 20
67.0000091195
 30
0.0
  0
POINT
  5
33C
330
2F0
100
AcDbEntity
  8
Defpoints
 62
     0
100
AcDbPoint
 10
-3.756340492168109
 20
44.6140870076
 30
0.0
  0
POINT
  5
33D
330
2F0
100
AcDbEntity
  8
Defpoints
 62
     0
100
AcDbPoint
 10
-3.756340492168109
 20
74.1936123655
 30
0.0
  0
ENDBLK
  5
2F2
330
2F0
100
AcDbEntity
  8
0
100
AcDbBlockEnd
  0
ENDSEC
  0
SECTION
  2
ENTITIES
  0
MTEXT
  5
76
330
1F
100
AcDbEntity
  8
SK6
100
AcDbMText
 10
24.38006592943189
 20
-46.2664636221
 30
0.0
 40
3.5
 41
0.0
 46
0.0
 71
     1
 72
     1
  1
639.677
  7
BMG_Text
 73
     1
 44
1.0
  0
LINE
  5
77
330
1F
100
AcDbEntity
  8
SK4
100
AcDbLine
 10
37.65581574343189
 20
0.0000000000000001
 30
0.0
 11
-6.138852687968108
 21
0.0000000000000001
 31
0.0
  0
LINE
  5
78
330
1F
100
AcDbEntity
  8
1
100
AcDbLine
 10
-3.656342524468108
 20
31.323697418
 30
0.0
 11
-3.656342524468108
 21
30.7036936283
 31
0.0
  0
LINE
  5
79
330
1F
100
AcDbEntity
  8
1
100
AcDbLine
 10
-3.656342524468108
 20
36.5085378289
 30
0.0
 11
-3.656341916568109
 21
35.470673677
 31
0.0
  0
LINE
  5
7A
330
1F
100
AcDbEntity
  8
1
100
AcDbLine
 10
16.44365481183189
 20
36.9999934687
 30
0.0
 11
-2.451192533268109
 21
36.9999930131
 31
0.0
  0
LINE
  5
7B
330
1F
100
AcDbEntity
  8
1
100
AcDbLine
 10
16.94365582513189
 20
36.4999924554
 30
0.0
 11
16.44365481183189
 21
36.9999934687
 31
0.0
  0
LINE
  5
7D
330
1F
100
AcDbEntity
  8
1
100
AcDbLine
 10
16.94365582513189
 20
26.9999927239
 30
0.0
 11
-0.1582655236681086
 21
26.9999927239
 31
0.0
  0
LINE
  5
7E
330
1F
100
AcDbEntity
  8
1
100
AcDbLine
 10
-3.656342524468108
 20
30.4836928844
 30
0.0
 11
-3.656341916568109
 21
29.8306597215
 31
0.0
  0
LINE
  5
7F
330
1F
100
AcDbEntity
  8
1
100
AcDbLine
 10
-0.1582662009681086
 20
9.449993764
 30
0.0
 11
-0.1582662009681086
 21
8.5499943615
 31
0.0
  0
LINE
  5
80
330
1F
100
AcDbEntity
  8
1
100
AcDbLine
 10
-0.1582662009681086
 20
8.5499943615
 30
0.0
 11
-0.1583667837681086
 21
8.5499943615
 31
0.0
  0
LINE
  5
81
330
1F
100
AcDbEntity
  8
1
100
AcDbLine
 10
-0.1583667837681086
 20
8.5499943615
 30
0.0
 11
-0.1583667837681086
 21
8.4499936001
 31
0.0
  0
LINE
  5
82
330
1F
100
AcDbEntity
  8
1
100
AcDbLine
 10
-0.1583667837681086
 20
8.4499936001
 30
0.0
 11
-0.1582662009681086
 21
8.4499936001
 31
0.0
  0
LINE
  5
83
330
1F
100
AcDbEntity
  8
1
100
AcDbLine
 10
-0.1582662009681086
 20
8.4499936001
 30
0.0
 11
-0.1582662009681086
 21
7.5499941976
 31
0.0
  0
LINE
  5
84
330
1F
100
AcDbEntity
  8
1
100
AcDbLine
 10
-0.1582662009681086
 20
7.5499941976
 30
0.0
 11
-0.1583667837681086
 21
7.5499941976
 31
0.0
  0
LINE
  5
85
330
1F
100
AcDbEntity
  8
1
100
AcDbLine
 10
-0.1583667837681086
 20
7.5499941976
 30
0.0
 11
-0.1583667837681086
 21
7.4499939018
 31
0.0
  0
LINE
  5
86
330
1F
100
AcDbEntity
  8
1
100
AcDbLine
 10
-0.1583667837681086
 20
7.4499939018
 30
0.0
 11
-0.1582662009681086
 21
7.4499939018
 31
0.0
  0
LINE
  5
87
330
1F
100
AcDbEntity
  8
1
100
AcDbLine
 10
-0.1582662009681086
 20
7.4499939018
 30
0.0
 11
-0.1582662009681086
 21
6.5499940337
 31
0.0
  0
LINE
  5
88
330
1F
100
AcDbEntity
  8
1
100
AcDbLine
 10
-0.1582662009681086
 20
6.5499940337
 30
0.0
 11
-0.1583667837681086
 21
6.5499940337
 31
0.0
  0
LINE
  5
89
330
1F
100
AcDbEntity
  8
1
100
AcDbLine
 10
-0.1583667837681086
 20
6.5499940337
 30
0.0
 11
-0.1583667837681086
 21
6.4499942036
 31
0.0
  0
LINE
  5
8A
330
1F
100
AcDbEntity
  8
1
100
AcDbLine
 10
-0.1583667837681086
 20
6.4499942036
 30
0.0
 11
-0.1582662009681086
 21
6.4499942036
 31
0.0
  0
LINE
  5
8B
330
1F
100
AcDbEntity
  8
1
100
AcDbLine
 10
-0.1582662009681086
 20
6.4499942036
 30
0.0
 11
-0.1582662009681086
 21
5.5499938698
 31
0.0
  0
LINE
  5
8C
330
1F
100
AcDbEntity
  8
1
100
AcDbLine
 10
-0.1582662009681086
 20
5.5499938698
 30
0.0
 11
-0.1583667837681086
 21
5.5499938698
 31
0.0
  0
LINE
  5
8D
330
1F
100
AcDbEntity
  8
1
100
AcDbLine
 10
-0.1583667837681086
 20
5.5499938698
 30
0.0
 11
-0.1583667837681086
 21
5.4499940397
 31
0.0
  0
LINE
  5
8E
330
1F
100
AcDbEntity
  8
1
100
AcDbLine
 10
-0.1583667837681086
 20
5.4499940397
 30
0.0
 11
-0.1582662009681086
 21
5.4499940397
 31
0.0
  0
LINE
  5
8F
330
1F
100
AcDbEntity
  8
1
100
AcDbLine
 10
-0.1582662009681086
 20
5.4499940397
 30
0.0
 11
-0.1582662009681086
 21
4.5499941715
 31
0.0
  0
LINE
  5
90
330
1F
100
AcDbEntity
  8
1
100
AcDbLine
 10
-0.1582662009681086
 20
4.5499941715
 30
0.0
 11
-0.1583667837681086
 21
4.5499941715
 31
0.0
  0
LINE
  5
91
330
1F
100
AcDbEntity
  8
1
100
AcDbLine
 10
-0.1583667837681086
 20
4.5499941715
 30
0.0
 11
-0.1583667837681086
 21
4.4499938757
 31
0.0
  0
LINE
  5
92
330
1F
100
AcDbEntity
  8
1
100
AcDbLine
 10
-0.1583667837681086
 20
4.4499938757
 30
0.0
 11
-0.1582662009681086
 21
4.4499938757
 31
0.0
  0
LINE
  5
93
330
1F
100
AcDbEntity
  8
1
100
AcDbLine
 10
-0.1582662009681086
 20
4.4499938757
 30
0.0
 11
-0.1582662009681086
 21
3.5499940076
 31
0.0
  0
LINE
  5
94
330
1F
100
AcDbEntity
  8
1
100
AcDbLine
 10
-0.1582662009681086
 20
3.5499940076
 30
0.0
 11
-0.1583667837681086
 21
3.5499940076
 31
0.0
  0
LINE
  5
95
330
1F
100
AcDbEntity
  8
1
100
AcDbLine
 10
-0.1583667837681086
 20
3.5499940076
 30
0.0
 11
-0.1583667837681086
 21
3.4499939447
 31
0.0
  0
LINE
  5
96
330
1F
100
AcDbEntity
  8
1
100
AcDbLine
 10
-0.1583667837681086
 20
3.4499939447
 30
0.0
 11
-0.1582662009681086
 21
3.4499939447
 31
0.0
  0
LINE
  5
97
330
1F
100
AcDbEntity
  8
1
100
AcDbLine
 10
-0.1582662009681086
 20
3.4499939447
 30
0.0
 11
-0.1582662009681086
 21
2.5499940765
 31
0.0
  0
LINE
  5
98
330
1F
100
AcDbEntity
  8
1
100
AcDbLine
 10
-0.1582662009681086
 20
2.5499940765
 30
0.0
 11
-0.1583667837681086
 21
2.5499940765
 31
0.0
  0
LINE
  5
99
330
1F
100
AcDbEntity
  8
1
100
AcDbLine
 10
-0.1583667837681086
 20
2.5499940765
 30
0.0
 11
-0.1583667837681086
 21
2.4499940136
 31
0.0
  0
LINE
  5
9A
330
1F
100
AcDbEntity
  8
1
100
AcDbLine
 10
-0.1583667837681086
 20
2.4499940136
 30
0.0
 11
-0.1582662009681086
 21
2.4499940136
 31
0.0
  0
LINE
  5
9B
330
1F
100
AcDbEntity
  8
1
100
AcDbLine
 10
-0.1582662009681086
 20
2.4499940136
 30
0.0
 11
-0.1582662009681086
 21
1.549994029
 31
0.0
  0
LINE
  5
9C
330
1F
100
AcDbEntity
  8
1
100
AcDbLine
 10
-0.1582662009681086
 20
1.549994029
 30
0.0
 11
-0.1583667837681086
 21
1.549994029
 31
0.0
  0
LINE
  5
9D
330
1F
100
AcDbEntity
  8
1
100
AcDbLine
 10
-0.1583667837681086
 20
1.549994029
 30
0.0
 11
-0.1583667837681086
 21
1.4499939661
 31
0.0
  0
LINE
  5
9E
330
1F
100
AcDbEntity
  8
1
100
AcDbLine
 10
-0.1583667837681086
 20
1.4499939661
 30
0.0
 11
-0.1582662009681086
 21
1.4499939661
 31
0.0
  0
LINE
  5
9F
330
1F
100
AcDbEntity
  8
1
100
AcDbLine
 10
-0.1582662009681086
 20
1.4499939661
 30
0.0
 11
-0.1582662009681086
 21
0.5499939815000001
 31
0.0
  0
LINE
  5
A0
330
1F
100
AcDbEntity
  8
1
100
AcDbLine
 10
-0.1582662009681086
 20
0.5499939815000001
 30
0.0
 11
-0.1583667837681086
 21
0.5499939815000001
 31
0.0
  0
LINE
  5
A1
330
1F
100
AcDbEntity
  8
1
100
AcDbLine
 10
-0.1583667837681086
 20
0.5499939815000001
 30
0.0
 11
-0.1583667837681086
 21
0.4499940059000001
 31
0.0
  0
LINE
  5
A2
330
1F
100
AcDbEntity
  8
1
100
AcDbLine
 10
-0.1583667837681086
 20
0.4499940059000001
 30
0.0
 11
-0.1582662009681086
 21
0.4499940059000001
 31
0.0
  0
LINE
  5
A3
330
1F
100
AcDbEntity
  8
1
100
AcDbLine
 10
-0.1582662009681086
 20
0.4499940059000001
 30
0.0
 11
-0.1582662009681086
 21
-0.4500060076999999
 31
0.0
  0
LINE
  5
A4
330
1F
100
AcDbEntity
  8
1
100
AcDbLine
 10
-0.1582662009681086
 20
-0.4500060076999999
 30
0.0
 11
-0.1583667837681086
 21
-0.4500060076999999
 31
0.0
  0
LINE
  5
A5
330
1F
100
AcDbEntity
  8
1
100
AcDbLine
 10
-0.1583667837681086
 20
-0.4500060076999999
 30
0.0
 11
-0.1583667837681086
 21
-0.5500060124999999
 31
0.0
  0
LINE
  5
A6
330
1F
100
AcDbEntity
  8
1
100
AcDbLine
 10
-0.1583667837681086
 20
-0.5500060124999999
 30
0.0
 11
-0.1582662009681086
 21
-0.5500060124999999
 31
0.0
  0
LINE
  5
A7
330
1F
100
AcDbEntity
  8
1
100
AcDbLine
 10
-0.1582662009681086
 20
-0.5500060124999999
 30
0.0
 11
-0.1582662009681086
 21
-1.450005997
 31
0.0
  0
LINE
  5
A8
330
1F
100
AcDbEntity
  8
1
100
AcDbLine
 10
-0.1582662009681086
 20
-1.450005997
 30
0.0
 11
-0.1583667837681086
 21
-1.450005997
 31
0.0
  0
LINE
  5
A9
330
1F
100
AcDbEntity
  8
1
100
AcDbLine
 10
-0.1583667837681086
 20
-1.450005997
 30
0.0
 11
-0.1583667837681086
 21
-1.5500059436
 31
0.0
  0
LINE
  5
AA
330
1F
100
AcDbEntity
  8
1
100
AcDbLine
 10
-0.1583667837681086
 20
-1.5500059436
 30
0.0
 11
-0.1582662009681086
 21
-1.5500059436
 31
0.0
  0
LINE
  5
AB
330
1F
100
AcDbEntity
  8
1
100
AcDbLine
 10
-0.1582662009681086
 20
-1.5500059436
 30
0.0
 11
-0.1582662009681086
 21
-2.4500060445
 31
0.0
  0
LINE
  5
AC
330
1F
100
AcDbEntity
  8
1
100
AcDbLine
 10
-0.1582662009681086
 20
-2.4500060445
 30
0.0
 11
-0.1583667837681086
 21
-2.4500060445
 31
0.0
  0
LINE
  5
AD
330
1F
100
AcDbEntity
  8
1
100
AcDbLine
 10
-0.1583667837681086
 20
-2.4500060445
 30
0.0
 11
-0.1583667837681086
 21
-2.5500061075
 31
0.0
  0
LINE
  5
AE
330
1F
100
AcDbEntity
  8
1
100
AcDbLine
 10
-0.1583667837681086
 20
-2.5500061075
 30
0.0
 11
-0.1582662009681086
 21
-2.5500061075
 31
0.0
  0
LINE
  5
AF
330
1F
100
AcDbEntity
  8
1
100
AcDbLine
 10
-0.1582662009681086
 20
-2.5500061075
 30
0.0
 11
-0.1582662009681086
 21
-3.4500059756
 31
0.0
  0
LINE
  5
B0
330
1F
100
AcDbEntity
  8
1
100
AcDbLine
 10
-0.1582662009681086
 20
-3.4500059756
 30
0.0
 11
-0.1583667837681086
 21
-3.4500059756
 31
0.0
  0
LINE
  5
B1
330
1F
100
AcDbEntity
  8
1
100
AcDbLine
 10
-0.1583667837681086
 20
-3.4500059756
 30
0.0
 11
-0.1583667837681086
 21
-3.5500060386
 31
0.0
  0
LINE
  5
B2
330
1F
100
AcDbEntity
  8
1
100
AcDbLine
 10
-0.1583667837681086
 20
-3.5500060386
 30
0.0
 11
-0.1582662009681086
 21
-3.5500060386
 31
0.0
  0
LINE
  5
B3
330
1F
100
AcDbEntity
  8
1
100
AcDbLine
 10
-0.1582662009681086
 20
-3.5500060386
 30
0.0
 11
-0.1582662009681086
 21
-4.4500059067
 31
0.0
  0
LINE
  5
B4
330
1F
100
AcDbEntity
  8
1
100
AcDbLine
 10
-0.1582662009681086
 20
-4.4500059067
 30
0.0
 11
-0.1583667837681086
 21
-4.4500059067
 31
0.0
  0
LINE
  5
B5
330
1F
100
AcDbEntity
  8
1
100
AcDbLine
 10
-0.1583667837681086
 20
-4.4500059067
 30
0.0
 11
-0.1583667837681086
 21
-4.5500062025
 31
0.0
  0
LINE
  5
B6
330
1F
100
AcDbEntity
  8
1
100
AcDbLine
 10
-0.1583667837681086
 20
-4.5500062025
 30
0.0
 11
-0.1582662009681086
 21
-4.5500062025
 31
0.0
  0
LINE
  5
B7
330
1F
100
AcDbEntity
  8
1
100
AcDbLine
 10
-0.1582662009681086
 20
-4.5500062025
 30
0.0
 11
-0.1582662009681086
 21
-5.4500060706
 31
0.0
  0
LINE
  5
B8
330
1F
100
AcDbEntity
  8
1
100
AcDbLine
 10
-0.1582662009681086
 20
-5.4500060706
 30
0.0
 11
-0.1583667837681086
 21
-5.4500060706
 31
0.0
  0
LINE
  5
B9
330
1F
100
AcDbEntity
  8
1
100
AcDbLine
 10
-0.1583667837681086
 20
-5.4500060706
 30
0.0
 11
-0.1583667837681086
 21
-5.5500059007
 31
0.0
  0
LINE
  5
BA
330
1F
100
AcDbEntity
  8
1
100
AcDbLine
 10
-0.1583667837681086
 20
-5.5500059007
 30
0.0
 11
-0.1582662009681086
 21
-5.5500059007
 31
0.0
  0
LINE
  5
BB
330
1F
100
AcDbEntity
  8
1
100
AcDbLine
 10
-0.1582662009681086
 20
-5.5500059007
 30
0.0
 11
-0.1582662009681086
 21
-27.0000067158
 31
0.0
  0
LINE
  5
BC
330
1F
100
AcDbEntity
  8
1
100
AcDbLine
 10
-0.1582655236681086
 20
26.9999927239
 30
0.0
 11
-0.1582655236681086
 21
9.5499935941
 31
0.0
  0
LINE
  5
BD
330
1F
100
AcDbEntity
  8
1
100
AcDbLine
 10
-0.1582655236681086
 20
9.5499935941
 30
0.0
 11
-0.1583667837681086
 21
9.5499935941
 31
0.0
  0
LINE
  5
BE
330
1F
100
AcDbEntity
  8
1
100
AcDbLine
 10
-0.1583667837681086
 20
9.5499935941
 30
0.0
 11
-0.1583667837681086
 21
9.449993764
 31
0.0
  0
LINE
  5
BF
330
1F
100
AcDbEntity
  8
1
100
AcDbLine
 10
-0.1583667837681086
 20
9.449993764
 30
0.0
 11
-0.1582662009681086
 21
9.449993764
 31
0.0
  0
LINE
  5
C0
330
1F
100
AcDbEntity
  8
1
100
AcDbLine
 10
-0.4082655109681086
 20
-41.0514878774
 30
0.0
 11
-0.4031767643681086
 21
-41.0528252566
 31
0.0
  0
LINE
  5
C1
330
1F
100
AcDbEntity
  8
1
100
AcDbLine
 10
-0.4031767643681086
 20
-41.0528252566
 30
0.0
 11
-0.2846939064681086
 21
-41.0965489889
 31
0.0
  0
LINE
  5
C2
330
1F
100
AcDbEntity
  8
1
100
AcDbLine
 10
-0.2846939064681086
 20
-41.0965489889
 30
0.0
 11
-0.1983714796681086
 21
-41.1570029998
 31
0.0
  0
LINE
  5
C3
330
1F
100
AcDbEntity
  8
1
100
AcDbLine
 10
-0.1983714796681086
 20
-41.1570029998
 30
0.0
 11
-0.1591106452681086
 21
-41.230484351
 31
0.0
  0
LINE
  5
C4
330
1F
100
AcDbEntity
  8
1
100
AcDbLine
 10
-0.1591106452681086
 20
-41.230484351
 30
0.0
 11
-0.1815668227681086
 21
-41.3087010384
 31
0.0
  0
LINE
  5
C5
330
1F
100
AcDbEntity
  8
1
100
AcDbLine
 10
-0.1815668227681086
 20
-41.3087010384
 30
0.0
 11
-0.2694724978681086
 21
-41.3789786398
 31
0.0
  0
LINE
  5
C6
330
1F
100
AcDbEntity
  8
1
100
AcDbLine
 10
-0.2694724978681086
 20
-41.3789786398
 30
0.0
 11
-0.4073752941681086
 21
-41.429258883
 31
0.0
  0
LINE
  5
C7
330
1F
100
AcDbEntity
  8
1
100
AcDbLine
 10
-0.4073752941681086
 20
-41.429258883
 30
0.0
 11
-0.4082657052681086
 21
-41.4294771023
 31
0.0
  0
LINE
  5
C8
330
1F
100
AcDbEntity
  8
1
100
AcDbLine
 10
-3.656342524468108
 20
-39.4267700613
 30
0.0
 11
-3.656341916568109
 21
-40.1568666452
 31
0.0
  0
LINE
  5
C9
330
1F
100
AcDbEntity
  8
1
100
AcDbLine
 10
-0.4082662351681086
 20
-37.7892634941
 30
0.0
 11
-0.3244807310681086
 21
-37.8284684492
 31
0.0
  0
LINE
  5
CA
330
1F
100
AcDbEntity
  8
1
100
AcDbLine
 10
-0.3244807310681086
 20
-37.8284684492
 30
0.0
 11
-0.2283607907681086
 21
-37.9035740269
 31
0.0
  0
LINE
  5
CB
330
1F
100
AcDbEntity
  8
1
100
AcDbLine
 10
-0.2283607907681086
 20
-37.9035740269
 30
0.0
 11
-0.1679514832681086
 21
-38.0038141383
 31
0.0
  0
LINE
  5
CC
330
1F
100
AcDbEntity
  8
1
100
AcDbLine
 10
-0.1679514832681086
 20
-38.0038141383
 30
0.0
 11
-0.1664576418681086
 21
-38.1224199308
 31
0.0
  0
LINE
  5
CD
330
1F
100
AcDbEntity
  8
1
100
AcDbLine
 10
-0.1664576418681086
 20
-38.1224199308
 30
0.0
 11
-0.2424944480681086
 21
-38.2394327796
 31
0.0
  0
LINE
  5
CE
330
1F
100
AcDbEntity
  8
1
100
AcDbLine
 10
-0.2424944480681086
 20
-38.2394327796
 30
0.0
 11
-0.3581051071681086
 21
-38.3149406886
 31
0.0
  0
LINE
  5
CF
330
1F
100
AcDbEntity
  8
1
100
AcDbLine
 10
-0.3581051071681086
 20
-38.3149406886
 30
0.0
 11
-0.4082662076681086
 21
-38.3353304162
 31
0.0
  0
LINE
  5
D0
330
1F
100
AcDbEntity
  8
1
100
AcDbLine
 10
-3.656342524468108
 20
-35.4706868529
 30
0.0
 11
-3.656341916568109
 21
-36.5085524228
 31
0.0
  0
LINE
  5
D1
330
1F
100
AcDbEntity
  8
1
100
AcDbLine
 10
-3.656342524468108
 20
-29.8306737095
 30
0.0
 11
-3.656341916468109
 21
-31.3237104831
 31
0.0
  0
LINE
  5
D2
330
1F
100
AcDbEntity
  8
1
100
AcDbLine
 10
-0.1582662009681086
 20
-27.0000067158
 30
0.0
 11
8.99365926073189
 21
-27.0000067158
 31
0.0
  0
LINE
  5
D3
330
1F
100
AcDbEntity
  8
1
100
AcDbLine
 10
-0.2000070185681086
 20
-44.9995612122
 30
0.0
 11
8.99365926073189
 21
-44.9995612122
 31
0.0
  0
LINE
  5
D4
330
1F
100
AcDbEntity
  8
1
100
AcDbLine
 10
-3.656342527968109
 20
-44.8483209031
 30
0.0
 11
-3.656341919968108
 21
-44.9407641991
 31
0.0
  0
LINE
  5
D5
330
1F
100
AcDbEntity
  8
1
100
AcDbLine
 10
-0.4082655812681086
 20
-44.53781551
 30
0.0
 11
-0.2788862491681086
 21
-44.5531860578
 31
0.0
  0
LINE
  5
D6
330
1F
100
AcDbEntity
  8
1
100
AcDbLine
 10
-0.2788862491681086
 20
-44.5531860578
 30
0.0
 11
-0.1925936247681086
 21
-44.5733398783
 31
0.0
  0
LINE
  5
D7
330
1F
100
AcDbEntity
  8
1
100
AcDbLine
 10
-0.1925936247681086
 20
-44.5733398783
 30
0.0
 11
-0.1585593725681086
 21
-44.5959039616
 31
0.0
  0
LINE
  5
D8
330
1F
100
AcDbEntity
  8
1
100
AcDbLine
 10
-0.1585593725681086
 20
-44.5959039616
 30
0.0
 11
-0.1815071607681086
 21
-44.6182259011
 31
0.0
  0
LINE
  5
D9
330
1F
100
AcDbEntity
  8
1
100
AcDbLine
 10
-0.1815071607681086
 20
-44.6182259011
 30
0.0
 11
-0.2593023980681086
 21
-44.6377240705
 31
0.0
  0
LINE
  5
DA
330
1F
100
AcDbEntity
  8
1
100
AcDbLine
 10
-0.2593023980681086
 20
-44.6377240705
 30
0.0
 11
-0.3825797046681086
 21
-44.6523495602
 31
0.0
  0
LINE
  5
DB
330
1F
100
AcDbEntity
  8
1
100
AcDbLine
 10
-0.3825797046681086
 20
-44.6523495602
 30
0.0
 11
-0.4082656478681086
 21
-44.65433075
 31
0.0
  0
LINE
  5
DC
330
1F
100
AcDbEntity
  8
1
100
AcDbLine
 10
-3.656342524468108
 20
-43.9439564943
 30
0.0
 11
-3.656341916568109
 21
-44.2263831699
 31
0.0
  0
LINE
  5
DD
330
1F
100
AcDbEntity
  8
1
100
AcDbLine
 10
-0.4082655462681086
 20
-43.2483622831
 30
0.0
 11
-0.3957075926681086
 21
-43.2505155009
 31
0.0
  0
LINE
  5
DE
330
1F
100
AcDbEntity
  8
1
100
AcDbLine
 10
-0.3957075926681086
 20
-43.2505155009
 30
0.0
 11
-0.2737825664681086
 21
-43.2807909352
 31
0.0
  0
LINE
  5
DF
330
1F
100
AcDbEntity
  8
1
100
AcDbLine
 10
-0.2737825664681086
 20
-43.2807909352
 30
0.0
 11
-0.1906303617681086
 21
-43.3211507303
 31
0.0
  0
LINE
  5
E0
330
1F
100
AcDbEntity
  8
1
100
AcDbLine
 10
-0.1906303617681086
 20
-43.3211507303
 30
0.0
 11
-0.1583693477681086
 21
-43.3677056831
 31
0.0
  0
LINE
  5
E1
330
1F
100
AcDbEntity
  8
1
100
AcDbLine
 10
-0.1583693477681086
 20
-43.3677056831
 30
0.0
 11
-0.1851246347681086
 21
-43.4149118629
 31
0.0
  0
LINE
  5
E2
330
1F
100
AcDbEntity
  8
1
100
AcDbLine
 10
-0.1851246347681086
 20
-43.4149118629
 30
0.0
 11
-0.2698861649681086
 21
-43.4564041462
 31
0.0
  0
LINE
  5
E3
330
1F
100
AcDbEntity
  8
1
100
AcDbLine
 10
-0.2698861649681086
 20
-43.4564041462
 30
0.0
 11
-0.4005544474681086
 21
-43.4867801633
 31
0.0
  0
LINE
  5
E4
330
1F
100
AcDbEntity
  8
1
100
AcDbLine
 10
-0.4005544474681086
 20
-43.4867801633
 30
0.0
 11
-0.4082658649681086
 21
-43.4879907789
 31
0.0
  0
LINE
  5
E5
330
1F
100
AcDbEntity
  8
1
100
AcDbLine
 10
-3.656341916568109
 20
-42.1754771863
 30
0.0
 11
-3.656341916568109
 21
-42.6646629021
 31
0.0
  0
LINE
  5
E6
330
1F
100
AcDbEntity
  8
1
100
AcDbLine
 10
16.94365582513189
 20
13.3315300898
 30
0.0
 11
16.94365582513189
 21
36.4999924554
 31
0.0
  0
LINE
  5
E7
330
1F
100
AcDbEntity
  8
1
100
AcDbLine
 10
18.72972003503189
 20
9.5013086452
 30
0.0
 11
46.79365466213189
 21
-14.0471318737
 31
0.0
  0
LINE
  5
EA
330
1F
100
AcDbEntity
  8
1
100
AcDbLine
 10
8.99365926073189
 20
-27.0000067158
 30
0.0
 11
9.185031148631891
 21
-27.0386994435
 31
0.0
  0
LINE
  5
EB
330
1F
100
AcDbEntity
  8
1
100
AcDbLine
 10
9.185031148631891
 20
-27.0386994435
 30
0.0
 11
9.35043403783189
 21
-27.1397144153
 31
0.0
  0
LINE
  5
EC
330
1F
100
AcDbEntity
  8
1
100
AcDbLine
 10
9.35043403783189
 20
-27.1397144153
 30
0.0
 11
9.54741248773189
 21
-27.3694512053
 31
0.0
  0
LINE
  5
ED
330
1F
100
AcDbEntity
  8
1
100
AcDbLine
 10
9.54741248773189
 20
-27.3694512053
 30
0.0
 11
9.732872339931891
 21
-27.8157484336
 31
0.0
  0
LINE
  5
EE
330
1F
100
AcDbEntity
  8
1
100
AcDbLine
 10
9.732872339931891
 20
-27.8157484336
 30
0.0
 11
9.793661627031891
 21
-28.3132535024
 31
0.0
  0
LINE
  5
EF
330
1F
100
AcDbEntity
  8
1
100
AcDbLine
 10
17.04365770203189
 20
-41.7548678815
 30
0.0
 11
16.37446890453189
 21
-41.8131202459
 31
0.0
  0
LINE
  5
F0
330
1F
100
AcDbEntity
  8
1
100
AcDbLine
 10
16.37446890453189
 20
-41.8131202459
 30
0.0
 11
15.72503159623189
 21
-41.9830791652
 31
0.0
  0
LINE
  5
F1
330
1F
100
AcDbEntity
  8
1
100
AcDbLine
 10
15.72503159623189
 20
-41.9830791652
 30
0.0
 11
15.11549959753189
 21
-42.2577895224
 31
0.0
  0
LINE
  5
F2
330
1F
100
AcDbEntity
  8
1
100
AcDbLine
 10
15.11549959753189
 20
-42.2577895224
 30
0.0
 11
14.55798010213189
 21
-42.6241792738
 31
0.0
  0
LINE
  5
F3
330
1F
100
AcDbEntity
  8
1
100
AcDbLine
 10
14.55798010213189
 20
-42.6241792738
 30
0.0
 11
13.60689113713189
 21
-43.6208583415
 31
0.0
  0
LINE
  5
F4
330
1F
100
AcDbEntity
  8
1
100
AcDbLine
 10
13.60689113713189
 20
-43.6208583415
 30
0.0
 11
13.20695887183189
 21
-44.2817807198
 31
0.0
  0
LINE
  5
F5
330
1F
100
AcDbEntity
  8
1
100
AcDbLine
 10
13.20695887183189
 20
-44.2817807198
 30
0.0
 11
12.90510604953189
 21
-44.9866726995
 31
0.0
  0
LINE
  5
F6
330
1F
100
AcDbEntity
  8
1
100
AcDbLine
 10
12.90510604953189
 20
-44.9866726995
 30
0.0
 11
12.63423274143189
 21
-46.0529513657
 31
0.0
  0
LINE
  5
F7
330
1F
100
AcDbEntity
  8
1
100
AcDbLine
 10
12.63423274143189
 20
-46.0529513657
 30
0.0
 11
12.54376034123189
 21
-47.135386616
 31
0.0
  0
LINE
  5
F8
330
1F
100
AcDbEntity
  8
1
100
AcDbLine
 10
12.54376034123189
 20
-47.135386616
 30
0.0
 11
12.61902610643189
 21
-48.2190139592
 31
0.0
  0
LINE
  5
F9
330
1F
100
AcDbEntity
  8
1
100
AcDbLine
 10
12.61902610643189
 20
-48.2190139592
 30
0.0
 11
12.84748325923189
 21
-49.2679551244
 31
0.0
  0
LINE
  5
FA
330
1F
100
AcDbEntity
  8
1
100
AcDbLine
 10
12.84748325923189
 20
-49.2679551244
 30
0.0
 11
13.31865052563189
 21
-50.4696369171
 31
0.0
  0
LINE
  5
FB
330
1F
100
AcDbEntity
  8
1
100
AcDbLine
 10
13.31865052563189
 20
-50.4696369171
 30
0.0
 11
14.00565366123189
 21
-51.5583492815
 31
0.0
  0
LINE
  5
FC
330
1F
100
AcDbEntity
  8
1
100
AcDbLine
 10
14.00565366123189
 20
-51.5583492815
 30
0.0
 11
14.47415361983189
 21
-52.0828701556
 31
0.0
  0
LINE
  5
FD
330
1F
100
AcDbEntity
  8
1
100
AcDbLine
 10
14.47415361983189
 20
-52.0828701556
 30
0.0
 11
15.01835147713189
 21
-52.5426827371
 31
0.0
  0
LINE
  5
FE
330
1F
100
AcDbEntity
  8
1
100
AcDbLine
 10
15.01835147713189
 20
-52.5426827371
 30
0.0
 11
16.01596931793189
 21
-53.0644133687
 31
0.0
  0
LINE
  5
FF
330
1F
100
AcDbEntity
  8
1
100
AcDbLine
 10
16.01596931793189
 20
-53.0644133687
 30
0.0
 11
16.91188673353189
 21
-53.2344840467
 31
0.0
  0
LINE
  5
100
330
1F
100
AcDbEntity
  8
1
100
AcDbLine
 10
16.91188673353189
 20
-53.2344840467
 30
0.0
 11
17.82533536533189
 21
-53.1377308071
 31
0.0
  0
LINE
  5
101
330
1F
100
AcDbEntity
  8
1
100
AcDbLine
 10
17.82533536533189
 20
-53.1377308071
 30
0.0
 11
18.80472163533189
 21
-52.7182221413
 31
0.0
  0
LINE
  5
102
330
1F
100
AcDbEntity
  8
1
100
AcDbLine
 10
18.80472163533189
 20
-52.7182221413
 30
0.0
 11
19.42219595293189
 21
-52.2605776787
 31
0.0
  0
LINE
  5
103
330
1F
100
AcDbEntity
  8
1
100
AcDbLine
 10
19.42219595293189
 20
-52.2605776787
 30
0.0
 11
19.95033780913189
 21
-51.7193675041
 31
0.0
  0
LINE
  5
104
330
1F
100
AcDbEntity
  8
1
100
AcDbLine
 10
19.95033780913189
 20
-51.7193675041
 30
0.0
 11
20.61124156093189
 21
-50.7652387023
 31
0.0
  0
LINE
  5
105
330
1F
100
AcDbEntity
  8
1
100
AcDbLine
 10
20.61124156093189
 20
-50.7652387023
 30
0.0
 11
21.09448621843189
 21
-49.7103966773
 31
0.0
  0
LINE
  5
106
330
1F
100
AcDbEntity
  8
1
100
AcDbLine
 10
21.09448621843189
 20
-49.7103966773
 30
0.0
 11
21.41454825973189
 21
-48.5424995422
 31
0.0
  0
LINE
  5
107
330
1F
100
AcDbEntity
  8
1
100
AcDbLine
 10
21.41454825973189
 20
-48.5424995422
 30
0.0
 11
21.54209474903189
 21
-47.3231337965
 31
0.0
  0
LINE
  5
108
330
1F
100
AcDbEntity
  8
1
100
AcDbLine
 10
21.54209474903189
 20
-47.3231337965
 30
0.0
 11
21.48015807253189
 21
-46.2327189744
 31
0.0
  0
LINE
  5
109
330
1F
100
AcDbEntity
  8
1
100
AcDbLine
 10
21.48015807253189
 20
-46.2327189744
 30
0.0
 11
21.23802910423189
 21
-45.1531335711
 31
0.0
  0
LINE
  5
10A
330
1F
100
AcDbEntity
  8
1
100
AcDbLine
 10
21.23802910423189
 20
-45.1531335711
 30
0.0
 11
20.90374390463189
 21
-44.3285033107
 31
0.0
  0
LINE
  5
10B
330
1F
100
AcDbEntity
  8
1
100
AcDbLine
 10
20.90374390463189
 20
-44.3285033107
 30
0.0
 11
20.43765793423189
 21
-43.5617007315
 31
0.0
  0
LINE
  5
10C
330
1F
100
AcDbEntity
  8
1
100
AcDbLine
 10
20.43765793423189
 20
-43.5617007315
 30
0.0
 11
19.94146416763189
 21
-42.986266315
 31
0.0
  0
LINE
  5
10D
330
1F
100
AcDbEntity
  8
1
100
AcDbLine
 10
19.94146416763189
 20
-42.986266315
 30
0.0
 11
19.35602734663189
 21
-42.4966327846
 31
0.0
  0
LINE
  5
10E
330
1F
100
AcDbEntity
  8
1
100
AcDbLine
 10
19.35602734663189
 20
-42.4966327846
 30
0.0
 11
18.68638406373189
 21
-42.1148538589
 31
0.0
  0
LINE
  5
10F
330
1F
100
AcDbEntity
  8
1
100
AcDbLine
 10
18.68638406373189
 20
-42.1148538589
 30
0.0
 11
17.95638362743189
 21
-41.8628305197
 31
0.0
  0
LINE
  5
110
330
1F
100
AcDbEntity
  8
1
100
AcDbLine
 10
17.95638362743189
 20
-41.8628305197
 30
0.0
 11
17.04365770203189
 21
-41.7548678815
 31
0.0
  0
LINE
  5
111
330
1F
100
AcDbEntity
  8
1
100
AcDbLine
 10
9.793661627031891
 20
-67.0000091195
 30
0.0
 11
46.79365466213189
 21
-67.0000091195
 31
0.0
  0
LINE
  5
112
330
1F
100
AcDbEntity
  8
1
100
AcDbLine
 10
9.793661627031891
 20
-67.0000091195
 30
0.0
 11
9.793661627031891
 21
-28.3132535024
 31
0.0
  0
LINE
  5
113
330
1F
100
AcDbEntity
  8
1
100
AcDbLine
 10
17.04365770203189
 20
-65.4408708215
 30
0.0
 11
18.11715225553189
 21
-65.4984936118
 31
0.0
  0
LINE
  5
114
330
1F
100
AcDbEntity
  8
1
100
AcDbLine
 10
18.11715225553189
 20
-65.4984936118
 30
0.0
 11
19.06964192963189
 21
-65.6589791179
 31
0.0
  0
LINE
  5
115
330
1F
100
AcDbEntity
  8
1
100
AcDbLine
 10
19.06964192963189
 20
-65.6589791179
 30
0.0
 11
19.79346583463189
 21
-65.8887177706
 31
0.0
  0
LINE
  5
116
330
1F
100
AcDbEntity
  8
1
100
AcDbLine
 10
19.79346583463189
 20
-65.8887177706
 30
0.0
 11
20.20955840923189
 21
-66.1437064409
 31
0.0
  0
LINE
  5
117
330
1F
100
AcDbEntity
  8
1
100
AcDbLine
 10
20.20955840923189
 20
-66.1437064409
 30
0.0
 11
20.27535448653189
 21
-66.3836821914
 31
0.0
  0
LINE
  5
118
330
1F
100
AcDbEntity
  8
1
100
AcDbLine
 10
20.27535448653189
 20
-66.3836821914
 30
0.0
 11
19.97901509383189
 21
-66.5810257196
 31
0.0
  0
LINE
  5
119
330
1F
100
AcDbEntity
  8
1
100
AcDbLine
 10
19.97901509383189
 20
-66.5810257196
 30
0.0
 11
19.33864514213189
 21
-66.7218342423
 31
0.0
  0
LINE
  5
11A
330
1F
100
AcDbEntity
  8
1
100
AcDbLine
 10
19.33864514213189
 20
-66.7218342423
 30
0.0
 11
18.42387030703189
 21
-66.804677248
 31
0.0
  0
LINE
  5
11B
330
1F
100
AcDbEntity
  8
1
100
AcDbLine
 10
18.42387030703189
 20
-66.804677248
 30
0.0
 11
17.36582825763189
 21
-66.8376758695
 31
0.0
  0
LINE
  5
11C
330
1F
100
AcDbEntity
  8
1
100
AcDbLine
 10
17.36582825763189
 20
-66.8376758695
 30
0.0
 11
16.30547652823189
 21
-66.8301358819
 31
0.0
  0
LINE
  5
11D
330
1F
100
AcDbEntity
  8
1
100
AcDbLine
 10
16.30547652823189
 20
-66.8301358819
 30
0.0
 11
15.33951620443189
 21
-66.783465445
 31
0.0
  0
LINE
  5
11E
330
1F
100
AcDbEntity
  8
1
100
AcDbLine
 10
15.33951620443189
 20
-66.783465445
 30
0.0
 11
14.54100022893189
 21
-66.6890367866
 31
0.0
  0
LINE
  5
11F
330
1F
100
AcDbEntity
  8
1
100
AcDbLine
 10
14.54100022893189
 20
-66.6890367866
 30
0.0
 11
13.99651924943189
 21
-66.5347054601
 31
0.0
  0
LINE
  5
120
330
1F
100
AcDbEntity
  8
1
100
AcDbLine
 10
13.99651924943189
 20
-66.5347054601
 30
0.0
 11
13.79385600663189
 21
-66.3189142942
 31
0.0
  0
LINE
  5
121
330
1F
100
AcDbEntity
  8
1
100
AcDbLine
 10
13.79385600663189
 20
-66.3189142942
 30
0.0
 11
13.97269229273189
 21
-66.063053906
 31
0.0
  0
LINE
  5
122
330
1F
100
AcDbEntity
  8
1
100
AcDbLine
 10
13.97269229273189
 20
-66.063053906
 30
0.0
 11
14.50433592183189
 21
-65.8070221543
 31
0.0
  0
LINE
  5
123
330
1F
100
AcDbEntity
  8
1
100
AcDbLine
 10
14.50433592183189
 20
-65.8070221543
 30
0.0
 11
15.31845341303189
 21
-65.5950531363
 31
0.0
  0
LINE
  5
124
330
1F
100
AcDbEntity
  8
1
100
AcDbLine
 10
15.31845341303189
 20
-65.5950531363
 30
0.0
 11
16.32401357273189
 21
-65.4664859176
 31
0.0
  0
LINE
  5
125
330
1F
100
AcDbEntity
  8
1
100
AcDbLine
 10
16.32401357273189
 20
-65.4664859176
 30
0.0
 11
17.04365770203189
 21
-65.4408708215
 31
0.0
  0
LINE
  5
126
330
1F
100
AcDbEntity
  8
1
100
AcDbLine
 10
46.79365466213189
 20
-67.0000091195
 30
0.0
 11
46.79365466213189
 21
-14.0471318737
 31
0.0
  0
LINE
  5
127
330
1F
100
AcDbEntity
  8
1
100
AcDbLine
 10
-3.656342524468108
 20
-29.8306737095
 30
0.0
 11
-3.706343370868108
 21
-29.7878496349
 31
0.0
  0
LINE
  5
128
330
1F
100
AcDbEntity
  8
1
100
AcDbLine
 10
-3.706343370868108
 20
29.7878347337
 30
0.0
 11
-3.656341916568109
 21
29.8306597215
 31
0.0
  0
LINE
  5
129
330
1F
100
AcDbEntity
  8
1
100
AcDbLine
 10
-3.656342524468108
 20
30.4836928844
 30
0.0
 11
-3.666341203668108
 21
30.4768942297
 31
0.0
  0
LINE
  5
12A
330
1F
100
AcDbEntity
  8
1
100
AcDbLine
 10
-3.956340152268108
 20
29.8976246268
 30
0.0
 11
-3.945328194068108
 21
29.7977421433
 31
0.0
  0
LINE
  5
12B
330
1F
100
AcDbEntity
  8
1
100
AcDbLine
 10
-3.945328194068108
 20
29.7977421433
 30
0.0
 11
-3.918930787068109
 21
29.7416560352
 31
0.0
  0
LINE
  5
12C
330
1F
100
AcDbEntity
  8
1
100
AcDbLine
 10
-3.918930787068109
 20
29.7416560352
 30
0.0
 11
-3.879692304368109
 21
29.7148954123
 31
0.0
  0
LINE
  5
12D
330
1F
100
AcDbEntity
  8
1
100
AcDbLine
 10
-3.879692304368109
 20
29.7148954123
 30
0.0
 11
-3.824889558768109
 21
29.7164358199
 31
0.0
  0
LINE
  5
12E
330
1F
100
AcDbEntity
  8
1
100
AcDbLine
 10
-3.824889558768109
 20
29.7164358199
 30
0.0
 11
-3.769557821968109
 21
29.7413468361
 31
0.0
  0
LINE
  5
12F
330
1F
100
AcDbEntity
  8
1
100
AcDbLine
 10
-3.769557821968109
 20
29.7413468361
 30
0.0
 11
-3.706343370868108
 21
29.7878347337
 31
0.0
  0
LINE
  5
131
330
1F
100
AcDbEntity
  8
1
100
AcDbLine
 10
-3.706343370868108
 20
31.2219522893
 30
0.0
 11
-3.913178938868109
 21
30.6813307107
 31
0.0
  0
LINE
  5
132
330
1F
100
AcDbEntity
  8
1
100
AcDbLine
 10
-3.913178938868109
 20
30.6813307107
 30
0.0
 11
-3.956340152268108
 21
30.4007474333
 31
0.0
  0
LINE
  5
133
330
1F
100
AcDbEntity
  8
1
100
AcDbLine
 10
-3.656342524468108
 20
31.323697418
 30
0.0
 11
-3.706343370868108
 21
31.2219522893
 31
0.0
  0
LINE
  5
134
330
1F
100
AcDbEntity
  8
1
100
AcDbLine
 10
-3.666341203668108
 20
30.6968949735
 30
0.0
 11
-3.656342524468108
 21
30.7036936283
 31
0.0
  0
LINE
  5
135
330
1F
100
AcDbEntity
  8
1
100
AcDbLine
 10
-3.666341203668108
 20
30.6968949735
 30
0.0
 11
-3.666341203668108
 21
30.4768942297
 31
0.0
  0
LINE
  5
136
330
1F
100
AcDbEntity
  8
1
100
AcDbLine
 10
-3.956340152268108
 20
36.6999916732
 30
0.0
 11
-3.956340152268108
 21
-30.4007623345
 31
0.0
  0
LINE
  5
137
330
1F
100
AcDbEntity
  8
1
100
AcDbLine
 10
-3.706343370868108
 20
-29.7878496349
 30
0.0
 11
-3.754496473268109
 21
-29.7509338707
 31
0.0
  0
LINE
  5
138
330
1F
100
AcDbEntity
  8
1
100
AcDbLine
 10
-3.754496473268109
 20
-29.7509338707
 30
0.0
 11
-3.828164088968109
 21
-29.7155864537
 31
0.0
  0
LINE
  5
139
330
1F
100
AcDbEntity
  8
1
100
AcDbLine
 10
-3.828164088968109
 20
-29.7155864537
 30
0.0
 11
-3.876808929668108
 21
-29.7141429037
 31
0.0
  0
LINE
  5
13A
330
1F
100
AcDbEntity
  8
1
100
AcDbLine
 10
-3.876808929668108
 20
-29.7141429037
 30
0.0
 11
-3.913421082668108
 21
-29.7354478389
 31
0.0
  0
LINE
  5
13B
330
1F
100
AcDbEntity
  8
1
100
AcDbLine
 10
-3.913421082668108
 20
-29.7354478389
 30
0.0
 11
-3.945108401968109
 21
-29.7969430685
 31
0.0
  0
LINE
  5
13C
330
1F
100
AcDbEntity
  8
1
100
AcDbLine
 10
-3.945108401968109
 20
-29.7969430685
 30
0.0
 11
-3.956340152268108
 21
-29.8976395279
 31
0.0
  0
LINE
  5
13D
330
1F
100
AcDbEntity
  8
1
100
AcDbLine
 10
-3.706343370868108
 20
-31.2219671905
 30
0.0
 11
-3.656341916468109
 21
-31.3237104831
 31
0.0
  0
LINE
  5
13F
330
1F
100
AcDbEntity
  8
1
100
AcDbLine
 10
-3.656342524468108
 20
-35.4706868529
 30
0.0
 11
-3.706343370868108
 21
-35.429790616
 31
0.0
  0
LINE
  5
140
330
1F
100
AcDbEntity
  8
1
100
AcDbLine
 10
-3.706343370868108
 20
35.4297794402
 30
0.0
 11
-3.656341916568109
 21
35.470673677
 31
0.0
  0
LINE
  5
141
330
1F
100
AcDbEntity
  8
1
100
AcDbLine
 10
-3.956340152268108
 20
-30.4007623345
 30
0.0
 11
-3.956340152268108
 21
-35.7973240316
 31
0.0
  0
LINE
  5
142
330
1F
100
AcDbEntity
  8
1
100
AcDbLine
 10
-3.706343370868108
 20
-35.429790616
 30
0.0
 11
-3.771647709868109
 21
-35.3820435703
 31
0.0
  0
LINE
  5
143
330
1F
100
AcDbEntity
  8
1
100
AcDbLine
 10
-3.771647709868109
 20
-35.3820435703
 30
0.0
 11
-3.844577717968108
 21
-35.3464707732
 31
0.0
  0
LINE
  5
144
330
1F
100
AcDbEntity
  8
1
100
AcDbLine
 10
-3.844577717968108
 20
-35.3464707732
 30
0.0
 11
-3.903981197068108
 21
-35.3430323303
 31
0.0
  0
LINE
  5
145
330
1F
100
AcDbEntity
  8
1
100
AcDbLine
 10
-3.903981197068108
 20
-35.3430323303
 30
0.0
 11
-3.937207061268109
 21
-35.3674739599
 31
0.0
  0
LINE
  5
146
330
1F
100
AcDbEntity
  8
1
100
AcDbLine
 10
-3.937207061268109
 20
-35.3674739599
 30
0.0
 11
-3.955967623168108
 21
-35.4345664382
 31
0.0
  0
LINE
  5
147
330
1F
100
AcDbEntity
  8
1
100
AcDbLine
 10
-3.955967623168108
 20
-35.4345664382
 30
0.0
 11
-3.956340152268108
 21
-35.4489348829
 31
0.0
  0
LINE
  5
148
330
1F
100
AcDbEntity
  8
1
100
AcDbLine
 10
-3.706343370868108
 20
-36.4260487258
 30
0.0
 11
-3.656341916568109
 21
-36.5085524228
 31
0.0
  0
LINE
  5
149
330
1F
100
AcDbEntity
  8
1
100
AcDbLine
 10
-3.956340152268108
 20
35.4489199817
 30
0.0
 11
-3.950312632568108
 21
35.3969335556
 31
0.0
  0
LINE
  5
14A
330
1F
100
AcDbEntity
  8
1
100
AcDbLine
 10
-3.950312632568108
 20
35.3969335556
 30
0.0
 11
-3.922682154368109
 21
35.3522524238
 31
0.0
  0
LINE
  5
14B
330
1F
100
AcDbEntity
  8
1
100
AcDbLine
 10
-3.922682154368109
 20
35.3522524238
 30
0.0
 11
-3.879625249168108
 21
35.3401377797
 31
0.0
  0
LINE
  5
14C
330
1F
100
AcDbEntity
  8
1
100
AcDbLine
 10
-3.879625249168108
 20
35.3401377797
 30
0.0
 11
-3.821201521368109
 21
35.3552028537
 31
0.0
  0
LINE
  5
14D
330
1F
100
AcDbEntity
  8
1
100
AcDbLine
 10
-3.821201521368109
 20
35.3552028537
 30
0.0
 11
-3.737680512868109
 21
35.4053787887
 31
0.0
  0
LINE
  5
14E
330
1F
100
AcDbEntity
  8
1
100
AcDbLine
 10
-3.737680512868109
 20
35.4053787887
 30
0.0
 11
-3.706343370868108
 21
35.4297794402
 31
0.0
  0
LINE
  5
150
330
1F
100
AcDbEntity
  8
1
100
AcDbLine
 10
-3.656342524468108
 20
36.5085378289
 30
0.0
 11
-3.706343370868108
 21
36.4260338247
 31
0.0
  0
LINE
  5
154
330
1F
100
AcDbEntity
  8
1
100
AcDbLine
 10
-3.656342524468108
 20
-39.4267700613
 30
0.0
 11
-3.706343370868108
 21
-39.385586977
 31
0.0
  0
LINE
  5
155
330
1F
100
AcDbEntity
  8
1
100
AcDbLine
 10
-2.451192533268109
 20
36.9999930131
 30
0.0
 11
-3.656342524468108
 21
36.9999930263
 31
0.0
  0
LINE
  5
157
330
1F
100
AcDbEntity
  8
1
100
AcDbLine
 10
-3.706343370868108
 20
-39.385586977
 30
0.0
 11
-3.786433386968109
 21
-39.3257774413
 31
0.0
  0
LINE
  5
158
330
1F
100
AcDbEntity
  8
1
100
AcDbLine
 10
-3.786433386968109
 20
-39.3257774413
 30
0.0
 11
-3.863368082268108
 21
-39.2847433686
 31
0.0
  0
LINE
  5
159
330
1F
100
AcDbEntity
  8
1
100
AcDbLine
 10
-3.863368082268108
 20
-39.2847433686
 30
0.0
 11
-3.921735930668109
 21
-39.2770394683
 31
0.0
  0
LINE
  5
15A
330
1F
100
AcDbEntity
  8
1
100
AcDbLine
 10
-3.921735930668109
 20
-39.2770394683
 30
0.0
 11
-3.949448365168108
 21
-39.2998866737
 31
0.0
  0
LINE
  5
15B
330
1F
100
AcDbEntity
  8
1
100
AcDbLine
 10
-3.949448365168108
 20
-39.2998866737
 30
0.0
 11
-3.956340152268108
 21
-39.3368154764
 31
0.0
  0
LINE
  5
15C
330
1F
100
AcDbEntity
  8
1
100
AcDbLine
 10
-3.706343370868108
 20
-40.0861948729
 30
0.0
 11
-3.656341916568109
 21
-40.1568666452
 31
0.0
  0
LINE
  5
15F
330
1F
100
AcDbEntity
  8
1
100
AcDbLine
 10
-3.956340152268108
 20
36.6999916732
 30
0.0
 11
-3.945413875768109
 21
36.7109179497
 31
0.0
  0
LINE
  5
160
330
1F
100
AcDbEntity
  8
1
100
AcDbLine
 10
-3.945413875768109
 20
36.7109179497
 30
0.0
 11
-3.913115608868108
 21
36.7432199419
 31
0.0
  0
LINE
  5
161
330
1F
100
AcDbEntity
  8
1
100
AcDbLine
 10
-3.913115608868108
 20
36.7432199419
 30
0.0
 11
-3.860849786068108
 21
36.7954857648
 31
0.0
  0
LINE
  5
162
330
1F
100
AcDbEntity
  8
1
100
AcDbLine
 10
-3.860849786068108
 20
36.7954857648
 30
0.0
 11
-3.790907460668109
 21
36.8654280901
 31
0.0
  0
LINE
  5
163
330
1F
100
AcDbEntity
  8
1
100
AcDbLine
 10
-3.790907460668109
 20
36.8654280901
 30
0.0
 11
-3.656342524468108
 21
36.9999930263
 31
0.0
  0
LINE
  5
164
330
1F
100
AcDbEntity
  8
1
100
AcDbLine
 10
-3.656341916568109
 20
-42.1754771863
 30
0.0
 11
-3.706343370868108
 21
-42.1328656375
 31
0.0
  0
LINE
  5
166
330
1F
100
AcDbEntity
  8
1
100
AcDbLine
 10
-3.706343370868108
 20
-42.1328656375
 30
0.0
 11
-3.799807179168108
 21
-42.0590266585
 31
0.0
  0
LINE
  5
167
330
1F
100
AcDbEntity
  8
1
100
AcDbLine
 10
-3.799807179168108
 20
-42.0590266585
 30
0.0
 11
-3.878846663468108
 21
-42.0102514327
 31
0.0
  0
LINE
  5
168
330
1F
100
AcDbEntity
  8
1
100
AcDbLine
 10
-3.878846663468108
 20
-42.0102514327
 30
0.0
 11
-3.934591907468109
 21
-41.9955179095
 31
0.0
  0
LINE
  5
169
330
1F
100
AcDbEntity
  8
1
100
AcDbLine
 10
-3.934591907468109
 20
-41.9955179095
 30
0.0
 11
-3.955174136368108
 21
-42.0143567026
 31
0.0
  0
LINE
  5
16A
330
1F
100
AcDbEntity
  8
1
100
AcDbLine
 10
-3.955174136368108
 20
-42.0143567026
 30
0.0
 11
-3.956340152268108
 21
-42.0255027711
 31
0.0
  0
LINE
  5
16B
330
1F
100
AcDbEntity
  8
1
100
AcDbLine
 10
-3.706343370868108
 20
-42.6022186875
 30
0.0
 11
-3.656341916568109
 21
-42.6646629021
 31
0.0
  0
LINE
  5
16D
330
1F
100
AcDbEntity
  8
1
100
AcDbLine
 10
-3.656342524468108
 20
-43.9439564943
 30
0.0
 11
-3.706343370868108
 21
-43.8991189003
 31
0.0
  0
LINE
  5
16E
330
1F
100
AcDbEntity
  8
1
100
AcDbLine
 10
-3.706343370868108
 20
-43.8991189003
 30
0.0
 11
-3.812335330468109
 21
-43.8085757196
 31
0.0
  0
LINE
  5
16F
330
1F
100
AcDbEntity
  8
1
100
AcDbLine
 10
-3.812335330468109
 20
-43.8085757196
 30
0.0
 11
-3.892026740568109
 21
-43.7500439584
 31
0.0
  0
LINE
  5
170
330
1F
100
AcDbEntity
  8
1
100
AcDbLine
 10
-3.892026740568109
 20
-43.7500439584
 30
0.0
 11
-3.938052702168108
 21
-43.7269359827
 31
0.0
  0
LINE
  5
171
330
1F
100
AcDbEntity
  8
1
100
AcDbLine
 10
-3.938052702168108
 20
-43.7269359827
 30
0.0
 11
-3.956183690068109
 21
-43.7342226505
 31
0.0
  0
LINE
  5
172
330
1F
100
AcDbEntity
  8
1
100
AcDbLine
 10
-3.956183690068109
 20
-43.7342226505
 30
0.0
 11
-3.956340152268108
 21
-43.7367223203
 31
0.0
  0
LINE
  5
174
330
1F
100
AcDbEntity
  8
1
100
AcDbLine
 10
-3.706343370868108
 20
-44.1700667143
 30
0.0
 11
-3.656341916568109
 21
-44.2263831699
 31
0.0
  0
LINE
  5
175
330
1F
100
AcDbEntity
  8
1
100
AcDbLine
 10
-3.956340152268108
 20
-35.7973240316
 30
0.0
 11
-3.956340152268108
 21
-43.8312068582
 31
0.0
  0
LINE
  5
176
330
1F
100
AcDbEntity
  8
1
100
AcDbLine
 10
-3.656342527968109
 20
-44.8483209031
 30
0.0
 11
-3.706343374368108
 21
-44.800517978
 31
0.0
  0
LINE
  5
177
330
1F
100
AcDbEntity
  8
1
100
AcDbLine
 10
-3.706343374368108
 20
-44.8892059642
 30
0.0
 11
-3.656341919968108
 21
-44.9407641991
 31
0.0
  0
LINE
  5
178
330
1F
100
AcDbEntity
  8
1
100
AcDbLine
 10
-3.956340152268108
 20
-43.8312068582
 30
0.0
 11
-3.956340152268108
 21
-44.6140877903
 31
0.0
  0
LINE
  5
17A
330
1F
100
AcDbEntity
  8
CUT
100
AcDbLine
 10
47.59366075373189
 20
-62.0292946696
 30
0.0
 11
59.45548425293189
 21
-62.0292946696
 31
0.0
  0
LINE
  5
17B
330
1F
100
AcDbEntity
  8
CUT
100
AcDbLine
 10
47.59366043223189
 20
-59.7700478427
 30
0.0
 11
59.46065463453189
 21
-59.7700478427
 31
0.0
  0
LINE
  5
17C
330
1F
100
AcDbEntity
  8
CUT
100
AcDbLine
 10
59.79365808343189
 20
-62.3046532273
 30
0.0
 11
59.79365631213189
 21
-59.704653455
 31
0.0
  0
LINE
  5
17D
330
1F
100
AcDbEntity
  8
CUT
100
AcDbLine
 10
59.74492176583189
 20
-62.4354950171
 30
0.0
 11
59.45548425293189
 21
-62.0292946696
 31
0.0
  0
LINE
  5
17E
330
1F
100
AcDbEntity
  8
CUT
100
AcDbLine
 10
59.46065463453189
 20
-59.7700478427
 30
0.0
 11
59.72792943853189
 21
-59.5564278857
 31
0.0
  0
LINE
  5
17F
330
1F
100
AcDbEntity
  8
CUT
100
AcDbLine
 10
59.5228002486319
 20
-62.499217689
 30
0.0
 11
59.63124504703189
 21
-62.5010905809
 31
0.0
  0
LINE
  5
180
330
1F
100
AcDbEntity
  8
CUT
100
AcDbLine
 10
58.7936566291319
 20
-62.435425818
 30
0.0
 11
59.5228002486319
 21
-62.499217689
 31
0.0
  0
LINE
  5
181
330
1F
100
AcDbEntity
  8
CUT
100
AcDbLine
 10
47.59365808343189
 20
-62.4354273171
 30
0.0
 11
58.7936566291319
 21
-62.435425818
 31
0.0
  0
LINE
  5
182
330
1F
100
AcDbEntity
  8
CUT
100
AcDbLine
 10
59.5683080735319
 20
-59.5061072153
 30
0.0
 11
58.79365630773189
 21
-59.5738814217
 31
0.0
  0
LINE
  5
183
330
1F
100
AcDbEntity
  8
CUT
100
AcDbLine
 10
59.6137044611319
 20
-59.5056601805
 30
0.0
 11
59.5683080735319
 21
-59.5061072153
 31
0.0
  0
LINE
  5
184
330
1F
100
AcDbEntity
  8
CUT
100
AcDbLine
 10
58.79365630773189
 20
-59.5738814217
 30
0.0
 11
47.5936577620319
 21
-59.5738814217
 31
0.0
  0
LINE
  5
185
330
1F
100
AcDbEntity
  8
CUT
100
AcDbLine
 10
47.59365932333189
 20
62.4354268791
 30
0.0
 11
58.7936566291319
 21
62.4354268791
 31
0.0
  0
LINE
  5
186
330
1F
100
AcDbEntity
  8
CUT
100
AcDbLine
 10
50.30087339323189
 20
59.5738812437
 30
0.0
 11
47.59366075373189
 21
59.5738813281
 31
0.0
  0
LINE
  5
187
330
1F
100
AcDbEntity
  8
CUT
100
AcDbLine
 10
57.79365460253189
 20
62.4354268791
 30
0.0
 11
57.79365460253189
 21
59.5738813281
 31
0.0
  0
LINE
  5
188
330
1F
100
AcDbEntity
  8
CUT
100
AcDbLine
 10
57.79365460253189
 20
59.5738813281
 30
0.0
 11
50.30087339323189
 21
59.5738812437
 31
0.0
  0
LINE
  5
18A
330
1F
100
AcDbEntity
  8
CUT
100
AcDbLine
 10
59.56830839493189
 20
59.5061071217
 30
0.0
 11
58.7936566291319
 21
59.5738813281
 31
0.0
  0
LINE
  5
18B
330
1F
100
AcDbEntity
  8
CUT
100
AcDbLine
 10
58.7936566291319
 20
62.4354268791
 30
0.0
 11
59.5228002486319
 21
62.4992187501
 31
0.0
  0
LINE
  5
18C
330
1F
100
AcDbEntity
  8
CUT
100
AcDbLine
 10
59.5228002486319
 20
62.4992187501
 30
0.0
 11
59.6312434492319
 21
62.5010888459
 31
0.0
  0
LINE
  5
18D
330
1F
100
AcDbEntity
  8
CUT
100
AcDbLine
 10
59.61370478253189
 20
59.5056600869
 30
0.0
 11
59.56830839493189
 21
59.5061071217
 31
0.0
  0
LINE
  5
18E
330
1F
100
AcDbEntity
  8
CUT
100
AcDbLine
 10
59.79365853773189
 20
62.3046538696
 30
0.0
 11
59.79365910993189
 21
59.7046535079
 31
0.0
  0
LINE
  5
194
330
1F
100
AcDbEntity
  8
CUT
100
AcDbLine
 10
58.7936566291319
 20
59.5738813281
 30
0.0
 11
57.79365460253189
 21
59.5738813281
 31
0.0
  0
LINE
  5
195
330
1F
100
AcDbEntity
  8
1
100
AcDbLine
 10
25.65968046763189
 20
-62.5000074506
 30
0.0
 11
26.52570615393189
 21
-61.000008136
 31
0.0
  0
LINE
  5
196
330
1F
100
AcDbEntity
  8
1
100
AcDbLine
 10
26.52570615393189
 20
-61.000008136
 30
0.0
 11
25.65968046763189
 21
-59.5000088215
 31
0.0
  0
LINE
  5
197
330
1F
100
AcDbEntity
  8
1
100
AcDbLine
 10
25.65968046763189
 20
-59.5000088215
 30
0.0
 11
23.92762909513189
 21
-59.5000088215
 31
0.0
  0
LINE
  5
198
330
1F
100
AcDbEntity
  8
1
100
AcDbLine
 10
23.92762909513189
 20
-59.5000088215
 30
0.0
 11
23.06161085943189
 21
-61.000008136
 31
0.0
  0
LINE
  5
199
330
1F
100
AcDbEntity
  8
1
100
AcDbLine
 10
23.06161085943189
 20
-61.000008136
 30
0.0
 11
23.92762909513189
 21
-62.5000074506
 31
0.0
  0
LINE
  5
19A
330
1F
100
AcDbEntity
  8
1
100
AcDbLine
 10
23.92762909513189
 20
-62.5000074506
 30
0.0
 11
25.65968046763189
 21
-62.5000074506
 31
0.0
  0
LINE
  5
19B
330
1F
100
AcDbEntity
  8
1
100
AcDbLine
 10
39.65968648773189
 20
-62.5000074506
 30
0.0
 11
40.52571217393189
 21
-61.000008136
 31
0.0
  0
LINE
  5
19C
330
1F
100
AcDbEntity
  8
1
100
AcDbLine
 10
37.92763511513189
 20
-59.5000088215
 30
0.0
 11
37.0616094289319
 21
-61.000008136
 31
0.0
  0
LINE
  5
19D
330
1F
100
AcDbEntity
  8
1
100
AcDbLine
 10
37.0616094289319
 20
-61.000008136
 30
0.0
 11
37.92763511513189
 21
-62.5000074506
 31
0.0
  0
LINE
  5
19E
330
1F
100
AcDbEntity
  8
1
100
AcDbLine
 10
37.92763511513189
 20
-62.5000074506
 30
0.0
 11
39.65968648773189
 21
-62.5000074506
 31
0.0
  0
LINE
  5
19F
330
1F
100
AcDbEntity
  8
1
100
AcDbLine
 10
39.65968648773189
 20
-59.5000088215
 30
0.0
 11
37.92763511513189
 21
-59.5000088215
 31
0.0
  0
LINE
  5
1A0
330
1F
100
AcDbEntity
  8
1
100
AcDbLine
 10
40.52571217393189
 20
-61.000008136
 30
0.0
 11
39.65968648773189
 21
-59.5000088215
 31
0.0
  0
LINE
  5
1A1
330
1F
100
AcDbEntity
  8
1
100
AcDbLine
 10
16.17763201573189
 20
-66.1160126328
 30
0.0
 11
15.36545912603189
 21
-65.5890479684
 31
0.0
  0
LINE
  5
1A2
330
1F
100
AcDbEntity
  8
1
100
AcDbLine
 10
17.90968338823189
 20
-66.1160126328
 30
0.0
 11
16.17763201573189
 21
-66.1160126328
 31
0.0
  0
LINE
  5
1A3
330
1F
100
AcDbEntity
  8
1
100
AcDbLine
 10
18.70798329693189
 20
-65.5980408192
 30
0.0
 11
17.90968338823189
 21
-66.1160126328
 31
0.0
  0
LINE
  5
1A4
330
1F
100
AcDbEntity
  8
1
100
AcDbLine
 10
17.90968338823189
 20
-65.4873624444
 30
0.0
 11
17.90968338823189
 21
-66.1160126328
 31
0.0
  0
LINE
  5
1A5
330
1F
100
AcDbEntity
  8
1
100
AcDbLine
 10
16.17763201573189
 20
-65.485201776
 30
0.0
 11
16.17763201573189
 21
-66.1160126328
 31
0.0
  0
LINE
  5
1A6
330
1F
100
AcDbEntity
  8
1
100
AcDbLine
 10
15.39552221873189
 20
-52.7399331331
 30
0.0
 11
15.31160632943189
 21
-52.5563731789
 31
0.0
  0
LINE
  5
1A7
330
1F
100
AcDbEntity
  8
1
100
AcDbLine
 10
18.77570907453189
 20
-52.556373179
 30
0.0
 11
18.67138604503189
 21
-52.7753382921
 31
0.0
  0
LINE
  5
1A8
330
1F
100
AcDbEntity
  8
1
100
AcDbLine
 10
16.17763201573189
 20
-52.6790097356
 30
0.0
 11
16.17763201573189
 21
-51.1655993759
 31
0.0
  0
LINE
  5
1A9
330
1F
100
AcDbEntity
  8
1
100
AcDbLine
 10
16.17763201573189
 20
-52.6790097356
 30
0.0
 11
15.95688621383189
 21
-53.0335120857
 31
0.0
  0
LINE
  5
1AA
330
1F
100
AcDbEntity
  8
1
100
AcDbLine
 10
17.90968338823189
 20
-52.6790097356
 30
0.0
 11
17.90968338823189
 21
-51.1655993759
 31
0.0
  0
LINE
  5
1AB
330
1F
100
AcDbEntity
  8
1
100
AcDbLine
 10
17.90968338823189
 20
-52.6790097356
 30
0.0
 11
18.11742047643189
 21
-53.0126206577
 31
0.0
  0
LINE
  5
1AD
330
1F
100
AcDbEntity
  8
1
100
AcDbLine
 10
16.17763201573189
 20
-52.6790097356
 30
0.0
 11
17.90968338823189
 21
-52.6790097356
 31
0.0
  0
LINE
  5
1AE
330
1F
100
AcDbEntity
  8
1
100
AcDbLine
 10
19.83959982973189
 20
61.8044808507
 30
0.0
 11
20.08269737343189
 21
62.3185001314
 31
0.0
  0
LINE
  5
1AF
330
1F
100
AcDbEntity
  8
1
100
AcDbLine
 10
20.08269737343189
 20
62.3185001314
 30
0.0
 11
20.21703879213189
 21
62.8657639027
 31
0.0
  0
LINE
  5
1B0
330
1F
100
AcDbEntity
  8
1
100
AcDbLine
 10
20.21703879213189
 20
62.8657639027
 30
0.0
 11
20.23782591203189
 21
63.4266957641
 31
0.0
  0
LINE
  5
1B1
330
1F
100
AcDbEntity
  8
1
100
AcDbLine
 10
20.23782591203189
 20
63.4266957641
 30
0.0
 11
20.14430622433189
 21
63.9812201262
 31
0.0
  0
LINE
  5
1B2
330
1F
100
AcDbEntity
  8
1
100
AcDbLine
 10
20.14430622433189
 20
63.9812201262
 30
0.0
 11
19.93983249043189
 21
64.5094960928
 31
0.0
  0
LINE
  5
1B3
330
1F
100
AcDbEntity
  8
1
100
AcDbLine
 10
19.93983249043189
 20
64.5094960928
 30
0.0
 11
19.63171372993189
 21
64.9926140904
 31
0.0
  0
LINE
  5
1B4
330
1F
100
AcDbEntity
  8
1
100
AcDbLine
 10
19.63171372993189
 20
64.9926140904
 30
0.0
 11
19.23098425243189
 21
65.4132887721
 31
0.0
  0
LINE
  5
1B5
330
1F
100
AcDbEntity
  8
1
100
AcDbLine
 10
19.23098425243189
 20
65.4132887721
 30
0.0
 11
18.75198642593189
 21
65.756469965
 31
0.0
  0
LINE
  5
1B6
330
1F
100
AcDbEntity
  8
1
100
AcDbLine
 10
18.75198642593189
 20
65.756469965
 30
0.0
 11
18.21184913493189
 21
66.0098642111
 31
0.0
  0
LINE
  5
1B7
330
1F
100
AcDbEntity
  8
1
100
AcDbLine
 10
18.21184913493189
 20
66.0098642111
 30
0.0
 11
17.62990663623189
 21
66.164419055
 31
0.0
  0
LINE
  5
1B8
330
1F
100
AcDbEntity
  8
1
100
AcDbLine
 10
17.62990663623189
 20
66.164419055
 30
0.0
 11
17.02699075323189
 21
66.2145987153
 31
0.0
  0
LINE
  5
1B9
330
1F
100
AcDbEntity
  8
1
100
AcDbLine
 10
17.02699075323189
 20
66.2145987153
 30
0.0
 11
16.42467091663189
 21
66.1586001515
 31
0.0
  0
LINE
  5
1BA
330
1F
100
AcDbEntity
  8
1
100
AcDbLine
 10
16.42467091663189
 20
66.1586001515
 30
0.0
 11
15.84450165613189
 21
65.9984350204
 31
0.0
  0
LINE
  5
1BB
330
1F
100
AcDbEntity
  8
1
100
AcDbLine
 10
15.84450165613189
 20
65.9984350204
 30
0.0
 11
15.30724028923189
 21
65.7398328185
 31
0.0
  0
LINE
  5
1BC
330
1F
100
AcDbEntity
  8
1
100
AcDbLine
 10
15.30724028923189
 20
65.7398328185
 30
0.0
 11
14.83211676453189
 21
65.3920471668
 31
0.0
  0
LINE
  5
1BD
330
1F
100
AcDbEntity
  8
1
100
AcDbLine
 10
14.83211676453189
 20
65.3920471668
 30
0.0
 11
14.43613330703189
 21
64.9675279856
 31
0.0
  0
LINE
  5
1BE
330
1F
100
AcDbEntity
  8
1
100
AcDbLine
 10
14.43613330703189
 20
64.9675279856
 30
0.0
 11
14.13346837143189
 21
64.481459558
 31
0.0
  0
LINE
  5
1BF
330
1F
100
AcDbEntity
  8
1
100
AcDbLine
 10
14.13346837143189
 20
64.481459558
 30
0.0
 11
13.93493275023189
 21
63.9512389898
 31
0.0
  0
LINE
  5
1C0
330
1F
100
AcDbEntity
  8
1
100
AcDbLine
 10
13.93493275023189
 20
63.9512389898
 30
0.0
 11
13.84764919853189
 21
63.3958354592
 31
0.0
  0
LINE
  5
1C1
330
1F
100
AcDbEntity
  8
1
100
AcDbLine
 10
13.84764919853189
 20
63.3958354592
 30
0.0
 11
13.87473950963189
 21
62.8351345658
 31
0.0
  0
LINE
  5
1C2
330
1F
100
AcDbEntity
  8
1
100
AcDbLine
 10
13.87473950963189
 20
62.8351345658
 30
0.0
 11
14.01522020673189
 21
62.2891969979
 31
0.0
  0
LINE
  5
1C3
330
1F
100
AcDbEntity
  8
1
100
AcDbLine
 10
14.01522020673189
 20
62.2891969979
 30
0.0
 11
14.26407704933189
 21
61.7775544524
 31
0.0
  0
LINE
  5
1C4
330
1F
100
AcDbEntity
  8
1
100
AcDbLine
 10
14.26407704933189
 20
61.7775544524
 30
0.0
 11
14.61240659333189
 21
61.3185204566
 31
0.0
  0
LINE
  5
1C5
330
1F
100
AcDbEntity
  8
1
100
AcDbLine
 10
14.61240659333189
 20
61.3185204566
 30
0.0
 11
15.04773656703189
 21
60.9285235405
 31
0.0
  0
LINE
  5
1C6
330
1F
100
AcDbEntity
  8
1
100
AcDbLine
 10
15.04773656703189
 20
60.9285235405
 30
0.0
 11
15.55448780633189
 21
60.6215111911
 31
0.0
  0
LINE
  5
1C7
330
1F
100
AcDbEntity
  8
1
100
AcDbLine
 10
15.55448780633189
 20
60.6215111911
 30
0.0
 11
16.11452559803189
 21
60.4084767401
 31
0.0
  0
LINE
  5
1C8
330
1F
100
AcDbEntity
  8
1
100
AcDbLine
 10
16.11452559803189
 20
60.4084767401
 30
0.0
 11
16.70781533103189
 21
60.2970421314
 31
0.0
  0
LINE
  5
1C9
330
1F
100
AcDbEntity
  8
1
100
AcDbLine
 10
16.70781533103189
 20
60.2970421314
 30
0.0
 11
17.31313030103189
 21
60.2911971509
 31
0.0
  0
LINE
  5
1CA
330
1F
100
AcDbEntity
  8
1
100
AcDbLine
 10
17.31313030103189
 20
60.2911971509
 30
0.0
 11
17.90879676913189
 21
60.3911466897
 31
0.0
  0
LINE
  5
1CB
330
1F
100
AcDbEntity
  8
1
100
AcDbLine
 10
17.90879676913189
 20
60.3911466897
 30
0.0
 11
18.47349862433189
 21
60.5933181942
 31
0.0
  0
LINE
  5
1CC
330
1F
100
AcDbEntity
  8
1
100
AcDbLine
 10
18.47349862433189
 20
60.5933181942
 30
0.0
 11
18.98704479313189
 21
60.8904734254
 31
0.0
  0
LINE
  5
1CD
330
1F
100
AcDbEntity
  8
1
100
AcDbLine
 10
18.98704479313189
 20
60.8904734254
 30
0.0
 11
19.43103979213189
 21
61.2719804049
 31
0.0
  0
LINE
  5
1CE
330
1F
100
AcDbEntity
  8
1
100
AcDbLine
 10
19.43103979213189
 20
61.2719804049
 30
0.0
 11
19.78959898333189
 21
61.7241859436
 31
0.0
  0
LINE
  5
1CF
330
1F
100
AcDbEntity
  8
1
100
AcDbLine
 10
19.78959898333189
 20
61.7241859436
 30
0.0
 11
19.79826400853189
 21
61.7158040404
 31
0.0
  0
LINE
  5
1D0
330
1F
100
AcDbEntity
  8
1
100
AcDbLine
 10
19.84826485493189
 20
61.7960989475
 30
0.0
 11
19.83959982973189
 21
61.8044808507
 31
0.0
  0
LINE
  5
1D1
330
1F
100
AcDbEntity
  8
1
100
AcDbLine
 10
18.74811957453189
 20
62.2817017138
 30
0.0
 11
19.78959898333189
 21
61.7241859436
 31
0.0
  0
LINE
  5
1D2
330
1F
100
AcDbEntity
  8
1
100
AcDbLine
 10
19.83959982973189
 20
61.8044808507
 30
0.0
 11
18.79811297033189
 21
62.3620003462
 31
0.0
  0
LINE
  5
1D3
330
1F
100
AcDbEntity
  8
1
100
AcDbLine
 10
18.74811957453189
 20
62.2817017138
 30
0.0
 11
18.45199624873189
 21
61.9340799749
 31
0.0
  0
LINE
  5
1D4
330
1F
100
AcDbEntity
  8
1
100
AcDbLine
 10
18.45199624873189
 20
61.9340799749
 30
0.0
 11
18.07532469613189
 21
61.661593616
 31
0.0
  0
LINE
  5
1D5
330
1F
100
AcDbEntity
  8
1
100
AcDbLine
 10
18.07532469613189
 20
61.661593616
 30
0.0
 11
17.63964454513189
 21
61.4798255265
 31
0.0
  0
LINE
  5
1D6
330
1F
100
AcDbEntity
  8
1
100
AcDbLine
 10
17.63964454513189
 20
61.4798255265
 30
0.0
 11
17.16987053733189
 21
61.3991767168
 31
0.0
  0
LINE
  5
1D7
330
1F
100
AcDbEntity
  8
1
100
AcDbLine
 10
17.16987053733189
 20
61.3991767168
 30
0.0
 11
16.69288436753189
 21
61.4242553711
 31
0.0
  0
LINE
  5
1D8
330
1F
100
AcDbEntity
  8
1
100
AcDbLine
 10
16.69288436753189
 20
61.4242553711
 30
0.0
 11
16.23595516063189
 21
61.5536272526
 31
0.0
  0
LINE
  5
1D9
330
1F
100
AcDbEntity
  8
1
100
AcDbLine
 10
16.23595516063189
 20
61.5536272526
 30
0.0
 11
15.82522700403189
 21
61.7798939347
 31
0.0
  0
LINE
  5
1DA
330
1F
100
AcDbEntity
  8
1
100
AcDbLine
 10
15.82522700403189
 20
61.7798939347
 30
0.0
 11
15.48419157843189
 21
62.0901174843
 31
0.0
  0
LINE
  5
1DB
330
1F
100
AcDbEntity
  8
1
100
AcDbLine
 10
15.48419157843189
 20
62.0901174843
 30
0.0
 11
15.23235450363189
 21
62.4665468931
 31
0.0
  0
LINE
  5
1DC
330
1F
100
AcDbEntity
  8
1
100
AcDbLine
 10
15.23235450363189
 20
62.4665468931
 30
0.0
 11
15.08411775213189
 21
62.8876537085
 31
0.0
  0
LINE
  5
1DD
330
1F
100
AcDbEntity
  8
1
100
AcDbLine
 10
15.08411775213189
 20
62.8876537085
 30
0.0
 11
15.04796753503189
 21
63.3293539286
 31
0.0
  0
LINE
  5
1DE
330
1F
100
AcDbEntity
  8
1
100
AcDbLine
 10
15.04796753503189
 20
63.3293539286
 30
0.0
 11
15.12596766333189
 21
63.7663751841
 31
0.0
  0
LINE
  5
1DF
330
1F
100
AcDbEntity
  8
1
100
AcDbLine
 10
15.12596766333189
 20
63.7663751841
 30
0.0
 11
15.31365523913189
 21
64.1737356782
 31
0.0
  0
LINE
  5
1E0
330
1F
100
AcDbEntity
  8
1
100
AcDbLine
 10
15.31365523913189
 20
64.1737356782
 30
0.0
 11
15.60030142643189
 21
64.5281150937
 31
0.0
  0
LINE
  5
1E1
330
1F
100
AcDbEntity
  8
1
100
AcDbLine
 10
15.60030142643189
 20
64.5281150937
 30
0.0
 11
15.96950004673189
 21
64.8092627525
 31
0.0
  0
LINE
  5
1E2
330
1F
100
AcDbEntity
  8
1
100
AcDbLine
 10
15.96950004673189
 20
64.8092627525
 30
0.0
 11
16.40013615463189
 21
65.0010854006
 31
0.0
  0
LINE
  5
1E3
330
1F
100
AcDbEntity
  8
1
100
AcDbLine
 10
16.40013615463189
 20
65.0010854006
 30
0.0
 11
16.86758558133189
 21
65.0926083326
 31
0.0
  0
LINE
  5
1E4
330
1F
100
AcDbEntity
  8
1
100
AcDbLine
 10
16.86758558133189
 20
65.0926083326
 30
0.0
 11
17.34510074233189
 21
65.0786086917
 31
0.0
  0
LINE
  5
1E5
330
1F
100
AcDbEntity
  8
1
100
AcDbLine
 10
17.34510074233189
 20
65.0786086917
 30
0.0
 11
17.80537525993189
 21
64.9598836899
 31
0.0
  0
LINE
  5
1E6
330
1F
100
AcDbEntity
  8
1
100
AcDbLine
 10
17.80537525993189
 20
64.9598836899
 30
0.0
 11
18.22208623273189
 21
64.7432133555
 31
0.0
  0
LINE
  5
1E7
330
1F
100
AcDbEntity
  8
1
100
AcDbLine
 10
18.22208623273189
 20
64.7432133555
 30
0.0
 11
18.57139180283189
 21
64.4410029054
 31
0.0
  0
LINE
  5
1E8
330
1F
100
AcDbEntity
  8
1
100
AcDbLine
 10
18.57139180283189
 20
64.4410029054
 30
0.0
 11
18.83330951313189
 21
64.0705376863
 31
0.0
  0
LINE
  5
1E9
330
1F
100
AcDbEntity
  8
1
100
AcDbLine
 10
18.83330951313189
 20
64.0705376863
 30
0.0
 11
18.99286369663189
 21
63.6529996991
 31
0.0
  0
LINE
  5
1EA
330
1F
100
AcDbEntity
  8
1
100
AcDbLine
 10
18.99286369663189
 20
63.6529996991
 30
0.0
 11
19.04092739203189
 21
63.2122829556
 31
0.0
  0
LINE
  5
1EB
330
1F
100
AcDbEntity
  8
1
100
AcDbLine
 10
19.04092739203189
 20
63.2122829556
 30
0.0
 11
18.97475133513189
 21
62.7735853195
 31
0.0
  0
LINE
  5
1EC
330
1F
100
AcDbEntity
  8
1
100
AcDbLine
 10
18.97475133513189
 20
62.7735853195
 30
0.0
 11
18.79811297033189
 21
62.3620003462
 31
0.0
  0
LINE
  5
1ED
330
1F
100
AcDbEntity
  8
1
100
AcDbLine
 10
18.74311278443189
 20
62.2806325555
 30
0.0
 11
18.74811957453189
 21
62.2817017138
 31
0.0
  0
LINE
  5
1EE
330
1F
100
AcDbEntity
  8
1
100
AcDbLine
 10
18.79811297033189
 20
62.3620003462
 30
0.0
 11
18.79311363083189
 21
62.3609311878
 31
0.0
  0
LINE
  5
1EF
330
1F
100
AcDbEntity
  8
1
100
AcDbLine
 10
19.84826485493189
 20
61.7960989475
 30
0.0
 11
18.79311363083189
 21
62.3609311878
 31
0.0
  0
LINE
  5
1F0
330
1F
100
AcDbEntity
  8
1
100
AcDbLine
 10
17.90968338823189
 20
62.9526898265
 30
0.0
 11
17.90968338823189
 21
64.4661039114
 31
0.0
  0
LINE
  5
1F1
330
1F
100
AcDbEntity
  8
1
100
AcDbLine
 10
17.90968338823189
 20
62.9526898265
 30
0.0
 11
18.34269623143189
 21
62.2573047876
 31
0.0
  0
LINE
  5
1F2
330
1F
100
AcDbEntity
  8
1
100
AcDbLine
 10
16.17763201573189
 20
62.9526898265
 30
0.0
 11
16.17763201573189
 21
64.4661039114
 31
0.0
  0
LINE
  5
1F3
330
1F
100
AcDbEntity
  8
1
100
AcDbLine
 10
15.74461917263189
 20
62.2573047876
 30
0.0
 11
16.17763201573189
 21
62.9526898265
 31
0.0
  0
LINE
  5
1F5
330
1F
100
AcDbEntity
  8
1
100
AcDbLine
 10
17.90968338823189
 20
62.9526898265
 30
0.0
 11
16.17763201573189
 21
62.9526898265
 31
0.0
  0
LINE
  5
1F7
330
1F
100
AcDbEntity
  8
1
100
AcDbLine
 10
46.79365466213189
 20
55.0000071526
 30
0.0
 11
9.79366163593189
 21
55.0000071526
 31
0.0
  0
LINE
  5
1FB
330
1F
100
AcDbEntity
  8
1
100
AcDbLine
 10
16.99365685563189
 20
60.0028336048
 30
0.0
 11
16.99365685563189
 21
59.0087100863
 31
0.0
  0
LINE
  5
1FC
330
1F
100
AcDbEntity
  8
1
100
AcDbLine
 10
16.99365685563189
 20
59.0087100863
 30
0.0
 11
17.09365854843189
 21
59.0087100863
 31
0.0
  0
LINE
  5
1FD
330
1F
100
AcDbEntity
  8
1
100
AcDbLine
 10
17.09365854843189
 20
59.0087100863
 30
0.0
 11
17.09365854843189
 21
60.0028336048
 31
0.0
  0
LINE
  5
1FE
330
1F
100
AcDbEntity
  8
1
100
AcDbLine
 10
16.96866015773189
 20
58.3387129009
 30
0.0
 11
16.96866015773189
 21
57.1387112141
 31
0.0
  0
LINE
  5
1FF
330
1F
100
AcDbEntity
  8
1
100
AcDbLine
 10
16.96866015773189
 20
57.1387112141
 30
0.0
 11
17.11865524633189
 21
57.1387112141
 31
0.0
  0
LINE
  5
200
330
1F
100
AcDbEntity
  8
1
100
AcDbLine
 10
17.11865524633189
 20
57.1387112141
 30
0.0
 11
17.11865524633189
 21
58.3387129009
 31
0.0
  0
LINE
  5
201
330
1F
100
AcDbEntity
  8
1
100
AcDbLine
 10
17.11865524633189
 20
58.3387129009
 30
0.0
 11
16.96866015773189
 21
58.3387129009
 31
0.0
  0
LINE
  5
202
330
1F
100
AcDbEntity
  8
1
100
AcDbLine
 10
23.42676381443189
 20
60.8616359532
 30
0.0
 11
23.39788536413189
 21
60.7229806483
 31
0.0
  0
LINE
  5
203
330
1F
100
AcDbEntity
  8
1
100
AcDbLine
 10
23.39788536413189
 20
60.7229806483
 30
0.0
 11
23.31089983563189
 21
60.6070682406
 31
0.0
  0
LINE
  5
204
330
1F
100
AcDbEntity
  8
1
100
AcDbLine
 10
23.31089983563189
 20
60.6070682406
 30
0.0
 11
23.04558466053189
 21
60.4695044458
 31
0.0
  0
LINE
  5
205
330
1F
100
AcDbEntity
  8
1
100
AcDbLine
 10
23.04558466053189
 20
60.4695044458
 30
0.0
 11
22.44038889983189
 21
60.3965558112
 31
0.0
  0
LINE
  5
206
330
1F
100
AcDbEntity
  8
1
100
AcDbLine
 10
22.44038889983189
 20
61.3237395883
 30
0.0
 11
23.04467568973189
 21
61.2517148256
 31
0.0
  0
LINE
  5
207
330
1F
100
AcDbEntity
  8
1
100
AcDbLine
 10
23.04467568973189
 20
61.2517148256
 30
0.0
 11
23.31001321653189
 21
61.1151568592
 31
0.0
  0
LINE
  5
208
330
1F
100
AcDbEntity
  8
1
100
AcDbLine
 10
23.31001321653189
 20
61.1151568592
 30
0.0
 11
23.39737127403189
 21
60.9998963773
 31
0.0
  0
LINE
  5
209
330
1F
100
AcDbEntity
  8
1
100
AcDbLine
 10
23.39737127403189
 20
60.9998963773
 30
0.0
 11
23.42676381443189
 21
60.8616359532
 31
0.0
  0
LINE
  5
20A
330
1F
100
AcDbEntity
  8
1
100
AcDbLine
 10
21.45240465973189
 20
60.8616359532
 30
0.0
 11
21.48184190373189
 21
61.0000602901
 31
0.0
  0
LINE
  5
20B
330
1F
100
AcDbEntity
  8
1
100
AcDbLine
 10
21.48184190373189
 20
61.0000602901
 30
0.0
 11
21.56957994083189
 21
61.1153393984
 31
0.0
  0
LINE
  5
20C
330
1F
100
AcDbEntity
  8
1
100
AcDbLine
 10
21.56957994083189
 20
61.1153393984
 30
0.0
 11
21.83537940363189
 21
61.2517595291
 31
0.0
  0
LINE
  5
20D
330
1F
100
AcDbEntity
  8
1
100
AcDbLine
 10
21.83537940363189
 20
61.2517595291
 30
0.0
 11
22.44038889983189
 21
61.3237395883
 31
0.0
  0
LINE
  5
20E
330
1F
100
AcDbEntity
  8
1
100
AcDbLine
 10
22.44038889983189
 20
60.3965558112
 30
0.0
 11
21.83467159843189
 21
60.4695044458
 31
0.0
  0
LINE
  5
20F
330
1F
100
AcDbEntity
  8
1
100
AcDbLine
 10
21.83467159843189
 20
60.4695044458
 30
0.0
 11
21.56908075193189
 21
60.6072433293
 31
0.0
  0
LINE
  5
210
330
1F
100
AcDbEntity
  8
1
100
AcDbLine
 10
21.56908075193189
 20
60.6072433293
 30
0.0
 11
21.48163328743189
 21
60.7229582965
 31
0.0
  0
LINE
  5
211
330
1F
100
AcDbEntity
  8
1
100
AcDbLine
 10
21.48163328743189
 20
60.7229582965
 30
0.0
 11
21.45240465973189
 21
60.8616359532
 31
0.0
  0
LINE
  5
212
330
1F
100
AcDbEntity
  8
1
100
AcDbLine
 10
20.54329971653189
 20
63.2940083742
 30
0.0
 11
20.47275016883189
 21
63.8975724578
 31
0.0
  0
LINE
  5
213
330
1F
100
AcDbEntity
  8
1
100
AcDbLine
 10
20.47275016883189
 20
63.8975724578
 30
0.0
 11
20.28217921833189
 21
64.4783824682
 31
0.0
  0
LINE
  5
214
330
1F
100
AcDbEntity
  8
1
100
AcDbLine
 10
20.28217921833189
 20
64.4783824682
 30
0.0
 11
19.97827003573189
 21
65.0161281228
 31
0.0
  0
LINE
  5
215
330
1F
100
AcDbEntity
  8
1
100
AcDbLine
 10
19.97827003573189
 20
65.0161281228
 30
0.0
 11
19.57165459973189
 21
65.4919743538
 31
0.0
  0
LINE
  5
216
330
1F
100
AcDbEntity
  8
1
100
AcDbLine
 10
19.57165459973189
 20
65.4919743538
 30
0.0
 11
19.07656351903189
 21
65.8892765641
 31
0.0
  0
LINE
  5
217
330
1F
100
AcDbEntity
  8
1
100
AcDbLine
 10
19.07656351903189
 20
65.8892765641
 30
0.0
 11
18.51031939363189
 21
66.1941245198
 31
0.0
  0
LINE
  5
218
330
1F
100
AcDbEntity
  8
1
100
AcDbLine
 10
18.51031939363189
 20
66.1941245198
 30
0.0
 11
17.89274821853189
 21
66.3958489895
 31
0.0
  0
LINE
  5
219
330
1F
100
AcDbEntity
  8
1
100
AcDbLine
 10
17.89274821853189
 20
66.3958489895
 30
0.0
 11
17.24545667743189
 21
66.4873942733
 31
0.0
  0
LINE
  5
21A
330
1F
100
AcDbEntity
  8
1
100
AcDbLine
 10
17.24545667743189
 20
66.4873942733
 30
0.0
 11
16.59110198593189
 21
66.465549171
 31
0.0
  0
LINE
  5
21B
330
1F
100
AcDbEntity
  8
1
100
AcDbLine
 10
16.59110198593189
 20
66.465549171
 30
0.0
 11
15.95259467943189
 21
66.3310810924
 31
0.0
  0
LINE
  5
21C
330
1F
100
AcDbEntity
  8
1
100
AcDbLine
 10
15.95259467943189
 20
66.3310810924
 30
0.0
 11
15.35226414783189
 21
66.088706255
 31
0.0
  0
LINE
  5
21D
330
1F
100
AcDbEntity
  8
1
100
AcDbLine
 10
15.35226414783189
 20
66.088706255
 30
0.0
 11
14.81113592963189
 21
65.7468885183
 31
0.0
  0
LINE
  5
21E
330
1F
100
AcDbEntity
  8
1
100
AcDbLine
 10
14.81113592963189
 20
65.7468885183
 30
0.0
 11
14.34813449953189
 21
65.3176084161
 31
0.0
  0
LINE
  5
21F
330
1F
100
AcDbEntity
  8
1
100
AcDbLine
 10
14.34813449953189
 20
65.3176084161
 30
0.0
 11
13.97947977163189
 21
64.8158788681
 31
0.0
  0
LINE
  5
220
330
1F
100
AcDbEntity
  8
1
100
AcDbLine
 10
13.97947977163189
 20
64.8158788681
 30
0.0
 11
13.71806125023189
 21
64.2592683434
 31
0.0
  0
LINE
  5
221
330
1F
100
AcDbEntity
  8
1
100
AcDbLine
 10
13.71806125023189
 20
64.2592683434
 30
0.0
 11
13.57303569893189
 21
63.6672452092
 31
0.0
  0
LINE
  5
222
330
1F
100
AcDbEntity
  8
1
100
AcDbLine
 10
13.57303569893189
 20
63.6672452092
 30
0.0
 11
13.54947696303189
 21
63.0605444312
 31
0.0
  0
LINE
  5
223
330
1F
100
AcDbEntity
  8
1
100
AcDbLine
 10
13.54947696303189
 20
63.0605444312
 30
0.0
 11
13.64821205713189
 21
62.460385263
 31
0.0
  0
LINE
  5
224
330
1F
100
AcDbEntity
  8
1
100
AcDbLine
 10
13.64821205713189
 20
62.460385263
 30
0.0
 11
13.86578391173189
 21
61.8877820671
 31
0.0
  0
LINE
  5
225
330
1F
100
AcDbEntity
  8
1
100
AcDbLine
 10
13.86578391173189
 20
61.8877820671
 30
0.0
 11
14.19457058293189
 21
61.36277318
 31
0.0
  0
LINE
  5
226
330
1F
100
AcDbEntity
  8
1
100
AcDbLine
 10
14.19457058293189
 20
61.36277318
 30
0.0
 11
14.62306837423189
 21
60.9037317336
 31
0.0
  0
LINE
  5
227
330
1F
100
AcDbEntity
  8
1
100
AcDbLine
 10
14.62306837423189
 20
60.9037317336
 30
0.0
 11
15.13628671743189
 21
60.5267211795
 31
0.0
  0
LINE
  5
228
330
1F
100
AcDbEntity
  8
1
100
AcDbLine
 10
15.13628671743189
 20
60.5267211795
 30
0.0
 11
15.71626226283189
 21
60.2449402213
 31
0.0
  0
LINE
  5
229
330
1F
100
AcDbEntity
  8
1
100
AcDbLine
 10
15.71626226283189
 20
60.2449402213
 30
0.0
 11
16.34269217823189
 21
60.0682497025
 31
0.0
  0
LINE
  5
22A
330
1F
100
AcDbEntity
  8
1
100
AcDbLine
 10
16.34269217823189
 20
60.0682497025
 30
0.0
 11
16.99365685563189
 21
60.0028336048
 31
0.0
  0
LINE
  5
22D
330
1F
100
AcDbEntity
  8
1
100
AcDbLine
 10
9.79366163593189
 20
67.0000091195
 30
0.0
 11
46.79365466213189
 21
67.0000091195
 31
0.0
  0
LINE
  5
230
330
1F
100
AcDbEntity
  8
1
100
AcDbLine
 10
20.04943798163189
 20
61.5850910544
 30
0.0
 11
20.91576914173189
 21
61.1213333905
 31
0.0
  0
LINE
  5
231
330
1F
100
AcDbEntity
  8
1
100
AcDbLine
 10
20.91576914173189
 20
61.1213333905
 30
0.0
 11
20.96576998813189
 21
61.2016320229
 31
0.0
  0
LINE
  5
232
330
1F
100
AcDbEntity
  8
1
100
AcDbLine
 10
20.96576998813189
 20
61.2016320229
 30
0.0
 11
20.09943882803189
 21
61.6653896868
 31
0.0
  0
LINE
  5
233
330
1F
100
AcDbEntity
  8
1
100
AcDbLine
 10
20.54329971653189
 20
63.2012858986
 30
0.0
 11
21.54365937093189
 21
63.2012858986
 31
0.0
  0
LINE
  5
234
330
1F
100
AcDbEntity
  8
1
100
AcDbLine
 10
21.54365937093189
 20
63.2012858986
 30
0.0
 11
21.54365937093189
 21
63.2940083742
 31
0.0
  0
LINE
  5
235
330
1F
100
AcDbEntity
  8
1
100
AcDbLine
 10
21.54365937093189
 20
63.2940083742
 30
0.0
 11
20.54329971653189
 21
63.2940083742
 31
0.0
  0
LINE
  5
236
330
1F
100
AcDbEntity
  8
1
100
AcDbLine
 10
23.64365766623189
 20
63.3171871305
 30
0.0
 11
23.11865995503189
 21
63.3171871305
 31
0.0
  0
LINE
  5
238
330
1F
100
AcDbEntity
  8
1
100
AcDbLine
 10
23.11865995503189
 20
63.8039559126
 30
0.0
 11
22.96865741593189
 21
63.8039559126
 31
0.0
  0
LINE
  5
23A
330
1F
100
AcDbEntity
  8
1
100
AcDbLine
 10
22.96865741593189
 20
63.3171871305
 30
0.0
 11
22.44365970473189
 21
63.3171871305
 31
0.0
  0
LINE
  5
23B
330
1F
100
AcDbEntity
  8
1
100
AcDbLine
 10
22.44365970473189
 20
63.3171871305
 30
0.0
 11
22.44365970473189
 21
63.1781071424
 31
0.0
  0
LINE
  5
23C
330
1F
100
AcDbEntity
  8
1
100
AcDbLine
 10
22.44365970473189
 20
63.1781071424
 30
0.0
 11
22.96865741593189
 21
63.1781071424
 31
0.0
  0
LINE
  5
23D
330
1F
100
AcDbEntity
  8
1
100
AcDbLine
 10
22.96865741593189
 20
63.1781071424
 30
0.0
 11
22.96865741593189
 21
62.6913383603
 31
0.0
  0
LINE
  5
23E
330
1F
100
AcDbEntity
  8
1
100
AcDbLine
 10
22.96865741593189
 20
62.6913383603
 30
0.0
 11
23.11865995503189
 21
62.6913383603
 31
0.0
  0
LINE
  5
23F
330
1F
100
AcDbEntity
  8
1
100
AcDbLine
 10
23.11865995503189
 20
62.6913383603
 30
0.0
 11
23.11865995503189
 21
63.1781071424
 31
0.0
  0
LINE
  5
240
330
1F
100
AcDbEntity
  8
1
100
AcDbLine
 10
23.11865995503189
 20
63.1781071424
 30
0.0
 11
23.64365766623189
 21
63.1781071424
 31
0.0
  0
LINE
  5
241
330
1F
100
AcDbEntity
  8
1
100
AcDbLine
 10
23.64365766623189
 20
63.1781071424
 30
0.0
 11
23.64365766623189
 21
63.3171871305
 31
0.0
  0
LINE
  5
242
330
1F
100
AcDbEntity
  8
1
100
AcDbLine
 10
16.99365685563189
 20
59.9367655814
 30
0.0
 11
17.09365854843189
 21
59.9367655814
 31
0.0
  0
LINE
  5
243
330
1F
100
AcDbEntity
  8
1
100
AcDbLine
 10
20.09943882803189
 20
61.6653896868
 30
0.0
 11
20.09943882803189
 21
61.6616420448
 31
0.0
  0
LINE
  5
244
330
1F
100
AcDbEntity
  8
1
100
AcDbLine
 10
20.54329971653189
 20
63.2940083742
 30
0.0
 11
20.54329971653189
 21
63.2902607322
 31
0.0
  0
LINE
  5
245
330
1F
100
AcDbEntity
  8
1
100
AcDbLine
 10
22.44038889983189
 20
61.3199956715
 30
0.0
 11
23.04467568973189
 21
61.2479671836
 31
0.0
  0
LINE
  5
246
330
1F
100
AcDbEntity
  8
1
100
AcDbLine
 10
23.04467568973189
 20
61.2479671836
 30
0.0
 11
23.31001321653189
 21
61.1114092171
 31
0.0
  0
LINE
  5
247
330
1F
100
AcDbEntity
  8
1
100
AcDbLine
 10
23.31001321653189
 20
61.1114092171
 30
0.0
 11
23.39737127403189
 21
60.9961487353
 31
0.0
  0
LINE
  5
248
330
1F
100
AcDbEntity
  8
1
100
AcDbLine
 10
23.39737127403189
 20
60.9961487353
 30
0.0
 11
23.42676381443189
 21
60.8578883111
 31
0.0
  0
LINE
  5
249
330
1F
100
AcDbEntity
  8
1
100
AcDbLine
 10
21.45240465973189
 20
60.8578883111
 30
0.0
 11
21.48184190373189
 21
60.9963126481
 31
0.0
  0
LINE
  5
24A
330
1F
100
AcDbEntity
  8
1
100
AcDbLine
 10
21.48184190373189
 20
60.9963126481
 30
0.0
 11
21.56957994083189
 21
61.1115917563
 31
0.0
  0
LINE
  5
24B
330
1F
100
AcDbEntity
  8
1
100
AcDbLine
 10
21.56957994083189
 20
61.1115917563
 30
0.0
 11
21.83537940363189
 21
61.2480118871
 31
0.0
  0
LINE
  5
24C
330
1F
100
AcDbEntity
  8
1
100
AcDbLine
 10
21.83537940363189
 20
61.2480118871
 30
0.0
 11
22.44038889983189
 21
61.3199956715
 31
0.0
  0
LINE
  5
24D
330
1F
100
AcDbEntity
  8
1
100
AcDbLine
 10
21.52933190443189
 20
60.8552880585
 30
0.0
 11
21.55906717163189
 21
60.7310533524
 31
0.0
  0
LINE
  5
24E
330
1F
100
AcDbEntity
  8
1
100
AcDbLine
 10
21.55906717163189
 20
60.7310533524
 30
0.0
 11
21.64547900533189
 21
60.6320314109
 31
0.0
  0
LINE
  5
24F
330
1F
100
AcDbEntity
  8
1
100
AcDbLine
 10
21.64547900533189
 20
60.6320314109
 30
0.0
 11
21.89265946723189
 21
60.5208165944
 31
0.0
  0
LINE
  5
250
330
1F
100
AcDbEntity
  8
1
100
AcDbLine
 10
21.89265946723189
 20
60.5208165944
 30
0.0
 11
22.44079123123189
 21
60.4641325772
 31
0.0
  0
LINE
  5
251
330
1F
100
AcDbEntity
  8
1
100
AcDbLine
 10
22.44079123123189
 20
60.4641325772
 30
0.0
 11
22.98795441963189
 21
60.520671308
 31
0.0
  0
LINE
  5
252
330
1F
100
AcDbEntity
  8
1
100
AcDbLine
 10
22.98795441963189
 20
60.520671308
 30
0.0
 11
23.23444942813189
 21
60.6321245432
 31
0.0
  0
LINE
  5
253
330
1F
100
AcDbEntity
  8
1
100
AcDbLine
 10
23.23444942813189
 20
60.6321245432
 30
0.0
 11
23.32027266603189
 21
60.7313029468
 31
0.0
  0
LINE
  5
254
330
1F
100
AcDbEntity
  8
1
100
AcDbLine
 10
23.32027266603189
 20
60.7313029468
 30
0.0
 11
23.34984402043189
 21
60.8552880585
 31
0.0
  0
LINE
  5
255
330
1F
100
AcDbEntity
  8
1
100
AcDbLine
 10
23.34984402043189
 20
60.8552880585
 30
0.0
 11
23.34984402043189
 21
60.8590357006
 31
0.0
  0
LINE
  5
256
330
1F
100
AcDbEntity
  8
1
100
AcDbLine
 10
22.44079123123189
 20
60.4641325772
 30
0.0
 11
22.44079123123189
 21
60.4678802192
 31
0.0
  0
LINE
  5
257
330
1F
100
AcDbEntity
  8
1
100
AcDbLine
 10
22.44079123123189
 20
60.4678802192
 30
0.0
 11
22.98795441963189
 21
60.5244189501
 31
0.0
  0
LINE
  5
258
330
1F
100
AcDbEntity
  8
1
100
AcDbLine
 10
22.98795441963189
 20
60.5244189501
 30
0.0
 11
23.23444942813189
 21
60.6358684599
 31
0.0
  0
LINE
  5
259
330
1F
100
AcDbEntity
  8
1
100
AcDbLine
 10
23.23444942813189
 20
60.6358684599
 30
0.0
 11
23.32027266603189
 21
60.7350468636
 31
0.0
  0
LINE
  5
25A
330
1F
100
AcDbEntity
  8
1
100
AcDbLine
 10
23.32027266603189
 20
60.7350468636
 30
0.0
 11
23.34984402043189
 21
60.8590357006
 31
0.0
  0
LINE
  5
25B
330
1F
100
AcDbEntity
  8
1
100
AcDbLine
 10
21.52933190443189
 20
60.8552880585
 30
0.0
 11
21.52933190443189
 21
60.8590357006
 31
0.0
  0
LINE
  5
25C
330
1F
100
AcDbEntity
  8
1
100
AcDbLine
 10
21.52933190443189
 20
60.8590357006
 30
0.0
 11
21.55906717163189
 21
60.7347972691
 31
0.0
  0
LINE
  5
25D
330
1F
100
AcDbEntity
  8
1
100
AcDbLine
 10
21.55906717163189
 20
60.7347972691
 30
0.0
 11
21.64547900533189
 21
60.635779053
 31
0.0
  0
LINE
  5
25E
330
1F
100
AcDbEntity
  8
1
100
AcDbLine
 10
21.64547900533189
 20
60.635779053
 30
0.0
 11
21.89265946723189
 21
60.5245642364
 31
0.0
  0
LINE
  5
25F
330
1F
100
AcDbEntity
  8
1
100
AcDbLine
 10
21.89265946723189
 20
60.5245642364
 30
0.0
 11
22.44079123123189
 21
60.4678802192
 31
0.0
  0
LINE
  5
260
330
1F
100
AcDbEntity
  8
1
100
AcDbLine
 10
22.44079123123189
 20
61.2524189055
 30
0.0
 11
21.89222733353189
 21
61.1948184669
 31
0.0
  0
LINE
  5
261
330
1F
100
AcDbEntity
  8
1
100
AcDbLine
 10
21.89222733353189
 20
61.1948184669
 30
0.0
 11
21.64515117983189
 21
61.08282879
 31
0.0
  0
LINE
  5
262
330
1F
100
AcDbEntity
  8
1
100
AcDbLine
 10
21.64515117983189
 20
61.08282879
 30
0.0
 11
21.55911932563189
 21
60.9833709896
 31
0.0
  0
LINE
  5
263
330
1F
100
AcDbEntity
  8
1
100
AcDbLine
 10
21.55911932563189
 20
60.9833709896
 30
0.0
 11
21.52933190443189
 21
60.8590357006
 31
0.0
  0
LINE
  5
264
330
1F
100
AcDbEntity
  8
1
100
AcDbLine
 10
23.34984402043189
 20
60.8590357006
 30
0.0
 11
23.32052598573189
 21
60.9832629561
 31
0.0
  0
LINE
  5
265
330
1F
100
AcDbEntity
  8
1
100
AcDbLine
 10
23.32052598573189
 20
60.9832629561
 30
0.0
 11
23.23478470423189
 21
61.0827058554
 31
0.0
  0
LINE
  5
266
330
1F
100
AcDbEntity
  8
1
100
AcDbLine
 10
23.23478470423189
 20
61.0827058554
 30
0.0
 11
22.98846105913189
 21
61.1950531602
 31
0.0
  0
LINE
  5
267
330
1F
100
AcDbEntity
  8
1
100
AcDbLine
 10
22.98846105913189
 20
61.1950531602
 30
0.0
 11
22.44079123123189
 21
61.2524189055
 31
0.0
  0
LINE
  5
268
330
1F
100
AcDbEntity
  8
1
100
AcDbLine
 10
22.44038889983189
 20
61.3199956715
 30
0.0
 11
22.44038889983189
 21
61.3237395883
 31
0.0
  0
LINE
  5
269
330
1F
100
AcDbEntity
  8
1
100
AcDbLine
 10
20.96402655223189
 20
61.198823154
 30
0.0
 11
20.09943882803189
 21
61.6616420448
 31
0.0
  0
LINE
  5
26A
330
1F
100
AcDbEntity
  8
1
100
AcDbLine
 10
22.96865741593189
 20
63.3134394884
 30
0.0
 11
22.44365970473189
 21
63.3134394884
 31
0.0
  0
LINE
  5
26B
330
1F
100
AcDbEntity
  8
1
100
AcDbLine
 10
23.11865995503189
 20
63.8002082706
 30
0.0
 11
22.96865741593189
 21
63.8002082706
 31
0.0
  0
LINE
  5
26C
330
1F
100
AcDbEntity
  8
1
100
AcDbLine
 10
23.64365766623189
 20
63.3134394884
 30
0.0
 11
23.11865995503189
 21
63.3134394884
 31
0.0
  0
LINE
  5
26D
330
1F
100
AcDbEntity
  8
1
100
AcDbLine
 10
21.54365937093189
 20
63.2902607322
 30
0.0
 11
20.54329971653189
 21
63.2902607322
 31
0.0
  0
LINE
  5
26E
330
1F
100
AcDbEntity
  8
1
100
AcDbLine
 10
23.11865995503189
 20
63.3134394884
 30
0.0
 11
23.11865995503189
 21
63.8039559126
 31
0.0
  0
LINE
  5
26F
330
1F
100
AcDbEntity
  8
1
100
AcDbLine
 10
22.96865741593189
 20
63.3134394884
 30
0.0
 11
22.96865741593189
 21
63.8039559126
 31
0.0
  0
LINE
  5
272
330
1F
100
AcDbEntity
  8
1
100
AcDbLine
 10
17.00765649653189
 20
22.7332990617
 30
0.0
 11
16.94365600923189
 21
22.715061903
 31
0.0
  0
LINE
  5
273
330
1F
100
AcDbEntity
  8
1
100
AcDbLine
 10
30.05293766833189
 20
0.0000000000000001
 30
0.0
 11
46.79365466213189
 21
14.0471318737
 31
0.0
  0
LINE
  5
274
330
1F
100
AcDbEntity
  8
1
100
AcDbLine
 10
-0.0000073493681086
 20
36.9999930263
 30
0.0
 11
-0.0000073493681086
 21
44.9995622039
 31
0.0
  0
LINE
  5
275
330
1F
100
AcDbEntity
  8
1
100
AcDbLine
 10
-0.0000073493681086
 20
44.9995622039
 30
0.0
 11
8.993659269731891
 21
44.9995622039
 31
0.0
  0
LINE
  5
276
330
1F
100
AcDbEntity
  8
1
100
AcDbLine
 10
46.79365466213189
 20
14.0471318737
 30
0.0
 11
46.79365466213189
 21
67.0000091195
 31
0.0
  0
LINE
  5
277
330
1F
100
AcDbEntity
  8
1
100
AcDbLine
 10
9.79366163593189
 20
45.7995720208
 30
0.0
 11
9.79366163593189
 21
67.0000091195
 31
0.0
  0
LINE
  5
278
330
1F
100
AcDbEntity
  8
1
100
AcDbLine
 10
-3.506343710868109
 20
44.8892071467
 30
0.0
 11
-3.456342864468109
 21
44.9407651644
 31
0.0
  0
LINE
  5
279
330
1F
100
AcDbEntity
  8
1
100
AcDbLine
 10
-3.756340492168109
 20
36.8999905508
 30
0.0
 11
-3.756340492168109
 21
44.6140870076
 31
0.0
  0
LINE
  5
27A
330
1F
100
AcDbEntity
  8
1
100
AcDbLine
 10
8.99365926073189
 20
-44.9995612122
 30
0.0
 11
8.99365926073189
 21
-27.0000067158
 31
0.0
  0
LINE
  5
27B
330
1F
100
AcDbEntity
  8
1
100
AcDbLine
 10
9.793661627031891
 20
-37.0000079274
 30
0.0
 11
46.79365466213189
 21
-37.0000079274
 31
0.0
  0
LINE
  5
27C
330
1F
100
AcDbEntity
  8
CUT
100
AcDbLine
 10
47.59366075373189
 20
-62.0292946696
 30
0.0
 11
47.59365808343189
 21
-62.4354273171
 31
0.0
  0
LINE
  5
27D
330
1F
100
AcDbEntity
  8
CUT
100
AcDbLine
 10
47.5936577620319
 20
-59.5738814217
 30
0.0
 11
47.59366043223189
 21
-59.7700478427
 31
0.0
  0
LINE
  5
27E
330
1F
100
AcDbEntity
  8
CUT
100
AcDbLine
 10
58.78076712463189
 20
62.4354268791
 30
0.0
 11
58.78076712463189
 21
59.5738813281
 31
0.0
  0
LINE
  5
27F
330
1F
100
AcDbEntity
  8
CUT
100
AcDbLine
 10
57.98861394503189
 20
62.4354268791
 30
0.0
 11
57.98861394503189
 21
59.5738813281
 31
0.0
  0
LINE
  5
280
330
1F
100
AcDbEntity
  8
1
100
AcDbLine
 10
46.79365466213189
 20
54.2000085115
 30
0.0
 11
9.79366163593189
 21
54.2000085115
 31
0.0
  0
ARC
  5
281
330
1F
100
AcDbEntity
  8
1
100
AcDbCircle
 10
-0.5934237795681085
 20
33.5359809897
 30
0.0
 40
0.4293340533118588
100
AcDbArc
 50
295.5479381229998
 51
64.45205248460016
  0
ARC
  5
282
330
1F
100
AcDbEntity
  8
1
100
AcDbCircle
 10
-0.8303593236681086
 20
27.0431067976
 30
0.0
 40
0.6734752403662313
100
AcDbArc
 50
356.3295683277
 51
51.19005009580003
  0
ARC
  5
283
330
1F
100
AcDbEntity
  8
1
100
AcDbCircle
 10
-0.8412730727681086
 20
-27.0383166928
 30
0.0
 40
0.6840804348185244
100
AcDbArc
 50
309.270015012
 51
3.210366570199876
  0
ARC
  5
284
330
1F
100
AcDbEntity
  8
1
100
AcDbCircle
 10
-0.5934243695681086
 20
-33.5359939088
 30
0.0
 40
0.4293343445305467
100
AcDbArc
 50
295.5480230516002
 51
64.4518324286999
  0
ARC
  5
285
330
1F
100
AcDbEntity
  8
1
100
AcDbCircle
 10
-0.6700516809681085
 20
-91.4899498492
 30
0.0
 40
46.49276478770754
100
AcDbArc
 50
89.4207263372
 51
89.6773839074
  0
ARC
  5
286
330
1F
100
AcDbEntity
  8
1
100
AcDbCircle
 10
21.94365686223189
 20
13.3315332393
 30
0.0
 40
5.000001037100017
100
AcDbArc
 50
180.000036091
 51
230.0000282392
  0
CIRCLE
  5
287
330
1F
100
AcDbEntity
  8
1
100
AcDbCircle
 10
38.79447185763189
 20
-61.0030810121
 30
0.0
 40
3.249185807305238
  0
CIRCLE
  5
288
330
1F
100
AcDbEntity
  8
1
100
AcDbCircle
 10
24.79447275223189
 20
-61.0030809391
 30
0.0
 40
3.249186343163956
  0
ARC
  5
289
330
1F
100
AcDbEntity
  8
1
100
AcDbCircle
 10
17.11844035393189
 20
-52.7580487251
 30
0.0
 40
4.546936443856094
100
AcDbArc
 50
33.97157794140002
 51
90.94237594560002
  0
ARC
  5
28A
330
1F
100
AcDbEntity
  8
1
100
AcDbCircle
 10
16.98973535333189
 20
-52.7972942392
 30
0.0
 40
4.585883977264155
100
AcDbArc
 50
89.32628164830001
 51
146.0020467905
  0
ARC
  5
28B
330
1F
100
AcDbEntity
  8
1
100
AcDbCircle
 10
8.993650901731892
 20
-45.7995719374
 30
0.0
 40
0.8000107252483938
100
AcDbArc
 50
0.0000650531002233
 51
89.9994013387
  0
ARC
  5
28C
330
1F
100
AcDbEntity
  8
1
100
AcDbCircle
 10
-1.843036799568109
 20
-30.2060714093
 30
0.0
 40
2.122252486575984
100
AcDbArc
 50
185.263593444
 51
208.5997169614
  0
ARC
  5
28D
330
1F
100
AcDbEntity
  8
1
100
AcDbCircle
 10
-2.466733202168109
 20
-35.5690836292
 30
0.0
 40
1.506991223318964
100
AcDbArc
 50
188.7112186830999
 51
214.6568116311
  0
ARC
  5
28E
330
1F
100
AcDbEntity
  8
1
100
AcDbCircle
 10
-2.676701799068109
 20
35.6525575332
 30
0.0
 40
1.287799417520352
100
AcDbArc
 50
143.0857850743
 51
173.5461846147999
  0
ARC
  5
28F
330
1F
100
AcDbEntity
  8
1
100
AcDbCircle
 10
17.12867633683189
 20
-52.6096935461
 30
0.0
 40
3.471823609529468
100
AcDbArc
 50
23.19998373669995
 51
91.40320952079999
  0
ARC
  5
290
330
1F
100
AcDbEntity
  8
1
100
AcDbCircle
 10
16.98259742003189
 20
-52.6482229509
 30
0.0
 40
3.509843051557298
100
AcDbArc
 50
89.00318250889997
 51
155.9315387034
  0
ARC
  5
291
330
1F
100
AcDbEntity
  8
1
100
AcDbCircle
 10
-2.892824029968109
 20
-39.3689833181
 30
0.0
 40
1.084530374105317
100
AcDbArc
 50
191.2973736981001
 51
221.3999119701001
  0
ARC
  5
292
330
1F
100
AcDbEntity
  8
1
100
AcDbCircle
 10
-2.851976879268109
 20
-41.8028631001
 30
0.0
 40
1.170004896222081
100
AcDbArc
 50
199.2834671109001
 51
223.0947640044999
  0
ARC
  5
293
330
1F
100
AcDbEntity
  8
1
100
AcDbCircle
 10
-2.919876220168109
 20
-43.328195222
 30
0.0
 40
1.152075600246712
100
AcDbArc
 50
205.8880010574998
 51
226.9487413038999
  0
ARC
  5
294
330
1F
100
AcDbEntity
  8
1
100
AcDbCircle
 10
-4.524715942268108
 20
-45.4893641303
 30
0.0
 40
1.069692797668392
100
AcDbArc
 50
40.08821911759989
 51
57.90363201740004
  0
ARC
  5
295
330
1F
100
AcDbEntity
  8
1
100
AcDbCircle
 10
-2.190818018468109
 20
-43.2609214758
 30
0.0
 40
2.22443868868943
100
AcDbArc
 50
217.4679896785999
 51
227.0541490865
  0
ARC
  5
296
330
1F
100
AcDbEntity
  8
CUT
100
AcDbCircle
 10
47.60878474243189
 20
-62.844883403
 30
0.0
 40
0.815728948278786
100
AcDbArc
 50
91.06235089090022
 51
182.1956181438998
  0
ARC
  5
297
330
1F
100
AcDbEntity
  8
CUT
100
AcDbCircle
 10
47.60674573003189
 20
-58.9569207396
 30
0.0
 40
0.8132323842081917
100
AcDbArc
 50
178.9330642188002
 51
269.0780437397997
  0
ARC
  5
298
330
1F
100
AcDbEntity
  8
CUT
100
AcDbCircle
 10
59.59365561313189
 20
-59.704653455
 30
0.0
 40
0.200000698986976
100
AcDbArc
 50
0.0
 51
84.24678510770043
  0
ARC
  5
29A
330
1F
100
AcDbEntity
  8
CUT
100
AcDbCircle
 10
47.59365808343189
 20
-63.2354273171
 30
0.0
 40
0.8000000000000256
100
AcDbArc
 50
90.0
 51
180.0
  0
ARC
  5
29B
330
1F
100
AcDbEntity
  8
CUT
100
AcDbCircle
 10
59.59365808343189
 20
-62.3046542804
 30
0.0
 40
0.2000000000000157
100
AcDbArc
 50
280.8322870218993
 51
0.0003016901006173
  0
ARC
  5
29C
330
1F
100
AcDbEntity
  8
CUT
100
AcDbCircle
 10
47.5936577620319
 20
-58.7738814217
 30
0.0
 40
0.7999999999999972
100
AcDbArc
 50
180.0
 51
270.0
  0
ARC
  5
29E
330
1F
100
AcDbEntity
  8
CUT
100
AcDbCircle
 10
47.59366721343189
 20
63.2354408609
 30
0.0
 40
0.8000139818459243
100
AcDbArc
 50
180.0010986842001
 51
269.9994349228
  0
ARC
  5
29F
330
1F
100
AcDbEntity
  8
CUT
100
AcDbCircle
 10
47.59366105453189
 20
58.7738749357
 30
0.0
 40
0.8000063923810925
100
AcDbArc
 50
90.000021543
 51
179.9994448549999
  0
ARC
  5
2A0
330
1F
100
AcDbEntity
  8
CUT
100
AcDbCircle
 10
59.59366006103189
 20
62.3046534122
 30
0.0
 40
0.1999984767049085
100
AcDbArc
 50
0.0001310347009449
 51
79.1686723463997
  0
ARC
  5
2A1
330
1F
100
AcDbEntity
  8
CUT
100
AcDbCircle
 10
59.59365812483189
 20
59.7046538696
 30
0.0
 40
0.200000985087131
100
AcDbArc
 50
275.7525759947004
 51
359.9998963809008
  0
CIRCLE
  5
2A2
330
1F
100
AcDbEntity
  8
1
100
AcDbCircle
 10
24.79365808343189
 20
-61.00000743
 30
0.0
 40
2.299999999999997
  0
CIRCLE
  5
2A3
330
1F
100
AcDbEntity
  8
1
100
AcDbCircle
 10
24.79365808343189
 20
-61.00000743
 30
0.0
 40
2.999999999999989
  0
CIRCLE
  5
2A4
330
1F
100
AcDbEntity
  8
1
100
AcDbCircle
 10
38.79365808343189
 20
-61.00000743
 30
0.0
 40
2.300000000000026
  0
CIRCLE
  5
2A5
330
1F
100
AcDbEntity
  8
1
100
AcDbCircle
 10
38.79365808343189
 20
-61.00000743
 30
0.0
 40
3.000000000000028
  0
ARC
  5
2A6
330
1F
100
AcDbEntity
  8
1
100
AcDbCircle
 10
17.04781937503189
 20
-62.5298450085
 30
0.0
 40
4.054689699773657
100
AcDbArc
 50
233.0719345606999
 51
306.6404218881
  0
ARC
  5
2A7
330
1F
100
AcDbEntity
  8
1
100
AcDbCircle
 10
17.04410101513189
 20
-52.6495155864
 30
0.0
 40
3.261773920700396
100
AcDbArc
 50
19.85467599540001
 51
160.5366822558
  0
ARC
  5
2A8
330
1F
100
AcDbEntity
  8
1
100
AcDbCircle
 10
17.04393540483189
 20
-52.4742468648
 30
0.0
 40
1.989218756730428
100
AcDbArc
 50
357.0755946029001
 51
183.1840114608
  0
ARC
  5
2A9
330
1F
100
AcDbEntity
  8
1
100
AcDbCircle
 10
17.04365770203189
 20
-48.6799371681
 30
0.0
 40
2.632207647708366
100
AcDbArc
 50
250.7912321970999
 51
289.2087678029
  0
ARC
  5
2AA
330
1F
100
AcDbEntity
  8
1
100
AcDbCircle
 10
11.96999954983189
 20
-49.5105555013
 30
0.0
 40
4.521431321513107
100
AcDbArc
 50
317.6513610616
 51
338.5281390827
  0
ARC
  5
2AB
330
1F
100
AcDbEntity
  8
1
100
AcDbCircle
 10
21.90571586973189
 20
-49.6423174179
 30
0.0
 40
4.276524700801808
100
AcDbArc
 50
200.8667761165
 51
222.9537237386
  0
ARC
  5
2AC
330
1F
100
AcDbEntity
  8
1
100
AcDbCircle
 10
17.02072581343189
 20
62.9026365128
 30
0.0
 40
3.534231221618685
100
AcDbArc
 50
4.687514614200012
 51
148.3368815977
  0
ARC
  5
2AD
330
1F
100
AcDbEntity
  8
1
100
AcDbCircle
 10
16.60974044233189
 20
63.1279968485
 30
0.0
 40
3.066217648545857
100
AcDbArc
 50
147.8898902175
 51
178.8140603157999
  0
ARC
  5
2AE
330
1F
100
AcDbEntity
  8
1
100
AcDbCircle
 10
17.30870686643189
 20
63.3218043122
 30
0.0
 40
2.962622425655342
100
AcDbArc
 50
327.1741497944
 51
329.0035644398999
  0
ARC
  5
2AF
330
1F
100
AcDbEntity
  8
1
100
AcDbCircle
 10
12.05630628903189
 20
66.0673971336
 30
0.0
 40
4.42147777660913
100
AcDbArc
 50
317.4126968506
 51
338.7669410205997
  0
ARC
  5
2B0
330
1F
100
AcDbEntity
  8
1
100
AcDbCircle
 10
19.09486144923189
 20
64.4661132796
 30
0.0
 40
4.030794895847192
100
AcDbArc
 50
200.1842591236999
 51
223.6362407315
  0
ARC
  5
2B1
330
1F
100
AcDbEntity
  8
1
100
AcDbCircle
 10
17.04365770203189
 20
64.1702147879
 30
0.0
 40
2.632207647693178
100
AcDbArc
 50
250.7912321968
 51
289.2087678029
  0
ARC
  5
2B2
330
1F
100
AcDbEntity
  8
1
100
AcDbCircle
 10
14.65446304233189
 20
64.6765779945
 30
0.0
 40
4.421388422336209
100
AcDbArc
 50
317.4124305248
 51
338.7670696191
  0
ARC
  5
2B3
330
1F
100
AcDbEntity
  8
1
100
AcDbCircle
 10
22.11755750263189
 20
66.1212901004
 30
0.0
 40
4.521708292557362
100
AcDbArc
 50
201.4724182418999
 51
222.3479438926
  0
ARC
  5
2B4
330
1F
100
AcDbEntity
  8
1
100
AcDbCircle
 10
17.04365770203189
 20
66.9517428127
 30
0.0
 40
2.632185638733677
100
AcDbArc
 50
250.7910652818999
 51
289.2089347159
  0
ARC
  5
2B5
330
1F
100
AcDbEntity
  8
1
100
AcDbCircle
 10
17.23052047263189
 20
63.2782195747
 30
0.0
 40
1.811936909155705
100
AcDbArc
 50
326.5942937431001
 51
329.5858060055
  0
ARC
  5
2B6
330
1F
100
AcDbEntity
  8
1
100
AcDbCircle
 10
17.04368585573189
 20
60.938490181
 30
0.0
 40
1.568637619688616
100
AcDbArc
 50
42.88385104339989
 51
137.2176437596001
  0
ARC
  5
2B7
330
1F
100
AcDbEntity
  8
1
100
AcDbCircle
 10
17.02379099863189
 20
61.4287526491
 30
0.0
 40
1.524066667334337
100
AcDbArc
 50
89.25310977330003
 51
147.0678427838
  0
ARC
  5
2B8
330
1F
100
AcDbEntity
  8
1
100
AcDbCircle
 10
17.06352440543189
 20
61.4287526491
 30
0.0
 40
1.524066667334352
100
AcDbArc
 50
32.93215721629994
 51
90.74689022540005
  0
ARC
  5
2B9
330
1F
100
AcDbEntity
  8
1
100
AcDbCircle
 10
17.09078471053189
 20
63.5601433079
 30
0.0
 40
3.557310863921532
100
AcDbArc
 50
270.0462874365
 51
326.2748644829999
  0
ARC
  5
2BA
330
1F
100
AcDbEntity
  8
1
100
AcDbCircle
 10
17.47800620913189
 20
63.2550454353
 30
0.0
 40
3.065764892190681
100
AcDbArc
 50
328.7670736406
 51
358.9952417932
  0
ARC
  5
2BB
330
1F
100
AcDbEntity
  8
1
100
AcDbCircle
 10
17.04365770203189
 20
63.7598609261
 30
0.0
 40
3.7611036132322
100
AcDbArc
 50
269.2382762727
 51
270.7617237273
  0
ARC
  5
2BC
330
1F
100
AcDbEntity
  8
1
100
AcDbCircle
 10
17.53852686923189
 20
63.2438994944
 30
0.0
 40
3.005130484406083
100
AcDbArc
 50
359.1160421651
 51
0.8839578349000439
  0
ARC
  5
2BD
330
1F
100
AcDbEntity
  8
1
100
AcDbCircle
 10
17.35636487843189
 20
63.3140798595
 30
0.0
 40
3.202343739250002
100
AcDbArc
 50
327.2426282151001
 51
328.9350860255
  0
ARC
  5
2BE
330
1F
100
AcDbEntity
  8
1
100
AcDbCircle
 10
8.99365091073189
 20
45.7995729291
 30
0.0
 40
0.8000107252484097
100
AcDbArc
 50
270.0005986613
 51
359.9999349468998
  0
ARC
  5
2BF
330
1F
100
AcDbEntity
  8
1
100
AcDbCircle
 10
-0.4700520116681086
 20
91.4899508409
 30
0.0
 40
46.49276478770704
100
AcDbArc
 50
270.3226160926
 51
270.5792736627
  0
ARC
  5
2C0
330
1F
100
AcDbEntity
  8
1
100
AcDbCircle
 10
-1.990813112268109
 20
43.2609275379
 30
0.0
 40
2.224438688674321
100
AcDbArc
 50
132.9460353917
 51
142.5322324513999
  0
POINT
  5
2D4
330
1F
100
AcDbEntity
  8
1
100
AcDbPoint
 10
-0.2063453378681086
 20
0.0000000000000001
 30
0.0
  0
DIMENSION
  5
2D5
330
1F
100
AcDbEntity
  8
SK2
100
AcDbDimension
280
     0
  2
_D
 10
70.71969276063189
 20
-62.4354950171
 30
0.0
 11
70.71969276063189
 21
0.0318618665000001
 31
0.0
 70
   160
  1
%%c<> - 153
 71
     5
 42
124.9347137672
 73
     0
 74
     0
 75
     0
  3
SLDDIMSTYLE0
100
AcDbAlignedDimension
 13
59.5228002486319
 23
62.4992187501
 33
0.0
 14
59.74492176583189
 24
-62.4354950171
 34
0.0
 50
90.0
100
AcDbRotatedDimension
1001
ACAD
1000
DSTYLE
1002
{
1070
   140
1040
3.5
1070
   340
1005
331
1070
   177
1070
   256
1070
   176
1070
   256
1070
   178
1070
   256
1070
   347
1005
14
1070
   346
1005
14
1070
   345
1005
14
1002
}
  0
DIMENSION
  5
2E2
330
1F
100
AcDbEntity
  8
SK2
100
AcDbDimension
280
     0
  2
_D_1
 10
79.7190133976319
 20
67.0000091195
 30
0.0
 11
79.71901339763188
 21
0.0000000000000001
 31
0.0
 70
   160
  1
%%c136 - 164
 71
     5
 42
134.000018239
 73
     0
 74
     0
 75
     0
  3
SLDDIMSTYLE1
100
AcDbAlignedDimension
 13
46.79365466213189
 23
-67.0000091195
 33
0.0
 14
46.79365466213189
 24
67.0000091195
 34
0.0
 50
90.0
100
AcDbRotatedDimension
1001
ACAD
1000
DSTYLE
1002
{
1070
   140
1040
3.5
1070
   340
1005
331
1070
   177
1070
   256
1070
   176
1070
   256
1070
   178
1070
   256
1070
   347
1005
14
1070
   346
1005
14
1070
   345
1005
14
1002
}
  0
DIMENSION
  5
2EE
330
1F
100
AcDbEntity
  8
2
100
AcDbDimension
280
     0
  2
_D_2
 10
-3.756340492168111
 20
74.1936123655
 30
0.0
 11
14.34876001553189
 21
74.1936123655
 31
0.0
 70
   160
  1
113
 71
     5
 42
50.5499951543
 73
     0
 74
     0
 75
     0
  3
SLDDIMSTYLE2
100
AcDbAlignedDimension
 13
46.79365466213189
 23
67.0000091195
 33
0.0
 14
-3.756340492168109
 24
44.6140870076
 34
0.0
100
AcDbRotatedDimension
1001
ACAD
1000
DSTYLE
1002
{
1070
   140
1040
3.5
1070
   340
1005
331
1070
   177
1070
   256
1070
   176
1070
   256
1070
   178
1070
   256
1070
   347
1005
14
1070
   346
1005
14
1070
   345
1005
14
1002
}
  0
LINE
  5
3A2
330
1F
100
AcDbEntity
  8
NOCUT
100
AcDbLine
 10
46.79365466218835
 20
58.7738826870484
 30
0.0
 11
46.79365466213189
 21
14.0471318737
 31
0.0
  0
LINE
  5
3A3
330
1F
100
AcDbEntity
  8
NOCUT
100
AcDbLine
 10
46.79365466213189
 20
14.0471318737
 30
0.0
 11
30.05293766833189
 21
0.0000000000000001
 31
0.0
  0
LINE
  5
3A4
330
1F
100
AcDbEntity
  8
NOCUT
100
AcDbLine
 10
30.05293766833189
 20
0.0000000000000001
 30
0.0
 11
-0.0000000000000002
 21
0.0000000000000001
 31
0.0
  0
LINE
  5
3A5
330
1F
100
AcDbEntity
  8
NOCUT
100
AcDbLine
 10
-0.0000000000000002
 20
0.0000000000000001
 30
0.0
 11
-0.0000073493719587
 21
44.99956220388709
 31
0.0
  0
LINE
  5
3A7
330
1F
100
AcDbEntity
  8
NOCUT
100
AcDbLine
 10
-0.0000073493681086
 20
44.9995622039
 30
0.0
 11
8.993659269731891
 21
44.9995622039
 31
0.0
  0
ARC
  5
3A8
330
1F
100
AcDbEntity
  8
NOCUT
100
AcDbCircle
 10
8.993650910773837
 20
45.7995729290149
 30
0.0
 40
0.8000107251585693
100
AcDbArc
 50
270.0005986582461
 51
359.9999349547712
  0
LINE
  5
3A9
330
1F
100
AcDbEntity
  8
NOCUT
100
AcDbLine
 10
9.793661635979785
 20
45.79957202077519
 30
0.0
 11
9.79366163593189
 21
67.0000091195
 31
0.0
  0
LINE
  5
3AA
330
1F
100
AcDbEntity
  8
NOCUT
100
AcDbLine
 10
9.79366163593189
 20
67.0000091195
 30
0.0
 11
46.77113738754228
 21
67.0000091195
 31
0.0
  0
LINE
  5
3AB
330
1F
100
AcDbEntity
  8
NOCUT
100
AcDbLine
 10
46.77113738754228
 20
67.0000091195
 30
0.0
 11
46.79365323173305
 21
63.2354255201065
 31
0.0
  0
ARC
  5
3AC
330
1F
100
AcDbEntity
  8
NOCUT
100
AcDbCircle
 10
47.59366721341991
 20
63.23544086089504
 30
0.0
 40
0.8000139818339449
100
AcDbArc
 50
180.001098683845
 51
269.9994349239465
  0
LINE
  5
3AD
330
1F
100
AcDbEntity
  8
NOCUT
100
AcDbLine
 10
47.59365932332786
 20
62.43542687909298
 30
0.0
 11
58.78076712463189
 21
62.4354268791
 31
0.0
  0
LINE
  5
3AE
330
1F
100
AcDbEntity
  8
NOCUT
100
AcDbLine
 10
58.78076712463189
 20
62.4354268791
 30
0.0
 11
59.5228002486319
 21
62.4992187501
 31
0.0
  0
LINE
  5
3AF
330
1F
100
AcDbEntity
  8
NOCUT
100
AcDbLine
 10
59.5228002486319
 20
62.4992187501
 30
0.0
 11
59.63124344926461
 21
62.50108884590082
 31
0.0
  0
ARC
  5
3B0
330
1F
100
AcDbEntity
  8
NOCUT
100
AcDbCircle
 10
59.59366006105223
 20
62.30465341221419
 30
0.0
 40
0.1999984766801909
100
AcDbArc
 50
0.0001310323824462
 51
79.16867236051826
  0
ARC
  5
3B1
330
1F
100
AcDbEntity
  8
NOCUT
100
AcDbCircle
 10
59.59557614530564
 20
59.70391523075335
 30
0.0
 40
0.1980843404286198
100
AcDbArc
 50
268.6781411767417
 51
0.2135467267004578
  0
LINE
  5
3B2
330
1F
100
AcDbEntity
  8
NOCUT
100
AcDbLine
 10
59.79365853773628
 20
62.30465386959391
 30
0.0
 11
59.79365853773628
 21
59.70766638235794
 31
0.0
  0
LINE
  5
3B3
330
1F
100
AcDbEntity
  8
NOCUT
100
AcDbLine
 10
59.59100658873189
 20
59.5058836043
 30
0.0
 11
58.78076712463189
 21
59.5738813281
 31
0.0
  0
LINE
  5
3B4
330
1F
100
AcDbEntity
  8
NOCUT
100
AcDbLine
 10
58.78076712463189
 20
59.5738813281
 30
0.0
 11
47.59366075373189
 21
59.5738813281
 31
0.0
  0
ARC
  5
3B5
330
1F
100
AcDbEntity
  8
NOCUT
100
AcDbCircle
 10
47.5936610545319
 20
58.77387493569999
 30
0.0
 40
0.8000063923810987
100
AcDbArc
 50
90.0000215430005
 51
179.9994448549994
  0
LWPOLYLINE
  5
3B7
330
1F
100
AcDbEntity
  8
INFTOTAL
100
AcDbPolyline
 90
        4
 70
     1
 43
0.0
 10
-75.08036514972356
 20
110.0626870594233
 10
-75.08036514972356
 20
-113.9512230015523
 10
154.4356409478371
 20
-113.9512230015523
 10
154.4356409478371
 20
110.0626870594233
  0
LINE
  5
3D3
330
1F
100
AcDbEntity
  8
4
100
AcDbLine
 10
37.65581574343189
 20
0.0000000000000001
 30
0.0
 11
-0.0000000000000002
 21
0.0000000000000001
 31
0.0
  0
LWPOLYLINE
  5
3FE
330
1F
100
AcDbEntity
  8
1
100
AcDbPolyline
 90
        6
 70
     0
 43
0.0
 10
-0.4082665485293286
 20
33.14862517249173
 10
-1.072500562895061
 20
32.79241419255773
 10
-1.729513557012925
 20
32.43176684029717
 10
-2.379216645886895
 20
32.06673190643222
 10
-3.02152193345255
 20
31.69735877526571
 10
-3.656342524468161
 20
31.32369741799998
  0
LWPOLYLINE
  5
3FF
330
1F
100
AcDbEntity
  8
1
100
AcDbPolyline
 90
        5
 70
     0
 43
0.0
 10
-0.4082664849834359
 20
33.92333677656781
 10
-1.206634232590467
 20
34.31963571940575
 10
-2.014201237445043
 20
34.70967210632892
 10
-2.830820136891312
 20
35.09337476454604
 10
-3.656341916508005
 20
35.47067367702766
  0
LWPOLYLINE
  5
400
330
1F
100
AcDbEntity
  8
1
100
AcDbPolyline
 90
        4
 70
     0
 43
0.0
 10
-2.451192533305765
 20
36.99999301306487
 10
-2.854696990992736
 20
36.8376392317733
 10
-3.256418986601389
 20
36.67381866273864
 10
-3.656342524514201
 20
36.50853782890758
  0
LWPOLYLINE
  5
401
330
1F
100
AcDbEntity
  8
1
100
AcDbPolyline
 90
        6
 70
     0
 43
0.0
 10
-0.4082660303196465
 20
27.56789832862328
 10
-1.037289193029346
 20
28.03017323299203
 10
-1.676718365249777
 20
28.48766448411631
 10
-2.326444421482557
 20
28.94029400617012
 10
-2.986356478954797
 20
29.38798455303408
 10
-3.656341916542388
 20
29.8306597214783
  0
LWPOLYLINE
  5
402
330
1F
100
AcDbEntity
  8
1
100
AcDbPolyline
 90
        5
 70
     0
 43
0.0
 10
-3.65634191658001
 20
-42.17547718632906
 10
-2.838940471893936
 20
-41.99687461059805
 10
-2.025059141959042
 20
-41.81299154745578
 10
-1.214800260363654
 20
-41.62385111748875
 10
-0.4082657052265735
 20
-41.42947710231989
  0
LWPOLYLINE
  5
403
330
1F
100
AcDbEntity
  8
1
100
AcDbPolyline
 90
        5
 70
     0
 43
0.0
 10
-3.656341916560617
 20
-40.15686664516871
 10
-2.851085084312022
 20
-40.38862542552084
 10
-2.041248025552793
 20
-40.61500188259614
 10
-1.22693866189719
 20
-40.83596584870543
 10
-0.408265510953882
 20
-41.05148787744629
  0
LWPOLYLINE
  5
404
330
1F
100
AcDbEntity
  8
1
100
AcDbPolyline
 90
        5
 70
     0
 43
0.0
 10
-3.656342524490093
 20
-39.42677006128296
 10
-2.835835904299187
 20
-39.16240803278054
 10
-2.020908826039807
 20
-38.89235444720982
 10
-1.211679724836294
 20
-38.61664855204563
 10
-0.4082662077136087
 20
-38.33533041622523
  0
LWPOLYLINE
  5
405
330
1F
100
AcDbEntity
  8
1
100
AcDbPolyline
 90
        5
 70
     0
 43
0.0
 10
-3.656341916619724
 20
-36.50855242283559
 10
-2.854883729686158
 20
-36.83757792675139
 10
-2.046299053148921
 20
-37.16073908002362
 10
-1.230716609503737
 20
-37.47798443706919
 10
-0.4082662352546578
 20
-37.78926349406912
  0
LWPOLYLINE
  5
406
330
1F
100
AcDbEntity
  8
1
100
AcDbPolyline
 90
        5
 70
     0
 43
0.0
 10
-3.656342524419919
 20
-35.47068685285277
 10
-2.830820577037855
 20
-35.0933878842804
 10
-2.014201512585728
 20
-34.70968516765345
 10
-1.206634345562442
 20
-34.3196487200344
 10
-0.4082664387004442
 20
-33.92334971424828
  0
LWPOLYLINE
  5
407
330
1F
100
AcDbEntity
  8
1
100
AcDbPolyline
 90
        6
 70
     0
 43
0.0
 10
-3.656341916486937
 20
-31.32371048311034
 10
-3.021521235341559
 20
-31.69737190991385
 10
-2.379215854779218
 20
-32.0667451091549
 10
-1.729512670088589
 20
-32.43178010960214
 10
-1.072499577381862
 20
-32.79242752692424
 10
-0.4082654617035359
 20
-33.14863857037088
  0
LWPOLYLINE
  5
408
330
1F
100
AcDbEntity
  8
1
100
AcDbPolyline
 90
        6
 70
     0
 43
0.0
 10
-3.656342524467277
 20
-29.83067370949946
 10
-2.98635710059446
 20
-29.38799854172235
 10
-2.32644505691158
 20
-28.94030799558426
 10
-1.676719014542398
 20
-28.4876784743163
 10
-1.03728985625944
 20
-28.03018722403914
 10
-0.4082667075606549
 20
-27.56791232057999
  0
LWPOLYLINE
  5
409
330
1F
100
AcDbEntity
  8
1
100
AcDbPolyline
 90
        5
 70
     0
 43
0.0
 10
-3.656341920021111
 20
-44.94076419903431
 10
-2.844753964735868
 20
-44.96238341500748
 10
-2.032819782589016
 20
-44.97911725819493
 10
-1.220627594029252
 20
-44.99096391038629
 10
-0.4082656475388766
 20
-44.99792208438735
  0
LWPOLYLINE
  5
40A
330
1F
100
AcDbEntity
  8
1
100
AcDbPolyline
 90
        5
 70
     0
 43
0.0
 10
-3.656342527925326
 20
-44.84832090315737
 10
-2.843048020496099
 20
-44.80719225344131
 10
-2.030544291174238
 20
-44.76114755365561
 10
-1.218920484345171
 20
-44.71019185562506
 10
-0.4082656478530476
 20
-44.65433074998784
  0
LWPOLYLINE
  5
40B
330
1F
100
AcDbEntity
  8
1
100
AcDbPolyline
 90
        5
 70
     0
 43
0.0
 10
-3.656341916534251
 20
-44.226383169868
 10
-2.846504615321306
 20
-44.31166440464271
 10
-2.035152429330088
 20
-44.39200275525467
 10
-1.222375863410658
 20
-44.46738926010803
 10
-0.4082655813000535
 20
-44.53781550997626
  0
LWPOLYLINE
  5
40C
330
1F
100
AcDbEntity
  8
1
100
AcDbPolyline
 90
        5
 70
     0
 43
0.0
 10
-3.656342524463925
 20
-43.94395649430576
 10
-2.841194370901801
 20
-43.83751226158154
 10
-2.028069925756996
 20
-43.7260279233623
 10
-1.217062675939461
 20
-43.60951629727556
 10
-0.4082658649400214
 20
-43.4879907789485
  0
LWPOLYLINE
  5
40D
330
1F
100
AcDbEntity
  8
1
100
AcDbPolyline
 90
        5
 70
     0
 43
0.0
 10
-3.656341916547536
 20
-42.66466290214375
 10
-2.848508326183364
 20
-42.81825298344104
 10
-2.037819992540051
 20
-42.96674459334303
 10
-1.224373446225652
 20
-43.11012005059687
 10
-0.4082655462752491
 20
-43.24836228314233
  0
LWPOLYLINE
  5
40E
330
1F
100
AcDbEntity
  8
CUT
100
AcDbPolyline
 90
       14
 70
     0
 43
0.0
 10
59.46065463450351
 20
-59.77004784272169
 10
59.45623798300742
 20
-59.93889567151898
 10
59.45247630070173
 20
-60.10980325620983
 10
59.44937688950031
 20
-60.28243884297667
 10
59.44694576576283
 20
-60.45646732372548
 10
59.44518764861619
 20
-60.6315508865741
 10
59.4441059507941
 20
-60.80734967158903
 10
59.44370277201251
 20
-60.98352243049764
 10
59.44397889489381
 20
-61.15972718909539
 10
59.4449337834476
 20
-61.33562191106223
 10
59.44656558411121
 20
-61.51086516189944
 10
59.44887112934761
 20
-61.68511677169837
 10
59.45184594379409
 20
-61.85803849545442
 10
59.45548425294947
 20
-62.02929466964451
  0
LWPOLYLINE
  5
40F
330
1F
100
AcDbEntity
  8
CUT
100
AcDbPolyline
 90
       20
 70
     0
 43
0.0
 10
50.30774192207294
 20
62.43542687909847
 10
50.20646040408921
 20
62.29063746648599
 10
50.11600875695383
 20
62.14393476441872
 10
50.03652107035766
 20
61.99553625174414
 10
49.96811518051111
 20
61.84566192125755
 10
49.91089249545833
 20
61.69453395357457
 10
49.86493784474517
 20
61.54237638776041
 10
49.83031935366404
 20
61.38941478920398
 10
49.80708834226176
 20
61.23587591522941
 10
49.79527924926045
 20
61.0819873789405
 10
49.79490958100384
 20
60.9279773117966
 10
49.80597988550524
 20
60.77407402542
 10
49.82847375163496
 20
60.62050567313624
 10
49.86235783344907
 20
60.46749991174913
 10
49.90758189962286
 20
60.31528356405182
 10
49.96407890791615
 20
60.1640822825742
 10
50.03176510455972
 20
60.01412021506521
 10
50.11054014841584
 20
59.86561967220591
 10
50.20028725972854
 20
59.71880079804581
 10
50.30087339324331
 20
59.57388124365127
  0
LWPOLYLINE
  5
410
330
1F
100
AcDbEntity
  8
1
100
AcDbPolyline
 90
        5
 70
     0
 43
0.0
 10
-0.2082659783289239
 20
44.99792307619997
 10
-1.020628078460527
 20
44.99096489837567
 10
-1.832820420543677
 20
44.9791182405118
 10
-2.644754756045997
 20
44.96238438980369
 10
-3.456342864468743
 20
44.94076516446321
  0
ENDSEC
  0
SECTION
  2
OBJECTS
  0
DICTIONARY
  5
C
330
0
100
AcDbDictionary
281
     1
  3
ACAD_DETAILVIEWSTYLE
350
39A
  3
ACAD_GROUP
350
D
  3
ACAD_LAYOUT
350
319
  3
ACAD_MATERIAL
350
32D
  3
ACAD_MLEADERSTYLE
350
344
  3
ACAD_MLINESTYLE
350
17
  3
ACAD_PLOTSETTINGS
350
386
  3
ACAD_PLOTSTYLENAME
350
387
  3
ACAD_SCALELIST
350
2F7
  3
ACAD_SECTIONVIEWSTYLE
350
39B
  3
ACAD_TABLESTYLE
350
393
  3
ACAD_VISUALSTYLE
350
31C
  3
ACDB_RECOMPOSE_DATA
350
413
  3
AcDbVariableDictionary
350
342
  3
APPDATA
350
396
  0
SUN
  5
3CF
330
29
100
AcDbSun
 90
        1
290
     0
 63
     7
421
 16777215
 40
1.0
291
     1
 91
  2455826
 92
 54000000
292
     0
 70
     2
 71
   256
280
     1
  0
DICTIONARY
  5
39C
330
2
100
AcDbDictionary
280
     1
281
     1
  3
ACAD_LAYERSTATES
360
39D
  0
DICTIONARY
  5
39A
102
{ACAD_REACTORS
330
C
102
}
330
C
100
AcDbDictionary
281
     1
  0
DICTIONARY
  5
D
102
{ACAD_REACTORS
330
C
102
}
330
C
100
AcDbDictionary
281
     1
  0
DICTIONARY
  5
319
102
{ACAD_REACTORS
330
C
102
}
330
C
100
AcDbDictionary
281
     1
  3
Layout1
350
31B
  3
Model
350
31A
  0
DICTIONARY
  5
32D
102
{ACAD_REACTORS
330
C
102
}
330
C
100
AcDbDictionary
281
     1
  3
ByBlock
350
32F
  3
ByLayer
350
32E
  3
Global
350
330
  0
DICTIONARY
  5
344
102
{ACAD_REACTORS
330
C
102
}
330
C
100
AcDbDictionary
281
     1
  3
Standard
350
395
  0
DICTIONARY
  5
17
102
{ACAD_REACTORS
330
C
102
}
330
C
100
AcDbDictionary
281
     1
  3
STANDARD
350
18
  0
DICTIONARY
  5
386
102
{ACAD_REACTORS
330
C
102
}
330
C
100
AcDbDictionary
281
     1
  0
ACDBDICTIONARYWDFLT
  5
387
102
{ACAD_REACTORS
330
C
102
}
330
C
100
AcDbDictionary
281
     1
  3
Normal
350
388
100
AcDbDictionaryWithDefault
340
388
  0
DICTIONARY
  5
2F7
102
{ACAD_REACTORS
330
C
102
}
330
C
100
AcDbDictionary
281
     1
  3
A0
350
2F8
  3
A1
350
2F9
  3
A2
350
2FA
  3
A3
350
2FB
  3
A4
350
2FC
  3
A5
350
2FD
  3
A6
350
2FE
  3
A7
350
2FF
  3
A8
350
300
  3
A9
350
301
  3
B0
350
302
  3
B1
350
303
  3
B2
350
304
  3
B3
350
305
  3
B4
350
306
  3
B5
350
307
  3
B6
350
308
  3
B7
350
309
  3
B8
350
30A
  3
B9
350
30B
  3
C0
350
30C
  3
C1
350
30D
  3
C2
350
30E
  3
C3
350
30F
  3
C4
350
310
  3
C5
350
311
  3
C6
350
312
  3
C7
350
313
  3
C8
350
314
  3
C9
350
315
  3
D0
350
316
  3
D1
350
317
  3
D2
350
318
  0
DICTIONARY
  5
39B
102
{ACAD_REACTORS
330
C
102
}
330
C
100
AcDbDictionary
281
     1
  0
DICTIONARY
  5
393
102
{ACAD_REACTORS
330
C
102
}
330
C
100
AcDbDictionary
281
     1
  3
Standard
350
394
  0
DICTIONARY
  5
31C
102
{ACAD_REACTORS
330
C
102
}
330
C
100
AcDbDictionary
281
     1
  3
2dWireframe
350
321
  3
3D Hidden
350
323
  3
3dWireframe
350
322
  3
Basic
350
324
  3
Brighten
350
328
  3
ColorChange
350
32C
  3
Conceptual
350
326
  3
Dim
350
327
  3
EdgeColorOff
350
38D
  3
Facepattern
350
32B
  3
Flat
350
31D
  3
FlatWithEdges
350
31E
  3
Gouraud
350
31F
  3
GouraudWithEdges
350
320
  3
Hidden
350
38A
  3
JitterOff
350
38B
  3
Linepattern
350
32A
  3
OverhangOff
350
38C
  3
Realistic
350
325
  3
Shaded
350
392
  3
Shaded with edges
350
391
  3
Shades of Gray
350
38E
  3
Sketchy
350
38F
  3
Thicken
350
329
  3
Wireframe
350
389
  3
X-Ray
350
390
  0
XRECORD
  5
413
102
{ACAD_REACTORS
330
C
102
}
330
C
100
AcDbXrecord
280
     1
 90
        1
330
394
  0
DICTIONARY
  5
342
102
{ACAD_REACTORS
330
C
102
}
330
C
100
AcDbDictionary
281
     1
  3
CANNOSCALE
350
397
  3
CMLEADERSTYLE
350
399
  3
CTABLESTYLE
350
398
  3
DIMASSOC
350
346
  3
HIDETEXT
350
347
  3
MSLTSCALE
350
345
  0
DICTIONARY
  5
396
102
{ACAD_REACTORS
330
C
102
}
330
C
100
AcDbDictionary
281
     1
  0
DICTIONARY
  5
39D
102
{ACAD_REACTORS
330
39C
102
}
330
39C
100
AcDbDictionary
281
     1
  3
_LAYISO_STATE
350
3C4
1001
AcLayerTools
1000
31A
1000
29
  0
LAYOUT
  5
31B
102
{ACAD_REACTORS
330
319
102
}
330
319
100
AcDbPlotSettings
  1

  2
none_device
  4

  6

 40
0.0
 41
0.0
 42
0.0
 43
0.0
 44
0.0
 45
0.0
 46
0.0
 47
0.0
 48
0.0
 49
0.0
140
0.0
141
0.0
142
1.0
143
1.0
 70
   688
 72
     0
 73
     0
 74
     5
  7

 75
    16
 76
     0
 77
     2
 78
   300
147
1.0
148
0.0
149
0.0
100
AcDbLayout
  1
Layout1
 70
     1
 71
     1
 10
0.0
 20
0.0
 11
420.0
 21
297.0
 12
0.0
 22
0.0
 32
0.0
 14
1.000000000000000E+20
 24
1.000000000000000E+20
 34
1.000000000000000E+20
 15
-1.000000000000000E+20
 25
-1.000000000000000E+20
 35
-1.000000000000000E+20
146
0.0
 13
0.0
 23
0.0
 33
0.0
 16
1.0
 26
0.0
 36
0.0
 17
0.0
 27
1.0
 37
0.0
 76
     0
330
1B
  0
LAYOUT
  5
31A
102
{ACAD_REACTORS
330
319
102
}
330
319
100
AcDbPlotSettings
  1

  2
none_device
  4

  6

 40
0.0
 41
0.0
 42
0.0
 43
0.0
 44
0.0
 45
0.0
 46
0.0
 47
0.0
 48
0.0
 49
0.0
140
0.0
141
0.0
142
1.0
143
1.0
 70
  1712
 72
     0
 73
     0
 74
     0
  7

 75
     0
 76
     0
 77
     2
 78
   300
147
1.0
148
0.0000001104899866
149
0.0
100
AcDbLayout
  1
Model
 70
     1
 71
     0
 10
0.0
 20
0.0
 11
210.0
 21
297.0
 12
0.0
 22
0.0
 32
0.0
 14
-75.08036514972358
 24
-113.9512230015523
 34
0.0
 15
154.4356409478371
 25
110.0626870594233
 35
0.0
146
0.0
 13
0.0
 23
0.0
 33
0.0
 16
1.0
 26
0.0
 36
0.0
 17
0.0
 27
1.0
 37
0.0
 76
     0
330
1F
331
29
  0
MATERIAL
  5
32F
102
{ACAD_REACTORS
330
32D
102
}
330
32D
100
AcDbMaterial
  1
ByBlock
 72
     1
 94
      127
  0
MATERIAL
  5
32E
102
{ACAD_REACTORS
330
32D
102
}
330
32D
100
AcDbMaterial
  1
ByLayer
 72
     1
 94
      127
  0
MATERIAL
  5
330
102
{ACAD_REACTORS
330
32D
102
}
330
32D
100
AcDbMaterial
  1
Global
 72
     1
 94
      127
  0
MLEADERSTYLE
  5
395
102
{ACAD_REACTORS
330
344
102
}
330
344
100
AcDbMLeaderStyle
179
     2
170
     2
171
     1
172
     0
 90
        2
 40
0.0
 41
0.0
173
     1
 91
-1056964608
340
14
 92
       -2
290
     1
 42
2.0
291
     1
 43
8.0
  3
Standard
341
0
 44
4.0
300

342
11
174
     1
178
     1
175
     1
176
     0
 93
-1056964608
 45
4.0
292
     0
297
     0
 46
4.0
343
0
 94
-1056964608
 47
1.0
 49
1.0
140
1.0
293
     1
141
0.0
294
     1
177
     0
142
1.0
295
     0
296
     0
143
3.75
271
     0
272
     9
273
     9
298
     0
  0
MLINESTYLE
  5
18
102
{ACAD_REACTORS
330
17
102
}
330
17
100
AcDbMlineStyle
  2
Standard
 70
     0
  3

 62
   256
 51
90.0
 52
90.0
 71
     2
 49
0.5
 62
   256
  6
BYLAYER
 49
-0.5
 62
   256
  6
BYLAYER
  0
ACDBPLACEHOLDER
  5
388
102
{ACAD_REACTORS
330
387
102
}
330
387
  0
SCALE
  5
2F8
102
{ACAD_REACTORS
330
2F7
102
}
330
2F7
100
AcDbScale
 70
     0
300
1:1
140
1.0
141
1.0
290
     1
  0
SCALE
  5
2F9
102
{ACAD_REACTORS
330
2F7
102
}
330
2F7
100
AcDbScale
 70
     0
300
1:2
140
1.0
141
2.0
290
     0
  0
SCALE
  5
2FA
102
{ACAD_REACTORS
330
2F7
102
}
330
2F7
100
AcDbScale
 70
     0
300
1:4
140
1.0
141
4.0
290
     0
  0
SCALE
  5
2FB
102
{ACAD_REACTORS
330
2F7
102
}
330
2F7
100
AcDbScale
 70
     0
300
1:5
140
1.0
141
5.0
290
     0
  0
SCALE
  5
2FC
102
{ACAD_REACTORS
330
2F7
102
}
330
2F7
100
AcDbScale
 70
     0
300
1:8
140
1.0
141
8.0
290
     0
  0
SCALE
  5
2FD
102
{ACAD_REACTORS
330
2F7
102
}
330
2F7
100
AcDbScale
 70
     0
300
1:10
140
1.0
141
10.0
290
     0
  0
SCALE
  5
2FE
102
{ACAD_REACTORS
330
2F7
102
}
330
2F7
100
AcDbScale
 70
     0
300
1:16
140
1.0
141
16.0
290
     0
  0
SCALE
  5
2FF
102
{ACAD_REACTORS
330
2F7
102
}
330
2F7
100
AcDbScale
 70
     0
300
1:20
140
1.0
141
20.0
290
     0
  0
SCALE
  5
300
102
{ACAD_REACTORS
330
2F7
102
}
330
2F7
100
AcDbScale
 70
     0
300
1:30
140
1.0
141
30.0
290
     0
  0
SCALE
  5
301
102
{ACAD_REACTORS
330
2F7
102
}
330
2F7
100
AcDbScale
 70
     0
300
1:40
140
1.0
141
40.0
290
     0
  0
SCALE
  5
302
102
{ACAD_REACTORS
330
2F7
102
}
330
2F7
100
AcDbScale
 70
     0
300
1:50
140
1.0
141
50.0
290
     0
  0
SCALE
  5
303
102
{ACAD_REACTORS
330
2F7
102
}
330
2F7
100
AcDbScale
 70
     0
300
1:100
140
1.0
141
100.0
290
     0
  0
SCALE
  5
304
102
{ACAD_REACTORS
330
2F7
102
}
330
2F7
100
AcDbScale
 70
     0
300
2:1
140
2.0
141
1.0
290
     0
  0
SCALE
  5
305
102
{ACAD_REACTORS
330
2F7
102
}
330
2F7
100
AcDbScale
 70
     0
300
4:1
140
4.0
141
1.0
290
     0
  0
SCALE
  5
306
102
{ACAD_REACTORS
330
2F7
102
}
330
2F7
100
AcDbScale
 70
     0
300
8:1
140
8.0
141
1.0
290
     0
  0
SCALE
  5
307
102
{ACAD_REACTORS
330
2F7
102
}
330
2F7
100
AcDbScale
 70
     0
300
10:1
140
10.0
141
1.0
290
     0
  0
SCALE
  5
308
102
{ACAD_REACTORS
330
2F7
102
}
330
2F7
100
AcDbScale
 70
     0
300
100:1
140
100.0
141
1.0
290
     0
  0
SCALE
  5
309
102
{ACAD_REACTORS
330
2F7
102
}
330
2F7
100
AcDbScale
 70
     0
300
1/128" = 1'-0"
140
0.0078125
141
12.0
290
     0
  0
SCALE
  5
30A
102
{ACAD_REACTORS
330
2F7
102
}
330
2F7
100
AcDbScale
 70
     0
300
1/64" = 1'-0"
140
0.015625
141
12.0
290
     0
  0
SCALE
  5
30B
102
{ACAD_REACTORS
330
2F7
102
}
330
2F7
100
AcDbScale
 70
     0
300
1/32" = 1'-0"
140
0.03125
141
12.0
290
     0
  0
SCALE
  5
30C
102
{ACAD_REACTORS
330
2F7
102
}
330
2F7
100
AcDbScale
 70
     0
300
1/16" = 1'-0"
140
0.0625
141
12.0
290
     0
  0
SCALE
  5
30D
102
{ACAD_REACTORS
330
2F7
102
}
330
2F7
100
AcDbScale
 70
     0
300
3/32" = 1'-0"
140
0.09375
141
12.0
290
     0
  0
SCALE
  5
30E
102
{ACAD_REACTORS
330
2F7
102
}
330
2F7
100
AcDbScale
 70
     0
300
1/8" = 1'-0"
140
0.125
141
12.0
290
     0
  0
SCALE
  5
30F
102
{ACAD_REACTORS
330
2F7
102
}
330
2F7
100
AcDbScale
 70
     0
300
3/16" = 1'-0"
140
0.1875
141
12.0
290
     0
  0
SCALE
  5
310
102
{ACAD_REACTORS
330
2F7
102
}
330
2F7
100
AcDbScale
 70
     0
300
1/4" = 1'-0"
140
0.25
141
12.0
290
     0
  0
SCALE
  5
311
102
{ACAD_REACTORS
330
2F7
102
}
330
2F7
100
AcDbScale
 70
     0
300
3/8" = 1'-0"
140
0.375
141
12.0
290
     0
  0
SCALE
  5
312
102
{ACAD_REACTORS
330
2F7
102
}
330
2F7
100
AcDbScale
 70
     0
300
1/2" = 1'-0"
140
0.5
141
12.0
290
     0
  0
SCALE
  5
313
102
{ACAD_REACTORS
330
2F7
102
}
330
2F7
100
AcDbScale
 70
     0
300
3/4" = 1'-0"
140
0.75
141
12.0
290
     0
  0
SCALE
  5
314
102
{ACAD_REACTORS
330
2F7
102
}
330
2F7
100
AcDbScale
 70
     0
300
1" = 1'-0"
140
1.0
141
12.0
290
     0
  0
SCALE
  5
315
102
{ACAD_REACTORS
330
2F7
102
}
330
2F7
100
AcDbScale
 70
     0
300
1-1/2" = 1'-0"
140
1.5
141
12.0
290
     0
  0
SCALE
  5
316
102
{ACAD_REACTORS
330
2F7
102
}
330
2F7
100
AcDbScale
 70
     0
300
3" = 1'-0"
140
3.0
141
12.0
290
     0
  0
SCALE
  5
317
102
{ACAD_REACTORS
330
2F7
102
}
330
2F7
100
AcDbScale
 70
     0
300
6" = 1'-0"
140
6.0
141
12.0
290
     0
  0
SCALE
  5
318
102
{ACAD_REACTORS
330
2F7
102
}
330
2F7
100
AcDbScale
 70
     0
300
1'-0" = 1'-0"
140
12.0
141
12.0
290
     0
  0
TABLESTYLE
  5
394
102
{ACAD_REACTORS
330
393
102
}
102
{ACAD_XDICTIONARY
360
411
102
}
330
393
100
AcDbTableStyle
  3
Standard
 70
     0
 71
     0
 40
1.5
 41
1.5
280
     0
281
     0
  7
STANDARD
140
4.5
170
     2
 62
     0
 63
   257
283
     0
 90
        4
 91
        0
  1

274
    -2
284
     1
 64
     0
275
    -2
285
     1
 65
     0
276
    -2
286
     1
 66
     0
277
    -2
287
     1
 67
     0
278
    -2
288
     1
 68
     0
279
    -2
289
     1
 69
     0
  7
STANDARD
140
6.0
170
     5
 62
     0
 63
   257
283
     0
 90
        4
 91
        0
  1

274
    -2
284
     1
 64
     0
275
    -2
285
     1
 65
     0
276
    -2
286
     1
 66
     0
277
    -2
287
     1
 67
     0
278
    -2
288
     1
 68
     0
279
    -2
289
     1
 69
     0
  7
STANDARD
140
4.5
170
     5
 62
     0
 63
   257
283
     0
 90
        4
 91
        0
  1

274
    -2
284
     1
 64
     0
275
    -2
285
     1
 65
     0
276
    -2
286
     1
 66
     0
277
    -2
287
     1
 67
     0
278
    -2
288
     1
 68
     0
279
    -2
289
     1
 69
     0
  0
VISUALSTYLE
  5
321
102
{ACAD_REACTORS
330
31C
102
}
330
31C
100
AcDbVisualStyle
  2
2dWireframe
 70
     4
177
     3
291
     0
 70
    58
 90
        0
176
     1
 90
        2
176
     1
 90
        0
176
     1
 90
        0
176
     1
 40
-0.6
176
     1
 40
-30.0
176
     1
 62
     7
176
     1
 90
        1
176
     1
 90
        4
176
     1
 62
     7
176
     1
 62
   257
176
     1
 90
        1
176
     1
 90
        1
176
     1
 40
1.0
176
     1
 90
        0
176
     1
 62
   257
176
     1
 40
1.0
176
     1
 90
        1
176
     1
 90
        6
176
     1
 90
        2
176
     1
 62
     7
176
     1
 90
        5
176
     1
 90
        0
176
     1
 90
        0
176
     1
290
     0
176
     1
 90
        1
176
     1
 40
0.0
176
     1
 90
        0
176
     1
290
     1
176
     1
290
     1
176
     1
290
     0
176
     1
290
     0
176
     1
290
     0
176
     1
290
     0
176
     1
290
     0
176
     1
290
     0
176
     1
290
     0
176
     1
 90
       50
176
     1
 40
0.0
176
     1
 40
1.0
176
     1
 90
        0
176
     1
 62
    18
420
        0
176
     1
 90
       50
176
     1
 90
        3
176
     1
 62
     5
420
      255
176
     1
290
     0
176
     1
 90
       50
176
     1
 90
       50
176
     1
 90
       50
176
     1
290
     0
176
     1
 90
       50
176
     1
 62
   256
176
     0
 40
1.0
176
     0
 90
        2
176
     1
  1
strokes_ogs.tif
176
     1
290
     0
176
     1
 40
1.0
176
     1
 40
1.0
176
     1
  0
VISUALSTYLE
  5
323
102
{ACAD_REACTORS
330
31C
102
}
330
31C
100
AcDbVisualStyle
  2
3D Hidden
 70
     6
177
     3
291
     0
 70
    58
 90
        1
176
     1
 90
        2
176
     1
 90
        2
176
     1
 90
        0
176
     1
 40
-0.6
176
     1
 40
-30.0
176
     1
 62
     7
176
     1
 90
        2
176
     1
 90
        2
176
     1
 62
     7
176
     1
 62
   257
176
     1
 90
        2
176
     1
 90
        1
176
     1
 40
40.0
176
     1
 90
        0
176
     1
 62
   257
176
     1
 40
1.0
176
     1
 90
        1
176
     1
 90
        6
176
     1
 90
        2
176
     1
 62
     7
176
     1
 90
        3
176
     1
 90
        0
176
     1
 90
        0
176
     1
290
     0
176
     1
 90
        1
176
     1
 40
0.0
176
     1
 90
        0
176
     1
290
     0
176
     1
290
     1
176
     1
290
     1
176
     1
290
     0
176
     1
290
     0
176
     1
290
     0
176
     1
290
     0
176
     1
290
     0
176
     1
290
     0
176
     1
 90
       50
176
     1
 40
0.0
176
     1
 40
1.0
176
     1
 90
        0
176
     1
 62
    18
420
        0
176
     1
 90
       50
176
     1
 90
        3
176
     1
 62
     5
420
      255
176
     1
290
     0
176
     1
 90
       50
176
     1
 90
       50
176
     1
 90
       50
176
     1
290
     0
176
     1
 90
       50
176
     1
 62
   256
176
     0
 40
1.0
176
     0
 90
        2
176
     1
  1
strokes_ogs.tif
176
     1
290
     0
176
     1
 40
1.0
176
     1
 40
1.0
176
     1
  0
VISUALSTYLE
  5
322
102
{ACAD_REACTORS
330
31C
102
}
330
31C
100
AcDbVisualStyle
  2
3dWireframe
 70
     5
177
     3
291
     0
 70
    58
 90
        0
176
     1
 90
        2
176
     1
 90
        0
176
     1
 90
        0
176
     1
 40
-0.6
176
     1
 40
-30.0
176
     1
 62
     7
176
     1
 90
        1
176
     1
 90
        4
176
     1
 62
     7
176
     1
 62
   257
176
     1
 90
        1
176
     1
 90
        1
176
     1
 40
1.0
176
     1
 90
        0
176
     1
 62
   257
176
     1
 40
1.0
176
     1
 90
        1
176
     1
 90
        6
176
     1
 90
        2
176
     1
 62
     7
176
     1
 90
        5
176
     1
 90
        0
176
     1
 90
        0
176
     1
290
     0
176
     1
 90
        1
176
     1
 40
0.0
176
     1
 90
        0
176
     1
290
     0
176
     1
290
     1
176
     1
290
     1
176
     1
290
     0
176
     1
290
     0
176
     1
290
     0
176
     1
290
     0
176
     1
290
     0
176
     1
290
     0
176
     1
 90
       50
176
     1
 40
0.0
176
     1
 40
1.0
176
     1
 90
        0
176
     1
 62
    18
420
        0
176
     1
 90
       50
176
     1
 90
        3
176
     1
 62
     5
420
      255
176
     1
290
     0
176
     1
 90
       50
176
     1
 90
       50
176
     1
 90
       50
176
     1
290
     0
176
     1
 90
       50
176
     1
 62
   256
176
     0
 40
1.0
176
     0
 90
        2
176
     1
  1
strokes_ogs.tif
176
     1
290
     0
176
     1
 40
1.0
176
     1
 40
1.0
176
     1
  0
VISUALSTYLE
  5
324
102
{ACAD_REACTORS
330
31C
102
}
330
31C
100
AcDbVisualStyle
  2
Basic
 70
     7
177
     3
291
     1
 70
    58
 90
        1
176
     1
 90
        0
176
     1
 90
        1
176
     1
 90
        0
176
     1
 40
-0.6
176
     1
 40
-30.0
176
     1
 62
     7
176
     1
 90
        0
176
     1
 90
        4
176
     1
 62
     7
176
     1
 62
   257
176
     1
 90
        1
176
     1
 90
        1
176
     1
 40
1.0
176
     1
 90
        8
176
     1
 62
     7
176
     1
 40
1.0
176
     1
 90
        1
176
     1
 90
        6
176
     1
 90
        2
176
     1
 62
     7
176
     1
 90
        5
176
     1
 90
        0
176
     1
 90
        0
176
     1
290
     0
176
     1
 90
        1
176
     1
 40
0.0
176
     1
 90
        0
176
     1
290
     0
176
     1
290
     1
176
     1
290
     1
176
     1
290
     0
176
     1
290
     0
176
     1
290
     0
176
     1
290
     0
176
     1
290
     0
176
     1
290
     0
176
     1
 90
       50
176
     1
 40
0.0
176
     1
 40
1.0
176
     1
 90
        0
176
     1
 62
    18
420
        0
176
     1
 90
       50
176
     1
 90
        3
176
     1
 62
     5
420
      255
176
     1
290
     0
176
     1
 90
       50
176
     1
 90
       50
176
     1
 90
       50
176
     1
290
     0
176
     1
 90
       50
176
     1
 62
   256
176
     0
 40
1.0
176
     0
 90
        2
176
     1
  1
strokes_ogs.tif
176
     1
290
     0
176
     1
 40
1.0
176
     1
 40
1.0
176
     1
  0
VISUALSTYLE
  5
328
102
{ACAD_REACTORS
330
31C
102
}
330
31C
100
AcDbVisualStyle
  2
Brighten
 70
    12
177
     3
291
     1
 70
    58
 90
        2
176
     1
 90
        2
176
     1
 90
        0
176
     1
 90
        0
176
     1
 40
-0.6
176
     1
 40
-30.0
176
     1
 62
     7
176
     1
 90
        1
176
     1
 90
        4
176
     1
 62
     7
176
     1
 62
   257
176
     1
 90
        1
176
     1
 90
        1
176
     1
 40
1.0
176
     1
 90
        8
176
     1
 62
     7
176
     1
 40
1.0
176
     1
 90
        1
176
     1
 90
        6
176
     1
 90
        2
176
     1
 62
     7
176
     1
 90
        5
176
     1
 90
        0
176
     1
 90
        0
176
     1
290
     0
176
     1
 90
        1
176
     1
 40
50.0
176
     1
 90
        0
176
     1
290
     0
176
     1
290
     1
176
     1
290
     1
176
     1
290
     0
176
     1
290
     0
176
     1
290
     0
176
     1
290
     0
176
     1
290
     0
176
     1
290
     0
176
     1
 90
       50
176
     1
 40
0.0
176
     1
 40
1.0
176
     1
 90
        0
176
     1
 62
    18
420
        0
176
     1
 90
       50
176
     1
 90
        3
176
     1
 62
     5
420
      255
176
     1
290
     0
176
     1
 90
       50
176
     1
 90
       50
176
     1
 90
       50
176
     1
290
     0
176
     1
 90
       50
176
     1
 62
   256
176
     0
 40
1.0
176
     0
 90
        2
176
     1
  1
strokes_ogs.tif
176
     1
290
     0
176
     1
 40
1.0
176
     1
 40
1.0
176
     1
  0
VISUALSTYLE
  5
32C
102
{ACAD_REACTORS
330
31C
102
}
330
31C
100
AcDbVisualStyle
  2
ColorChange
 70
    16
177
     3
291
     1
 70
    58
 90
        2
176
     1
 90
        2
176
     1
 90
        3
176
     1
 90
        0
176
     1
 40
-0.6
176
     1
 40
-30.0
176
     1
 62
     8
176
     1
 90
        1
176
     1
 90
        4
176
     1
 62
     7
176
     1
 62
   257
176
     1
 90
        1
176
     1
 90
        1
176
     1
 40
1.0
176
     1
 90
        8
176
     1
 62
     8
176
     1
 40
1.0
176
     1
 90
        1
176
     1
 90
        6
176
     1
 90
        2
176
     1
 62
     7
176
     1
 90
        5
176
     1
 90
        0
176
     1
 90
        0
176
     1
290
     0
176
     1
 90
        1
176
     1
 40
0.0
176
     1
 90
        0
176
     1
290
     0
176
     1
290
     1
176
     1
290
     1
176
     1
290
     0
176
     1
290
     0
176
     1
290
     0
176
     1
290
     0
176
     1
290
     0
176
     1
290
     0
176
     1
 90
       50
176
     1
 40
0.0
176
     1
 40
1.0
176
     1
 90
        0
176
     1
 62
    18
420
        0
176
     1
 90
       50
176
     1
 90
        3
176
     1
 62
     5
420
      255
176
     1
290
     0
176
     1
 90
       50
176
     1
 90
       50
176
     1
 90
       50
176
     1
290
     0
176
     1
 90
       50
176
     1
 62
   256
176
     0
 40
1.0
176
     0
 90
        2
176
     1
  1
strokes_ogs.tif
176
     1
290
     0
176
     1
 40
1.0
176
     1
 40
1.0
176
     1
  0
VISUALSTYLE
  5
326
102
{ACAD_REACTORS
330
31C
102
}
330
31C
100
AcDbVisualStyle
  2
Conceptual
 70
     9
177
     3
291
     0
 70
    58
 90
        3
176
     1
 90
        2
176
     1
 90
        0
176
     1
 90
        0
176
     1
 40
-0.6
176
     1
 40
-30.0
176
     1
 62
     7
176
     1
 90
        2
176
     1
 90
        2
176
     1
 62
     7
176
     1
 62
   257
176
     1
 90
        1
176
     1
 90
        1
176
     1
 40
40.0
176
     1
 90
        8
176
     1
 62
     7
176
     1
 40
1.0
176
     1
 90
        1
176
     1
 90
        6
176
     1
 90
        2
176
     1
 62
     7
176
     1
 90
        3
176
     1
 90
        0
176
     1
 90
        0
176
     1
290
     0
176
     1
 90
        1
176
     1
 40
0.0
176
     1
 90
        0
176
     1
290
     0
176
     1
290
     1
176
     1
290
     1
176
     1
290
     0
176
     1
290
     0
176
     1
290
     0
176
     1
290
     0
176
     1
290
     0
176
     1
290
     0
176
     1
 90
       50
176
     1
 40
0.0
176
     1
 40
1.0
176
     1
 90
        0
176
     1
 62
    18
420
        0
176
     1
 90
       50
176
     1
 90
        3
176
     1
 62
     5
420
      255
176
     1
290
     0
176
     1
 90
       50
176
     1
 90
       50
176
     1
 90
       50
176
     1
290
     0
176
     1
 90
       50
176
     1
 62
   256
176
     0
 40
1.0
176
     0
 90
        2
176
     1
  1
strokes_ogs.tif
176
     1
290
     0
176
     1
 40
1.0
176
     1
 40
1.0
176
     1
  0
VISUALSTYLE
  5
327
102
{ACAD_REACTORS
330
31C
102
}
330
31C
100
AcDbVisualStyle
  2
Dim
 70
    11
177
     3
291
     1
 70
    58
 90
        2
176
     1
 90
        2
176
     1
 90
        0
176
     1
 90
        0
176
     1
 40
-0.6
176
     1
 40
-30.0
176
     1
 62
     7
176
     1
 90
        1
176
     1
 90
        4
176
     1
 62
     7
176
     1
 62
   257
176
     1
 90
        1
176
     1
 90
        1
176
     1
 40
1.0
176
     1
 90
        8
176
     1
 62
     7
176
     1
 40
1.0
176
     1
 90
        1
176
     1
 90
        6
176
     1
 90
        2
176
     1
 62
     7
176
     1
 90
        5
176
     1
 90
        0
176
     1
 90
        0
176
     1
290
     0
176
     1
 90
        1
176
     1
 40
-50.0
176
     1
 90
        0
176
     1
290
     0
176
     1
290
     1
176
     1
290
     1
176
     1
290
     0
176
     1
290
     0
176
     1
290
     0
176
     1
290
     0
176
     1
290
     0
176
     1
290
     0
176
     1
 90
       50
176
     1
 40
0.0
176
     1
 40
1.0
176
     1
 90
        0
176
     1
 62
    18
420
        0
176
     1
 90
       50
176
     1
 90
        3
176
     1
 62
     5
420
      255
176
     1
290
     0
176
     1
 90
       50
176
     1
 90
       50
176
     1
 90
       50
176
     1
290
     0
176
     1
 90
       50
176
     1
 62
   256
176
     0
 40
1.0
176
     0
 90
        2
176
     1
  1
strokes_ogs.tif
176
     1
290
     0
176
     1
 40
1.0
176
     1
 40
1.0
176
     1
  0
VISUALSTYLE
  5
38D
102
{ACAD_REACTORS
330
31C
102
}
330
31C
100
AcDbVisualStyle
  2
EdgeColorOff
 70
    22
177
     3
291
     1
 70
    58
 90
        2
176
     0
 90
        2
176
     0
 90
        0
176
     0
 90
        0
176
     0
 40
0.6
176
     0
 40
30.0
176
     0
 62
     7
420
 16777215
176
     0
 90
        1
176
     0
 90
        4
176
     0
 62
     7
176
     0
 62
   257
176
     0
 90
        1
176
     0
 90
        1
176
     0
 40
1.0
176
     0
 90
        8
176
     2
 62
     7
176
     0
 40
1.0
176
     0
 90
        1
176
     0
 90
        6
176
     0
 90
        2
176
     0
 62
     7
176
     0
 90
        5
176
     0
 90
        0
176
     0
 90
        0
176
     0
290
     0
176
     0
 90
        1
176
     0
 40
0.0
176
     0
 90
        0
176
     0
290
     0
176
     0
290
     1
176
     0
290
     1
176
     0
290
     0
176
     0
290
     0
176
     0
290
     0
176
     0
290
     0
176
     0
290
     0
176
     0
290
     0
176
     0
 90
       50
176
     0
 40
0.0
176
     0
 40
1.0
176
     0
 90
        0
176
     0
 62
    18
420
        0
176
     0
 90
       50
176
     0
 90
        3
176
     0
 62
     5
420
      255
176
     0
290
     0
176
     0
 90
       50
176
     0
 90
       50
176
     0
 90
       50
176
     0
290
     0
176
     0
 90
       50
176
     0
 62
   256
176
     0
 40
1.0
176
     0
 90
        2
176
     0
  1
strokes_ogs.tif
176
     0
290
     0
176
     0
 40
1.0
176
     0
 40
1.0
176
     0
  0
VISUALSTYLE
  5
32B
102
{ACAD_REACTORS
330
31C
102
}
330
31C
100
AcDbVisualStyle
  2
Facepattern
 70
    15
177
     3
291
     1
 70
    58
 90
        2
176
     1
 90
        2
176
     1
 90
        0
176
     1
 90
        0
176
     1
 40
-0.6
176
     1
 40
-30.0
176
     1
 62
     7
176
     1
 90
        1
176
     1
 90
        4
176
     1
 62
     7
176
     1
 62
   257
176
     1
 90
        1
176
     1
 90
        1
176
     1
 40
1.0
176
     1
 90
        8
176
     1
 62
     7
176
     1
 40
1.0
176
     1
 90
        1
176
     1
 90
        6
176
     1
 90
        2
176
     1
 62
     7
176
     1
 90
        5
176
     1
 90
        0
176
     1
 90
        0
176
     1
290
     0
176
     1
 90
        1
176
     1
 40
0.0
176
     1
 90
        0
176
     1
290
     0
176
     1
290
     1
176
     1
290
     1
176
     1
290
     0
176
     1
290
     0
176
     1
290
     0
176
     1
290
     0
176
     1
290
     0
176
     1
290
     0
176
     1
 90
       50
176
     1
 40
0.0
176
     1
 40
1.0
176
     1
 90
        0
176
     1
 62
    18
420
        0
176
     1
 90
       50
176
     1
 90
        3
176
     1
 62
     5
420
      255
176
     1
290
     0
176
     1
 90
       50
176
     1
 90
       50
176
     1
 90
       50
176
     1
290
     0
176
     1
 90
       50
176
     1
 62
   256
176
     0
 40
1.0
176
     0
 90
        2
176
     1
  1
strokes_ogs.tif
176
     1
290
     0
176
     1
 40
1.0
176
     1
 40
1.0
176
     1
  0
VISUALSTYLE
  5
31D
102
{ACAD_REACTORS
330
31C
102
}
330
31C
100
AcDbVisualStyle
  2
Flat
 70
     0
177
     3
291
     1
 70
    58
 90
        2
176
     1
 90
        1
176
     1
 90
        1
176
     1
 90
        2
176
     1
 40
-0.6
176
     1
 40
30.0
176
     1
 62
     7
176
     1
 90
        0
176
     1
 90
        4
176
     1
 62
     7
176
     1
 62
   257
176
     1
 90
        1
176
     1
 90
        1
176
     1
 40
1.0
176
     1
 90
        8
176
     1
 62
     7
176
     1
 40
1.0
176
     1
 90
        1
176
     1
 90
        6
176
     1
 90
        2
176
     1
 62
     7
176
     1
 90
        5
176
     1
 90
        0
176
     1
 90
        0
176
     1
290
     0
176
     1
 90
       13
176
     1
 40
0.0
176
     1
 90
        0
176
     1
290
     0
176
     1
290
     1
176
     1
290
     1
176
     1
290
     0
176
     1
290
     0
176
     1
290
     0
176
     1
290
     0
176
     1
290
     0
176
     1
290
     0
176
     1
 90
       50
176
     1
 40
0.0
176
     1
 40
1.0
176
     1
 90
        0
176
     1
 62
    18
420
        0
176
     1
 90
       50
176
     1
 90
        3
176
     1
 62
     5
420
      255
176
     1
290
     0
176
     1
 90
       50
176
     1
 90
       50
176
     1
 90
       50
176
     1
290
     0
176
     1
 90
       50
176
     1
 62
   256
176
     0
 40
1.0
176
     0
 90
        2
176
     1
  1
strokes_ogs.tif
176
     1
290
     0
176
     1
 40
1.0
176
     1
 40
1.0
176
     1
  0
VISUALSTYLE
  5
31E
102
{ACAD_REACTORS
330
31C
102
}
330
31C
100
AcDbVisualStyle
  2
FlatWithEdges
 70
     1
177
     3
291
     1
 70
    58
 90
        2
176
     1
 90
        1
176
     1
 90
        1
176
     1
 90
        2
176
     1
 40
-0.6
176
     1
 40
30.0
176
     1
 62
     7
176
     1
 90
        1
176
     1
 90
        4
176
     1
 62
     7
176
     1
 62
   257
176
     1
 90
        1
176
     1
 90
        1
176
     1
 40
1.0
176
     1
 90
        0
176
     1
 62
   257
176
     1
 40
1.0
176
     1
 90
        1
176
     1
 90
        6
176
     1
 90
        2
176
     1
 62
     7
176
     1
 90
        5
176
     1
 90
        0
176
     1
 90
        0
176
     1
290
     0
176
     1
 90
       13
176
     1
 40
0.0
176
     1
 90
        0
176
     1
290
     0
176
     1
290
     1
176
     1
290
     1
176
     1
290
     0
176
     1
290
     0
176
     1
290
     0
176
     1
290
     0
176
     1
290
     0
176
     1
290
     0
176
     1
 90
       50
176
     1
 40
0.0
176
     1
 40
1.0
176
     1
 90
        0
176
     1
 62
    18
420
        0
176
     1
 90
       50
176
     1
 90
        3
176
     1
 62
     5
420
      255
176
     1
290
     0
176
     1
 90
       50
176
     1
 90
       50
176
     1
 90
       50
176
     1
290
     0
176
     1
 90
       50
176
     1
 62
   256
176
     0
 40
1.0
176
     0
 90
        2
176
     1
  1
strokes_ogs.tif
176
     1
290
     0
176
     1
 40
1.0
176
     1
 40
1.0
176
     1
  0
VISUALSTYLE
  5
31F
102
{ACAD_REACTORS
330
31C
102
}
330
31C
100
AcDbVisualStyle
  2
Gouraud
 70
     2
177
     3
291
     1
 70
    58
 90
        2
176
     1
 90
        2
176
     1
 90
        1
176
     1
 90
        2
176
     1
 40
-0.6
176
     1
 40
30.0
176
     1
 62
     7
176
     1
 90
        0
176
     1
 90
        4
176
     1
 62
     7
176
     1
 62
   257
176
     1
 90
        1
176
     1
 90
        1
176
     1
 40
1.0
176
     1
 90
        0
176
     1
 62
     7
176
     1
 40
1.0
176
     1
 90
        1
176
     1
 90
        6
176
     1
 90
        2
176
     1
 62
     7
176
     1
 90
        5
176
     1
 90
        0
176
     1
 90
        0
176
     1
290
     0
176
     1
 90
       13
176
     1
 40
0.0
176
     1
 90
        0
176
     1
290
     0
176
     1
290
     1
176
     1
290
     1
176
     1
290
     0
176
     1
290
     0
176
     1
290
     0
176
     1
290
     0
176
     1
290
     0
176
     1
290
     0
176
     1
 90
       50
176
     1
 40
0.0
176
     1
 40
1.0
176
     1
 90
        0
176
     1
 62
    18
420
        0
176
     1
 90
       50
176
     1
 90
        3
176
     1
 62
     5
420
      255
176
     1
290
     0
176
     1
 90
       50
176
     1
 90
       50
176
     1
 90
       50
176
     1
290
     0
176
     1
 90
       50
176
     1
 62
   256
176
     0
 40
1.0
176
     0
 90
        2
176
     1
  1
strokes_ogs.tif
176
     1
290
     0
176
     1
 40
1.0
176
     1
 40
1.0
176
     1
  0
VISUALSTYLE
  5
320
102
{ACAD_REACTORS
330
31C
102
}
330
31C
100
AcDbVisualStyle
  2
GouraudWithEdges
 70
     3
177
     3
291
     1
 70
    58
 90
        2
176
     1
 90
        2
176
     1
 90
        1
176
     1
 90
        2
176
     1
 40
-0.6
176
     1
 40
30.0
176
     1
 62
     7
176
     1
 90
        1
176
     1
 90
        4
176
     1
 62
     7
176
     1
 62
   257
176
     1
 90
        1
176
     1
 90
        1
176
     1
 40
1.0
176
     1
 90
        0
176
     1
 62
   257
176
     1
 40
1.0
176
     1
 90
        1
176
     1
 90
        6
176
     1
 90
        2
176
     1
 62
     7
176
     1
 90
        5
176
     1
 90
        0
176
     1
 90
        0
176
     1
290
     0
176
     1
 90
       13
176
     1
 40
0.0
176
     1
 90
        0
176
     1
290
     0
176
     1
290
     1
176
     1
290
     1
176
     1
290
     0
176
     1
290
     0
176
     1
290
     0
176
     1
290
     0
176
     1
290
     0
176
     1
290
     0
176
     1
 90
       50
176
     1
 40
0.0
176
     1
 40
1.0
176
     1
 90
        0
176
     1
 62
    18
420
        0
176
     1
 90
       50
176
     1
 90
        3
176
     1
 62
     5
420
      255
176
     1
290
     0
176
     1
 90
       50
176
     1
 90
       50
176
     1
 90
       50
176
     1
290
     0
176
     1
 90
       50
176
     1
 62
   256
176
     0
 40
1.0
176
     0
 90
        2
176
     1
  1
strokes_ogs.tif
176
     1
290
     0
176
     1
 40
1.0
176
     1
 40
1.0
176
     1
  0
VISUALSTYLE
  5
38A
102
{ACAD_REACTORS
330
31C
102
}
330
31C
100
AcDbVisualStyle
  2
Hidden
 70
     6
177
     3
291
     0
 70
    58
 90
        1
176
     1
 90
        2
176
     1
 90
        2
176
     1
 90
        0
176
     1
 40
0.6
176
     1
 40
30.0
176
     1
 62
     7
420
 16777215
176
     1
 90
        2
176
     1
 90
        2
176
     1
 62
     7
176
     1
 62
   257
176
     1
 90
        2
176
     1
 90
        1
176
     1
 40
40.0
176
     1
 90
        0
176
     1
 62
   257
176
     1
 40
1.0
176
     1
 90
        1
176
     1
 90
        6
176
     1
 90
        2
176
     1
 62
     7
176
     1
 90
        3
176
     1
 90
        0
176
     1
 90
        0
176
     1
290
     0
176
     1
 90
        1
176
     1
 40
0.0
176
     1
 90
        0
176
     1
290
     0
176
     1
290
     1
176
     1
290
     1
176
     1
290
     0
176
     1
290
     0
176
     1
290
     0
176
     1
290
     0
176
     1
290
     0
176
     1
290
     0
176
     1
 90
       50
176
     1
 40
0.0
176
     1
 40
1.0
176
     1
 90
        0
176
     1
 62
    18
420
        0
176
     1
 90
       50
176
     1
 90
        3
176
     1
 62
     5
420
      255
176
     1
290
     0
176
     1
 90
       50
176
     1
 90
       50
176
     1
 90
       50
176
     1
290
     0
176
     1
 90
       50
176
     1
 62
   256
176
     0
 40
1.0
176
     0
 90
        2
176
     1
  1
strokes_ogs.tif
176
     1
290
     0
176
     1
 40
1.0
176
     1
 40
1.0
176
     1
  0
VISUALSTYLE
  5
38B
102
{ACAD_REACTORS
330
31C
102
}
330
31C
100
AcDbVisualStyle
  2
JitterOff
 70
    20
177
     3
291
     1
 70
    58
 90
        2
176
     0
 90
        2
176
     0
 90
        0
176
     0
 90
        0
176
     0
 40
0.6
176
     0
 40
30.0
176
     0
 62
     7
420
 16777215
176
     0
 90
        1
176
     0
 90
        4
176
     0
 62
     7
176
     0
 62
   257
176
     0
 90
        1
176
     0
 90
        1
176
     0
 40
1.0
176
     0
 90
       10
176
     2
 62
     7
176
     0
 40
1.0
176
     0
 90
        1
176
     0
 90
        6
176
     0
 90
        2
176
     0
 62
     7
176
     0
 90
        5
176
     0
 90
        0
176
     0
 90
        0
176
     0
290
     0
176
     0
 90
        1
176
     0
 40
0.0
176
     0
 90
        0
176
     0
290
     0
176
     0
290
     1
176
     0
290
     1
176
     0
290
     0
176
     0
290
     0
176
     0
290
     0
176
     0
290
     0
176
     0
290
     0
176
     0
290
     0
176
     0
 90
       50
176
     0
 40
0.0
176
     0
 40
1.0
176
     0
 90
        0
176
     0
 62
    18
420
        0
176
     0
 90
       50
176
     0
 90
        3
176
     0
 62
     5
420
      255
176
     0
290
     0
176
     0
 90
       50
176
     0
 90
       50
176
     0
 90
       50
176
     0
290
     0
176
     0
 90
       50
176
     0
 62
   256
176
     0
 40
1.0
176
     0
 90
        2
176
     0
  1
strokes_ogs.tif
176
     0
290
     0
176
     0
 40
1.0
176
     0
 40
1.0
176
     0
  0
VISUALSTYLE
  5
32A
102
{ACAD_REACTORS
330
31C
102
}
330
31C
100
AcDbVisualStyle
  2
Linepattern
 70
    14
177
     3
291
     1
 70
    58
 90
        2
176
     1
 90
        2
176
     1
 90
        0
176
     1
 90
        0
176
     1
 40
-0.6
176
     1
 40
-30.0
176
     1
 62
     7
176
     1
 90
        1
176
     1
 90
        4
176
     1
 62
     7
176
     1
 62
   257
176
     1
 90
        7
176
     1
 90
        7
176
     1
 40
1.0
176
     1
 90
        8
176
     1
 62
     7
176
     1
 40
1.0
176
     1
 90
        1
176
     1
 90
        6
176
     1
 90
        2
176
     1
 62
     7
176
     1
 90
        5
176
     1
 90
        0
176
     1
 90
        0
176
     1
290
     0
176
     1
 90
        1
176
     1
 40
0.0
176
     1
 90
        0
176
     1
290
     0
176
     1
290
     1
176
     1
290
     1
176
     1
290
     0
176
     1
290
     0
176
     1
290
     0
176
     1
290
     0
176
     1
290
     0
176
     1
290
     0
176
     1
 90
       50
176
     1
 40
0.0
176
     1
 40
1.0
176
     1
 90
        0
176
     1
 62
    18
420
        0
176
     1
 90
       50
176
     1
 90
        3
176
     1
 62
     5
420
      255
176
     1
290
     0
176
     1
 90
       50
176
     1
 90
       50
176
     1
 90
       50
176
     1
290
     0
176
     1
 90
       50
176
     1
 62
   256
176
     0
 40
1.0
176
     0
 90
        2
176
     1
  1
strokes_ogs.tif
176
     1
290
     0
176
     1
 40
1.0
176
     1
 40
1.0
176
     1
  0
VISUALSTYLE
  5
38C
102
{ACAD_REACTORS
330
31C
102
}
330
31C
100
AcDbVisualStyle
  2
OverhangOff
 70
    21
177
     3
291
     1
 70
    58
 90
        2
176
     0
 90
        2
176
     0
 90
        0
176
     0
 90
        0
176
     0
 40
0.6
176
     0
 40
30.0
176
     0
 62
     7
420
 16777215
176
     0
 90
        1
176
     0
 90
        4
176
     0
 62
     7
176
     0
 62
   257
176
     0
 90
        1
176
     0
 90
        1
176
     0
 40
1.0
176
     0
 90
        9
176
     2
 62
     7
176
     0
 40
1.0
176
     0
 90
        1
176
     0
 90
        6
176
     0
 90
        2
176
     0
 62
     7
176
     0
 90
        5
176
     0
 90
        0
176
     0
 90
        0
176
     0
290
     0
176
     0
 90
        1
176
     0
 40
0.0
176
     0
 90
        0
176
     0
290
     0
176
     0
290
     1
176
     0
290
     1
176
     0
290
     0
176
     0
290
     0
176
     0
290
     0
176
     0
290
     0
176
     0
290
     0
176
     0
290
     0
176
     0
 90
       50
176
     0
 40
0.0
176
     0
 40
1.0
176
     0
 90
        0
176
     0
 62
    18
420
        0
176
     0
 90
       50
176
     0
 90
        3
176
     0
 62
     5
420
      255
176
     0
290
     0
176
     0
 90
       50
176
     0
 90
       50
176
     0
 90
       50
176
     0
290
     0
176
     0
 90
       50
176
     0
 62
   256
176
     0
 40
1.0
176
     0
 90
        2
176
     0
  1
strokes_ogs.tif
176
     0
290
     0
176
     0
 40
1.0
176
     0
 40
1.0
176
     0
  0
VISUALSTYLE
  5
325
102
{ACAD_REACTORS
330
31C
102
}
330
31C
100
AcDbVisualStyle
  2
Realistic
 70
     8
177
     3
291
     0
 70
    58
 90
        2
176
     1
 90
        2
176
     1
 90
        0
176
     1
 90
        0
176
     1
 40
-0.6
176
     1
 40
-30.0
176
     1
 62
     7
176
     1
 90
        1
176
     1
 90
        0
176
     1
 62
     7
176
     1
 62
   257
176
     1
 90
        1
176
     1
 90
        1
176
     1
 40
1.0
176
     1
 90
        8
176
     1
 62
     8
176
     1
 40
1.0
176
     1
 90
        1
176
     1
 90
        6
176
     1
 90
        2
176
     1
 62
     7
176
     1
 90
        5
176
     1
 90
        0
176
     1
 90
        0
176
     1
290
     0
176
     1
 90
       13
176
     1
 40
0.0
176
     1
 90
        0
176
     1
290
     0
176
     1
290
     1
176
     1
290
     1
176
     1
290
     0
176
     1
290
     0
176
     1
290
     0
176
     1
290
     0
176
     1
290
     0
176
     1
290
     0
176
     1
 90
       50
176
     1
 40
0.0
176
     1
 40
1.0
176
     1
 90
        0
176
     1
 62
    18
420
        0
176
     1
 90
       50
176
     1
 90
        3
176
     1
 62
     5
420
      255
176
     1
290
     0
176
     1
 90
       50
176
     1
 90
       50
176
     1
 90
       50
176
     1
290
     0
176
     1
 90
       50
176
     1
 62
   256
176
     0
 40
1.0
176
     0
 90
        2
176
     1
  1
strokes_ogs.tif
176
     1
290
     0
176
     1
 40
1.0
176
     1
 40
1.0
176
     1
  0
VISUALSTYLE
  5
392
102
{ACAD_REACTORS
330
31C
102
}
330
31C
100
AcDbVisualStyle
  2
Shaded
 70
    27
177
     3
291
     0
 70
    58
 90
        2
176
     1
 90
        2
176
     1
 90
        1
176
     1
 90
        2
176
     1
 40
0.6
176
     1
 40
30.0
176
     1
 62
     7
420
 16777215
176
     1
 90
        0
176
     1
 90
        4
176
     1
 62
     7
176
     1
 62
   257
176
     1
 90
        1
176
     1
 90
        1
176
     1
 40
1.0
176
     1
 90
        8
176
     1
 62
   257
176
     1
 40
1.0
176
     1
 90
        1
176
     1
 90
        6
176
     1
 90
        2
176
     1
 62
     8
420
  7895160
176
     1
 90
        3
176
     1
 90
        0
176
     1
 90
        0
176
     1
290
     0
176
     1
 90
        5
176
     1
 40
0.0
176
     1
 90
        0
176
     1
290
     0
176
     1
290
     1
176
     1
290
     1
176
     1
290
     0
176
     1
290
     0
176
     1
290
     0
176
     1
290
     0
176
     1
290
     0
176
     1
290
     0
176
     1
 90
       50
176
     1
 40
0.0
176
     1
 40
1.0
176
     1
 90
        0
176
     1
 62
    18
420
        0
176
     1
 90
       50
176
     1
 90
        3
176
     1
 62
     5
420
      255
176
     1
290
     0
176
     1
 90
       50
176
     1
 90
       50
176
     1
 90
       50
176
     1
290
     0
176
     1
 90
       50
176
     1
 62
   256
176
     0
 40
1.0
176
     0
 90
        2
176
     1
  1
strokes_ogs.tif
176
     1
290
     0
176
     1
 40
1.0
176
     1
 40
1.0
176
     1
  0
VISUALSTYLE
  5
391
102
{ACAD_REACTORS
330
31C
102
}
330
31C
100
AcDbVisualStyle
  2
Shaded with edges
 70
    26
177
     3
291
     0
 70
    58
 90
        2
176
     1
 90
        2
176
     1
 90
        1
176
     1
 90
        2
176
     1
 40
0.6
176
     1
 40
30.0
176
     1
 62
     7
420
 16777215
176
     1
 90
        1
176
     1
 90
       10
176
     1
 62
     7
176
     1
 62
   257
176
     1
 90
        2
176
     1
 90
        1
176
     1
 40
1.0
176
     1
 90
        8
176
     1
 62
   257
176
     1
 40
1.0
176
     1
 90
        1
176
     1
 90
        6
176
     1
 90
        2
176
     1
 62
     7
176
     1
 90
        3
176
     1
 90
        0
176
     1
 90
        0
176
     1
290
     0
176
     1
 90
        5
176
     1
 40
0.0
176
     1
 90
        0
176
     1
290
     0
176
     1
290
     1
176
     1
290
     1
176
     1
290
     0
176
     1
290
     0
176
     1
290
     0
176
     1
290
     0
176
     1
290
     0
176
     1
290
     0
176
     1
 90
       50
176
     1
 40
0.0
176
     1
 40
1.0
176
     1
 90
        0
176
     1
 62
    18
420
        0
176
     1
 90
       50
176
     1
 90
        3
176
     1
 62
     5
420
      255
176
     1
290
     0
176
     1
 90
       50
176
     1
 90
       50
176
     1
 90
       50
176
     1
290
     0
176
     1
 90
       50
176
     1
 62
   256
176
     0
 40
1.0
176
     0
 90
        2
176
     1
  1
strokes_ogs.tif
176
     1
290
     0
176
     1
 40
1.0
176
     1
 40
1.0
176
     1
  0
VISUALSTYLE
  5
38E
102
{ACAD_REACTORS
330
31C
102
}
330
31C
100
AcDbVisualStyle
  2
Shades of Gray
 70
    23
177
     3
291
     0
 70
    58
 90
        2
176
     1
 90
        2
176
     1
 90
        3
176
     1
 90
        0
176
     1
 40
0.6
176
     1
 40
30.0
176
     1
 62
     7
420
 16777215
176
     1
 90
        2
176
     1
 90
        2
176
     1
 62
     7
176
     1
 62
     7
176
     1
 90
        1
176
     1
 90
        1
176
     1
 40
40.0
176
     1
 90
        8
176
     1
 62
     7
176
     1
 40
1.0
176
     1
 90
        1
176
     1
 90
        6
176
     1
 90
        2
176
     1
 62
     7
176
     1
 90
        3
176
     1
 90
        0
176
     1
 90
        0
176
     1
290
     0
176
     1
 90
        1
176
     1
 40
0.0
176
     1
 90
        0
176
     1
290
     0
176
     1
290
     1
176
     1
290
     1
176
     1
290
     0
176
     1
290
     0
176
     1
290
     0
176
     1
290
     0
176
     1
290
     0
176
     1
290
     0
176
     1
 90
       50
176
     1
 40
0.0
176
     1
 40
1.0
176
     1
 90
        0
176
     1
 62
    18
420
        0
176
     1
 90
       50
176
     1
 90
        3
176
     1
 62
     5
420
      255
176
     1
290
     0
176
     1
 90
       50
176
     1
 90
       50
176
     1
 90
       50
176
     1
290
     0
176
     1
 90
       50
176
     1
 62
   256
176
     0
 40
1.0
176
     0
 90
        2
176
     1
  1
strokes_ogs.tif
176
     1
290
     0
176
     1
 40
1.0
176
     1
 40
1.0
176
     1
  0
VISUALSTYLE
  5
38F
102
{ACAD_REACTORS
330
31C
102
}
330
31C
100
AcDbVisualStyle
  2
Sketchy
 70
    24
177
     3
291
     0
 70
    58
 90
        1
176
     1
 90
        2
176
     1
 90
        2
176
     1
 90
        0
176
     1
 40
0.6
176
     1
 40
30.0
176
     1
 62
     7
420
 16777215
176
     1
 90
        2
176
     1
 90
        2
176
     1
 62
     7
176
     1
 62
     7
176
     1
 90
        1
176
     1
 90
        1
176
     1
 40
40.0
176
     1
 90
       11
176
     1
 62
     7
176
     1
 40
1.0
176
     1
 90
        1
176
     1
 90
        6
176
     1
 90
        2
176
     1
 62
     7
176
     1
 90
        6
176
     1
 90
        0
176
     1
 90
        0
176
     1
290
     0
176
     1
 90
        1
176
     1
 40
0.0
176
     1
 90
        0
176
     1
290
     0
176
     1
290
     1
176
     1
290
     1
176
     1
290
     0
176
     1
290
     0
176
     1
290
     0
176
     1
290
     0
176
     1
290
     0
176
     1
290
     0
176
     1
 90
       50
176
     1
 40
0.0
176
     1
 40
1.0
176
     1
 90
        0
176
     1
 62
    18
420
        0
176
     1
 90
       50
176
     1
 90
        3
176
     1
 62
     5
420
      255
176
     1
290
     0
176
     1
 90
       50
176
     1
 90
       50
176
     1
 90
       50
176
     1
290
     0
176
     1
 90
       50
176
     1
 62
   256
176
     0
 40
1.0
176
     0
 90
        2
176
     1
  1
strokes_ogs.tif
176
     1
290
     0
176
     1
 40
1.0
176
     1
 40
1.0
176
     1
  0
VISUALSTYLE
  5
329
102
{ACAD_REACTORS
330
31C
102
}
330
31C
100
AcDbVisualStyle
  2
Thicken
 70
    13
177
     3
291
     1
 70
    58
 90
        2
176
     1
 90
        2
176
     1
 90
        0
176
     1
 90
        0
176
     1
 40
-0.6
176
     1
 40
-30.0
176
     1
 62
     7
176
     1
 90
        1
176
     1
 90
        4
176
     1
 62
     7
176
     1
 62
   257
176
     1
 90
        1
176
     1
 90
        1
176
     1
 40
1.0
176
     1
 90
       12
176
     1
 62
     7
176
     1
 40
1.0
176
     1
 90
        1
176
     1
 90
        6
176
     1
 90
        2
176
     1
 62
     7
176
     1
 90
        5
176
     1
 90
        0
176
     1
 90
        0
176
     1
290
     0
176
     1
 90
        1
176
     1
 40
0.0
176
     1
 90
        0
176
     1
290
     0
176
     1
290
     1
176
     1
290
     1
176
     1
290
     0
176
     1
290
     0
176
     1
290
     0
176
     1
290
     0
176
     1
290
     0
176
     1
290
     0
176
     1
 90
       50
176
     1
 40
0.0
176
     1
 40
1.0
176
     1
 90
        0
176
     1
 62
    18
420
        0
176
     1
 90
       50
176
     1
 90
        3
176
     1
 62
     5
420
      255
176
     1
290
     0
176
     1
 90
       50
176
     1
 90
       50
176
     1
 90
       50
176
     1
290
     0
176
     1
 90
       50
176
     1
 62
   256
176
     0
 40
1.0
176
     0
 90
        2
176
     1
  1
strokes_ogs.tif
176
     1
290
     0
176
     1
 40
1.0
176
     1
 40
1.0
176
     1
  0
VISUALSTYLE
  5
389
102
{ACAD_REACTORS
330
31C
102
}
330
31C
100
AcDbVisualStyle
  2
Wireframe
 70
     5
177
     3
291
     0
 70
    58
 90
        0
176
     1
 90
        2
176
     1
 90
        0
176
     1
 90
        0
176
     1
 40
0.6
176
     1
 40
30.0
176
     1
 62
     7
420
 16777215
176
     1
 90
        1
176
     1
 90
        4
176
     1
 62
     7
176
     1
 62
   257
176
     1
 90
        1
176
     1
 90
        1
176
     1
 40
1.0
176
     1
 90
        0
176
     1
 62
   257
176
     1
 40
1.0
176
     1
 90
        1
176
     1
 90
        6
176
     1
 90
        2
176
     1
 62
     7
176
     1
 90
        3
176
     1
 90
        0
176
     1
 90
        0
176
     1
290
     0
176
     1
 90
        1
176
     1
 40
0.0
176
     1
 90
        0
176
     1
290
     0
176
     1
290
     1
176
     1
290
     1
176
     1
290
     0
176
     1
290
     0
176
     1
290
     0
176
     1
290
     0
176
     1
290
     0
176
     1
290
     0
176
     1
 90
       50
176
     1
 40
0.0
176
     1
 40
1.0
176
     1
 90
        0
176
     1
 62
    18
420
        0
176
     1
 90
       50
176
     1
 90
        3
176
     1
 62
     5
420
      255
176
     1
290
     0
176
     1
 90
       50
176
     1
 90
       50
176
     1
 90
       50
176
     1
290
     0
176
     1
 90
       50
176
     1
 62
   256
176
     0
 40
1.0
176
     0
 90
        2
176
     1
  1
strokes_ogs.tif
176
     1
290
     0
176
     1
 40
1.0
176
     1
 40
1.0
176
     1
  0
VISUALSTYLE
  5
390
102
{ACAD_REACTORS
330
31C
102
}
330
31C
100
AcDbVisualStyle
  2
X-Ray
 70
    25
177
     3
291
     0
 70
    58
 90
        2
176
     1
 90
        2
176
     1
 90
        1
176
     1
 90
        1
176
     1
 40
0.5
176
     1
 40
30.0
176
     1
 62
     7
420
 16777215
176
     1
 90
        1
176
     1
 90
        0
176
     1
 62
     7
176
     1
 62
   257
176
     1
 90
        1
176
     1
 90
        1
176
     1
 40
1.0
176
     1
 90
        8
176
     1
 62
     7
176
     1
 40
1.0
176
     1
 90
        1
176
     1
 90
        6
176
     1
 90
        2
176
     1
 62
     7
176
     1
 90
        3
176
     1
 90
        0
176
     1
 90
        0
176
     1
290
     0
176
     1
 90
       13
176
     1
 40
0.0
176
     1
 90
        0
176
     1
290
     0
176
     1
290
     1
176
     1
290
     1
176
     1
290
     0
176
     1
290
     0
176
     1
290
     0
176
     1
290
     0
176
     1
290
     0
176
     1
290
     0
176
     1
 90
       50
176
     1
 40
0.0
176
     1
 40
1.0
176
     1
 90
        0
176
     1
 62
    18
420
        0
176
     1
 90
       50
176
     1
 90
        3
176
     1
 62
     5
420
      255
176
     1
290
     0
176
     1
 90
       50
176
     1
 90
       50
176
     1
 90
       50
176
     1
290
     0
176
     1
 90
       50
176
     1
 62
   256
176
     0
 40
1.0
176
     0
 90
        2
176
     1
  1
strokes_ogs.tif
176
     1
290
     0
176
     1
 40
1.0
176
     1
 40
1.0
176
     1
  0
DICTIONARYVAR
  5
397
102
{ACAD_REACTORS
330
342
102
}
330
342
100
DictionaryVariables
280
     0
  1
1:1
  0
DICTIONARYVAR
  5
399
102
{ACAD_REACTORS
330
342
102
}
330
342
100
DictionaryVariables
280
     0
  1
Standard
  0
DICTIONARYVAR
  5
398
102
{ACAD_REACTORS
330
342
102
}
330
342
100
DictionaryVariables
280
     0
  1
Standard
  0
DICTIONARYVAR
  5
346
102
{ACAD_REACTORS
330
342
102
}
330
342
100
DictionaryVariables
280
     0
  1
2
  0
DICTIONARYVAR
  5
347
102
{ACAD_REACTORS
330
342
102
}
330
342
100
DictionaryVariables
280
     0
  1
1
  0
DICTIONARYVAR
  5
345
102
{ACAD_REACTORS
330
342
102
}
330
342
100
DictionaryVariables
280
     0
  1
0
  0
XRECORD
  5
3C4
102
{ACAD_REACTORS
330
39D
102
}
330
39D
100
AcDbXrecord
280
     1
 91
     2047
301

290
     0
302
INFTOTAL
330
332
 90
        8
 62
     2
370
    50
331
16
  1
Color_2
440
 33554687
440
 33554687
330
335
 90
        0
 62
     7
370
    -3
331
16
  1
Color_7
440
 33554687
440
 33554687
330
378
 90
        9
 62
     1
370
    -3
331
16
  1
Color_1
440
 33554687
440
 33554687
330
379
 90
        8
 62
     4
370
    50
331
16
  1
Color_4
440
 33554687
440
 33554687
330
37A
 90
        8
 62
     7
370
    25
331
16
  1
Color_7
440
 33554687
440
 33554687
330
37B
 90
        8
 62
     1
370
    35
331
375
  1
Color_1
440
 33554687
440
 33554687
330
37C
 90
        8
 62
     2
370
    25
331
376
  1
Color_2
440
 33554687
440
 33554687
330
37D
 90
        8
 62
     5
370
    -3
331
16
  1
Color_5
440
 33554687
440
 33554687
330
37E
 90
        8
 62
     1
370
    25
331
16
  1
Color_1
440
 33554687
440
 33554687
330
37F
 90
        8
 62
     7
370
    25
331
16
  1
Color_7
440
 33554687
440
 33554687
330
380
 90
        9
 62
     4
370
    50
331
16
  1
Color_4
440
 33554687
440
 33554687
330
381
 90
        8
 62
     7
370
    25
331
16
  1
Color_7
440
 33554687
440
 33554687
330
382
 90
        8
 62
     1
370
    35
331
375
  1
Color_1
440
 33554687
440
 33554687
330
383
 90
        8
 62
     2
370
    25
331
376
  1
Color_2
440
 33554687
440
 33554687
330
384
 90
        8
 62
     5
370
    -3
331
16
  1
Color_5
440
 33554687
440
 33554687
330
385
 90
        8
 62
     9
370
    18
331
16
  1
Color_9
440
 33554687
440
 33554687
  0
DICTIONARY
  5
411
330
394
100
AcDbDictionary
280
     1
281
     1
  3
ACAD_ROUNDTRIP_2008_TABLESTYLE_CELLSTYLEMAP
360
412
  0
CELLSTYLEMAP
  5
412
102
{ACAD_REACTORS
330
411
102
}
330
411
100
AcDbCellStyleMap
 90
        3
300
CELLSTYLE
  1
TABLEFORMAT_BEGIN
 90
        5
170
     1
 91
        0
 92
    32768
 62
   257
 93
        1
300
CONTENTFORMAT
  1
CONTENTFORMAT_BEGIN
 90
        0
 91
        0
 92
        4
 93
        0
300

 40
0.0
140
1.0
 94
        5
 62
     0
340
11
144
6.0
309
CONTENTFORMAT_END
171
     1
301
MARGIN
  1
CELLMARGIN_BEGIN
 40
1.5
 40
1.5
 40
1.5
 40
1.5
 40
1.5
 40
1.5
309
CELLMARGIN_END
 94
        6
 95
        1
302
GRIDFORMAT
  1
GRIDFORMAT_BEGIN
 90
        0
 91
        1
 62
     0
 92
       -2
340
14
 93
        0
 40
0.045
309
GRIDFORMAT_END
 95
        2
302
GRIDFORMAT
  1
GRIDFORMAT_BEGIN
 90
        0
 91
        1
 62
     0
 92
       -2
340
14
 93
        0
 40
0.045
309
GRIDFORMAT_END
 95
        4
302
GRIDFORMAT
  1
GRIDFORMAT_BEGIN
 90
        0
 91
        1
 62
     0
 92
       -2
340
14
 93
        0
 40
0.045
309
GRIDFORMAT_END
 95
        8
302
GRIDFORMAT
  1
GRIDFORMAT_BEGIN
 90
        0
 91
        1
 62
     0
 92
       -2
340
14
 93
        0
 40
0.045
309
GRIDFORMAT_END
 95
       16
302
GRIDFORMAT
  1
GRIDFORMAT_BEGIN
 90
        0
 91
        1
 62
     0
 92
       -2
340
14
 93
        0
 40
0.045
309
GRIDFORMAT_END
 95
       32
302
GRIDFORMAT
  1
GRIDFORMAT_BEGIN
 90
        0
 91
        1
 62
     0
 92
       -2
340
14
 93
        0
 40
0.045
309
GRIDFORMAT_END
309
TABLEFORMAT_END
  1
CELLSTYLE_BEGIN
 90
        1
 91
        1
300
_TITLE
309
CELLSTYLE_END
300
CELLSTYLE
  1
TABLEFORMAT_BEGIN
 90
        5
170
     1
 91
        0
 92
        0
 62
   257
 93
        1
300
CONTENTFORMAT
  1
CONTENTFORMAT_BEGIN
 90
        0
 91
        0
 92
        4
 93
        0
300

 40
0.0
140
1.0
 94
        5
 62
     0
340
11
144
4.5
309
CONTENTFORMAT_END
171
     1
301
MARGIN
  1
CELLMARGIN_BEGIN
 40
1.5
 40
1.5
 40
1.5
 40
1.5
 40
1.5
 40
1.5
309
CELLMARGIN_END
 94
        6
 95
        1
302
GRIDFORMAT
  1
GRIDFORMAT_BEGIN
 90
        0
 91
        1
 62
     0
 92
       -2
340
14
 93
        0
 40
0.045
309
GRIDFORMAT_END
 95
        2
302
GRIDFORMAT
  1
GRIDFORMAT_BEGIN
 90
        0
 91
        1
 62
     0
 92
       -2
340
14
 93
        0
 40
0.045
309
GRIDFORMAT_END
 95
        4
302
GRIDFORMAT
  1
GRIDFORMAT_BEGIN
 90
        0
 91
        1
 62
     0
 92
       -2
340
14
 93
        0
 40
0.045
309
GRIDFORMAT_END
 95
        8
302
GRIDFORMAT
  1
GRIDFORMAT_BEGIN
 90
        0
 91
        1
 62
     0
 92
       -2
340
14
 93
        0
 40
0.045
309
GRIDFORMAT_END
 95
       16
302
GRIDFORMAT
  1
GRIDFORMAT_BEGIN
 90
        0
 91
        1
 62
     0
 92
       -2
340
14
 93
        0
 40
0.045
309
GRIDFORMAT_END
 95
       32
302
GRIDFORMAT
  1
GRIDFORMAT_BEGIN
 90
        0
 91
        1
 62
     0
 92
       -2
340
14
 93
        0
 40
0.045
309
GRIDFORMAT_END
309
TABLEFORMAT_END
  1
CELLSTYLE_BEGIN
 90
        2
 91
        1
300
_HEADER
309
CELLSTYLE_END
300
CELLSTYLE
  1
TABLEFORMAT_BEGIN
 90
        5
170
     1
 91
        0
 92
        0
 62
   257
 93
        1
300
CONTENTFORMAT
  1
CONTENTFORMAT_BEGIN
 90
        0
 91
        0
 92
        4
 93
        0
300

 40
0.0
140
1.0
 94
        2
 62
     0
340
11
144
4.5
309
CONTENTFORMAT_END
171
     1
301
MARGIN
  1
CELLMARGIN_BEGIN
 40
1.5
 40
1.5
 40
1.5
 40
1.5
 40
1.5
 40
1.5
309
CELLMARGIN_END
 94
        6
 95
        1
302
GRIDFORMAT
  1
GRIDFORMAT_BEGIN
 90
        0
 91
        1
 62
     0
 92
       -2
340
14
 93
        0
 40
0.045
309
GRIDFORMAT_END
 95
        2
302
GRIDFORMAT
  1
GRIDFORMAT_BEGIN
 90
        0
 91
        1
 62
     0
 92
       -2
340
14
 93
        0
 40
0.045
309
GRIDFORMAT_END
 95
        4
302
GRIDFORMAT
  1
GRIDFORMAT_BEGIN
 90
        0
 91
        1
 62
     0
 92
       -2
340
14
 93
        0
 40
0.045
309
GRIDFORMAT_END
 95
        8
302
GRIDFORMAT
  1
GRIDFORMAT_BEGIN
 90
        0
 91
        1
 62
     0
 92
       -2
340
14
 93
        0
 40
0.045
309
GRIDFORMAT_END
 95
       16
302
GRIDFORMAT
  1
GRIDFORMAT_BEGIN
 90
        0
 91
        1
 62
     0
 92
       -2
340
14
 93
        0
 40
0.045
309
GRIDFORMAT_END
 95
       32
302
GRIDFORMAT
  1
GRIDFORMAT_BEGIN
 90
        0
 91
        1
 62
     0
 92
       -2
340
14
 93
        0
 40
0.045
309
GRIDFORMAT_END
309
TABLEFORMAT_END
  1
CELLSTYLE_BEGIN
 90
        3
 91
        2
300
_DATA
309
CELLSTYLE_END
  0
ENDSEC
  0
EOF
