  0
SECTION
  2
HEADER
  9
$ACADVER
  1
AC1027
  9
$ACADMAINTVER
 70
   105
  9
$DWGCODEPAGE
  3
ANSI_1252
  9
$REQUIREDVERSIONS
160
                 0
  9
$LASTSAVEDBY
  1
matthias.ochs
  9
$INSBASE
 10
0.0
 20
0.0
 30
0.0
  9
$EXTMIN
 10
-53.96932962881297
 20
-81.16955957122784
 30
0.0
  9
$EXTMAX
 10
126.001402078504
 20
89.14263555072341
 30
0.0
  9
$LIMMIN
 10
0.0
 20
0.0
  9
$LIMMAX
 10
210.0
 20
297.0
  9
$ORTHOMODE
 70
     0
  9
$REGENMODE
 70
     1
  9
$FILLMODE
 70
     1
  9
$QTEXTMODE
 70
     0
  9
$MIRRTEXT
 70
     1
  9
$LTSCALE
 40
1.0
  9
$ATTMODE
 70
     1
  9
$TEXTSIZE
 40
3.5
  9
$TRACEWID
 40
1.0
  9
$TEXTSTYLE
  7
STANDARD
  9
$CLAYER
  8
1
  9
$CELTYPE
  6
BYLAYER
  9
$CECOLOR
 62
   256
  9
$CELTSCALE
 40
1.0
  9
$DISPSILH
 70
     0
  9
$DIMSCALE
 40
1.0
  9
$DIMASZ
 40
3.5
  9
$DIMEXO
 40
0.0
  9
$DIMDLI
 40
3.75
  9
$DIMRND
 40
0.0
  9
$DIMDLE
 40
0.0
  9
$DIMEXE
 40
1.0
  9
$DIMTP
 40
0.0
  9
$DIMTM
 40
0.0
  9
$DIMTXT
 40
3.5
  9
$DIMCEN
 40
2.5
  9
$DIMTSZ
 40
0.0
  9
$DIMTOL
 70
     0
  9
$DIMLIM
 70
     0
  9
$DIMTIH
 70
     1
  9
$DIMTOH
 70
     1
  9
$DIMSE1
 70
     0
  9
$DIMSE2
 70
     0
  9
$DIMTAD
 70
     1
  9
$DIMZIN
 70
     0
  9
$DIMBLK
  1

  9
$DIMASO
 70
     1
  9
$DIMSHO
 70
     1
  9
$DIMPOST
  1

  9
$DIMAPOST
  1

  9
$DIMALT
 70
     0
  9
$DIMALTD
 70
     3
  9
$DIMALTF
 40
0.0393700787
  9
$DIMLFAC
 40
1.0
  9
$DIMTOFL
 70
     1
  9
$DIMTVP
 40
0.0
  9
$DIMTIX
 70
     0
  9
$DIMSOXD
 70
     0
  9
$DIMSAH
 70
     0
  9
$DIMBLK1
  1

  9
$DIMBLK2
  1

  9
$DIMSTYLE
  2
ISO-25
  9
$DIMCLRD
 70
     0
  9
$DIMCLRE
 70
     0
  9
$DIMCLRT
 70
     0
  9
$DIMTFAC
 40
1.0
  9
$DIMGAP
 40
1.5
  9
$DIMJUST
 70
     0
  9
$DIMSD1
 70
     0
  9
$DIMSD2
 70
     0
  9
$DIMTOLJ
 70
     0
  9
$DIMTZIN
 70
     0
  9
$DIMALTZ
 70
     0
  9
$DIMALTTZ
 70
     0
  9
$DIMUPT
 70
     0
  9
$DIMDEC
 70
     2
  9
$DIMTDEC
 70
     3
  9
$DIMALTU
 70
     2
  9
$DIMALTTD
 70
     3
  9
$DIMTXSTY
  7
STANDARD
  9
$DIMAUNIT
 70
     0
  9
$DIMADEC
 70
     0
  9
$DIMALTRND
 40
0.0
  9
$DIMAZIN
 70
     0
  9
$DIMDSEP
 70
    46
  9
$DIMATFIT
 70
     3
  9
$DIMFRAC
 70
     0
  9
$DIMLDRBLK
  1

  9
$DIMLUNIT
 70
     2
  9
$DIMLWD
 70
    -2
  9
$DIMLWE
 70
    -2
  9
$DIMTMOVE
 70
     2
  9
$DIMFXL
 40
1.0
  9
$DIMFXLON
 70
     0
  9
$DIMJOGANG
 40
0.7853981633974483
  9
$DIMTFILL
 70
     0
  9
$DIMTFILLCLR
 70
     0
  9
$DIMARCSYM
 70
     0
  9
$DIMLTYPE
  6

  9
$DIMLTEX1
  6

  9
$DIMLTEX2
  6

  9
$DIMTXTDIRECTION
 70
     0
  9
$LUNITS
 70
     2
  9
$LUPREC
 70
     2
  9
$SKETCHINC
 40
1.0
  9
$FILLETRAD
 40
10.0
  9
$AUNITS
 70
     0
  9
$AUPREC
 70
     2
  9
$MENU
  1
.
  9
$ELEVATION
 40
0.0
  9
$PELEVATION
 40
0.0
  9
$THICKNESS
 40
0.0
  9
$LIMCHECK
 70
     0
  9
$CHAMFERA
 40
0.0
  9
$CHAMFERB
 40
0.0
  9
$CHAMFERC
 40
0.0
  9
$CHAMFERD
 40
0.0
  9
$SKPOLY
 70
     0
  9
$TDCREATE
 40
2456974.538651308
  9
$TDUCREATE
 40
2456974.455317975
  9
$TDUPDATE
 40
2458677.468383588
  9
$TDUUPDATE
 40
2458677.385050254
  9
$TDINDWG
 40
0.0037065278
  9
$TDUSRTIMER
 40
0.0025035995
  9
$USRTIMER
 70
     1
  9
$ANGBASE
 50
0.0
  9
$ANGDIR
 70
     0
  9
$PDMODE
 70
     0
  9
$PDSIZE
 40
-1.0
  9
$PLINEWID
 40
0.0
  9
$SPLFRAME
 70
     0
  9
$SPLINETYPE
 70
     6
  9
$SPLINESEGS
 70
     8
  9
$HANDSEED
  5
3E3
  9
$SURFTAB1
 70
     6
  9
$SURFTAB2
 70
     6
  9
$SURFTYPE
 70
     6
  9
$SURFU
 70
     6
  9
$SURFV
 70
     6
  9
$UCSBASE
  2

  9
$UCSNAME
  2

  9
$UCSORG
 10
0.0
 20
0.0
 30
0.0
  9
$UCSXDIR
 10
1.0
 20
0.0
 30
0.0
  9
$UCSYDIR
 10
0.0
 20
1.0
 30
0.0
  9
$UCSORTHOREF
  2

  9
$UCSORTHOVIEW
 70
     0
  9
$UCSORGTOP
 10
0.0
 20
0.0
 30
0.0
  9
$UCSORGBOTTOM
 10
0.0
 20
0.0
 30
0.0
  9
$UCSORGLEFT
 10
0.0
 20
0.0
 30
0.0
  9
$UCSORGRIGHT
 10
0.0
 20
0.0
 30
0.0
  9
$UCSORGFRONT
 10
0.0
 20
0.0
 30
0.0
  9
$UCSORGBACK
 10
0.0
 20
0.0
 30
0.0
  9
$PUCSBASE
  2

  9
$PUCSNAME
  2

  9
$PUCSORG
 10
0.0
 20
0.0
 30
0.0
  9
$PUCSXDIR
 10
1.0
 20
0.0
 30
0.0
  9
$PUCSYDIR
 10
0.0
 20
1.0
 30
0.0
  9
$PUCSORTHOREF
  2

  9
$PUCSORTHOVIEW
 70
     0
  9
$PUCSORGTOP
 10
0.0
 20
0.0
 30
0.0
  9
$PUCSORGBOTTOM
 10
0.0
 20
0.0
 30
0.0
  9
$PUCSORGLEFT
 10
0.0
 20
0.0
 30
0.0
  9
$PUCSORGRIGHT
 10
0.0
 20
0.0
 30
0.0
  9
$PUCSORGFRONT
 10
0.0
 20
0.0
 30
0.0
  9
$PUCSORGBACK
 10
0.0
 20
0.0
 30
0.0
  9
$USERI1
 70
     0
  9
$USERI2
 70
     0
  9
$USERI3
 70
     0
  9
$USERI4
 70
     0
  9
$USERI5
 70
     0
  9
$USERR1
 40
0.0
  9
$USERR2
 40
0.0
  9
$USERR3
 40
0.0
  9
$USERR4
 40
0.0
  9
$USERR5
 40
0.0
  9
$WORLDVIEW
 70
     1
  9
$SHADEDGE
 70
     3
  9
$SHADEDIF
 70
    70
  9
$TILEMODE
 70
     1
  9
$MAXACTVP
 70
    64
  9
$PINSBASE
 10
0.0
 20
0.0
 30
0.0
  9
$PLIMCHECK
 70
     0
  9
$PEXTMIN
 10
1.000000000000000E+20
 20
1.000000000000000E+20
 30
1.000000000000000E+20
  9
$PEXTMAX
 10
-1.000000000000000E+20
 20
-1.000000000000000E+20
 30
-1.000000000000000E+20
  9
$PLIMMIN
 10
0.0
 20
0.0
  9
$PLIMMAX
 10
0.0
 20
0.0
  9
$UNITMODE
 70
     0
  9
$VISRETAIN
 70
     1
  9
$PLINEGEN
 70
     0
  9
$PSLTSCALE
 70
     1
  9
$TREEDEPTH
 70
  3020
  9
$CMLSTYLE
  2
STANDARD
  9
$CMLJUST
 70
     0
  9
$CMLSCALE
 40
20.0
  9
$PROXYGRAPHICS
 70
     1
  9
$MEASUREMENT
 70
     1
  9
$CELWEIGHT
370
    -1
  9
$ENDCAPS
280
     0
  9
$JOINSTYLE
280
     0
  9
$LWDISPLAY
290
     0
  9
$INSUNITS
 70
     0
  9
$HYPERLINKBASE
  1

  9
$STYLESHEET
  1

  9
$XEDIT
290
     1
  9
$CEPSNTYPE
380
     0
  9
$PSTYLEMODE
290
     1
  9
$FINGERPRINTGUID
  2
{FCD9CB70-B880-4368-801D-231F45595555}
  9
$VERSIONGUID
  2
{FAEB1C32-E019-11D5-929B-00C0DF256EC4}
  9
$EXTNAMES
290
     1
  9
$PSVPSCALE
 40
0.0
  9
$OLESTARTUP
290
     0
  9
$SORTENTS
280
   127
  9
$INDEXCTL
280
     0
  9
$HIDETEXT
280
     1
  9
$XCLIPFRAME
280
     2
  9
$HALOGAP
280
     0
  9
$OBSCOLOR
 70
   257
  9
$OBSLTYPE
280
     0
  9
$INTERSECTIONDISPLAY
280
     0
  9
$INTERSECTIONCOLOR
 70
   257
  9
$DIMASSOC
280
     2
  9
$PROJECTNAME
  1

  9
$CAMERADISPLAY
290
     0
  9
$LENSLENGTH
 40
50.0
  9
$CAMERAHEIGHT
 40
0.0
  9
$STEPSPERSEC
 40
2.0
  9
$STEPSIZE
 40
6.0
  9
$3DDWFPREC
 40
2.0
  9
$PSOLWIDTH
 40
0.25
  9
$PSOLHEIGHT
 40
4.0
  9
$LOFTANG1
 40
1.570796326794897
  9
$LOFTANG2
 40
1.570796326794897
  9
$LOFTMAG1
 40
0.0
  9
$LOFTMAG2
 40
0.0
  9
$LOFTPARAM
 70
     7
  9
$LOFTNORMALS
280
     1
  9
$LATITUDE
 40
37.795
  9
$LONGITUDE
 40
-122.394
  9
$NORTHDIRECTION
 40
0.0
  9
$TIMEZONE
 70
 -8000
  9
$LIGHTGLYPHDISPLAY
280
     1
  9
$TILEMODELIGHTSYNCH
280
     1
  9
$SOLIDHIST
280
     0
  9
$SHOWHIST
280
     1
  9
$DWFFRAME
280
     2
  9
$DGNFRAME
280
     2
  9
$REALWORLDSCALE
290
     1
  9
$INTERFERECOLOR
 62
   256
  9
$CSHADOW
280
     0
  9
$SHADOWPLANELOCATION
 40
0.0
  0
ENDSEC
  0
SECTION
  2
CLASSES
  0
CLASS
  1
ACDBDICTIONARYWDFLT
  2
AcDbDictionaryWithDefault
  3
ObjectDBX Classes
 90
        0
 91
       16
280
     0
281
     0
  0
CLASS
  1
VISUALSTYLE
  2
AcDbVisualStyle
  3
ObjectDBX Classes
 90
     4095
 91
       16
280
     0
281
     0
  0
CLASS
  1
MATERIAL
  2
AcDbMaterial
  3
ObjectDBX Classes
 90
     1153
 91
       16
280
     0
281
     0
  0
CLASS
  1
SCALE
  2
AcDbScale
  3
ObjectDBX Classes
 90
     1153
 91
       16
280
     0
281
     0
  0
CLASS
  1
SUN
  2
AcDbSun
  3
SCENEOE
 90
     1153
 91
       16
280
     0
281
     0
  0
CLASS
  1
XRECORD
  2
AcDbXrecord
  3
ObjectDBX Classes
 90
        0
 91
        1
280
     0
281
     0
  0
CLASS
  1
LWPOLYLINE
  2
AcDbPolyline
  3
ObjectDBX Classes
 90
        0
 91
        1
280
     0
281
     1
  0
CLASS
  1
HATCH
  2
AcDbHatch
  3
ObjectDBX Classes
 90
        0
 91
        1
280
     0
281
     1
  0
CLASS
  1
DICTIONARYVAR
  2
AcDbDictionaryVar
  3
ObjectDBX Classes
 90
        0
 91
       14
280
     0
281
     0
  0
CLASS
  1
ACDBPLACEHOLDER
  2
AcDbPlaceHolder
  3
ObjectDBX Classes
 90
        0
 91
        1
280
     0
281
     0
  0
CLASS
  1
LAYOUT
  2
AcDbLayout
  3
ObjectDBX Classes
 90
        0
 91
        1
280
     0
281
     0
  0
CLASS
  1
TABLESTYLE
  2
AcDbTableStyle
  3
ObjectDBX Classes
 90
     4095
 91
       16
280
     0
281
     0
  0
CLASS
  1
MLEADERSTYLE
  2
AcDbMLeaderStyle
  3
ACDB_MLEADERSTYLE_CLASS
 90
     4095
 91
       16
280
     0
281
     0
  0
CLASS
  1
CELLSTYLEMAP
  2
AcDbCellStyleMap
  3
ObjectDBX Classes
 90
     1152
 91
        9
280
     0
281
     0
  0
ENDSEC
  0
SECTION
  2
TABLES
  0
TABLE
  2
VPORT
  5
8
330
0
100
AcDbSymbolTable
 70
     1
  0
VPORT
  5
29
330
8
100
AcDbSymbolTableRecord
100
AcDbViewportTableRecord
  2
*ACTIVE
 70
     0
 10
0.0
 20
0.0
 11
1.0
 21
1.0
 12
43.87871480431491
 22
58.71384230022028
 13
0.0
 23
0.0
 14
10.0
 24
10.0
 15
10.0
 25
10.0
 16
0.0
 26
0.0
 36
1.0
 17
0.0
 27
0.0
 37
0.0
 40
425.8463228330509
 41
1.831002331002331
 42
50.0
 43
0.0
 44
0.0
 50
0.0
 51
0.0
 71
    16
 72
  2000
 73
     1
 74
     3
 75
     0
 76
     0
 77
     0
 78
     0
281
     0
 65
     1
110
0.0
120
0.0
130
0.0
111
1.0
121
0.0
131
0.0
112
0.0
122
1.0
132
0.0
 79
     0
146
0.0
348
30A
 60
     3
 61
     5
292
     1
282
     1
141
0.0
142
0.0
 63
   256
361
3A2
  0
ENDTAB
  0
TABLE
  2
LTYPE
  5
5
330
0
100
AcDbSymbolTable
 70
     9
  0
LTYPE
  5
14
330
5
100
AcDbSymbolTableRecord
100
AcDbLinetypeTableRecord
  2
BYBLOCK
 70
     0
  3

 72
    65
 73
     0
 40
0.0
  0
LTYPE
  5
15
330
5
100
AcDbSymbolTableRecord
100
AcDbLinetypeTableRecord
  2
BYLAYER
 70
     0
  3

 72
    65
 73
     0
 40
0.0
  0
LTYPE
  5
16
330
5
100
AcDbSymbolTableRecord
100
AcDbLinetypeTableRecord
  2
CONTINUOUS
 70
     0
  3
Solid line
 72
    65
 73
     0
 40
0.0
  0
LTYPE
  5
6A
330
5
100
AcDbSymbolTableRecord
100
AcDbLinetypeTableRecord
  2
HIDDEN
 70
     0
  3
Hidden __ __ __ __ __ __ __ __ __ __ __ __ __ __
 72
    65
 73
     2
 40
1.905
 49
1.27
 74
     0
 49
-0.635
 74
     0
  0
LTYPE
  5
6B
330
5
100
AcDbSymbolTableRecord
100
AcDbLinetypeTableRecord
  2
PHANTOM
 70
     0
  3
Phantom ______  __  __  ______  __  __  ______
 72
    65
 73
     6
 40
12.7
 49
6.35
 74
     0
 49
-1.27
 74
     0
 49
1.27
 74
     0
 49
-1.27
 74
     0
 49
1.27
 74
     0
 49
-1.27
 74
     0
  0
LTYPE
  5
6C
330
5
100
AcDbSymbolTableRecord
100
AcDbLinetypeTableRecord
  2
CENTER
 70
     0
  3
Center ____ _ ____ _ ____ _ ____ _ ____ _ ____
 72
    65
 73
     4
 40
10.16
 49
6.35
 74
     0
 49
-1.27
 74
     0
 49
1.27
 74
     0
 49
-1.27
 74
     0
  0
LTYPE
  5
6D
330
5
100
AcDbSymbolTableRecord
100
AcDbLinetypeTableRecord
  2
CENTERX2
 70
     0
  3
Center (2x) ________  __  ________  __  _____
 72
    65
 73
     4
 40
20.32
 49
12.7
 74
     0
 49
-2.54
 74
     0
 49
2.54
 74
     0
 49
-2.54
 74
     0
  0
LTYPE
  5
6E
330
5
100
AcDbSymbolTableRecord
100
AcDbLinetypeTableRecord
  2
DOT2
 70
     0
  3
Dot (.5x) ........................................
 72
    65
 73
     2
 40
0.635
 49
0.0
 74
     0
 49
-0.635
 74
     0
  0
LTYPE
  5
35E
330
5
100
AcDbSymbolTableRecord
100
AcDbLinetypeTableRecord
  2
DASH
 70
     0
  3
DASH _ _ _ _ _
 72
    65
 73
     2
 40
0.75
 49
0.4
 74
     0
 49
-0.35
 74
     0
  0
LTYPE
  5
35F
330
5
100
AcDbSymbolTableRecord
100
AcDbLinetypeTableRecord
  2
LONGDASH_DASH
 70
     0
  3
LONGDASH_DASH __ . __ . __
 72
    65
 73
     4
 40
0.85
 49
0.4
 74
     0
 49
-0.2
 74
     0
 49
0.05
 74
     0
 49
-0.2
 74
     0
  0
LTYPE
  5
360
330
5
100
AcDbSymbolTableRecord
100
AcDbLinetypeTableRecord
  2
LONGDASH_DASH_DASH
 70
     0
  3
LONGDASH_DASH_DASH __ . . __ . . __
 72
    65
 73
     6
 40
1.1
 49
0.4
 74
     0
 49
-0.2
 74
     0
 49
0.05
 74
     0
 49
-0.2
 74
     0
 49
0.05
 74
     0
 49
-0.2
 74
     0
  0
ENDTAB
  0
TABLE
  2
LAYER
  5
2
102
{ACAD_XDICTIONARY
360
380
102
}
330
0
100
AcDbSymbolTable
 70
    16
  0
LAYER
  5
31B
330
2
100
AcDbSymbolTableRecord
100
AcDbLayerTableRecord
  2
200
 70
     0
 62
     2
  6
CONTINUOUS
370
    50
390
371
347
319
348
0
  0
LAYER
  5
31E
330
2
100
AcDbSymbolTableRecord
100
AcDbLayerTableRecord
  2
Defpoints
 70
     0
 62
     7
  6
CONTINUOUS
290
     0
370
    -3
390
371
347
319
348
0
  0
LAYER
  5
361
330
2
100
AcDbSymbolTableRecord
100
AcDbLayerTableRecord
  2
0
 70
     0
 62
     1
  6
CONTINUOUS
370
    -3
390
371
347
319
348
0
  0
LAYER
  5
362
330
2
100
AcDbSymbolTableRecord
100
AcDbLayerTableRecord
  2
1
 70
     0
 62
     4
  6
CONTINUOUS
370
    50
390
371
347
319
348
0
  0
LAYER
  5
363
330
2
100
AcDbSymbolTableRecord
100
AcDbLayerTableRecord
  2
2
 70
     0
 62
     7
  6
CONTINUOUS
370
    25
390
371
347
319
348
0
  0
LAYER
  5
364
330
2
100
AcDbSymbolTableRecord
100
AcDbLayerTableRecord
  2
3
 70
     0
 62
     1
  6
DASH
370
    35
390
371
347
319
348
0
  0
LAYER
  5
365
330
2
100
AcDbSymbolTableRecord
100
AcDbLayerTableRecord
  2
4
 70
     0
 62
     2
  6
LONGDASH_DASH
370
    25
390
371
347
319
348
0
  0
LAYER
  5
366
330
2
100
AcDbSymbolTableRecord
100
AcDbLayerTableRecord
  2
6
 70
     0
 62
     5
  6
CONTINUOUS
370
    -3
390
371
347
319
348
0
  0
LAYER
  5
367
330
2
100
AcDbSymbolTableRecord
100
AcDbLayerTableRecord
  2
CUT
 70
     0
 62
     1
  6
CONTINUOUS
370
    25
390
371
347
319
348
0
  0
LAYER
  5
368
330
2
100
AcDbSymbolTableRecord
100
AcDbLayerTableRecord
  2
NOCUT
 70
     0
 62
     7
  6
CONTINUOUS
370
    25
390
371
347
319
348
0
  0
LAYER
  5
369
330
2
100
AcDbSymbolTableRecord
100
AcDbLayerTableRecord
  2
SK1
 70
     0
 62
     4
  6
CONTINUOUS
370
    50
390
371
347
319
348
0
  0
LAYER
  5
36A
330
2
100
AcDbSymbolTableRecord
100
AcDbLayerTableRecord
  2
SK2
 70
     0
 62
     7
  6
CONTINUOUS
370
    25
390
371
347
319
348
0
  0
LAYER
  5
36B
330
2
100
AcDbSymbolTableRecord
100
AcDbLayerTableRecord
  2
SK3
 70
     0
 62
     1
  6
DASH
370
    35
390
371
347
319
348
0
  0
LAYER
  5
36C
330
2
100
AcDbSymbolTableRecord
100
AcDbLayerTableRecord
  2
SK4
 70
     0
 62
     2
  6
LONGDASH_DASH
370
    25
390
371
347
319
348
0
  0
LAYER
  5
36D
330
2
100
AcDbSymbolTableRecord
100
AcDbLayerTableRecord
  2
SK6
 70
     0
 62
     5
  6
CONTINUOUS
370
    -3
390
371
347
319
348
0
  0
LAYER
  5
36E
330
2
100
AcDbSymbolTableRecord
100
AcDbLayerTableRecord
  2
INFTOTAL
 70
     0
 62
     9
  6
CONTINUOUS
370
    18
390
371
347
319
348
0
  0
ENDTAB
  0
TABLE
  2
STYLE
  5
3
330
0
100
AcDbSymbolTable
 70
     3
  0
STYLE
  5
11
330
3
100
AcDbSymbolTableRecord
100
AcDbTextStyleTableRecord
  2
STANDARD
 70
     0
 40
0.0
 41
1.0
 50
0.0
 71
     0
 42
3.5
  3
txt
  4

  0
STYLE
  5
2BE
330
3
100
AcDbSymbolTableRecord
100
AcDbTextStyleTableRecord
  2
SLDTEXTSTYLE0
 70
     0
 40
0.0
 41
0.605
 50
0.0
 71
     0
 42
3.5
  3
TXT
  4

  0
STYLE
  5
31A
330
3
100
AcDbSymbolTableRecord
100
AcDbTextStyleTableRecord
  2
BMG_Text
 70
     0
 40
3.5
 41
1.0
 50
0.0
 71
     0
 42
3.5
  3
monos.ttf
  4

1001
ACAD
1000
Monospac821 BT
1071
       49
  0
ENDTAB
  0
TABLE
  2
VIEW
  5
6
330
0
100
AcDbSymbolTable
 70
     0
  0
ENDTAB
  0
TABLE
  2
UCS
  5
7
330
0
100
AcDbSymbolTable
 70
     0
  0
ENDTAB
  0
TABLE
  2
APPID
  5
9
330
0
100
AcDbSymbolTable
 70
     4
  0
APPID
  5
12
330
9
100
AcDbSymbolTableRecord
100
AcDbRegAppTableRecord
  2
ACAD
 70
     0
  0
APPID
  5
331
330
9
100
AcDbSymbolTableRecord
100
AcDbRegAppTableRecord
  2
ACAD_DSTYLE_DIM_LINETYPE
 70
     0
  0
APPID
  5
332
330
9
100
AcDbSymbolTableRecord
100
AcDbRegAppTableRecord
  2
ACAD_DSTYLE_DIM_EXT1_LINETYPE
 70
     0
  0
APPID
  5
333
330
9
100
AcDbSymbolTableRecord
100
AcDbRegAppTableRecord
  2
ACAD_DSTYLE_DIM_EXT2_LINETYPE
 70
     0
  0
ENDTAB
  0
TABLE
  2
DIMSTYLE
  5
A
330
0
100
AcDbSymbolTable
 70
     3
100
AcDbDimStyleTable
  0
DIMSTYLE
105
27
330
A
100
AcDbSymbolTableRecord
100
AcDbDimStyleTableRecord
  2
ISO-25
 70
     0
 41
2.5
 42
0.625
 43
3.75
 44
1.25
 73
     0
 74
     0
 77
     1
 78
     8
140
2.5
141
2.5
143
0.0393700787
147
0.625
171
     3
172
     1
178
     0
271
     2
272
     2
274
     3
283
     0
284
     8
340
11
  0
DIMSTYLE
105
2BF
102
{ACAD_REACTORS
330
2BD
330
2CB
102
}
330
A
100
AcDbSymbolTableRecord
100
AcDbDimStyleTableRecord
  2
SLDDIMSTYLE0
 70
     0
 41
3.5
 44
0.0
 45
0.000000001
 73
     0
 74
     0
 77
     1
 78
    12
140
3.5
147
0.875
173
     1
178
     0
271
     2
272
     3
284
    12
340
2BE
  0
DIMSTYLE
105
2D7
102
{ACAD_REACTORS
330
2D6
102
}
330
A
100
AcDbSymbolTableRecord
100
AcDbDimStyleTableRecord
  2
SLDDIMSTYLE1
 70
     0
 41
3.5
 44
0.0
 45
0.000000001
 73
     0
 74
     0
 77
     1
 78
    12
140
3.5
147
0.875
173
     1
178
     0
271
     2
272
     3
284
    12
340
2BE
  0
ENDTAB
  0
TABLE
  2
BLOCK_RECORD
  5
1
330
0
100
AcDbSymbolTable
 70
     3
  0
BLOCK_RECORD
  5
1F
330
1
100
AcDbSymbolTableRecord
100
AcDbBlockTableRecord
  2
*MODEL_SPACE
340
303
 70
     0
280
     1
281
     0
  0
BLOCK_RECORD
  5
1B
330
1
100
AcDbSymbolTableRecord
100
AcDbBlockTableRecord
  2
*PAPER_SPACE
340
304
 70
     0
280
     1
281
     0
  0
BLOCK_RECORD
  5
2C0
330
1
100
AcDbSymbolTableRecord
100
AcDbBlockTableRecord
  2
_D
340
0
 70
     0
280
     1
281
     0
  0
BLOCK_RECORD
  5
2CC
330
1
100
AcDbSymbolTableRecord
100
AcDbBlockTableRecord
  2
_D_1
340
0
 70
     0
280
     1
281
     0
  0
BLOCK_RECORD
  5
2D8
330
1
100
AcDbSymbolTableRecord
100
AcDbBlockTableRecord
  2
_D_2
340
0
 70
     0
280
     1
281
     0
  0
ENDTAB
  0
ENDSEC
  0
SECTION
  2
BLOCKS
  0
BLOCK
  5
20
330
1F
100
AcDbEntity
  8
0
100
AcDbBlockBegin
  2
*MODEL_SPACE
 70
     0
 10
0.0
 20
0.0
 30
0.0
  3
*MODEL_SPACE
  1

  0
ENDBLK
  5
21
330
1F
100
AcDbEntity
  8
0
100
AcDbBlockEnd
  0
BLOCK
  5
1C
330
1B
100
AcDbEntity
 67
     1
  8
0
100
AcDbBlockBegin
  2
*PAPER_SPACE
 70
     0
 10
0.0
 20
0.0
 30
0.0
  3
*PAPER_SPACE
  1

  0
ENDBLK
  5
1D
330
1B
100
AcDbEntity
 67
     1
  8
0
100
AcDbBlockEnd
  0
BLOCK
  5
2C1
330
2C0
100
AcDbEntity
  8
0
100
AcDbBlockBegin
  2
_D
 70
     0
 10
0.0
 20
0.0
 30
0.0
  3
_D
  1
_D
  0
LINE
  5
2C3
330
2C0
100
AcDbEntity
  8
SK2
  6
ByBlock
370
    -2
100
AcDbLine
 10
59.83769292445674
 20
48.999220966
 30
0.0
 11
75.00174407835675
 21
48.99922096599999
 31
0.0
  0
LINE
  5
2C4
330
2C0
100
AcDbEntity
  8
SK2
  6
ByBlock
370
    -2
100
AcDbLine
 10
59.94613772295674
 20
-49.0010899413
 30
0.0
 11
75.00174407835675
 21
-49.00108994130001
 31
0.0
  0
LINE
  5
2C5
330
2C0
100
AcDbEntity
  8
SK2
  6
ByBlock
370
    -2
100
AcDbLine
 10
75.00174407835675
 20
45.49922096599999
 30
0.0
 11
75.00174407835675
 21
-45.50108994130001
 31
0.0
  0
SOLID
  5
2C6
330
2C0
100
AcDbEntity
  8
SK2
100
AcDbTrace
 10
75.58507741169008
 20
45.49922096599999
 30
0.0
 11
74.41841074502342
 21
45.49922096599999
 31
0.0
 12
75.00174407835675
 22
48.99922096599999
 32
0.0
 13
75.00174407835675
 23
48.99922096599999
 33
0.0
  0
SOLID
  5
2C7
330
2C0
100
AcDbEntity
  8
SK2
100
AcDbTrace
 10
74.41841074502342
 20
-45.50108994130001
 30
0.0
 11
75.58507741169008
 21
-45.50108994130001
 31
0.0
 12
75.00174407835675
 22
-49.00108994130001
 32
0.0
 13
75.00174407835675
 23
-49.00108994130001
 33
0.0
  0
MTEXT
  5
2C8
330
2C0
100
AcDbEntity
  8
SK2
100
AcDbMText
 10
72.26474407835676
 20
-0.0009344877000038
 30
0.0
 40
3.5
 41
0.0
 46
0.0
 71
     5
 72
     1
  1
\A1;%%c98 - 126
  7
BMG_Text
 11
0.0
 21
1.0
 31
0.0
 73
     1
 44
1.0
  0
POINT
  5
2C9
330
2C0
100
AcDbEntity
  8
Defpoints
 62
     0
100
AcDbPoint
 10
59.77519292445674
 20
48.999220966
 30
0.0
  0
POINT
  5
2CA
330
2C0
100
AcDbEntity
  8
Defpoints
 62
     0
100
AcDbPoint
 10
59.88363772295674
 20
-49.0010899413
 30
0.0
  0
POINT
  5
31F
330
2C0
100
AcDbEntity
  8
Defpoints
 62
     0
100
AcDbPoint
 10
75.00174407835675
 20
-49.0010899413
 30
0.0
  0
ENDBLK
  5
2C2
330
2C0
100
AcDbEntity
  8
0
100
AcDbBlockEnd
  0
BLOCK
  5
2CD
330
2CC
100
AcDbEntity
  8
0
100
AcDbBlockBegin
  2
_D_1
 70
     0
 10
0.0
 20
0.0
 30
0.0
  3
_D_1
  1
_D_1
  0
LINE
  5
2CF
330
2CC
100
AcDbEntity
  8
SK2
  6
ByBlock
370
    -2
100
AcDbLine
 10
47.10854746925674
 20
53.5000084776
 30
0.0
 11
83.35036578535673
 21
53.5000084776
 31
0.0
  0
LINE
  5
2D0
330
2CC
100
AcDbEntity
  8
SK2
  6
ByBlock
370
    -2
100
AcDbLine
 10
47.10854746925674
 20
-53.500005756
 30
0.0
 11
83.35036578535673
 21
-53.500005756
 31
0.0
  0
LINE
  5
2D1
330
2CC
100
AcDbEntity
  8
SK2
  6
ByBlock
370
    -2
100
AcDbLine
 10
83.35036578535673
 20
50.0000084776
 30
0.0
 11
83.35036578535673
 21
-50.000005756
 31
0.0
  0
SOLID
  5
2D2
330
2CC
100
AcDbEntity
  8
SK2
100
AcDbTrace
 10
83.93369911869006
 20
50.0000084776
 30
0.0
 11
82.7670324520234
 21
50.0000084776
 31
0.0
 12
83.35036578535673
 22
53.5000084776
 32
0.0
 13
83.35036578535673
 23
53.5000084776
 33
0.0
  0
SOLID
  5
2D3
330
2CC
100
AcDbEntity
  8
SK2
100
AcDbTrace
 10
82.7670324520234
 20
-50.000005756
 30
0.0
 11
83.93369911869006
 21
-50.000005756
 31
0.0
 12
83.35036578535673
 22
-53.500005756
 32
0.0
 13
83.35036578535673
 23
-53.500005756
 33
0.0
  0
MTEXT
  5
2D4
330
2CC
100
AcDbEntity
  8
SK2
100
AcDbMText
 10
80.61336578535673
 20
0.0000013607999962
 30
0.0
 40
3.5
 41
0.0
 46
0.0
 71
     5
 72
     1
  1
\A1;%%c109 - 137
  7
BMG_Text
 11
0.0
 21
1.0
 31
0.0
 73
     1
 44
1.0
  0
POINT
  5
2D5
330
2CC
100
AcDbEntity
  8
Defpoints
 62
     0
100
AcDbPoint
 10
47.04604746925674
 20
53.5000084776
 30
0.0
  0
POINT
  5
320
330
2CC
100
AcDbEntity
  8
Defpoints
 62
     0
100
AcDbPoint
 10
47.04604746925674
 20
-53.500005756
 30
0.0
  0
POINT
  5
321
330
2CC
100
AcDbEntity
  8
Defpoints
 62
     0
100
AcDbPoint
 10
83.35036578535673
 20
-53.500005756
 30
0.0
  0
ENDBLK
  5
2CE
330
2CC
100
AcDbEntity
  8
0
100
AcDbBlockEnd
  0
BLOCK
  5
2D9
330
2D8
100
AcDbEntity
  8
0
100
AcDbBlockBegin
  2
_D_2
 70
     0
 10
0.0
 20
0.0
 30
0.0
  3
_D_2
  1
_D_2
  0
LINE
  5
2DB
330
2D8
100
AcDbEntity
  8
2
  6
ByBlock
370
    -2
100
AcDbLine
 10
47.04604747041859
 20
53.5625084776
 30
0.0
 11
47.04604767735177
 21
64.69423222861978
 31
0.0
  0
LINE
  5
2DC
330
2D8
100
AcDbEntity
  8
2
  6
ByBlock
370
    -2
100
AcDbLine
 10
-3.503947743481414
 20
44.6765876472
 30
0.0
 11
-3.503947371363392
 21
64.69423316831902
 31
0.0
  0
LINE
  5
2DD
330
2D8
100
AcDbEntity
  8
2
  6
ByBlock
370
    -2
100
AcDbLine
 10
43.54604767735177
 20
64.69423229368304
 30
0.0
 11
-0.0039473713633931
 21
64.69423310325575
 31
0.0
  0
SOLID
  5
2DE
330
2D8
100
AcDbEntity
  8
2
100
AcDbTrace
 10
43.54604766650789
 20
64.11089896034972
 30
0.0
 11
43.54604768819564
 21
65.27756562701637
 31
0.0
 12
47.04604767735177
 22
64.69423222861978
 32
0.0
 13
47.04604767735177
 23
64.69423222861978
 33
0.0
  0
SOLID
  5
322
330
2D8
100
AcDbEntity
  8
2
100
AcDbTrace
 10
-0.0039473605195169
 20
65.27756643658908
 30
0.0
 11
-0.0039473822072692
 21
64.11089976992243
 31
0.0
 12
-3.503947371363392
 22
64.69423316831902
 32
0.0
 13
-3.503947371363392
 23
64.69423316831902
 33
0.0
  0
MTEXT
  5
323
330
2D8
100
AcDbEntity
  8
2
100
AcDbMText
 10
13.76488616849279
 20
67.3804828473
 30
0.0
 40
3.5
 41
0.0
 46
0.0
 71
     5
 72
     1
  1
\A1;113
  7
BMG_Text
 11
0.9999999999999998
 21
-1.858950199848760E-8
 31
0.0
 73
     1
 44
1.0
  0
POINT
  5
324
330
2D8
100
AcDbEntity
  8
Defpoints
 62
     0
100
AcDbPoint
 10
47.04604746925674
 20
53.5000084776
 30
0.0
  0
POINT
  5
325
330
2D8
100
AcDbEntity
  8
Defpoints
 62
     0
100
AcDbPoint
 10
-3.503947744643258
 20
44.6140876472
 30
0.0
  0
POINT
  5
326
330
2D8
100
AcDbEntity
  8
Defpoints
 62
     0
100
AcDbPoint
 10
-3.503947371363356
 20
64.69423316831902
 30
0.0
  0
ENDBLK
  5
2DA
330
2D8
100
AcDbEntity
  8
0
100
AcDbBlockEnd
  0
ENDSEC
  0
SECTION
  2
ENTITIES
  0
LINE
  5
75
330
1F
100
AcDbEntity
  8
1
100
AcDbLine
 10
14.83670312975674
 20
-52.2861958605
 30
0.0
 11
15.00918407055674
 21
-52.4324805599
 31
0.0
  0
LINE
  5
76
330
1F
100
AcDbEntity
  8
1
100
AcDbLine
 10
19.58291668505674
 20
-52.4324805599
 30
0.0
 11
19.74653143495674
 21
-52.2937134963
 31
0.0
  0
LINE
  5
77
330
1F
100
AcDbEntity
  8
1
100
AcDbLine
 10
9.818178304156742
 20
45.2408387203
 30
0.0
 11
9.765756019056742
 21
45.1918101746
 31
0.0
  0
LINE
  5
78
330
1F
100
AcDbEntity
  8
1
100
AcDbLine
 10
-3.403949848643258
 20
31.32369805759999
 30
0.0
 11
-3.403949848643258
 21
30.70369426789999
 31
0.0
  0
LINE
  5
79
330
1F
100
AcDbEntity
  8
1
100
AcDbLine
 10
-3.403949848643258
 20
36.5085384685
 30
0.0
 11
-3.403949240743259
 21
35.4706743166
 31
0.0
  0
LINE
  5
7A
330
1F
100
AcDbEntity
  8
1
100
AcDbLine
 10
16.69604748775674
 20
36.9999941083
 30
0.0
 11
-2.198799857443258
 21
36.9999936526
 31
0.0
  0
LINE
  5
7B
330
1F
100
AcDbEntity
  8
1
100
AcDbLine
 10
17.19604850105674
 20
36.499993095
 30
0.0
 11
16.69604748775674
 21
36.9999941083
 31
0.0
  0
LINE
  5
7D
330
1F
100
AcDbEntity
  8
1
100
AcDbLine
 10
17.19604850105674
 20
26.9999938974
 30
0.0
 11
0.0941263066567416
 21
26.9999938974
 31
0.0
  0
LINE
  5
7E
330
1F
100
AcDbEntity
  8
1
100
AcDbLine
 10
-3.403949848643258
 20
30.48369352409999
 30
0.0
 11
-3.403949240643259
 21
29.83066036109999
 31
0.0
  0
LINE
  5
7F
330
1F
100
AcDbEntity
  8
SK4
100
AcDbLine
 10
-6.639674231343259
 20
0.0000013607999962
 30
0.0
 11
43.57765058005674
 21
0.0000013607999962
 31
0.0
  0
LINE
  5
80
330
1F
100
AcDbEntity
  8
1
100
AcDbLine
 10
0.0941263066567416
 20
9.049993655999995
 30
0.0
 11
0.0930836321567416
 21
-23.50000456390001
 31
0.0
  0
LINE
  5
81
330
1F
100
AcDbEntity
  8
1
100
AcDbLine
 10
0.0941263066567416
 20
26.9999938974
 30
0.0
 11
0.0941263066567416
 21
9.049993655999995
 31
0.0
  0
LINE
  5
82
330
1F
100
AcDbEntity
  8
1
100
AcDbLine
 10
17.29605037785674
 20
-28.2548659604
 30
0.0
 11
16.62686158035674
 21
-28.3131201875
 31
0.0
  0
LINE
  5
83
330
1F
100
AcDbEntity
  8
1
100
AcDbLine
 10
16.62686158035674
 20
-28.3131201875
 30
0.0
 11
15.97742427205674
 21
-28.48307724410001
 31
0.0
  0
LINE
  5
84
330
1F
100
AcDbEntity
  8
1
100
AcDbLine
 10
15.97742427205674
 20
-28.48307724410001
 30
0.0
 11
15.36789227335674
 21
-28.7577894639
 31
0.0
  0
LINE
  5
85
330
1F
100
AcDbEntity
  8
1
100
AcDbLine
 10
15.36789227335674
 20
-28.7577894639
 30
0.0
 11
14.81037277795674
 21
-29.124181078
 31
0.0
  0
LINE
  5
86
330
1F
100
AcDbEntity
  8
1
100
AcDbLine
 10
14.81037277795674
 20
-29.124181078
 30
0.0
 11
14.29740775435674
 21
-29.5889147681
 31
0.0
  0
LINE
  5
87
330
1F
100
AcDbEntity
  8
1
100
AcDbLine
 10
14.29740775435674
 20
-29.5889147681
 30
0.0
 11
13.85928381295674
 21
-30.12086014560001
 31
0.0
  0
LINE
  5
88
330
1F
100
AcDbEntity
  8
1
100
AcDbLine
 10
13.85928381295674
 20
-30.12086014560001
 30
0.0
 11
13.45935154765674
 21
-30.7817806613
 31
0.0
  0
LINE
  5
89
330
1F
100
AcDbEntity
  8
1
100
AcDbLine
 10
13.45935154765674
 20
-30.7817806613
 30
0.0
 11
13.15749872535674
 21
-31.48667077830001
 31
0.0
  0
LINE
  5
8A
330
1F
100
AcDbEntity
  8
1
100
AcDbLine
 10
13.15749872535674
 20
-31.48667077830001
 30
0.0
 11
12.88662541715674
 21
-32.5529494446
 31
0.0
  0
LINE
  5
8B
330
1F
100
AcDbEntity
  8
1
100
AcDbLine
 10
12.88662541715674
 20
-32.5529494446
 30
0.0
 11
12.79615301705674
 21
-33.6353884202
 31
0.0
  0
LINE
  5
8C
330
1F
100
AcDbEntity
  8
1
100
AcDbLine
 10
12.79615301705674
 20
-33.6353884202
 30
0.0
 11
12.87141878215674
 21
-34.7190120381
 31
0.0
  0
LINE
  5
8D
330
1F
100
AcDbEntity
  8
1
100
AcDbLine
 10
12.87141878215674
 20
-34.7190120381
 30
0.0
 11
13.09987593505674
 21
-35.7679569286
 31
0.0
  0
LINE
  5
8E
330
1F
100
AcDbEntity
  8
1
100
AcDbLine
 10
13.09987593505674
 20
-35.7679569286
 30
0.0
 11
13.57104320145674
 21
-36.9696387213
 31
0.0
  0
LINE
  5
8F
330
1F
100
AcDbEntity
  8
1
100
AcDbLine
 10
13.57104320145674
 20
-36.9696387213
 30
0.0
 11
14.25804633705674
 21
-38.0583473604
 31
0.0
  0
LINE
  5
90
330
1F
100
AcDbEntity
  8
1
100
AcDbLine
 10
14.25804633705674
 20
-38.0583473604
 30
0.0
 11
14.72654629565674
 21
-38.5828682345
 31
0.0
  0
LINE
  5
91
330
1F
100
AcDbEntity
  8
1
100
AcDbLine
 10
14.72654629565674
 20
-38.5828682345
 30
0.0
 11
15.27074415295674
 21
-39.0426845413
 31
0.0
  0
LINE
  5
92
330
1F
100
AcDbEntity
  8
1
100
AcDbLine
 10
15.27074415295674
 20
-39.0426845413
 30
0.0
 11
15.74577082015674
 21
-39.337984578
 31
0.0
  0
LINE
  5
93
330
1F
100
AcDbEntity
  8
1
100
AcDbLine
 10
15.74577082015674
 20
-39.337984578
 30
0.0
 11
16.26836199375674
 21
-39.5644114476
 31
0.0
  0
LINE
  5
94
330
1F
100
AcDbEntity
  8
1
100
AcDbLine
 10
16.26836199375674
 20
-39.5644114476
 30
0.0
 11
17.16427940935674
 21
-39.7344821256
 31
0.0
  0
LINE
  5
95
330
1F
100
AcDbEntity
  8
1
100
AcDbLine
 10
17.16427940935674
 20
-39.7344821256
 30
0.0
 11
18.07772804115674
 21
-39.6377326113
 31
0.0
  0
LINE
  5
96
330
1F
100
AcDbEntity
  8
1
100
AcDbLine
 10
18.07772804115674
 20
-39.6377326113
 30
0.0
 11
18.58716148945674
 21
-39.4623906475
 31
0.0
  0
LINE
  5
97
330
1F
100
AcDbEntity
  8
1
100
AcDbLine
 10
18.58716148945674
 20
-39.4623906475
 30
0.0
 11
19.05711431115674
 21
-39.2182239455
 31
0.0
  0
LINE
  5
98
330
1F
100
AcDbEntity
  8
1
100
AcDbLine
 10
19.05711431115674
 20
-39.2182239455
 30
0.0
 11
19.67458862875674
 21
-38.7605794829
 31
0.0
  0
LINE
  5
99
330
1F
100
AcDbEntity
  8
1
100
AcDbLine
 10
19.67458862875674
 20
-38.7605794829
 30
0.0
 11
20.20273048495674
 21
-38.219365583
 31
0.0
  0
LINE
  5
9A
330
1F
100
AcDbEntity
  8
1
100
AcDbLine
 10
20.20273048495674
 20
-38.219365583
 30
0.0
 11
20.86363423675674
 21
-37.2652367812
 31
0.0
  0
LINE
  5
9B
330
1F
100
AcDbEntity
  8
1
100
AcDbLine
 10
20.86363423675674
 20
-37.2652367812
 30
0.0
 11
21.34687889425674
 21
-36.2103984814
 31
0.0
  0
LINE
  5
9C
330
1F
100
AcDbEntity
  8
1
100
AcDbLine
 10
21.34687889425674
 20
-36.2103984814
 30
0.0
 11
21.66694093555674
 21
-35.0424976211
 31
0.0
  0
LINE
  5
9D
330
1F
100
AcDbEntity
  8
1
100
AcDbLine
 10
21.66694093555674
 20
-35.0424976211
 30
0.0
 11
21.79448742485674
 21
-33.8231318753
 31
0.0
  0
LINE
  5
9E
330
1F
100
AcDbEntity
  8
1
100
AcDbLine
 10
21.79448742485674
 20
-33.8231318753
 30
0.0
 11
21.73255074835674
 21
-32.7327207785
 31
0.0
  0
LINE
  5
9F
330
1F
100
AcDbEntity
  8
1
100
AcDbLine
 10
21.73255074835674
 20
-32.7327207785
 30
0.0
 11
21.49042178005674
 21
-31.6531353753
 31
0.0
  0
LINE
  5
A0
330
1F
100
AcDbEntity
  8
1
100
AcDbLine
 10
21.49042178005674
 20
-31.6531353753
 30
0.0
 11
21.15613658045674
 21
-30.8285013896
 31
0.0
  0
LINE
  5
A1
330
1F
100
AcDbEntity
  8
1
100
AcDbLine
 10
21.15613658045674
 20
-30.8285013896
 30
0.0
 11
20.69005061005674
 21
-30.06170067310001
 31
0.0
  0
LINE
  5
A2
330
1F
100
AcDbEntity
  8
1
100
AcDbLine
 10
20.69005061005674
 20
-30.06170067310001
 30
0.0
 11
20.19385684345674
 21
-29.48626625650001
 31
0.0
  0
LINE
  5
A3
330
1F
100
AcDbEntity
  8
1
100
AcDbLine
 10
20.19385684345674
 20
-29.48626625650001
 30
0.0
 11
19.60842002245674
 21
-28.9966327261
 31
0.0
  0
LINE
  5
A4
330
1F
100
AcDbEntity
  8
1
100
AcDbLine
 10
19.60842002245674
 20
-28.9966327261
 30
0.0
 11
18.93877673955674
 21
-28.6148519378
 31
0.0
  0
LINE
  5
A5
330
1F
100
AcDbEntity
  8
1
100
AcDbLine
 10
18.93877673955674
 20
-28.6148519378
 30
0.0
 11
18.20877630325674
 21
-28.36283046120001
 31
0.0
  0
LINE
  5
A6
330
1F
100
AcDbEntity
  8
1
100
AcDbLine
 10
18.20877630325674
 20
-28.36283046120001
 30
0.0
 11
17.29605037785674
 21
-28.2548659604
 31
0.0
  0
LINE
  5
A7
330
1F
100
AcDbEntity
  8
1
100
AcDbLine
 10
47.04604746925674
 20
-53.500005756
 30
0.0
 11
47.04604746925674
 21
-13.54713099710001
 31
0.0
  0
LINE
  5
A8
330
1F
100
AcDbEntity
  8
1
100
AcDbLine
 10
10.04605430635674
 20
-53.500005756
 30
0.0
 11
47.04604746925674
 21
-53.500005756
 31
0.0
  0
LINE
  5
A9
330
1F
100
AcDbEntity
  8
1
100
AcDbLine
 10
10.04605430635674
 20
-53.500005756
 30
0.0
 11
10.04605430635674
 21
-28.9328207862
 31
0.0
  0
LINE
  5
AA
330
1F
100
AcDbEntity
  8
1
100
AcDbLine
 10
9.246051940056741
 20
-27.32309490860001
 30
0.0
 11
9.387747081856741
 21
-27.3481418979
 31
0.0
  0
LINE
  5
AB
330
1F
100
AcDbEntity
  8
1
100
AcDbLine
 10
9.387747081856741
 20
-27.3481418979
 30
0.0
 11
9.540919843056741
 21
-27.4347362709
 31
0.0
  0
LINE
  5
AC
330
1F
100
AcDbEntity
  8
1
100
AcDbLine
 10
9.540919843056741
 20
-27.4347362709
 30
0.0
 11
9.722021105556742
 21
-27.63490356920001
 31
0.0
  0
LINE
  5
AD
330
1F
100
AcDbEntity
  8
1
100
AcDbLine
 10
9.722021105556742
 20
-27.63490356920001
 30
0.0
 11
9.927224996356742
 21
-28.0821637851
 31
0.0
  0
LINE
  5
AE
330
1F
100
AcDbEntity
  8
1
100
AcDbLine
 10
9.927224996356742
 20
-28.0821637851
 30
0.0
 11
10.04605430635674
 21
-28.9328207862
 31
0.0
  0
LINE
  5
AF
330
1F
100
AcDbEntity
  8
1
100
AcDbLine
 10
9.246051940056741
 20
-27.32309490860001
 30
0.0
 11
0.0291655128567416
 21
-27.32309490860001
 31
0.0
  0
LINE
  5
B0
330
1F
100
AcDbEntity
  8
1
100
AcDbLine
 10
17.29605037785674
 20
-51.9408689004
 30
0.0
 11
18.36954493135674
 21
-51.998495416
 31
0.0
  0
LINE
  5
B1
330
1F
100
AcDbEntity
  8
1
100
AcDbLine
 10
18.36954493135674
 20
-51.998495416
 30
0.0
 11
19.32203460545674
 21
-52.1589771968
 31
0.0
  0
LINE
  5
B2
330
1F
100
AcDbEntity
  8
1
100
AcDbLine
 10
19.32203460545674
 20
-52.1589771968
 30
0.0
 11
20.04585851045674
 21
-52.3887158495
 31
0.0
  0
LINE
  5
B3
330
1F
100
AcDbEntity
  8
1
100
AcDbLine
 10
20.04585851045674
 20
-52.3887158495
 30
0.0
 11
20.46195108505674
 21
-52.6437045198
 31
0.0
  0
LINE
  5
B4
330
1F
100
AcDbEntity
  8
1
100
AcDbLine
 10
20.46195108505674
 20
-52.6437045198
 30
0.0
 11
20.52774716235674
 21
-52.8836802703
 31
0.0
  0
LINE
  5
B5
330
1F
100
AcDbEntity
  8
1
100
AcDbLine
 10
20.52774716235674
 20
-52.8836802703
 30
0.0
 11
20.23140776965674
 21
-53.0810237985
 31
0.0
  0
LINE
  5
B6
330
1F
100
AcDbEntity
  8
1
100
AcDbLine
 10
20.23140776965674
 20
-53.0810237985
 30
0.0
 11
19.59103781795674
 21
-53.2218323212
 31
0.0
  0
LINE
  5
B7
330
1F
100
AcDbEntity
  8
1
100
AcDbLine
 10
19.59103781795674
 20
-53.2218323212
 30
0.0
 11
19.16220475055674
 21
-53.2699705225
 31
0.0
  0
LINE
  5
B8
330
1F
100
AcDbEntity
  8
1
100
AcDbLine
 10
19.16220475055674
 20
-53.2699705225
 30
0.0
 11
18.67626298285674
 21
-53.3046716016
 31
0.0
  0
LINE
  5
B9
330
1F
100
AcDbEntity
  8
1
100
AcDbLine
 10
18.67626298285674
 20
-53.3046716016
 30
0.0
 11
18.16038478225674
 21
-53.3265576821
 31
0.0
  0
LINE
  5
BA
330
1F
100
AcDbEntity
  8
1
100
AcDbLine
 10
18.16038478225674
 20
-53.3265576821
 30
0.0
 11
17.61822093345674
 21
-53.3376739484
 31
0.0
  0
LINE
  5
BB
330
1F
100
AcDbEntity
  8
1
100
AcDbLine
 10
17.61822093345674
 20
-53.3376739484
 30
0.0
 11
16.55786920405674
 21
-53.3301376861
 31
0.0
  0
LINE
  5
BC
330
1F
100
AcDbEntity
  8
1
100
AcDbLine
 10
16.55786920405674
 20
-53.3301376861
 30
0.0
 11
15.59190888015674
 21
-53.2834635239
 31
0.0
  0
LINE
  5
BD
330
1F
100
AcDbEntity
  8
1
100
AcDbLine
 10
15.59190888015674
 20
-53.2834635239
 30
0.0
 11
14.79339290475674
 21
-53.1890348655
 31
0.0
  0
LINE
  5
BE
330
1F
100
AcDbEntity
  8
1
100
AcDbLine
 10
14.79339290475674
 20
-53.1890348655
 30
0.0
 11
14.24891192525674
 21
-53.034703539
 31
0.0
  0
LINE
  5
BF
330
1F
100
AcDbEntity
  8
1
100
AcDbLine
 10
14.24891192525674
 20
-53.034703539
 30
0.0
 11
14.10083163595674
 21
-52.9334501487
 31
0.0
  0
LINE
  5
C0
330
1F
100
AcDbEntity
  8
1
100
AcDbLine
 10
14.10083163595674
 20
-52.9334501487
 30
0.0
 11
14.04624868245674
 21
-52.8189123731
 31
0.0
  0
LINE
  5
C1
330
1F
100
AcDbEntity
  8
1
100
AcDbLine
 10
14.04624868245674
 20
-52.8189123731
 30
0.0
 11
14.08838916635674
 21
-52.6941747528
 31
0.0
  0
LINE
  5
C2
330
1F
100
AcDbEntity
  8
1
100
AcDbLine
 10
14.08838916635674
 20
-52.6941747528
 30
0.0
 11
14.22508496855674
 21
-52.5630557101
 31
0.0
  0
LINE
  5
C3
330
1F
100
AcDbEntity
  8
1
100
AcDbLine
 10
14.22508496855674
 20
-52.5630557101
 30
0.0
 11
14.75672859765674
 21
-52.3070202332
 31
0.0
  0
LINE
  5
C4
330
1F
100
AcDbEntity
  8
1
100
AcDbLine
 10
14.75672859765674
 20
-52.3070202332
 30
0.0
 11
15.57084608885674
 21
-52.0950549405
 31
0.0
  0
LINE
  5
C5
330
1F
100
AcDbEntity
  8
1
100
AcDbLine
 10
15.57084608885674
 20
-52.0950549405
 30
0.0
 11
16.57640624855674
 21
-51.9664839965
 31
0.0
  0
LINE
  5
C6
330
1F
100
AcDbEntity
  8
1
100
AcDbLine
 10
16.57640624855674
 20
-51.9664839965
 30
0.0
 11
17.29605037785674
 21
-51.9408689004
 31
0.0
  0
LINE
  5
C7
330
1F
100
AcDbEntity
  8
1
100
AcDbLine
 10
18.98210944765674
 20
10.0013090793
 30
0.0
 11
47.04604746925674
 21
-13.54713099710001
 31
0.0
  0
LINE
  5
C9
330
1F
100
AcDbEntity
  8
1
100
AcDbLine
 10
17.19604850105674
 20
13.83153134519999
 30
0.0
 11
17.19604850105674
 21
36.499993095
 31
0.0
  0
LINE
  5
CA
330
1F
100
AcDbEntity
  8
1
100
AcDbLine
 10
-0.1276353976432584
 20
-41.0589083506
 30
0.0
 11
-0.1507840886432584
 21
-41.0528246171
 31
0.0
  0
LINE
  5
CB
330
1F
100
AcDbEntity
  8
1
100
AcDbLine
 10
-0.1507840886432584
 20
-41.0528246171
 30
0.0
 11
-0.0323012306432584
 21
-41.0965483493
 31
0.0
  0
LINE
  5
CC
330
1F
100
AcDbEntity
  8
1
100
AcDbLine
 10
-0.0323012306432584
 20
-41.0965483493
 30
0.0
 11
0.0540211961567416
 21
-41.1570023603
 31
0.0
  0
LINE
  5
CD
330
1F
100
AcDbEntity
  8
1
100
AcDbLine
 10
0.0540211961567416
 20
-41.1570023603
 30
0.0
 11
0.0932820305567416
 21
-41.2304837114
 31
0.0
  0
LINE
  5
CE
330
1F
100
AcDbEntity
  8
1
100
AcDbLine
 10
0.0932820305567416
 20
-41.2304837114
 30
0.0
 11
0.0708258531567416
 21
-41.3087003988
 31
0.0
  0
LINE
  5
CF
330
1F
100
AcDbEntity
  8
1
100
AcDbLine
 10
0.0708258531567416
 20
-41.3087003988
 30
0.0
 11
-0.0170798219432584
 21
-41.3789780002
 31
0.0
  0
LINE
  5
D0
330
1F
100
AcDbEntity
  8
1
100
AcDbLine
 10
-0.0170798219432584
 20
-41.3789780002
 30
0.0
 11
-0.1549826182432584
 21
-41.4292582434
 31
0.0
  0
LINE
  5
D1
330
1F
100
AcDbEntity
  8
1
100
AcDbLine
 10
-0.1549826182432584
 20
-41.4292582434
 30
0.0
 11
-0.1276355845432584
 21
-41.4225598986
 31
0.0
  0
LINE
  5
D2
330
1F
100
AcDbEntity
  8
1
100
AcDbLine
 10
-3.403977384843258
 20
-39.4267781683
 30
0.0
 11
-3.403976776843258
 21
-40.1569603136
 31
0.0
  0
LINE
  5
D3
330
1F
100
AcDbEntity
  8
1
100
AcDbLine
 10
-0.1558735593432584
 20
-37.7892628545
 30
0.0
 11
-0.0720880552432584
 21
-37.8284678096
 31
0.0
  0
LINE
  5
D4
330
1F
100
AcDbEntity
  8
1
100
AcDbLine
 10
-0.0720880552432584
 20
-37.8284678096
 30
0.0
 11
0.0240318850567416
 21
-37.9035733873
 31
0.0
  0
LINE
  5
D5
330
1F
100
AcDbEntity
  8
1
100
AcDbLine
 10
0.0240318850567416
 20
-37.9035733873
 30
0.0
 11
0.0844411925567416
 21
-38.0038134987
 31
0.0
  0
LINE
  5
D6
330
1F
100
AcDbEntity
  8
1
100
AcDbLine
 10
0.0844411925567416
 20
-38.0038134987
 30
0.0
 11
0.0859350339567416
 21
-38.1224192912
 31
0.0
  0
LINE
  5
D7
330
1F
100
AcDbEntity
  8
1
100
AcDbLine
 10
0.0859350339567416
 20
-38.1224192912
 30
0.0
 11
0.0098982277567416
 21
-38.2394321399
 31
0.0
  0
LINE
  5
D8
330
1F
100
AcDbEntity
  8
1
100
AcDbLine
 10
0.0098982277567416
 20
-38.2394321399
 30
0.0
 11
-0.1057124313432584
 21
-38.3149400489
 31
0.0
  0
LINE
  5
D9
330
1F
100
AcDbEntity
  8
1
100
AcDbLine
 10
-0.1057124313432584
 20
-38.3149400489
 30
0.0
 11
-0.1558735318432584
 21
-38.3353297766
 31
0.0
  0
LINE
  5
DA
330
1F
100
AcDbEntity
  8
1
100
AcDbLine
 10
-3.404496529043259
 20
-35.4709326181
 30
0.0
 11
-3.404495921343258
 21
-36.5083243389
 31
0.0
  0
LINE
  5
DB
330
1F
100
AcDbEntity
  8
1
100
AcDbLine
 10
-3.404967468443258
 20
-29.8298015121
 30
0.0
 11
-3.404966860443258
 21
-31.3231038417
 31
0.0
  0
LINE
  5
DC
330
1F
100
AcDbEntity
  8
1
100
AcDbLine
 10
0.0523856606567416
 20
-44.9995625377
 30
0.0
 11
9.246051940056741
 21
-44.9995625377
 31
0.0
  0
LINE
  5
DD
330
1F
100
AcDbEntity
  8
1
100
AcDbLine
 10
-3.403949848643258
 20
-44.8483222287
 30
0.0
 11
-3.403949240643259
 21
-44.9407655246
 31
0.0
  0
LINE
  5
DE
330
1F
100
AcDbEntity
  8
1
100
AcDbLine
 10
-0.1558729054432584
 20
-44.5378148704
 30
0.0
 11
-0.1381703259432584
 21
-44.5393608658
 31
0.0
  0
LINE
  5
DF
330
1F
100
AcDbEntity
  8
1
100
AcDbLine
 10
-0.1381703259432584
 20
-44.5393608658
 30
0.0
 11
-0.0145353915432584
 21
-44.5552380531
 31
0.0
  0
LINE
  5
E0
330
1F
100
AcDbEntity
  8
1
100
AcDbLine
 10
-0.0145353915432584
 20
-44.5552380531
 30
0.0
 11
0.0662102756567416
 21
-44.5757383256
 31
0.0
  0
LINE
  5
E1
330
1F
100
AcDbEntity
  8
1
100
AcDbLine
 10
0.0662102756567416
 20
-44.5757383256
 30
0.0
 11
0.0941238758567416
 21
-44.5984104424
 31
0.0
  0
LINE
  5
E2
330
1F
100
AcDbEntity
  8
1
100
AcDbLine
 10
0.0941238758567416
 20
-44.5984104424
 30
0.0
 11
0.0649250540567416
 21
-44.6205443572
 31
0.0
  0
LINE
  5
E3
330
1F
100
AcDbEntity
  8
1
100
AcDbLine
 10
0.0649250540567416
 20
-44.6205443572
 30
0.0
 11
-0.0184320416432584
 21
-44.6395954918
 31
0.0
  0
LINE
  5
E4
330
1F
100
AcDbEntity
  8
1
100
AcDbLine
 10
-0.0184320416432584
 20
-44.6395954918
 30
0.0
 11
-0.1458704974432584
 21
-44.6535914075
 31
0.0
  0
LINE
  5
E5
330
1F
100
AcDbEntity
  8
1
100
AcDbLine
 10
-0.1458704974432584
 20
-44.6535914075
 30
0.0
 11
-0.1558729685432584
 21
-44.6543320755
 31
0.0
  0
LINE
  5
E6
330
1F
100
AcDbEntity
  8
1
100
AcDbLine
 10
-3.403949848643258
 20
-43.9439558547
 30
0.0
 11
-3.403949240643259
 21
-44.2263825303
 31
0.0
  0
LINE
  5
E7
330
1F
100
AcDbEntity
  8
1
100
AcDbLine
 10
-0.1558728704432584
 20
-43.2483616436
 30
0.0
 11
-0.1433149168432584
 21
-43.2505148614
 31
0.0
  0
LINE
  5
E8
330
1F
100
AcDbEntity
  8
1
100
AcDbLine
 10
-0.1433149168432584
 20
-43.2505148614
 30
0.0
 11
-0.0213898906432584
 21
-43.2807902957
 31
0.0
  0
LINE
  5
E9
330
1F
100
AcDbEntity
  8
1
100
AcDbLine
 10
-0.0213898906432584
 20
-43.2807902957
 30
0.0
 11
0.0617623140567416
 21
-43.3211500908
 31
0.0
  0
LINE
  5
EA
330
1F
100
AcDbEntity
  8
1
100
AcDbLine
 10
0.0617623140567416
 20
-43.3211500908
 30
0.0
 11
0.0940233280567416
 21
-43.3677050436
 31
0.0
  0
LINE
  5
EB
330
1F
100
AcDbEntity
  8
1
100
AcDbLine
 10
0.0940233280567416
 20
-43.3677050436
 30
0.0
 11
0.0672680410567416
 21
-43.4149112233
 31
0.0
  0
LINE
  5
EC
330
1F
100
AcDbEntity
  8
1
100
AcDbLine
 10
0.0672680410567416
 20
-43.4149112233
 30
0.0
 11
-0.0174934891432584
 21
-43.4564035066
 31
0.0
  0
LINE
  5
ED
330
1F
100
AcDbEntity
  8
1
100
AcDbLine
 10
-0.0174934891432584
 20
-43.4564035066
 30
0.0
 11
-0.1481617716432584
 21
-43.4867795237
 31
0.0
  0
LINE
  5
EE
330
1F
100
AcDbEntity
  8
1
100
AcDbLine
 10
-0.1481617716432584
 20
-43.4867795237
 30
0.0
 11
-0.1558731890432584
 21
-43.4879901394
 31
0.0
  0
LINE
  5
EF
330
1F
100
AcDbEntity
  8
1
100
AcDbLine
 10
-3.403949240643259
 20
-42.1754765467
 30
0.0
 11
-3.403949240643259
 21
-42.6646622626
 31
0.0
  0
LINE
  5
F0
330
1F
100
AcDbEntity
  8
1
100
AcDbLine
 10
-3.404967468443258
 20
-29.8298015121
 30
0.0
 11
-3.453950695043258
 21
-29.78784899530001
 31
0.0
  0
LINE
  5
F1
330
1F
100
AcDbEntity
  8
1
100
AcDbLine
 10
-3.453950695043258
 20
29.78783537329999
 30
0.0
 11
-3.403949240643259
 21
29.83066036109999
 31
0.0
  0
LINE
  5
F2
330
1F
100
AcDbEntity
  8
1
100
AcDbLine
 10
-3.403949848643258
 20
30.48369352409999
 30
0.0
 11
-3.413948527843258
 21
30.4768948693
 31
0.0
  0
LINE
  5
F3
330
1F
100
AcDbEntity
  8
1
100
AcDbLine
 10
-3.703947476443259
 20
29.8976252664
 30
0.0
 11
-3.692935518343258
 21
29.7977427829
 31
0.0
  0
LINE
  5
F4
330
1F
100
AcDbEntity
  8
1
100
AcDbLine
 10
-3.692935518343258
 20
29.7977427829
 30
0.0
 11
-3.666538111243258
 21
29.74165667479999
 31
0.0
  0
LINE
  5
F5
330
1F
100
AcDbEntity
  8
1
100
AcDbLine
 10
-3.666538111243258
 20
29.74165667479999
 30
0.0
 11
-3.627299628543258
 21
29.71489605189999
 31
0.0
  0
LINE
  5
F6
330
1F
100
AcDbEntity
  8
1
100
AcDbLine
 10
-3.627299628543258
 20
29.71489605189999
 30
0.0
 11
-3.572496882943258
 21
29.7164364595
 31
0.0
  0
LINE
  5
F7
330
1F
100
AcDbEntity
  8
1
100
AcDbLine
 10
-3.572496882943258
 20
29.7164364595
 30
0.0
 11
-3.517165146143258
 21
29.7413474757
 31
0.0
  0
LINE
  5
F8
330
1F
100
AcDbEntity
  8
1
100
AcDbLine
 10
-3.517165146143258
 20
29.7413474757
 30
0.0
 11
-3.453950695043258
 21
29.78783537329999
 31
0.0
  0
LINE
  5
FA
330
1F
100
AcDbEntity
  8
1
100
AcDbLine
 10
-3.453950695043258
 20
31.2219529289
 30
0.0
 11
-3.660786263043258
 21
30.6813313503
 31
0.0
  0
LINE
  5
FB
330
1F
100
AcDbEntity
  8
1
100
AcDbLine
 10
-3.660786263043258
 20
30.6813313503
 30
0.0
 11
-3.703947476443259
 21
30.40074807289999
 31
0.0
  0
LINE
  5
FC
330
1F
100
AcDbEntity
  8
1
100
AcDbLine
 10
-3.403949848643258
 20
31.32369805759999
 30
0.0
 11
-3.453950695043258
 21
31.2219529289
 31
0.0
  0
LINE
  5
FD
330
1F
100
AcDbEntity
  8
1
100
AcDbLine
 10
-3.413948527843258
 20
30.6968956131
 30
0.0
 11
-3.403949848643258
 21
30.70369426789999
 31
0.0
  0
LINE
  5
FE
330
1F
100
AcDbEntity
  8
1
100
AcDbLine
 10
-3.413948527843258
 20
30.6968956131
 30
0.0
 11
-3.413948527843258
 21
30.4768948693
 31
0.0
  0
LINE
  5
FF
330
1F
100
AcDbEntity
  8
1
100
AcDbLine
 10
-3.703947476443259
 20
35.4489206213
 30
0.0
 11
-3.703947476443259
 21
-30.40076169490001
 31
0.0
  0
LINE
  5
100
330
1F
100
AcDbEntity
  8
1
100
AcDbLine
 10
-3.453950695043258
 20
-29.78784899530001
 30
0.0
 11
-3.502103797443259
 21
-29.7509332311
 31
0.0
  0
LINE
  5
101
330
1F
100
AcDbEntity
  8
1
100
AcDbLine
 10
-3.502103797443259
 20
-29.7509332311
 30
0.0
 11
-3.575771413143258
 21
-29.71558581410001
 31
0.0
  0
LINE
  5
102
330
1F
100
AcDbEntity
  8
1
100
AcDbLine
 10
-3.575771413143258
 20
-29.71558581410001
 30
0.0
 11
-3.624416253843258
 21
-29.7141422641
 31
0.0
  0
LINE
  5
103
330
1F
100
AcDbEntity
  8
1
100
AcDbLine
 10
-3.624416253843258
 20
-29.7141422641
 30
0.0
 11
-3.661028406843258
 21
-29.7354471993
 31
0.0
  0
LINE
  5
104
330
1F
100
AcDbEntity
  8
1
100
AcDbLine
 10
-3.661028406843258
 20
-29.7354471993
 30
0.0
 11
-3.692715726143258
 21
-29.7969424289
 31
0.0
  0
LINE
  5
105
330
1F
100
AcDbEntity
  8
1
100
AcDbLine
 10
-3.692715726143258
 20
-29.7969424289
 30
0.0
 11
-3.703947476443259
 21
-29.8976388883
 31
0.0
  0
LINE
  5
106
330
1F
100
AcDbEntity
  8
1
100
AcDbLine
 10
-3.461944083143258
 20
-31.20716620910001
 30
0.0
 11
-3.404966860443258
 21
-31.3231038417
 31
0.0
  0
LINE
  5
108
330
1F
100
AcDbEntity
  8
1
100
AcDbLine
 10
-3.404496529043259
 20
-35.4709326181
 30
0.0
 11
-3.461944083143258
 21
-35.4239456378
 31
0.0
  0
LINE
  5
109
330
1F
100
AcDbEntity
  8
1
100
AcDbLine
 10
-3.453950695043258
 20
35.4297800798
 30
0.0
 11
-3.403949240743259
 21
35.4706743166
 31
0.0
  0
LINE
  5
10A
330
1F
100
AcDbEntity
  8
1
100
AcDbLine
 10
-3.703947476443259
 20
35.4489206213
 30
0.0
 11
-3.697919956743259
 21
35.3969341952
 31
0.0
  0
LINE
  5
10B
330
1F
100
AcDbEntity
  8
1
100
AcDbLine
 10
-3.697919956743259
 20
35.3969341952
 30
0.0
 11
-3.670289478543258
 21
35.3522530634
 31
0.0
  0
LINE
  5
10C
330
1F
100
AcDbEntity
  8
1
100
AcDbLine
 10
-3.670289478543258
 20
35.3522530634
 30
0.0
 11
-3.627232573343258
 21
35.3401384193
 31
0.0
  0
LINE
  5
10D
330
1F
100
AcDbEntity
  8
1
100
AcDbLine
 10
-3.627232573343258
 20
35.3401384193
 30
0.0
 11
-3.568808845543258
 21
35.3552034933
 31
0.0
  0
LINE
  5
10E
330
1F
100
AcDbEntity
  8
1
100
AcDbLine
 10
-3.568808845543258
 20
35.3552034933
 30
0.0
 11
-3.485287837043258
 21
35.4053794283
 31
0.0
  0
LINE
  5
10F
330
1F
100
AcDbEntity
  8
1
100
AcDbLine
 10
-3.485287837043258
 20
35.4053794283
 30
0.0
 11
-3.453950695043258
 21
35.4297800798
 31
0.0
  0
LINE
  5
110
330
1F
100
AcDbEntity
  8
1
100
AcDbLine
 10
-3.703947476443259
 20
36.6999923128
 30
0.0
 11
-3.703947476443259
 21
35.4489206213
 31
0.0
  0
LINE
  5
111
330
1F
100
AcDbEntity
  8
1
100
AcDbLine
 10
-3.403949848643258
 20
36.5085384685
 30
0.0
 11
-3.453950694943258
 21
36.4260344642
 31
0.0
  0
LINE
  5
112
330
1F
100
AcDbEntity
  8
1
100
AcDbLine
 10
-3.703947476443259
 20
-30.40076169490001
 30
0.0
 11
-3.703947476443259
 21
-35.7993130577
 31
0.0
  0
LINE
  5
113
330
1F
100
AcDbEntity
  8
1
100
AcDbLine
 10
-3.461944083143258
 20
-35.4239456378
 30
0.0
 11
-3.519255034043258
 21
-35.3820429307
 31
0.0
  0
LINE
  5
114
330
1F
100
AcDbEntity
  8
1
100
AcDbLine
 10
-3.519255034043258
 20
-35.3820429307
 30
0.0
 11
-3.592185042143258
 21
-35.3464701336
 31
0.0
  0
LINE
  5
115
330
1F
100
AcDbEntity
  8
1
100
AcDbLine
 10
-3.592185042143258
 20
-35.3464701336
 30
0.0
 11
-3.651588521243258
 21
-35.3430316907
 31
0.0
  0
LINE
  5
116
330
1F
100
AcDbEntity
  8
1
100
AcDbLine
 10
-3.651588521243258
 20
-35.3430316907
 30
0.0
 11
-3.684814385443258
 21
-35.3674733203
 31
0.0
  0
LINE
  5
117
330
1F
100
AcDbEntity
  8
1
100
AcDbLine
 10
-3.684814385443258
 20
-35.3674733203
 30
0.0
 11
-3.703574947343258
 21
-35.4345657986
 31
0.0
  0
LINE
  5
118
330
1F
100
AcDbEntity
  8
1
100
AcDbLine
 10
-3.703574947343258
 20
-35.4345657986
 30
0.0
 11
-3.703947476443259
 21
-35.4489342433
 31
0.0
  0
LINE
  5
119
330
1F
100
AcDbEntity
  8
1
100
AcDbLine
 10
-3.454359532743259
 20
-36.4260480862
 30
0.0
 11
-3.404495921343258
 21
-36.5083243389
 31
0.0
  0
LINE
  5
11C
330
1F
100
AcDbEntity
  8
1
100
AcDbLine
 10
-3.453950694943258
 20
36.9499928194
 30
0.0
 11
-3.403949848543258
 21
36.9999936658
 31
0.0
  0
LINE
  5
11D
330
1F
100
AcDbEntity
  8
1
100
AcDbLine
 10
-3.403977384843258
 20
-39.4267781683
 30
0.0
 11
-3.454359532743259
 21
-39.385281026
 31
0.0
  0
LINE
  5
11E
330
1F
100
AcDbEntity
  8
1
100
AcDbLine
 10
-2.198799857443258
 20
36.9999936526
 30
0.0
 11
-3.403949848543258
 21
36.9999936658
 31
0.0
  0
LINE
  5
11F
330
1F
100
AcDbEntity
  8
1
100
AcDbLine
 10
-3.703947476443259
 20
-35.7993130577
 30
0.0
 11
-3.703947476443259
 21
-39.5818322908
 31
0.0
  0
LINE
  5
120
330
1F
100
AcDbEntity
  8
1
100
AcDbLine
 10
-3.454359532743259
 20
-39.385281026
 30
0.0
 11
-3.534040711243259
 21
-39.3257768017
 31
0.0
  0
LINE
  5
121
330
1F
100
AcDbEntity
  8
1
100
AcDbLine
 10
-3.534040711243259
 20
-39.3257768017
 30
0.0
 11
-3.610975406443258
 21
-39.284742729
 31
0.0
  0
LINE
  5
122
330
1F
100
AcDbEntity
  8
1
100
AcDbLine
 10
-3.610975406443258
 20
-39.284742729
 30
0.0
 11
-3.669343254843259
 21
-39.2770388287
 31
0.0
  0
LINE
  5
123
330
1F
100
AcDbEntity
  8
1
100
AcDbLine
 10
-3.669343254843259
 20
-39.2770388287
 30
0.0
 11
-3.697055689343258
 21
-39.2998860341
 31
0.0
  0
LINE
  5
124
330
1F
100
AcDbEntity
  8
1
100
AcDbLine
 10
-3.697055689343258
 20
-39.2998860341
 30
0.0
 11
-3.703947476443259
 21
-39.3368148368
 31
0.0
  0
LINE
  5
125
330
1F
100
AcDbEntity
  8
1
100
AcDbLine
 10
-3.453950695043258
 20
-40.0863274607
 30
0.0
 11
-3.403976776843258
 21
-40.1569603136
 31
0.0
  0
LINE
  5
128
330
1F
100
AcDbEntity
  8
1
100
AcDbLine
 10
-3.703947476443259
 20
36.6999923128
 30
0.0
 11
-3.696351609443258
 21
36.7075881797
 31
0.0
  0
LINE
  5
129
330
1F
100
AcDbEntity
  8
1
100
AcDbLine
 10
-3.696351609443258
 20
36.7075881797
 30
0.0
 11
-3.673794976643258
 21
36.7301485377
 31
0.0
  0
LINE
  5
12A
330
1F
100
AcDbEntity
  8
1
100
AcDbLine
 10
-3.673794976643258
 20
36.7301485377
 30
0.0
 11
-3.636963031443258
 21
36.7669804829
 31
0.0
  0
LINE
  5
12B
330
1F
100
AcDbEntity
  8
1
100
AcDbLine
 10
-3.636963031443258
 20
36.7669804829
 30
0.0
 11
-3.586969635643258
 21
36.8169701534
 31
0.0
  0
LINE
  5
12C
330
1F
100
AcDbEntity
  8
1
100
AcDbLine
 10
-3.586969635643258
 20
36.8169701534
 30
0.0
 11
-3.525342158243258
 21
36.8785976308
 31
0.0
  0
LINE
  5
12D
330
1F
100
AcDbEntity
  8
1
100
AcDbLine
 10
-3.525342158243258
 20
36.8785976308
 30
0.0
 11
-3.453950694943258
 21
36.9499928194
 31
0.0
  0
LINE
  5
12E
330
1F
100
AcDbEntity
  8
1
100
AcDbLine
 10
-3.403949240643259
 20
-42.1754765467
 30
0.0
 11
-3.453950695043258
 21
-42.1328649979
 31
0.0
  0
LINE
  5
130
330
1F
100
AcDbEntity
  8
1
100
AcDbLine
 10
-3.453950695043258
 20
-42.1328649979
 30
0.0
 11
-3.547414503343258
 21
-42.0590260189
 31
0.0
  0
LINE
  5
131
330
1F
100
AcDbEntity
  8
1
100
AcDbLine
 10
-3.547414503343258
 20
-42.0590260189
 30
0.0
 11
-3.626453987643258
 21
-42.0102507931
 31
0.0
  0
LINE
  5
132
330
1F
100
AcDbEntity
  8
1
100
AcDbLine
 10
-3.626453987643258
 20
-42.0102507931
 30
0.0
 11
-3.682199231643259
 21
-41.9955172699
 31
0.0
  0
LINE
  5
133
330
1F
100
AcDbEntity
  8
1
100
AcDbLine
 10
-3.682199231643259
 20
-41.9955172699
 30
0.0
 11
-3.702781460543259
 21
-42.014356063
 31
0.0
  0
LINE
  5
134
330
1F
100
AcDbEntity
  8
1
100
AcDbLine
 10
-3.702781460543259
 20
-42.014356063
 30
0.0
 11
-3.703947476443259
 21
-42.0255021315
 31
0.0
  0
LINE
  5
135
330
1F
100
AcDbEntity
  8
1
100
AcDbLine
 10
-3.453950695043258
 20
-42.6022180479
 30
0.0
 11
-3.403949240643259
 21
-42.6646622626
 31
0.0
  0
LINE
  5
137
330
1F
100
AcDbEntity
  8
1
100
AcDbLine
 10
-3.403949848643258
 20
-43.9439558547
 30
0.0
 11
-3.453950695043258
 21
-43.8991182607
 31
0.0
  0
LINE
  5
138
330
1F
100
AcDbEntity
  8
1
100
AcDbLine
 10
-3.453950695043258
 20
-43.8991182607
 30
0.0
 11
-3.559942654643258
 21
-43.80857508
 31
0.0
  0
LINE
  5
139
330
1F
100
AcDbEntity
  8
1
100
AcDbLine
 10
-3.559942654643258
 20
-43.80857508
 30
0.0
 11
-3.639634064743258
 21
-43.7500433188
 31
0.0
  0
LINE
  5
13A
330
1F
100
AcDbEntity
  8
1
100
AcDbLine
 10
-3.639634064743258
 20
-43.7500433188
 30
0.0
 11
-3.685660026343258
 21
-43.7269353431
 31
0.0
  0
LINE
  5
13B
330
1F
100
AcDbEntity
  8
1
100
AcDbLine
 10
-3.685660026343258
 20
-43.7269353431
 30
0.0
 11
-3.703791014243258
 21
-43.7342220109
 31
0.0
  0
LINE
  5
13C
330
1F
100
AcDbEntity
  8
1
100
AcDbLine
 10
-3.703791014243258
 20
-43.7342220109
 30
0.0
 11
-3.703947476443259
 21
-43.7367216807
 31
0.0
  0
LINE
  5
13E
330
1F
100
AcDbEntity
  8
1
100
AcDbLine
 10
-3.453950695043258
 20
-44.1700660747
 30
0.0
 11
-3.403949240643259
 21
-44.2263825303
 31
0.0
  0
LINE
  5
140
330
1F
100
AcDbEntity
  8
1
100
AcDbLine
 10
-3.403949848643258
 20
-44.8483222287
 30
0.0
 11
-3.453950695043258
 21
-44.8005193036
 31
0.0
  0
LINE
  5
141
330
1F
100
AcDbEntity
  8
1
100
AcDbLine
 10
-3.453950695043258
 20
-44.8892072898
 30
0.0
 11
-3.403949240643259
 21
-44.9407655246
 31
0.0
  0
LINE
  5
142
330
1F
100
AcDbEntity
  8
1
100
AcDbLine
 10
-3.703947476443259
 20
-39.5818322908
 30
0.0
 11
-3.703947476443259
 21
-44.6140871507
 31
0.0
  0
LINE
  5
144
330
1F
100
AcDbEntity
  8
CUT
100
AcDbLine
 10
47.84605342955674
 20
-48.5292927485
 30
0.0
 11
59.70787692875674
 21
-48.5292927485
 31
0.0
  0
LINE
  5
145
330
1F
100
AcDbEntity
  8
CUT
100
AcDbLine
 10
47.84605306895674
 20
-46.2700496442
 30
0.0
 11
59.71304727115674
 21
-46.2700496442
 31
0.0
  0
LINE
  5
146
330
1F
100
AcDbEntity
  8
CUT
100
AcDbLine
 10
60.04605075925674
 20
-48.8046550315
 30
0.0
 11
60.04605139295674
 21
-46.2046544878
 31
0.0
  0
LINE
  5
147
330
1F
100
AcDbEntity
  8
CUT
100
AcDbLine
 10
59.99731444165674
 20
-48.9354943775
 30
0.0
 11
59.70787692875674
 21
-48.5292927485
 31
0.0
  0
LINE
  5
148
330
1F
100
AcDbEntity
  8
CUT
100
AcDbLine
 10
59.71304727115674
 20
-46.2700496442
 30
0.0
 11
59.98032207525674
 21
-46.0564272435
 31
0.0
  0
LINE
  5
149
330
1F
100
AcDbEntity
  8
CUT
100
AcDbLine
 10
59.77519292445674
 20
-48.9992194932
 30
0.0
 11
59.88363772295674
 21
-49.0010899413
 31
0.0
  0
LINE
  5
14A
330
1F
100
AcDbEntity
  8
CUT
100
AcDbLine
 10
59.04604930495674
 20
-48.9354276222
 30
0.0
 11
59.77519292445674
 21
-48.9992194932
 31
0.0
  0
LINE
  5
14B
330
1F
100
AcDbEntity
  8
CUT
100
AcDbLine
 10
47.84605075925674
 20
-48.9354266775
 30
0.0
 11
59.04604930495674
 21
-48.9354276222
 31
0.0
  0
LINE
  5
14C
330
1F
100
AcDbEntity
  8
CUT
100
AcDbLine
 10
59.82070071015674
 20
-46.0061091013
 30
0.0
 11
59.04604894435674
 21
-46.0738795824
 31
0.0
  0
LINE
  5
14D
330
1F
100
AcDbEntity
  8
CUT
100
AcDbLine
 10
59.86609709775674
 20
-46.0056620665
 30
0.0
 11
59.82070071015674
 21
-46.0061091013
 31
0.0
  0
LINE
  5
14E
330
1F
100
AcDbEntity
  8
CUT
100
AcDbLine
 10
59.04604894435674
 20
-46.0738795824
 30
0.0
 11
47.84605039865674
 21
-46.0738807795
 31
0.0
  0
LINE
  5
14F
330
1F
100
AcDbEntity
  8
CUT
100
AcDbLine
 10
47.84605316855674
 20
48.935429095
 30
0.0
 11
59.04604930495674
 21
48.935429095
 31
0.0
  0
LINE
  5
150
330
1F
100
AcDbEntity
  8
CUT
100
AcDbLine
 10
50.55326606905674
 20
46.0738818832
 30
0.0
 11
47.84605342955674
 21
46.0738806862
 31
0.0
  0
LINE
  5
151
330
1F
100
AcDbEntity
  8
CUT
100
AcDbLine
 10
58.04604727835674
 20
48.935429095
 30
0.0
 11
58.04604727835674
 21
46.0738806862
 31
0.0
  0
LINE
  5
152
330
1F
100
AcDbEntity
  8
CUT
100
AcDbLine
 10
58.04604727835674
 20
46.0738806862
 30
0.0
 11
50.55326606905674
 21
46.0738818832
 31
0.0
  0
LINE
  5
154
330
1F
100
AcDbEntity
  8
CUT
100
AcDbLine
 10
59.82070107075674
 20
46.0061102051
 30
0.0
 11
59.04604930495674
 21
46.0738806862
 31
0.0
  0
LINE
  5
155
330
1F
100
AcDbEntity
  8
CUT
100
AcDbLine
 10
59.04604930495674
 20
48.935429095
 30
0.0
 11
59.77519292445674
 21
48.999220966
 31
0.0
  0
LINE
  5
156
330
1F
100
AcDbEntity
  8
CUT
100
AcDbLine
 10
59.77519292445674
 20
48.999220966
 30
0.0
 11
59.88363612505674
 21
49.0010910618
 31
0.0
  0
LINE
  5
157
330
1F
100
AcDbEntity
  8
CUT
100
AcDbLine
 10
59.86609745835674
 20
46.0056631703
 30
0.0
 11
59.82070107075674
 21
46.0061102051
 31
0.0
  0
LINE
  5
158
330
1F
100
AcDbEntity
  8
CUT
100
AcDbLine
 10
60.04604987595674
 20
48.8046557188
 30
0.0
 11
60.04605044815674
 21
46.2046540756
 31
0.0
  0
LINE
  5
15E
330
1F
100
AcDbEntity
  8
CUT
100
AcDbLine
 10
59.04604930495674
 20
46.0738806862
 30
0.0
 11
58.04604727835674
 21
46.0738806862
 31
0.0
  0
LINE
  5
15F
330
1F
100
AcDbEntity
  8
1
100
AcDbLine
 10
24.18002177095674
 20
-49.0000055295
 30
0.0
 11
25.91207314345674
 21
-49.0000055295
 31
0.0
  0
LINE
  5
160
330
1F
100
AcDbEntity
  8
1
100
AcDbLine
 10
25.91207314345674
 20
-49.0000055295
 30
0.0
 11
26.77809882975674
 21
-47.5000062149
 31
0.0
  0
LINE
  5
161
330
1F
100
AcDbEntity
  8
1
100
AcDbLine
 10
25.91207314345674
 20
-46.0000069004
 30
0.0
 11
24.18002177095674
 21
-46.0000069004
 31
0.0
  0
LINE
  5
162
330
1F
100
AcDbEntity
  8
1
100
AcDbLine
 10
23.31400353525674
 20
-47.5000062149
 30
0.0
 11
24.18002177095674
 21
-49.0000055295
 31
0.0
  0
LINE
  5
163
330
1F
100
AcDbEntity
  8
1
100
AcDbLine
 10
24.18002177095674
 20
-46.0000069004
 30
0.0
 11
23.31400353525674
 21
-47.5000062149
 31
0.0
  0
LINE
  5
164
330
1F
100
AcDbEntity
  8
1
100
AcDbLine
 10
26.77809882975674
 20
-47.5000062149
 30
0.0
 11
25.91207314345674
 21
-46.0000069004
 31
0.0
  0
LINE
  5
165
330
1F
100
AcDbEntity
  8
1
100
AcDbLine
 10
39.91207916355674
 20
-46.0000069004
 30
0.0
 11
38.18002779095674
 21
-46.0000069004
 31
0.0
  0
LINE
  5
166
330
1F
100
AcDbEntity
  8
1
100
AcDbLine
 10
39.91207916355674
 20
-49.0000055295
 30
0.0
 11
40.77810484975674
 21
-47.5000062149
 31
0.0
  0
LINE
  5
167
330
1F
100
AcDbEntity
  8
1
100
AcDbLine
 10
37.31400210475674
 20
-47.5000062149
 30
0.0
 11
38.18002779095674
 21
-49.0000055295
 31
0.0
  0
LINE
  5
168
330
1F
100
AcDbEntity
  8
1
100
AcDbLine
 10
40.77810484975674
 20
-47.5000062149
 30
0.0
 11
39.91207916355674
 21
-46.0000069004
 31
0.0
  0
LINE
  5
169
330
1F
100
AcDbEntity
  8
1
100
AcDbLine
 10
38.18002779095674
 20
-46.0000069004
 30
0.0
 11
37.31400210475674
 21
-47.5000062149
 31
0.0
  0
LINE
  5
16A
330
1F
100
AcDbEntity
  8
1
100
AcDbLine
 10
38.18002779095674
 20
-49.0000055295
 30
0.0
 11
39.91207916355674
 21
-49.0000055295
 31
0.0
  0
LINE
  5
16B
330
1F
100
AcDbEntity
  8
1
100
AcDbLine
 10
14.86395735355674
 20
-52.2708998185
 30
0.0
 11
14.91070229625674
 21
-52.3344607216
 31
0.0
  0
LINE
  5
16C
330
1F
100
AcDbEntity
  8
1
100
AcDbLine
 10
14.91070229625674
 20
-52.3344607216
 30
0.0
 11
15.11018414115674
 21
-52.5085956913
 31
0.0
  0
LINE
  5
16D
330
1F
100
AcDbEntity
  8
1
100
AcDbLine
 10
15.11018414115674
 20
-52.5085956913
 30
0.0
 11
15.39915490955674
 21
-52.6641228359
 31
0.0
  0
LINE
  5
16E
330
1F
100
AcDbEntity
  8
1
100
AcDbLine
 10
15.39915490955674
 20
-52.6641228359
 30
0.0
 11
15.76578307955674
 21
-52.7946756345
 31
0.0
  0
LINE
  5
16F
330
1F
100
AcDbEntity
  8
1
100
AcDbLine
 10
15.76578307955674
 20
-52.7946756345
 30
0.0
 11
16.19506318185674
 21
-52.8949120205
 31
0.0
  0
LINE
  5
170
330
1F
100
AcDbEntity
  8
1
100
AcDbLine
 10
16.19506318185674
 20
-52.8949120205
 30
0.0
 11
16.66941929675674
 21
-52.9607229989
 31
0.0
  0
LINE
  5
171
330
1F
100
AcDbEntity
  8
1
100
AcDbLine
 10
16.66941929675674
 20
-52.9607229989
 30
0.0
 11
17.16942776055674
 21
-52.9894189101
 31
0.0
  0
LINE
  5
172
330
1F
100
AcDbEntity
  8
1
100
AcDbLine
 10
17.16942776055674
 20
-52.9894189101
 30
0.0
 11
17.67462182855674
 21
-52.979818837
 31
0.0
  0
LINE
  5
173
330
1F
100
AcDbEntity
  8
1
100
AcDbLine
 10
17.67462182855674
 20
-52.979818837
 30
0.0
 11
18.16431123825674
 21
-52.9323213857
 31
0.0
  0
LINE
  5
174
330
1F
100
AcDbEntity
  8
1
100
AcDbLine
 10
18.16431123825674
 20
-52.9323213857
 30
0.0
 11
18.61846137855674
 21
-52.8488711577
 31
0.0
  0
LINE
  5
175
330
1F
100
AcDbEntity
  8
1
100
AcDbLine
 10
18.61846137855674
 20
-52.8488711577
 30
0.0
 11
19.01846814965674
 21
-52.7328842443
 31
0.0
  0
LINE
  5
176
330
1F
100
AcDbEntity
  8
1
100
AcDbLine
 10
19.01846814965674
 20
-52.7328842443
 30
0.0
 11
19.34796262595674
 21
-52.5891066652
 31
0.0
  0
LINE
  5
177
330
1F
100
AcDbEntity
  8
1
100
AcDbLine
 10
19.34796262595674
 20
-52.5891066652
 30
0.0
 11
19.59344435545674
 21
-52.4234243792
 31
0.0
  0
LINE
  5
178
330
1F
100
AcDbEntity
  8
1
100
AcDbLine
 10
19.59344435545674
 20
-52.4234243792
 30
0.0
 11
19.72140062665674
 21
-52.2812486749
 31
0.0
  0
LINE
  5
179
330
1F
100
AcDbEntity
  8
1
100
AcDbLine
 10
16.43002469155674
 20
-52.616014437
 30
0.0
 11
15.61785180185674
 21
-52.0890460473
 31
0.0
  0
LINE
  5
17A
330
1F
100
AcDbEntity
  8
1
100
AcDbLine
 10
18.16207606405674
 20
-52.616014437
 30
0.0
 11
16.43002469155674
 21
-52.616014437
 31
0.0
  0
LINE
  5
17B
330
1F
100
AcDbEntity
  8
1
100
AcDbLine
 10
18.96037597275674
 20
-52.0980426234
 30
0.0
 11
18.16207606405674
 21
-52.616014437
 31
0.0
  0
LINE
  5
17C
330
1F
100
AcDbEntity
  8
1
100
AcDbLine
 10
16.43002469155674
 20
-51.9851998549
 30
0.0
 11
16.43002469155674
 21
-52.616014437
 31
0.0
  0
LINE
  5
17D
330
1F
100
AcDbEntity
  8
1
100
AcDbLine
 10
18.16207606405674
 20
-51.9873605233
 30
0.0
 11
18.16207606405674
 21
-52.616014437
 31
0.0
  0
LINE
  5
17E
330
1F
100
AcDbEntity
  8
1
100
AcDbLine
 10
20.09199250555674
 20
48.3044839341
 30
0.0
 11
20.32406318995674
 21
48.7880489666
 31
0.0
  0
LINE
  5
17F
330
1F
100
AcDbEntity
  8
1
100
AcDbLine
 10
20.32406318995674
 20
48.7880489666
 30
0.0
 11
20.45977551555674
 21
49.3021539289
 31
0.0
  0
LINE
  5
180
330
1F
100
AcDbEntity
  8
1
100
AcDbLine
 10
20.45977551555674
 20
49.3021539289
 30
0.0
 11
20.49480814545674
 21
49.8304373461
 31
0.0
  0
LINE
  5
181
330
1F
100
AcDbEntity
  8
1
100
AcDbLine
 10
20.49480814545674
 20
49.8304373461
 30
0.0
 11
20.42804349275674
 21
50.3560832578
 31
0.0
  0
LINE
  5
182
330
1F
100
AcDbEntity
  8
1
100
AcDbLine
 10
20.42804349275674
 20
50.3560832578
 30
0.0
 11
20.26161242335674
 21
50.8623688359
 31
0.0
  0
LINE
  5
183
330
1F
100
AcDbEntity
  8
1
100
AcDbLine
 10
20.26161242335674
 20
50.8623688359
 30
0.0
 11
20.00081230015674
 21
51.3331784744
 31
0.0
  0
LINE
  5
184
330
1F
100
AcDbEntity
  8
1
100
AcDbLine
 10
20.00081230015674
 20
51.3331784744
 30
0.0
 11
19.65393561935674
 21
51.7535327811
 31
0.0
  0
LINE
  5
185
330
1F
100
AcDbEntity
  8
1
100
AcDbLine
 10
19.65393561935674
 20
51.7535327811
 30
0.0
 11
19.23202414125674
 21
52.1100579638
 31
0.0
  0
LINE
  5
186
330
1F
100
AcDbEntity
  8
1
100
AcDbLine
 10
19.23202414125674
 20
52.1100579638
 30
0.0
 11
18.74851126285674
 21
52.391403063
 31
0.0
  0
LINE
  5
187
330
1F
100
AcDbEntity
  8
1
100
AcDbLine
 10
18.74851126285674
 20
52.391403063
 30
0.0
 11
18.21876753185674
 21
52.5886124808
 31
0.0
  0
LINE
  5
188
330
1F
100
AcDbEntity
  8
1
100
AcDbLine
 10
18.21876753185674
 20
52.5886124808
 30
0.0
 11
17.65966851325674
 21
52.695420279
 31
0.0
  0
LINE
  5
189
330
1F
100
AcDbEntity
  8
1
100
AcDbLine
 10
17.65966851325674
 20
52.695420279
 30
0.0
 11
17.08899129245674
 21
52.7084178168
 31
0.0
  0
LINE
  5
18A
330
1F
100
AcDbEntity
  8
1
100
AcDbLine
 10
17.08899129245674
 20
52.7084178168
 30
0.0
 11
16.52490783545674
 21
52.6271990377
 31
0.0
  0
LINE
  5
18B
330
1F
100
AcDbEntity
  8
1
100
AcDbLine
 10
16.52490783545674
 20
52.6271990377
 30
0.0
 11
15.98536659095674
 21
52.4543418426
 31
0.0
  0
LINE
  5
18C
330
1F
100
AcDbEntity
  8
1
100
AcDbLine
 10
15.98536659095674
 20
52.4543418426
 30
0.0
 11
15.48752624605674
 21
52.1953522105
 31
0.0
  0
LINE
  5
18D
330
1F
100
AcDbEntity
  8
1
100
AcDbLine
 10
15.48752624605674
 20
52.1953522105
 30
0.0
 11
15.04724908685674
 21
51.8584667582
 31
0.0
  0
LINE
  5
18E
330
1F
100
AcDbEntity
  8
1
100
AcDbLine
 10
15.04724908685674
 20
51.8584667582
 30
0.0
 11
14.67852730365674
 21
51.4544143218
 31
0.0
  0
LINE
  5
18F
330
1F
100
AcDbEntity
  8
1
100
AcDbLine
 10
14.67852730365674
 20
51.4544143218
 30
0.0
 11
14.39310301155674
 21
50.9960434276
 31
0.0
  0
LINE
  5
190
330
1F
100
AcDbEntity
  8
1
100
AcDbLine
 10
14.39310301155674
 20
50.9960434276
 30
0.0
 11
14.20005846835674
 21
50.497949763
 31
0.0
  0
LINE
  5
191
330
1F
100
AcDbEntity
  8
1
100
AcDbLine
 10
14.20005846835674
 20
50.497949763
 30
0.0
 11
14.10554040285674
 21
49.9759732622
 31
0.0
  0
LINE
  5
192
330
1F
100
AcDbEntity
  8
1
100
AcDbLine
 10
14.10554040285674
 20
49.9759732622
 30
0.0
 11
14.11255139915674
 21
49.4467361707
 31
0.0
  0
LINE
  5
193
330
1F
100
AcDbEntity
  8
1
100
AcDbLine
 10
14.11255139915674
 20
49.4467361707
 30
0.0
 11
14.22086793995674
 21
48.9270730752
 31
0.0
  0
LINE
  5
194
330
1F
100
AcDbEntity
  8
1
100
AcDbLine
 10
14.22086793995674
 20
48.9270730752
 30
0.0
 11
14.42704785675674
 21
48.4335205395
 31
0.0
  0
LINE
  5
195
330
1F
100
AcDbEntity
  8
1
100
AcDbLine
 10
14.42704785675674
 20
48.4335205395
 30
0.0
 11
14.72452718825674
 21
47.9817918379
 31
0.0
  0
LINE
  5
196
330
1F
100
AcDbEntity
  8
1
100
AcDbLine
 10
14.72452718825674
 20
47.9817918379
 30
0.0
 11
15.10383624645674
 21
47.5862554151
 31
0.0
  0
LINE
  5
197
330
1F
100
AcDbEntity
  8
1
100
AcDbLine
 10
15.10383624645674
 20
47.5862554151
 30
0.0
 11
15.55291254135674
 21
47.2594990272
 31
0.0
  0
LINE
  5
198
330
1F
100
AcDbEntity
  8
1
100
AcDbLine
 10
15.55291254135674
 20
47.2594990272
 30
0.0
 11
16.05745840875674
 21
47.0119236845
 31
0.0
  0
LINE
  5
199
330
1F
100
AcDbEntity
  8
1
100
AcDbLine
 10
16.05745840875674
 20
47.0119236845
 30
0.0
 11
16.60141784755674
 21
46.8514046509
 31
0.0
  0
LINE
  5
19A
330
1F
100
AcDbEntity
  8
1
100
AcDbLine
 10
16.60141784755674
 20
46.8514046509
 30
0.0
 11
17.16748315905674
 21
46.7830567497
 31
0.0
  0
LINE
  5
19B
330
1F
100
AcDbEntity
  8
1
100
AcDbLine
 10
17.16748315905674
 20
46.7830567497
 30
0.0
 11
17.73763883925674
 21
46.8090443749
 31
0.0
  0
LINE
  5
19C
330
1F
100
AcDbEntity
  8
1
100
AcDbLine
 10
17.73763883925674
 20
46.8090443749
 30
0.0
 11
18.29374272435674
 21
46.9285516876
 31
0.0
  0
LINE
  5
19D
330
1F
100
AcDbEntity
  8
1
100
AcDbLine
 10
18.29374272435674
 20
46.9285516876
 30
0.0
 11
18.81809968565674
 21
47.1377677161
 31
0.0
  0
LINE
  5
19E
330
1F
100
AcDbEntity
  8
1
100
AcDbLine
 10
18.81809968565674
 20
47.1377677161
 30
0.0
 11
19.29402042245674
 21
47.4300353665
 31
0.0
  0
LINE
  5
19F
330
1F
100
AcDbEntity
  8
1
100
AcDbLine
 10
19.29402042245674
 20
47.4300353665
 30
0.0
 11
19.70635790435674
 21
47.7960600394
 31
0.0
  0
LINE
  5
1A0
330
1F
100
AcDbEntity
  8
1
100
AcDbLine
 10
19.70635790435674
 20
47.7960600394
 30
0.0
 11
20.04199165915674
 21
48.2241853017
 31
0.0
  0
LINE
  5
1A1
330
1F
100
AcDbEntity
  8
1
100
AcDbLine
 10
20.04199165915674
 20
48.2241853017
 30
0.0
 11
20.05065668435674
 21
48.2158033985
 31
0.0
  0
LINE
  5
1A2
330
1F
100
AcDbEntity
  8
1
100
AcDbLine
 10
20.10065753075674
 20
48.2961020309
 30
0.0
 11
20.09199250555674
 21
48.3044839341
 31
0.0
  0
LINE
  5
1A3
330
1F
100
AcDbEntity
  8
1
100
AcDbLine
 10
19.00051225035674
 20
48.7817047972
 30
0.0
 11
20.04199165915674
 21
48.2241853017
 31
0.0
  0
LINE
  5
1A4
330
1F
100
AcDbEntity
  8
1
100
AcDbLine
 10
20.09199250555674
 20
48.3044839341
 30
0.0
 11
19.05050564615674
 21
48.8619997043
 31
0.0
  0
LINE
  5
1A5
330
1F
100
AcDbEntity
  8
1
100
AcDbLine
 10
19.00051225035674
 20
48.7817047972
 30
0.0
 11
18.71691335055674
 21
48.4457283158
 31
0.0
  0
LINE
  5
1A6
330
1F
100
AcDbEntity
  8
1
100
AcDbLine
 10
18.71691335055674
 20
48.4457283158
 30
0.0
 11
18.35792947625674
 21
48.1788298923
 31
0.0
  0
LINE
  5
1A7
330
1F
100
AcDbEntity
  8
1
100
AcDbLine
 10
18.35792947625674
 20
48.1788298923
 30
0.0
 11
17.94260431145674
 21
47.9951730806
 31
0.0
  0
LINE
  5
1A8
330
1F
100
AcDbEntity
  8
1
100
AcDbLine
 10
17.94260431145674
 20
47.9951730806
 30
0.0
 11
17.49297667355674
 21
47.9044957895
 31
0.0
  0
LINE
  5
1A9
330
1F
100
AcDbEntity
  8
1
100
AcDbLine
 10
17.49297667355674
 20
47.9044957895
 30
0.0
 11
17.03289587115674
 21
47.9116148192
 31
0.0
  0
LINE
  5
1AA
330
1F
100
AcDbEntity
  8
1
100
AcDbLine
 10
17.03289587115674
 20
47.9116148192
 30
0.0
 11
16.58678490735674
 21
48.0161539156
 31
0.0
  0
LINE
  5
1AB
330
1F
100
AcDbEntity
  8
1
100
AcDbLine
 10
16.58678490735674
 20
48.0161539156
 30
0.0
 11
16.17829937545674
 21
48.2125586707
 31
0.0
  0
LINE
  5
1AC
330
1F
100
AcDbEntity
  8
1
100
AcDbLine
 10
16.17829937545674
 20
48.2125586707
 30
0.0
 11
15.82912046525674
 21
48.4904168982
 31
0.0
  0
LINE
  5
1AD
330
1F
100
AcDbEntity
  8
1
100
AcDbLine
 10
15.82912046525674
 20
48.4904168982
 30
0.0
 11
15.55777777045674
 21
48.8349764485
 31
0.0
  0
LINE
  5
1AE
330
1F
100
AcDbEntity
  8
1
100
AcDbLine
 10
15.55777777045674
 20
48.8349764485
 30
0.0
 11
15.37866581295674
 21
49.2279647726
 31
0.0
  0
LINE
  5
1AF
330
1F
100
AcDbEntity
  8
1
100
AcDbLine
 10
15.37866581295674
 20
49.2279647726
 30
0.0
 11
15.30128408285674
 21
49.6485276956
 31
0.0
  0
LINE
  5
1B0
330
1F
100
AcDbEntity
  8
1
100
AcDbLine
 10
15.30128408285674
 20
49.6485276956
 30
0.0
 11
15.32973785015674
 21
50.0743470032
 31
0.0
  0
LINE
  5
1B1
330
1F
100
AcDbEntity
  8
1
100
AcDbLine
 10
15.32973785015674
 20
50.0743470032
 30
0.0
 11
15.46252954815674
 21
50.482832535
 31
0.0
  0
LINE
  5
1B2
330
1F
100
AcDbEntity
  8
1
100
AcDbLine
 10
15.46252954815674
 20
50.482832535
 30
0.0
 11
15.69259602635674
 21
50.852310552
 31
0.0
  0
LINE
  5
1B3
330
1F
100
AcDbEntity
  8
1
100
AcDbLine
 10
15.69259602635674
 20
50.852310552
 30
0.0
 11
16.00774813505674
 21
51.1631785769
 31
0.0
  0
LINE
  5
1B4
330
1F
100
AcDbEntity
  8
1
100
AcDbLine
 10
16.00774813505674
 20
51.1631785769
 30
0.0
 11
16.39125187015674
 21
51.3989372987
 31
0.0
  0
LINE
  5
1B5
330
1F
100
AcDbEntity
  8
1
100
AcDbLine
 10
16.39125187015674
 20
51.3989372987
 30
0.0
 11
16.82275969595674
 21
51.5470846433
 31
0.0
  0
LINE
  5
1B6
330
1F
100
AcDbEntity
  8
1
100
AcDbLine
 10
16.82275969595674
 20
51.5470846433
 30
0.0
 11
17.27938342905674
 21
51.5997565228
 31
0.0
  0
LINE
  5
1B7
330
1F
100
AcDbEntity
  8
1
100
AcDbLine
 10
17.27938342905674
 20
51.5997565228
 30
0.0
 11
17.73688633055674
 21
51.5541552443
 31
0.0
  0
LINE
  5
1B8
330
1F
100
AcDbEntity
  8
1
100
AcDbLine
 10
17.73688633055674
 20
51.5541552443
 30
0.0
 11
18.17100931025674
 21
51.4127059716
 31
0.0
  0
LINE
  5
1B9
330
1F
100
AcDbEntity
  8
1
100
AcDbLine
 10
18.17100931025674
 20
51.4127059716
 30
0.0
 11
18.55870027155674
 21
51.1829114396
 31
0.0
  0
LINE
  5
1BA
330
1F
100
AcDbEntity
  8
1
100
AcDbLine
 10
18.55870027155674
 20
51.1829114396
 30
0.0
 11
18.87939561225674
 21
50.8769645232
 31
0.0
  0
LINE
  5
1BB
330
1F
100
AcDbEntity
  8
1
100
AcDbLine
 10
18.87939561225674
 20
50.8769645232
 30
0.0
 11
19.11608565665674
 21
50.5111000377
 31
0.0
  0
LINE
  5
1BC
330
1F
100
AcDbEntity
  8
1
100
AcDbLine
 10
19.11608565665674
 20
50.5111000377
 30
0.0
 11
19.25620872585674
 21
50.1047230202
 31
0.0
  0
LINE
  5
1BD
330
1F
100
AcDbEntity
  8
1
100
AcDbLine
 10
19.25620872585674
 20
50.1047230202
 30
0.0
 11
19.29232914065674
 21
49.6794029016
 31
0.0
  0
LINE
  5
1BE
330
1F
100
AcDbEntity
  8
1
100
AcDbLine
 10
19.29232914065674
 20
49.6794029016
 30
0.0
 11
19.22252465105674
 21
49.2577037651
 31
0.0
  0
LINE
  5
1BF
330
1F
100
AcDbEntity
  8
1
100
AcDbLine
 10
19.22252465105674
 20
49.2577037651
 30
0.0
 11
19.05050564615674
 21
48.8619997043
 31
0.0
  0
LINE
  5
1C0
330
1F
100
AcDbEntity
  8
1
100
AcDbLine
 10
18.99550546025674
 20
48.7806356389
 30
0.0
 11
19.00051225035674
 21
48.7817047972
 31
0.0
  0
LINE
  5
1C1
330
1F
100
AcDbEntity
  8
1
100
AcDbLine
 10
19.05050564615674
 20
48.8619997043
 30
0.0
 11
19.04550630665674
 21
48.860930546
 31
0.0
  0
LINE
  5
1C2
330
1F
100
AcDbEntity
  8
1
100
AcDbLine
 10
20.10065753075674
 20
48.2961020309
 30
0.0
 11
19.04550630665674
 21
48.860930546
 31
0.0
  0
LINE
  5
1C3
330
1F
100
AcDbEntity
  8
1
100
AcDbLine
 10
18.16207606415674
 20
49.4526929099
 30
0.0
 11
18.16207606415674
 21
50.9661032694
 31
0.0
  0
LINE
  5
1C4
330
1F
100
AcDbEntity
  8
1
100
AcDbLine
 10
18.16207606415674
 20
49.4526929099
 30
0.0
 11
18.59508890735674
 21
48.7573041457
 31
0.0
  0
LINE
  5
1C5
330
1F
100
AcDbEntity
  8
1
100
AcDbLine
 10
16.43002469155674
 20
49.4526929099
 30
0.0
 11
16.43002469155674
 21
50.9661032695
 31
0.0
  0
LINE
  5
1C6
330
1F
100
AcDbEntity
  8
1
100
AcDbLine
 10
15.99701184845674
 20
48.7573041457
 30
0.0
 11
16.43002469155674
 21
49.4526929099
 31
0.0
  0
LINE
  5
1C8
330
1F
100
AcDbEntity
  8
1
100
AcDbLine
 10
18.16207606415674
 20
49.4526929099
 30
0.0
 11
16.43002469155674
 21
49.4526929099
 31
0.0
  0
LINE
  5
1C9
330
1F
100
AcDbEntity
  8
1
100
AcDbLine
 10
15.67168224665674
 20
-39.2919250887
 30
0.0
 11
15.56399900525674
 21
-39.0563749832
 31
0.0
  0
LINE
  5
1CA
330
1F
100
AcDbEntity
  8
1
100
AcDbLine
 10
19.02810175035674
 20
-39.0563749831
 30
0.0
 11
18.91607482045674
 21
-39.2915004056
 31
0.0
  0
LINE
  5
1CB
330
1F
100
AcDbEntity
  8
1
100
AcDbLine
 10
16.43002469155674
 20
-39.1790078145
 30
0.0
 11
16.43002469155674
 21
-37.6655974549
 31
0.0
  0
LINE
  5
1CC
330
1F
100
AcDbEntity
  8
1
100
AcDbLine
 10
16.43002469155674
 20
-39.1790078145
 30
0.0
 11
16.20667863695674
 21
-39.537686215
 31
0.0
  0
LINE
  5
1CD
330
1F
100
AcDbEntity
  8
1
100
AcDbLine
 10
18.16207606415674
 20
-39.1790078145
 30
0.0
 11
18.16207606415674
 21
-37.6655974549
 31
0.0
  0
LINE
  5
1CE
330
1F
100
AcDbEntity
  8
1
100
AcDbLine
 10
18.16207606415674
 20
-39.1790078145
 30
0.0
 11
18.38241953475674
 21
-39.5328619641
 31
0.0
  0
LINE
  5
1D0
330
1F
100
AcDbEntity
  8
1
100
AcDbLine
 10
16.43002469155674
 20
-39.1790078145
 30
0.0
 11
18.16207606415674
 21
-39.1790078145
 31
0.0
  0
LINE
  5
1D2
330
1F
100
AcDbEntity
  8
1
100
AcDbLine
 10
17.24604953145674
 20
46.5028366882
 30
0.0
 11
17.24604953145674
 21
45.5087131697
 31
0.0
  0
LINE
  5
1D3
330
1F
100
AcDbEntity
  8
1
100
AcDbLine
 10
17.24604953145674
 20
45.5087131697
 30
0.0
 11
17.34605122415674
 21
45.5087131697
 31
0.0
  0
LINE
  5
1D4
330
1F
100
AcDbEntity
  8
1
100
AcDbLine
 10
17.34605122415674
 20
45.5087131697
 30
0.0
 11
17.34605122415674
 21
46.5028366882
 31
0.0
  0
LINE
  5
1D5
330
1F
100
AcDbEntity
  8
1
100
AcDbLine
 10
17.22105283355674
 20
44.838712259
 30
0.0
 11
17.22105283355674
 21
43.6387105722
 31
0.0
  0
LINE
  5
1D6
330
1F
100
AcDbEntity
  8
1
100
AcDbLine
 10
17.22105283355674
 20
43.6387105722
 30
0.0
 11
17.37104792205674
 21
43.6387105722
 31
0.0
  0
LINE
  5
1D7
330
1F
100
AcDbEntity
  8
1
100
AcDbLine
 10
17.37104792205674
 20
43.6387105722
 30
0.0
 11
17.37104792205674
 21
44.838712259
 31
0.0
  0
LINE
  5
1D8
330
1F
100
AcDbEntity
  8
1
100
AcDbLine
 10
17.37104792205674
 20
44.838712259
 30
0.0
 11
17.22105283355674
 21
44.838712259
 31
0.0
  0
LINE
  5
1DA
330
1F
100
AcDbEntity
  8
1
100
AcDbLine
 10
23.67915649025674
 20
47.3616353113
 30
0.0
 11
23.65027803985674
 21
47.2229800064
 31
0.0
  0
LINE
  5
1DB
330
1F
100
AcDbEntity
  8
1
100
AcDbLine
 10
23.65027803985674
 20
47.2229800064
 30
0.0
 11
23.56329251145674
 21
47.1070675987
 31
0.0
  0
LINE
  5
1DC
330
1F
100
AcDbEntity
  8
1
100
AcDbLine
 10
23.56329251145674
 20
47.1070675987
 30
0.0
 11
23.29797733635674
 21
46.9695075292
 31
0.0
  0
LINE
  5
1DD
330
1F
100
AcDbEntity
  8
1
100
AcDbLine
 10
23.29797733635674
 20
46.9695075292
 30
0.0
 11
22.69278157565674
 21
46.8965588946
 31
0.0
  0
LINE
  5
1DE
330
1F
100
AcDbEntity
  8
1
100
AcDbLine
 10
22.69278157565674
 20
47.8237426717
 30
0.0
 11
23.29706836555674
 21
47.7517141837
 31
0.0
  0
LINE
  5
1DF
330
1F
100
AcDbEntity
  8
1
100
AcDbLine
 10
23.29706836555674
 20
47.7517141837
 30
0.0
 11
23.56240589235674
 21
47.6151562173
 31
0.0
  0
LINE
  5
1E0
330
1F
100
AcDbEntity
  8
1
100
AcDbLine
 10
23.56240589235674
 20
47.6151562173
 30
0.0
 11
23.64976394985674
 21
47.4998957354
 31
0.0
  0
LINE
  5
1E1
330
1F
100
AcDbEntity
  8
1
100
AcDbLine
 10
23.64976394985674
 20
47.4998957354
 30
0.0
 11
23.67915649025674
 21
47.3616353113
 31
0.0
  0
LINE
  5
1E2
330
1F
100
AcDbEntity
  8
1
100
AcDbLine
 10
21.70479733555674
 20
47.3616353113
 30
0.0
 11
21.73423457955674
 21
47.5000596482
 31
0.0
  0
LINE
  5
1E3
330
1F
100
AcDbEntity
  8
1
100
AcDbLine
 10
21.73423457955674
 20
47.5000596482
 30
0.0
 11
21.82197261665674
 21
47.6153387565
 31
0.0
  0
LINE
  5
1E4
330
1F
100
AcDbEntity
  8
1
100
AcDbLine
 10
21.82197261665674
 20
47.6153387565
 30
0.0
 11
22.08777207945674
 21
47.7517588872
 31
0.0
  0
LINE
  5
1E5
330
1F
100
AcDbEntity
  8
1
100
AcDbLine
 10
22.08777207945674
 20
47.7517588872
 30
0.0
 11
22.69278157565674
 21
47.8237426717
 31
0.0
  0
LINE
  5
1E6
330
1F
100
AcDbEntity
  8
1
100
AcDbLine
 10
22.69278157565674
 20
46.8965588946
 30
0.0
 11
22.08706427425674
 21
46.9695038039
 31
0.0
  0
LINE
  5
1E7
330
1F
100
AcDbEntity
  8
1
100
AcDbLine
 10
22.08706427425674
 20
46.9695038039
 30
0.0
 11
21.82147342775674
 21
47.1072464127
 31
0.0
  0
LINE
  5
1E8
330
1F
100
AcDbEntity
  8
1
100
AcDbLine
 10
21.82147342775674
 20
47.1072464127
 30
0.0
 11
21.73402596325674
 21
47.2229576546
 31
0.0
  0
LINE
  5
1E9
330
1F
100
AcDbEntity
  8
1
100
AcDbLine
 10
21.73402596325674
 20
47.2229576546
 30
0.0
 11
21.70479733555674
 21
47.3616353113
 31
0.0
  0
LINE
  5
1EA
330
1F
100
AcDbEntity
  8
1
100
AcDbLine
 10
20.79569239235674
 20
49.7940077323
 30
0.0
 11
20.73453802675674
 21
50.3533861477
 31
0.0
  0
LINE
  5
1EB
330
1F
100
AcDbEntity
  8
1
100
AcDbLine
 10
20.73453802675674
 20
50.3533861477
 30
0.0
 11
20.57016331765674
 21
50.8945814211
 31
0.0
  0
LINE
  5
1EC
330
1F
100
AcDbEntity
  8
1
100
AcDbLine
 10
20.57016331765674
 20
50.8945814211
 30
0.0
 11
20.30750799985674
 21
51.4013475615
 31
0.0
  0
LINE
  5
1ED
330
1F
100
AcDbEntity
  8
1
100
AcDbLine
 10
20.30750799985674
 20
51.4013475615
 30
0.0
 11
19.95445478765674
 21
51.8584704835
 31
0.0
  0
LINE
  5
1EE
330
1F
100
AcDbEntity
  8
1
100
AcDbLine
 10
19.95445478765674
 20
51.8584704835
 30
0.0
 11
19.52159840675674
 21
52.252233668
 31
0.0
  0
LINE
  5
1EF
330
1F
100
AcDbEntity
  8
1
100
AcDbLine
 10
19.52159840675674
 20
52.252233668
 30
0.0
 11
19.02194012015674
 21
52.5708130438
 31
0.0
  0
LINE
  5
1F0
330
1F
100
AcDbEntity
  8
1
100
AcDbLine
 10
19.02194012015674
 20
52.5708130438
 30
0.0
 11
18.47047049615674
 21
52.8046457905
 31
0.0
  0
LINE
  5
1F1
330
1F
100
AcDbEntity
  8
1
100
AcDbLine
 10
18.47047049615674
 20
52.8046457905
 30
0.0
 11
17.88374472475674
 21
52.9467171866
 31
0.0
  0
LINE
  5
1F2
330
1F
100
AcDbEntity
  8
1
100
AcDbLine
 10
17.88374472475674
 20
52.9467171866
 30
0.0
 11
17.27938342905674
 21
52.9927543241
 31
0.0
  0
LINE
  5
1F3
330
1F
100
AcDbEntity
  8
1
100
AcDbLine
 10
17.27938342905674
 20
52.9927543241
 30
0.0
 11
16.67552132225674
 21
52.9413825709
 31
0.0
  0
LINE
  5
1F4
330
1F
100
AcDbEntity
  8
1
100
AcDbLine
 10
16.67552132225674
 20
52.9413825709
 30
0.0
 11
16.09028566695674
 21
52.7941367466
 31
0.0
  0
LINE
  5
1F5
330
1F
100
AcDbEntity
  8
1
100
AcDbLine
 10
16.09028566695674
 20
52.7941367466
 30
0.0
 11
15.54124493215674
 21
52.5554462213
 31
0.0
  0
LINE
  5
1F6
330
1F
100
AcDbEntity
  8
1
100
AcDbLine
 10
15.54124493215674
 20
52.5554462213
 30
0.0
 11
15.04487235165674
 21
52.2324672777
 31
0.0
  0
LINE
  5
1F7
330
1F
100
AcDbEntity
  8
1
100
AcDbLine
 10
15.04487235165674
 20
52.2324672777
 30
0.0
 11
14.61608398765674
 21
51.8349005718
 31
0.0
  0
LINE
  5
1F8
330
1F
100
AcDbEntity
  8
1
100
AcDbLine
 10
14.61608398765674
 20
51.8349005718
 30
0.0
 11
14.26774699305674
 21
51.3746782083
 31
0.0
  0
LINE
  5
1F9
330
1F
100
AcDbEntity
  8
1
100
AcDbLine
 10
14.26774699305674
 20
51.3746782083
 30
0.0
 11
14.01030708165674
 21
50.865617289
 31
0.0
  0
LINE
  5
1FA
330
1F
100
AcDbEntity
  8
1
100
AcDbLine
 10
14.01030708165674
 20
50.865617289
 30
0.0
 11
13.85149795625674
 21
50.3229952294
 31
0.0
  0
LINE
  5
1FB
330
1F
100
AcDbEntity
  8
1
100
AcDbLine
 10
13.85149795625674
 20
50.3229952294
 30
0.0
 11
13.79608798835674
 21
49.763102724
 31
0.0
  0
LINE
  5
1FC
330
1F
100
AcDbEntity
  8
1
100
AcDbLine
 10
13.79608798835674
 20
49.763102724
 30
0.0
 11
13.84574610805674
 21
49.2027445573
 31
0.0
  0
LINE
  5
1FD
330
1F
100
AcDbEntity
  8
1
100
AcDbLine
 10
13.84574610805674
 20
49.2027445573
 30
0.0
 11
13.99896729795674
 21
48.6587441403
 31
0.0
  0
LINE
  5
1FE
330
1F
100
AcDbEntity
  8
1
100
AcDbLine
 10
13.99896729795674
 20
48.6587441403
 30
0.0
 11
14.25116945125674
 21
48.1474331457
 31
0.0
  0
LINE
  5
1FF
330
1F
100
AcDbEntity
  8
1
100
AcDbLine
 10
14.25116945125674
 20
48.1474331457
 30
0.0
 11
14.59476787655674
 21
47.6841560442
 31
0.0
  0
LINE
  5
200
330
1F
100
AcDbEntity
  8
1
100
AcDbLine
 10
14.59476787655674
 20
47.6841560442
 30
0.0
 11
15.01945097065674
 21
47.2828193444
 31
0.0
  0
LINE
  5
201
330
1F
100
AcDbEntity
  8
1
100
AcDbLine
 10
15.01945097065674
 20
47.2828193444
 30
0.0
 11
15.51247824045674
 21
46.9554743606
 31
0.0
  0
LINE
  5
202
330
1F
100
AcDbEntity
  8
1
100
AcDbLine
 10
15.51247824045674
 20
46.9554743606
 30
0.0
 11
16.05904538245674
 21
46.7119446832
 31
0.0
  0
LINE
  5
203
330
1F
100
AcDbEntity
  8
1
100
AcDbLine
 10
16.05904538245674
 20
46.7119446832
 30
0.0
 11
16.64273876755674
 21
46.5595393318
 31
0.0
  0
LINE
  5
204
330
1F
100
AcDbEntity
  8
1
100
AcDbLine
 10
16.64273876755674
 20
46.5595393318
 30
0.0
 11
17.24604953145674
 21
46.5028366882
 31
0.0
  0
LINE
  5
206
330
1F
100
AcDbEntity
  8
1
100
AcDbLine
 10
10.04605440555674
 20
46.4387130144
 30
0.0
 11
10.04605453675674
 21
53.5000084776
 31
0.0
  0
LINE
  5
207
330
1F
100
AcDbEntity
  8
1
100
AcDbLine
 10
10.04605453675674
 20
53.5000084776
 30
0.0
 11
47.04604746925674
 21
53.5000084776
 31
0.0
  0
LINE
  5
209
330
1F
100
AcDbEntity
  8
1
100
AcDbLine
 10
20.30183065745674
 20
48.0850941378
 30
0.0
 11
21.16816181755674
 21
47.6213364739
 31
0.0
  0
LINE
  5
20A
330
1F
100
AcDbEntity
  8
1
100
AcDbLine
 10
21.16816181755674
 20
47.6213364739
 30
0.0
 11
21.21816266395674
 21
47.701631381
 31
0.0
  0
LINE
  5
20B
330
1F
100
AcDbEntity
  8
1
100
AcDbLine
 10
21.21816266395674
 20
47.701631381
 30
0.0
 11
20.35183150385674
 21
48.1653890449
 31
0.0
  0
LINE
  5
20C
330
1F
100
AcDbEntity
  8
1
100
AcDbLine
 10
20.79569239235674
 20
49.701288982
 30
0.0
 11
21.79605204675674
 21
49.701288982
 31
0.0
  0
LINE
  5
20D
330
1F
100
AcDbEntity
  8
1
100
AcDbLine
 10
21.79605204675674
 20
49.701288982
 30
0.0
 11
21.79605204675674
 21
49.7940077323
 31
0.0
  0
LINE
  5
20E
330
1F
100
AcDbEntity
  8
1
100
AcDbLine
 10
21.79605204675674
 20
49.7940077323
 30
0.0
 11
20.79569239235674
 21
49.7940077323
 31
0.0
  0
LINE
  5
20F
330
1F
100
AcDbEntity
  8
1
100
AcDbLine
 10
23.89605034205674
 20
49.8171864886
 30
0.0
 11
23.37105263085674
 21
49.8171864886
 31
0.0
  0
LINE
  5
211
330
1F
100
AcDbEntity
  8
1
100
AcDbLine
 10
23.37105263085674
 20
50.303958996
 30
0.0
 11
23.22105009175674
 21
50.303958996
 31
0.0
  0
LINE
  5
213
330
1F
100
AcDbEntity
  8
1
100
AcDbLine
 10
23.22105009175674
 20
49.8171864886
 30
0.0
 11
22.69605238055674
 21
49.8171864886
 31
0.0
  0
LINE
  5
214
330
1F
100
AcDbEntity
  8
1
100
AcDbLine
 10
22.69605238055674
 20
49.8171864886
 30
0.0
 11
22.69605238055674
 21
49.6781102258
 31
0.0
  0
LINE
  5
215
330
1F
100
AcDbEntity
  8
1
100
AcDbLine
 10
22.69605238055674
 20
49.6781102258
 30
0.0
 11
23.22105009175674
 21
49.6781102258
 31
0.0
  0
LINE
  5
216
330
1F
100
AcDbEntity
  8
1
100
AcDbLine
 10
23.22105009175674
 20
49.6781102258
 30
0.0
 11
23.22105009175674
 21
49.1913377184
 31
0.0
  0
LINE
  5
217
330
1F
100
AcDbEntity
  8
1
100
AcDbLine
 10
23.22105009175674
 20
49.1913377184
 30
0.0
 11
23.37105263085674
 21
49.1913377184
 31
0.0
  0
LINE
  5
218
330
1F
100
AcDbEntity
  8
1
100
AcDbLine
 10
23.37105263085674
 20
49.1913377184
 30
0.0
 11
23.37105263085674
 21
49.6781102258
 31
0.0
  0
LINE
  5
219
330
1F
100
AcDbEntity
  8
1
100
AcDbLine
 10
23.37105263085674
 20
49.6781102258
 30
0.0
 11
23.89605034205674
 21
49.6781102258
 31
0.0
  0
LINE
  5
21A
330
1F
100
AcDbEntity
  8
1
100
AcDbLine
 10
23.89605034205674
 20
49.6781102258
 30
0.0
 11
23.89605034205674
 21
49.8171864886
 31
0.0
  0
LINE
  5
21B
330
1F
100
AcDbEntity
  8
1
100
AcDbLine
 10
47.04604746925674
 20
53.5000084776
 30
0.0
 11
47.04604733795674
 21
46.4387132663
 31
0.0
  0
LINE
  5
21C
330
1F
100
AcDbEntity
  8
1
100
AcDbLine
 10
47.04604733795674
 20
41.500005571
 30
0.0
 11
10.04605440555674
 21
41.5000062588
 31
0.0
  0
LINE
  5
21D
330
1F
100
AcDbEntity
  8
1
100
AcDbLine
 10
10.04605440555674
 20
41.5000062588
 30
0.0
 11
10.04605440555674
 21
46.4387130144
 31
0.0
  0
LINE
  5
21F
330
1F
100
AcDbEntity
  8
1
100
AcDbLine
 10
17.24604953145674
 20
46.4367686648
 30
0.0
 11
17.34605122415674
 21
46.4367686648
 31
0.0
  0
LINE
  5
220
330
1F
100
AcDbEntity
  8
1
100
AcDbLine
 10
20.35183150385674
 20
48.1653890449
 30
0.0
 11
20.35183150385674
 21
48.1616451282
 31
0.0
  0
LINE
  5
221
330
1F
100
AcDbEntity
  8
1
100
AcDbLine
 10
20.79569239235674
 20
49.7940077323
 30
0.0
 11
20.79569239235674
 21
49.7902600903
 31
0.0
  0
LINE
  5
222
330
1F
100
AcDbEntity
  8
1
100
AcDbLine
 10
22.69278157565674
 20
47.8199950296
 30
0.0
 11
23.29706836555674
 21
47.747970267
 31
0.0
  0
LINE
  5
223
330
1F
100
AcDbEntity
  8
1
100
AcDbLine
 10
23.29706836555674
 20
47.747970267
 30
0.0
 11
23.56240589235674
 21
47.6114123005
 31
0.0
  0
LINE
  5
224
330
1F
100
AcDbEntity
  8
1
100
AcDbLine
 10
23.56240589235674
 20
47.6114123005
 30
0.0
 11
23.64976394985674
 21
47.4961518187
 31
0.0
  0
LINE
  5
225
330
1F
100
AcDbEntity
  8
1
100
AcDbLine
 10
23.64976394985674
 20
47.4961518187
 30
0.0
 11
23.67915649025674
 21
47.3578876693
 31
0.0
  0
LINE
  5
226
330
1F
100
AcDbEntity
  8
1
100
AcDbLine
 10
21.70479733555674
 20
47.3578876693
 30
0.0
 11
21.73423457955674
 21
47.4963157315
 31
0.0
  0
LINE
  5
227
330
1F
100
AcDbEntity
  8
1
100
AcDbLine
 10
21.73423457955674
 20
47.4963157315
 30
0.0
 11
21.82197261665674
 21
47.6115911145
 31
0.0
  0
LINE
  5
228
330
1F
100
AcDbEntity
  8
1
100
AcDbLine
 10
21.82197261665674
 20
47.6115911145
 30
0.0
 11
22.08777207945674
 21
47.7480149705
 31
0.0
  0
LINE
  5
229
330
1F
100
AcDbEntity
  8
1
100
AcDbLine
 10
22.08777207945674
 20
47.7480149705
 30
0.0
 11
22.69278157565674
 21
47.8199950296
 31
0.0
  0
LINE
  5
22A
330
1F
100
AcDbEntity
  8
1
100
AcDbLine
 10
21.78172458025674
 20
47.3552874166
 30
0.0
 11
21.81145984745674
 21
47.2310527105
 31
0.0
  0
LINE
  5
22B
330
1F
100
AcDbEntity
  8
1
100
AcDbLine
 10
21.81145984745674
 20
47.2310527105
 30
0.0
 11
21.89787168115674
 21
47.132030769
 31
0.0
  0
LINE
  5
22C
330
1F
100
AcDbEntity
  8
1
100
AcDbLine
 10
21.89787168115674
 20
47.132030769
 30
0.0
 11
22.14505214305674
 21
47.0208196778
 31
0.0
  0
LINE
  5
22D
330
1F
100
AcDbEntity
  8
1
100
AcDbLine
 10
22.14505214305674
 20
47.0208196778
 30
0.0
 11
22.69318390695674
 21
46.9641319353
 31
0.0
  0
LINE
  5
22E
330
1F
100
AcDbEntity
  8
1
100
AcDbLine
 10
22.69318390695674
 20
46.9641319353
 30
0.0
 11
23.24034709545674
 21
47.0206706661
 31
0.0
  0
LINE
  5
22F
330
1F
100
AcDbEntity
  8
1
100
AcDbLine
 10
23.24034709545674
 20
47.0206706661
 30
0.0
 11
23.48684210395674
 21
47.1321239013
 31
0.0
  0
LINE
  5
230
330
1F
100
AcDbEntity
  8
1
100
AcDbLine
 10
23.48684210395674
 20
47.1321239013
 30
0.0
 11
23.57266534185674
 21
47.2313023049
 31
0.0
  0
LINE
  5
231
330
1F
100
AcDbEntity
  8
1
100
AcDbLine
 10
23.57266534185674
 20
47.2313023049
 30
0.0
 11
23.60223669625674
 21
47.3552874166
 31
0.0
  0
LINE
  5
232
330
1F
100
AcDbEntity
  8
1
100
AcDbLine
 10
21.78172458025674
 20
47.3590350587
 30
0.0
 11
21.81145984745674
 21
47.2348003525
 31
0.0
  0
LINE
  5
233
330
1F
100
AcDbEntity
  8
1
100
AcDbLine
 10
21.81145984745674
 20
47.2348003525
 30
0.0
 11
21.89787168115674
 21
47.1357784111
 31
0.0
  0
LINE
  5
234
330
1F
100
AcDbEntity
  8
1
100
AcDbLine
 10
21.89787168115674
 20
47.1357784111
 30
0.0
 11
22.14505214305674
 21
47.0245635945
 31
0.0
  0
LINE
  5
235
330
1F
100
AcDbEntity
  8
1
100
AcDbLine
 10
22.14505214305674
 20
47.0245635945
 30
0.0
 11
22.69318390695674
 21
46.9678795773
 31
0.0
  0
LINE
  5
236
330
1F
100
AcDbEntity
  8
1
100
AcDbLine
 10
22.69318390695674
 20
47.7524182636
 30
0.0
 11
22.14462000935674
 21
47.694817825
 31
0.0
  0
LINE
  5
237
330
1F
100
AcDbEntity
  8
1
100
AcDbLine
 10
22.14462000935674
 20
47.694817825
 30
0.0
 11
21.89754385565674
 21
47.5828281481
 31
0.0
  0
LINE
  5
238
330
1F
100
AcDbEntity
  8
1
100
AcDbLine
 10
21.89754385565674
 20
47.5828281481
 30
0.0
 11
21.81151200145674
 21
47.483374073
 31
0.0
  0
LINE
  5
239
330
1F
100
AcDbEntity
  8
1
100
AcDbLine
 10
21.81151200145674
 20
47.483374073
 30
0.0
 11
21.78172458025674
 21
47.3590350587
 31
0.0
  0
LINE
  5
23A
330
1F
100
AcDbEntity
  8
1
100
AcDbLine
 10
23.60223669625674
 20
47.3590350587
 30
0.0
 11
23.57291866155674
 21
47.4832623142
 31
0.0
  0
LINE
  5
23B
330
1F
100
AcDbEntity
  8
1
100
AcDbLine
 10
23.57291866155674
 20
47.4832623142
 30
0.0
 11
23.48717738005674
 21
47.5827089388
 31
0.0
  0
LINE
  5
23C
330
1F
100
AcDbEntity
  8
1
100
AcDbLine
 10
23.48717738005674
 20
47.5827089388
 30
0.0
 11
23.24085373495674
 21
47.6950525183
 31
0.0
  0
LINE
  5
23D
330
1F
100
AcDbEntity
  8
1
100
AcDbLine
 10
23.24085373495674
 20
47.6950525183
 30
0.0
 11
22.69318390695674
 21
47.7524182636
 31
0.0
  0
LINE
  5
23E
330
1F
100
AcDbEntity
  8
1
100
AcDbLine
 10
22.69318390695674
 20
46.9678795773
 30
0.0
 11
23.24034709545674
 21
47.0244183082
 31
0.0
  0
LINE
  5
23F
330
1F
100
AcDbEntity
  8
1
100
AcDbLine
 10
23.24034709545674
 20
47.0244183082
 30
0.0
 11
23.48684210395674
 21
47.1358715433
 31
0.0
  0
LINE
  5
240
330
1F
100
AcDbEntity
  8
1
100
AcDbLine
 10
23.48684210395674
 20
47.1358715433
 30
0.0
 11
23.57266534185674
 21
47.235049947
 31
0.0
  0
LINE
  5
241
330
1F
100
AcDbEntity
  8
1
100
AcDbLine
 10
23.57266534185674
 20
47.235049947
 30
0.0
 11
23.60223669625674
 21
47.3590350587
 31
0.0
  0
LINE
  5
242
330
1F
100
AcDbEntity
  8
1
100
AcDbLine
 10
23.60223669625674
 20
47.3552874166
 30
0.0
 11
23.60223669625674
 21
47.3590350587
 31
0.0
  0
LINE
  5
243
330
1F
100
AcDbEntity
  8
1
100
AcDbLine
 10
22.69318390695674
 20
46.9641319353
 30
0.0
 11
22.69318390695674
 21
46.9678795773
 31
0.0
  0
LINE
  5
244
330
1F
100
AcDbEntity
  8
1
100
AcDbLine
 10
21.78172458025674
 20
47.3552874166
 30
0.0
 11
21.78172458025674
 21
47.3590350587
 31
0.0
  0
LINE
  5
245
330
1F
100
AcDbEntity
  8
1
100
AcDbLine
 10
22.69278157565674
 20
47.8199950296
 30
0.0
 11
22.69278157565674
 21
47.8237426717
 31
0.0
  0
LINE
  5
246
330
1F
100
AcDbEntity
  8
1
100
AcDbLine
 10
21.21641922805674
 20
47.6988225121
 30
0.0
 11
20.35183150385674
 21
48.1616451282
 31
0.0
  0
LINE
  5
247
330
1F
100
AcDbEntity
  8
1
100
AcDbLine
 10
23.22105009175674
 20
49.8134388465
 30
0.0
 11
22.69605238055674
 21
49.8134388465
 31
0.0
  0
LINE
  5
248
330
1F
100
AcDbEntity
  8
1
100
AcDbLine
 10
23.37105263085674
 20
50.3002113539
 30
0.0
 11
23.22105009175674
 21
50.3002113539
 31
0.0
  0
LINE
  5
249
330
1F
100
AcDbEntity
  8
1
100
AcDbLine
 10
23.89605034205674
 20
49.8134388465
 30
0.0
 11
23.37105263085674
 21
49.8134388465
 31
0.0
  0
LINE
  5
24A
330
1F
100
AcDbEntity
  8
1
100
AcDbLine
 10
21.79605204685674
 20
49.7902600903
 30
0.0
 11
20.79569239235674
 21
49.7902600903
 31
0.0
  0
LINE
  5
24B
330
1F
100
AcDbEntity
  8
1
100
AcDbLine
 10
23.22105009175674
 20
49.8134388465
 30
0.0
 11
23.22105009175674
 21
50.303958996
 31
0.0
  0
LINE
  5
24C
330
1F
100
AcDbEntity
  8
1
100
AcDbLine
 10
23.37105263085674
 20
49.8134388465
 30
0.0
 11
23.37105263085674
 21
50.303958996
 31
0.0
  0
LINE
  5
24D
330
1F
100
AcDbEntity
  8
1
100
AcDbLine
 10
9.246052024356741
 20
40.7000076326
 30
0.0
 11
9.384968102156742
 21
40.8389274306
 31
0.0
  0
LINE
  5
24E
330
1F
100
AcDbEntity
  8
1
100
AcDbLine
 10
9.384968102156742
 20
40.8389274306
 30
0.0
 11
9.646047626956742
 21
41.1000069457
 31
0.0
  0
LINE
  5
250
330
1F
100
AcDbEntity
  8
1
100
AcDbLine
 10
9.646047626956742
 20
41.1000069457
 30
0.0
 11
9.760279930856742
 21
41.2142392453
 31
0.0
  0
LINE
  5
251
330
1F
100
AcDbEntity
  8
1
100
AcDbLine
 10
9.760279930856742
 20
41.2142392453
 30
0.0
 11
9.85888836685674
 21
41.3128439524
 31
0.0
  0
LINE
  5
252
330
1F
100
AcDbEntity
  8
1
100
AcDbLine
 10
9.85888836685674
 20
41.3128439524
 30
0.0
 11
9.938870351056742
 21
41.3928296589
 31
0.0
  0
LINE
  5
253
330
1F
100
AcDbEntity
  8
1
100
AcDbLine
 10
9.938870351056742
 20
41.3928296589
 30
0.0
 11
9.997804444656742
 21
41.4517637503
 31
0.0
  0
LINE
  5
254
330
1F
100
AcDbEntity
  8
1
100
AcDbLine
 10
9.997804444656742
 20
41.4517637503
 30
0.0
 11
10.03389505765674
 21
41.487854362
 31
0.0
  0
LINE
  5
255
330
1F
100
AcDbEntity
  8
1
100
AcDbLine
 10
10.03389505765674
 20
41.487854362
 30
0.0
 11
10.04605440555674
 21
41.5000062588
 31
0.0
  0
LINE
  5
256
330
1F
100
AcDbEntity
  8
1
100
AcDbLine
 10
47.04604733795674
 20
46.4387132663
 30
0.0
 11
47.04604733795674
 21
40.7000069299
 31
0.0
  0
LINE
  5
257
330
1F
100
AcDbEntity
  8
1
100
AcDbLine
 10
30.90120467195674
 20
-0.0000000000000038
 30
0.0
 11
47.04604683325674
 21
13.54713149159999
 31
0.0
  0
LINE
  5
258
330
1F
100
AcDbEntity
  8
1
100
AcDbLine
 10
0.2523852565567416
 20
36.999993596
 30
0.0
 11
0.2523854052567416
 21
44.9995627736
 31
0.0
  0
LINE
  5
259
330
1F
100
AcDbEntity
  8
1
100
AcDbLine
 10
0.2523854052567416
 20
44.9995627736
 30
0.0
 11
9.246052024356741
 21
44.9995626064
 31
0.0
  0
LINE
  5
25A
330
1F
100
AcDbEntity
  8
1
100
AcDbLine
 10
47.04604683325674
 20
13.54713149159999
 30
0.0
 11
47.04604733795674
 21
40.7000069299
 31
0.0
  0
LINE
  5
25B
330
1F
100
AcDbEntity
  8
1
100
AcDbLine
 10
-3.253950958143258
 20
44.8892077816
 30
0.0
 11
-3.203950110843258
 21
44.9407657984
 31
0.0
  0
LINE
  5
25C
330
1F
100
AcDbEntity
  8
1
100
AcDbLine
 10
-3.503947888043258
 20
36.8999911904
 30
0.0
 11
-3.503947744643258
 21
44.6140876472
 31
0.0
  0
LINE
  5
25D
330
1F
100
AcDbEntity
  8
1
100
AcDbLine
 10
0.0930836321567416
 20
-23.50000456390001
 30
0.0
 11
47.04604746925674
 21
-23.50000456390001
 31
0.0
  0
LINE
  5
25E
330
1F
100
AcDbEntity
  8
1
100
AcDbLine
 10
9.246051940056741
 20
-44.9995625377
 30
0.0
 11
9.246051940056741
 21
-27.32309490860001
 31
0.0
  0
LINE
  5
25F
330
1F
100
AcDbEntity
  8
CUT
100
AcDbLine
 10
47.84605342955674
 20
-48.5292927485
 30
0.0
 11
47.84605075925674
 21
-48.9354266775
 31
0.0
  0
LINE
  5
260
330
1F
100
AcDbEntity
  8
CUT
100
AcDbLine
 10
47.84605039865674
 20
-46.0738807795
 30
0.0
 11
47.84605306895674
 21
-46.2700496442
 31
0.0
  0
LINE
  5
261
330
1F
100
AcDbEntity
  8
CUT
100
AcDbLine
 10
59.03315980045674
 20
48.935429095
 30
0.0
 11
59.03315980045674
 21
46.0738806862
 31
0.0
  0
LINE
  5
262
330
1F
100
AcDbEntity
  8
CUT
100
AcDbLine
 10
58.24100662085674
 20
48.935429095
 30
0.0
 11
58.24100662085674
 21
46.0738806862
 31
0.0
  0
LINE
  5
263
330
1F
100
AcDbEntity
  8
1
100
AcDbLine
 10
9.246052024356741
 20
40.7000076326
 30
0.0
 11
9.246052024356741
 21
44.9995626064
 31
0.0
  0
LINE
  5
264
330
1F
100
AcDbEntity
  8
1
100
AcDbLine
 10
47.04604733795674
 20
40.7000069299
 30
0.0
 11
9.246052024356741
 21
40.7000076326
 31
0.0
  0
ARC
  5
265
330
1F
100
AcDbEntity
  8
1
100
AcDbCircle
 10
9.246050759256741
 20
-45.8000067904
 30
0.0
 40
0.8000000000000261
100
AcDbArc
 50
0.0
 51
49.3905499859999
  0
ARC
  5
266
330
1F
100
AcDbEntity
  8
1
100
AcDbCircle
 10
-0.3410311037432583
 20
33.5359816293
 30
0.0
 40
0.4293340532903844
100
AcDbArc
 50
295.5479381045
 51
64.45205249179979
  0
ARC
  5
267
330
1F
100
AcDbEntity
  8
1
100
AcDbCircle
 10
-0.5816124818432583
 20
27.04150339289999
 30
0.0
 40
0.6770125172775249
100
AcDbArc
 50
356.4848337592
 51
51.03478466059995
  0
ARC
  5
268
330
1F
100
AcDbEntity
  8
1
100
AcDbCircle
 10
-59.05710103054326
 20
-24.42315410500001
 30
0.0
 40
59.15738796385843
100
AcDbArc
 50
357.1901905664001
 51
0.8941354800999994
  0
ARC
  5
269
330
1F
100
AcDbEntity
  8
1
100
AcDbCircle
 10
-0.5112506557432583
 20
-27.10428798340001
 30
0.0
 40
0.5830318223029027
100
AcDbArc
 50
307.5556591853
 51
337.9576655066
  0
CIRCLE
  5
26A
330
1F
100
AcDbEntity
  8
1
100
AcDbCircle
 10
39.04669762045674
 20
-47.5030563619
 30
0.0
 40
3.249352698792208
  0
CIRCLE
  5
26B
330
1F
100
AcDbEntity
  8
1
100
AcDbCircle
 10
25.04669905095674
 20
-47.5030563619
 30
0.0
 40
3.249352698792205
  0
ARC
  5
26C
330
1F
100
AcDbEntity
  8
1
100
AcDbCircle
 10
22.19605076715674
 20
13.8315315084
 30
0.0
 40
5.000002266142521
100
AcDbArc
 50
180.0000018701
 51
229.999972858
  0
ARC
  5
26D
330
1F
100
AcDbEntity
  8
1
100
AcDbCircle
 10
17.36438931045674
 20
-39.2702433225
 30
0.0
 40
4.559026449542307
100
AcDbArc
 50
33.9923280519
 51
90.85888491920002
  0
ARC
  5
26E
330
1F
100
AcDbEntity
  8
1
100
AcDbCircle
 10
17.24700711825674
 20
-39.3070669005
 30
0.0
 40
4.595599502078804
100
AcDbArc
 50
89.3885400316
 51
145.7995359357
  0
ARC
  5
26F
330
1F
100
AcDbEntity
  8
1
100
AcDbCircle
 10
9.264712023856742
 20
-45.7123496749
 30
0.0
 40
0.7130313469084466
100
AcDbArc
 50
45.91156706809986
 51
91.49960605710004
  0
ARC
  5
270
330
1F
100
AcDbEntity
  8
1
100
AcDbCircle
 10
-0.3410316937432584
 20
-33.5359932693
 30
0.0
 40
0.4293343445305949
100
AcDbArc
 50
295.5480230596998
 51
64.45183242389987
  0
ARC
  5
271
330
1F
100
AcDbEntity
  8
1
100
AcDbCircle
 10
-0.4176590016432584
 20
-91.4899511747
 30
0.0
 40
46.49276478770704
100
AcDbArc
 50
89.4207263373
 51
89.6773839074
  0
ARC
  5
272
330
1F
100
AcDbEntity
  8
1
100
AcDbCircle
 10
-1.590644123743258
 20
-30.20607076970001
 30
0.0
 40
2.122252486576
100
AcDbArc
 50
185.263593444
 51
208.1455900408
  0
ARC
  5
273
330
1F
100
AcDbEntity
  8
1
100
AcDbCircle
 10
-2.424309123243258
 20
35.6525581727
 30
0.0
 40
1.287799417520381
100
AcDbArc
 50
143.0857850706001
 51
173.5461846096
  0
ARC
  5
274
330
1F
100
AcDbEntity
  8
1
100
AcDbCircle
 10
-2.214617200843259
 20
-35.5692741968
 30
0.0
 40
1.506991223318997
100
AcDbArc
 50
188.7804004518
 51
214.6479743548001
  0
ARC
  5
275
330
1F
100
AcDbEntity
  8
1
100
AcDbCircle
 10
17.37291685625674
 20
-39.1226036822
 30
0.0
 40
3.484538722972724
100
AcDbArc
 50
23.43687593049997
 51
91.26400720819998
  0
ARC
  5
276
330
1F
100
AcDbEntity
  8
1
100
AcDbCircle
 10
17.21975605145674
 20
-39.1243460042
 30
0.0
 40
3.486268053217997
100
AcDbArc
 50
88.7460253113
 51
156.158451023
  0
ARC
  5
277
330
1F
100
AcDbEntity
  8
1
100
AcDbCircle
 10
-2.640497440643258
 20
-39.3690409521
 30
0.0
 40
1.084530374072119
100
AcDbArc
 50
191.3151818607002
 51
221.4051911406999
  0
ARC
  5
278
330
1F
100
AcDbEntity
  8
1
100
AcDbCircle
 10
-2.599584203443258
 20
-41.8028624604
 30
0.0
 40
1.170004896222079
100
AcDbArc
 50
199.2834671137999
 51
223.0947640083
  0
ARC
  5
279
330
1F
100
AcDbEntity
  8
1
100
AcDbCircle
 10
-2.667483544343258
 20
-43.3281945824
 30
0.0
 40
1.152075600246749
100
AcDbArc
 50
205.8880010575001
 51
226.9487413039
  0
ARC
  5
27A
330
1F
100
AcDbEntity
  8
1
100
AcDbCircle
 10
-4.272326763043258
 20
-45.4893612976
 30
0.0
 40
1.069692797668393
100
AcDbArc
 50
40.08792798679987
 51
57.90341093499995
  0
ARC
  5
27B
330
1F
100
AcDbEntity
  8
1
100
AcDbCircle
 10
-1.938420096643258
 20
-43.2609276808
 30
0.0
 40
2.224438688689416
100
AcDbArc
 50
217.4677675536001
 51
227.0539646152999
  0
ARC
  5
27C
330
1F
100
AcDbEntity
  8
CUT
100
AcDbCircle
 10
47.86117748435674
 20
-49.3448816818
 30
0.0
 40
0.8157291493760431
100
AcDbArc
 50
91.0623552725998
 51
182.1958654023001
  0
ARC
  5
27D
330
1F
100
AcDbEntity
  8
CUT
100
AcDbCircle
 10
47.85914295605674
 20
-45.4569180403
 30
0.0
 40
0.8132369583721424
100
AcDbArc
 50
178.9331248741
 51
269.0777255424998
  0
ARC
  5
27E
330
1F
100
AcDbEntity
  8
CUT
100
AcDbCircle
 10
59.84605190975674
 20
-46.2046544878
 30
0.0
 40
0.1999994832405108
100
AcDbArc
 50
0.0
 51
84.24780383379944
  0
ARC
  5
280
330
1F
100
AcDbEntity
  8
CUT
100
AcDbCircle
 10
47.84605075925674
 20
-49.7354266775
 30
0.0
 40
0.8000000000000256
100
AcDbArc
 50
90.0
 51
180.0
  0
ARC
  5
281
330
1F
100
AcDbEntity
  8
CUT
100
AcDbCircle
 10
59.84605075925674
 20
-48.8046536408
 30
0.0
 40
0.2000000000000271
100
AcDbArc
 50
280.8322870219005
 51
359.9996015949005
  0
ARC
  5
282
330
1F
100
AcDbEntity
  8
CUT
100
AcDbCircle
 10
47.84605039865674
 20
-45.2738807795
 30
0.0
 40
0.8000000000000256
100
AcDbArc
 50
180.0
 51
270.0
  0
ARC
  5
284
330
1F
100
AcDbEntity
  8
CUT
100
AcDbCircle
 10
47.84605470785674
 20
49.735436726
 30
0.0
 40
0.8000076309752758
100
AcDbArc
 50
180.0006438522998
 51
269.9998897546999
  0
ARC
  5
285
330
1F
100
AcDbEntity
  8
CUT
100
AcDbCircle
 10
47.84605373025674
 20
45.2738742939
 30
0.0
 40
0.8000063923310915
100
AcDbArc
 50
90.00002153590005
 51
179.9994448549998
  0
ARC
  5
286
330
1F
100
AcDbEntity
  8
CUT
100
AcDbCircle
 10
59.84605019915674
 20
48.8046548918
 30
0.0
 40
0.1999996768339254
100
AcDbArc
 50
0.0002369363992452
 51
79.16799793019953
  0
ARC
  5
287
330
1F
100
AcDbEntity
  8
CUT
100
AcDbCircle
 10
59.84605067885674
 20
46.2046557188
 30
0.0
 40
0.19999976934389
100
AcDbArc
 50
275.7526461677004
 51
359.999529259201
  0
CIRCLE
  5
288
330
1F
100
AcDbEntity
  8
1
100
AcDbCircle
 10
25.04605075925674
 20
-47.5000067904
 30
0.0
 40
2.299999999999997
  0
CIRCLE
  5
289
330
1F
100
AcDbEntity
  8
1
100
AcDbCircle
 10
25.04605075925674
 20
-47.5000067904
 30
0.0
 40
2.999999999999989
  0
CIRCLE
  5
28A
330
1F
100
AcDbEntity
  8
1
100
AcDbCircle
 10
39.04605075925674
 20
-47.5000067904
 30
0.0
 40
2.299999999999997
  0
CIRCLE
  5
28B
330
1F
100
AcDbEntity
  8
1
100
AcDbCircle
 10
39.04605075925674
 20
-47.5000067904
 30
0.0
 40
3.0
  0
ARC
  5
28C
330
1F
100
AcDbEntity
  8
1
100
AcDbCircle
 10
17.26820877905674
 20
49.3821662587
 30
0.0
 40
3.540853797373134
100
AcDbArc
 50
5.01114191919997
 51
148.0132542926999
  0
ARC
  5
28D
330
1F
100
AcDbEntity
  8
1
100
AcDbCircle
 10
16.86470491995674
 20
49.6272271714
 30
0.0
 40
3.068804899613498
100
AcDbArc
 50
147.9032515272
 51
178.8006990069
  0
ARC
  5
28E
330
1F
100
AcDbEntity
  8
1
100
AcDbCircle
 10
17.56316672085674
 20
49.8204456848
 30
0.0
 40
2.96014918297979
100
AcDbArc
 50
327.174547628
 51
329.0055521199999
  0
ARC
  5
28F
330
1F
100
AcDbEntity
  8
1
100
AcDbCircle
 10
12.30864576025674
 20
52.5674376363
 30
0.0
 40
4.42154227055557
100
AcDbArc
 50
317.412806405
 51
338.7666937389999
  0
ARC
  5
290
330
1F
100
AcDbEntity
  8
1
100
AcDbCircle
 10
19.34729970855674
 20
50.9661372969
 30
0.0
 40
4.030844902976048
100
AcDbArc
 50
200.1843148473999
 51
223.6360472824999
  0
ARC
  5
291
330
1F
100
AcDbEntity
  8
1
100
AcDbCircle
 10
17.29605037785674
 20
50.670260893
 30
0.0
 40
2.632251792107696
100
AcDbArc
 50
250.791566975
 51
289.2084330232
  0
ARC
  5
292
330
1F
100
AcDbEntity
  8
1
100
AcDbCircle
 10
14.90677602375674
 20
51.1766226887
 30
0.0
 40
4.421477776621185
100
AcDbArc
 50
317.4126968504
 51
338.7669410205998
  0
ARC
  5
293
330
1F
100
AcDbEntity
  8
1
100
AcDbCircle
 10
22.36998218635674
 20
52.6213175482
 30
0.0
 40
4.521748361144545
100
AcDbArc
 50
201.4726010059999
 51
222.3478988525
  0
ARC
  5
294
330
1F
100
AcDbEntity
  8
1
100
AcDbCircle
 10
17.29605037795674
 20
53.4518122243
 30
0.0
 40
2.632251792177143
100
AcDbArc
 50
250.7915669758
 51
289.2084330229
  0
ARC
  5
295
330
1F
100
AcDbEntity
  8
1
100
AcDbCircle
 10
17.48603793155674
 20
49.7763193665
 30
0.0
 40
1.808280483115762
100
AcDbArc
 50
326.5901259287
 51
329.5875883120999
  0
ARC
  5
296
330
1F
100
AcDbEntity
  8
1
100
AcDbCircle
 10
17.29607885965674
 20
47.436167024
 30
0.0
 40
1.570218806608949
100
AcDbArc
 50
42.9459557984
 51
137.1553534565999
  0
ARC
  5
297
330
1F
100
AcDbEntity
  8
1
100
AcDbCircle
 10
17.27619566715674
 20
47.9287377679
 30
0.0
 40
1.52408447412831
100
AcDbArc
 50
89.2535693868
 51
147.0676385951001
  0
ARC
  5
298
330
1F
100
AcDbEntity
  8
1
100
AcDbCircle
 10
17.31590508875674
 20
47.9287377679
 30
0.0
 40
1.524084474169602
100
AcDbArc
 50
32.9323614056999
 51
90.74643061600001
  0
ARC
  5
299
330
1F
100
AcDbEntity
  8
1
100
AcDbCircle
 10
17.29662971595674
 20
-39.1533248466
 30
0.0
 40
3.263371840762632
100
AcDbArc
 50
20.11645656010002
 51
160.385723004
  0
ARC
  5
29A
330
1F
100
AcDbEntity
  8
1
100
AcDbCircle
 10
17.29621655935674
 20
-39.3203190298
 30
0.0
 40
3.591985160944577
100
AcDbArc
 50
25.54274652750007
 51
154.6091598253
  0
ARC
  5
29B
330
1F
100
AcDbEntity
  8
1
100
AcDbCircle
 10
17.29659693725674
 20
-38.9805948048
 30
0.0
 40
1.988636358605316
100
AcDbArc
 50
357.2579110674001
 51
183.2257380528
  0
ARC
  5
29C
330
1F
100
AcDbEntity
  8
1
100
AcDbCircle
 10
17.29605037785674
 20
-35.1799585536
 30
0.0
 40
2.632185638718565
100
AcDbArc
 50
250.7910652822
 51
289.2089347178
  0
ARC
  5
29D
330
1F
100
AcDbEntity
  8
1
100
AcDbCircle
 10
12.22238559745674
 20
-36.0105576114
 30
0.0
 40
4.521436014114375
100
AcDbArc
 50
317.6514205065
 51
338.5282173656
  0
ARC
  5
29E
330
1F
100
AcDbEntity
  8
1
100
AcDbCircle
 10
22.15811797785674
 20
-36.1423174288
 30
0.0
 40
4.2765328262683
100
AcDbArc
 50
200.8667069172
 51
222.9536552121
  0
ARC
  5
29F
330
1F
100
AcDbEntity
  8
1
100
AcDbCircle
 10
17.28726030415674
 20
-40.7422006991
 30
0.0
 40
1.56321759840349
100
AcDbArc
 50
89.6778204268
 51
130.5019887706
  0
ARC
  5
2A0
330
1F
100
AcDbEntity
  8
1
100
AcDbCircle
 10
17.30473869535674
 20
-40.74271064
 30
0.0
 40
1.563726962558959
100
AcDbArc
 50
49.77916241459991
 51
90.31834616720005
  0
ARC
  5
2A1
330
1F
100
AcDbEntity
  8
1
100
AcDbCircle
 10
17.34318874535674
 20
50.0601251717
 30
0.0
 40
3.557289635189932
100
AcDbArc
 50
270.0461047563
 51
326.2750471621
  0
ARC
  5
2A2
330
1F
100
AcDbEntity
  8
1
100
AcDbCircle
 10
17.73038143495674
 20
49.7550497059
 30
0.0
 40
3.065782360315842
100
AcDbArc
 50
328.767164237
 51
358.9952253278
  0
ARC
  5
2A3
330
1F
100
AcDbEntity
  8
1
100
AcDbCircle
 10
17.29605037785674
 20
50.2598602842
 30
0.0
 40
3.7611036132322
100
AcDbArc
 50
269.2382762727
 51
270.7617237273
  0
ARC
  5
2A4
330
1F
100
AcDbEntity
  8
1
100
AcDbCircle
 10
17.79110733595674
 20
49.7439007152
 30
0.0
 40
3.004942687170173
100
AcDbArc
 50
359.1160224364999
 51
0.8839775634999445
  0
ARC
  5
2A5
330
1F
100
AcDbEntity
  8
1
100
AcDbCircle
 10
17.61108820375674
 20
49.812551293
 30
0.0
 40
3.199557000928667
100
AcDbArc
 50
327.2430555526
 51
328.9370441968
  0
ARC
  5
2A6
330
1F
100
AcDbEntity
  8
1
100
AcDbCircle
 10
9.246490317356741
 20
45.7991324082
 30
0.0
 40
0.7995699218425649
100
AcDbArc
 50
269.9685926916
 51
359.7811321052002
  0
ARC
  5
2A7
330
1F
100
AcDbEntity
  8
1
100
AcDbCircle
 10
-0.2176583927432584
 20
91.4899514194
 30
0.0
 40
46.49276478770706
100
AcDbArc
 50
270.3226150275
 51
270.5792725976
  0
ARC
  5
2A8
330
1F
100
AcDbEntity
  8
1
100
AcDbCircle
 10
-1.738420389843258
 20
43.2609281447
 30
0.0
 40
2.224438688674289
100
AcDbArc
 50
132.9460343266
 51
142.5322313863
  0
POINT
  5
2BC
330
1F
100
AcDbEntity
  8
1
100
AcDbPoint
 10
0.0460474692567416
 20
0.0000013607999962
 30
0.0
  0
DIMENSION
  5
2BD
330
1F
100
AcDbEntity
  8
SK2
100
AcDbDimension
280
     0
  2
_D
 10
75.00174407835675
 20
-49.00108994130001
 30
0.0
 11
75.00174407835675
 21
-0.0009344877000038
 31
0.0
 70
   160
  1
%%c<> - 126
 71
     5
 42
98.00031090729999
 73
     0
 74
     0
 75
     0
  3
SLDDIMSTYLE0
100
AcDbAlignedDimension
 13
59.77519292445674
 23
48.999220966
 33
0.0
 14
59.88363772295674
 24
-49.0010899413
 34
0.0
 50
90.0
100
AcDbRotatedDimension
1001
ACAD
1000
DSTYLE
1002
{
1070
   140
1040
3.5
1070
   340
1005
31A
1070
   177
1070
   256
1070
   176
1070
   256
1070
   178
1070
   256
1070
   347
1005
14
1070
   346
1005
14
1070
   345
1005
14
1002
}
  0
DIMENSION
  5
2CB
330
1F
100
AcDbEntity
  8
SK2
100
AcDbDimension
280
     0
  2
_D_1
 10
83.35036578535673
 20
-53.500005756
 30
0.0
 11
83.35036578535673
 21
0.0000013607999962
 31
0.0
 70
   160
  1
%%c109 - 137
 71
     5
 42
107.0000142336
 73
     0
 74
     0
 75
     0
  3
SLDDIMSTYLE0
100
AcDbAlignedDimension
 13
47.04604746925674
 23
53.5000084776
 33
0.0
 14
47.04604746925674
 24
-53.500005756
 34
0.0
 50
90.0
100
AcDbRotatedDimension
1001
ACAD
1000
DSTYLE
1002
{
1070
   140
1040
3.5
1070
   340
1005
31A
1070
   177
1070
   256
1070
   176
1070
   256
1070
   178
1070
   256
1070
   347
1005
14
1070
   346
1005
14
1070
   345
1005
14
1002
}
  0
DIMENSION
  5
2D6
330
1F
100
AcDbEntity
  8
2
100
AcDbDimension
280
     0
  2
_D_2
 10
-3.503947371363392
 20
64.69423316831902
 30
0.0
 11
13.76488611855674
 21
64.6942328473
 31
0.0
 70
   160
  1
113
 71
     5
 42
50.54999504871514
 73
     0
 74
     0
 75
     0
  3
SLDDIMSTYLE1
100
AcDbAlignedDimension
 13
47.04604746925674
 23
53.5000084776
 33
0.0
 14
-3.503947744643258
 24
44.6140876472
 34
0.0
 50
-0.0000010651
100
AcDbRotatedDimension
1001
ACAD
1000
DSTYLE
1002
{
1070
   140
1040
3.5
1070
   340
1005
31A
1070
   177
1070
   256
1070
   176
1070
   256
1070
   178
1070
   256
1070
   347
1005
14
1070
   346
1005
14
1070
   345
1005
14
1002
}
  0
MTEXT
  5
2DF
330
1F
100
AcDbEntity
  8
SK6
100
AcDbMText
 10
23.62091427362603
 20
-30.30126688830093
 30
0.0
 40
3.5
 41
0.0
 46
0.0
 71
     1
 72
     1
  1
639.673
  7
BMG_Text
 73
     1
 44
1.0
  0
LINE
  5
385
330
1F
100
AcDbEntity
  8
NOCUT
100
AcDbLine
 10
47.0460473379632
 20
45.2738820452484
 30
0.0
 11
47.04604733796319
 21
13.73731292316554
 31
0.0
  0
LINE
  5
387
330
1F
100
AcDbEntity
  8
NOCUT
100
AcDbLine
 10
30.90120467195674
 20
-0.0000000000000038
 30
0.0
 11
0.0
 21
0.0
 31
0.0
  0
LINE
  5
388
330
1F
100
AcDbEntity
  8
NOCUT
100
AcDbLine
 10
0.0
 20
0.0
 30
0.0
 11
0.0000000000000027
 21
44.99862659934298
 31
0.0
  0
LINE
  5
389
330
1F
100
AcDbEntity
  8
NOCUT
100
AcDbLine
 10
0.0000000000000027
 20
44.99862659934298
 30
0.0
 11
9.33248636163746
 21
44.99862659934298
 31
0.0
  0
ARC
  5
38A
330
1F
100
AcDbEntity
  8
NOCUT
100
AcDbCircle
 10
9.233505321877345
 20
45.80517575132228
 30
0.0
 40
0.8126000127925981
100
AcDbArc
 50
276.9964487703868
 51
359.3585174785999
  0
LINE
  5
38B
330
1F
100
AcDbEntity
  8
NOCUT
100
AcDbLine
 10
10.04605440549004
 20
45.79607808619894
 30
0.0
 11
10.04605440549004
 21
53.51299895867146
 31
0.0
  0
LINE
  5
38C
330
1F
100
AcDbEntity
  8
NOCUT
100
AcDbLine
 10
10.04605440549004
 20
53.51299895867146
 30
0.0
 11
47.05321695955889
 21
53.51299895867146
 31
0.0
  0
LINE
  5
38D
330
1F
100
AcDbEntity
  8
NOCUT
100
AcDbLine
 10
47.05321695955889
 20
53.51299895867146
 30
0.0
 11
47.05321695955889
 21
49.62856991874602
 31
0.0
  0
ARC
  5
38E
330
1F
100
AcDbEntity
  8
NOCUT
100
AcDbCircle
 10
47.84605470790336
 20
49.73543672602307
 30
0.0
 40
0.8000076310245605
100
AcDbArc
 50
187.6766453925726
 51
269.999889753471
  0
LINE
  5
38F
330
1F
100
AcDbEntity
  8
NOCUT
100
AcDbLine
 10
47.84605316855674
 20
48.935429095
 30
0.0
 11
59.04604930495674
 21
48.935429095
 31
0.0
  0
LINE
  5
390
330
1F
100
AcDbEntity
  8
NOCUT
100
AcDbLine
 10
59.04604930495674
 20
48.935429095
 30
0.0
 11
59.77519292445674
 21
48.999220966
 31
0.0
  0
LINE
  5
391
330
1F
100
AcDbEntity
  8
NOCUT
100
AcDbLine
 10
59.77519292445674
 20
48.999220966
 30
0.0
 11
59.88363612505674
 21
49.0010910618
 31
0.0
  0
ARC
  5
392
330
1F
100
AcDbEntity
  8
NOCUT
100
AcDbCircle
 10
59.84605019928565
 20
48.8046548918464
 30
0.0
 40
0.1999996767050133
100
AcDbArc
 50
0.0002369231072023
 51
79.16799798091388
  0
ARC
  5
393
330
1F
100
AcDbEntity
  8
NOCUT
100
AcDbCircle
 10
59.84583905727099
 20
46.20473721632153
 30
0.0
 40
0.2002114081484561
100
AcDbArc
 50
262.7870647143664
 51
359.9762070871474
  0
LINE
  5
394
330
1F
100
AcDbEntity
  8
NOCUT
100
AcDbLine
 10
60.04604987595674
 20
48.8046557188
 30
0.0
 11
60.04604987595674
 21
46.20400725553311
 31
0.0
  0
LINE
  5
395
330
1F
100
AcDbEntity
  8
NOCUT
100
AcDbLine
 10
59.82070107075674
 20
46.0061102051
 30
0.0
 11
59.04604930495674
 21
46.0738806862
 31
0.0
  0
LINE
  5
396
330
1F
100
AcDbEntity
  8
NOCUT
100
AcDbLine
 10
59.04604930495674
 20
46.0738806862
 30
0.0
 11
47.84605342955645
 21
46.07388068623104
 31
0.0
  0
ARC
  5
39C
330
1F
100
AcDbEntity
  8
NOCUT
100
AcDbCircle
 10
47.84605373025673
 20
45.27387429390001
 30
0.0
 40
0.8000063923310872
100
AcDbArc
 50
90.00002153589952
 51
179.9994448550004
  0
LINE
  5
39D
330
1F
100
AcDbEntity
  8
NOCUT
100
AcDbLine
 10
47.04604683325674
 20
13.54713149159999
 30
0.0
 11
30.90120467195674
 21
-0.0000000000000038
 31
0.0
  0
LWPOLYLINE
  5
39F
330
1F
100
AcDbEntity
  8
INFTOTAL
100
AcDbPolyline
 90
        4
 70
     1
 43
0.0
 10
-53.96932962881296
 20
89.14263555072341
 10
-53.96932962881296
 20
-81.16955957122784
 10
126.001402078504
 20
-81.16955957122784
 10
126.001402078504
 20
89.14263555072341
  0
LINE
  5
3CB
330
1F
100
AcDbEntity
  8
4
100
AcDbLine
 10
43.57765058005674
 20
0.0000013607999962
 30
0.0
 11
0.0
 21
0.0
 31
0.0
  0
LWPOLYLINE
  5
3CD
330
1F
100
AcDbEntity
  8
1
100
AcDbPolyline
 90
        6
 70
     0
 43
0.0
 10
-0.155873872781072
 20
33.14862581204785
 10
-0.8201078871307956
 20
32.79241483212223
 10
-1.477120881232977
 20
32.43176747987024
 10
-2.126823970091614
 20
32.06673254601408
 10
-2.769129257642277
 20
31.69735941485654
 10
-3.403949848643251
 20
31.3236980576
  0
LWPOLYLINE
  5
3CE
330
1F
100
AcDbEntity
  8
1
100
AcDbPolyline
 90
        5
 70
     0
 43
0.0
 10
-0.1558738091586967
 20
33.92333741606782
 10
-0.9542415567657068
 20
34.31963635890575
 10
-1.761808561620262
 20
34.70967274582891
 10
-2.578427461066509
 20
35.09337540404602
 10
-3.403949240683188
 20
35.47067431652762
  0
LWPOLYLINE
  5
3CF
330
1F
100
AcDbEntity
  8
1
100
AcDbPolyline
 90
        4
 70
     0
 43
0.0
 10
-2.198799857380799
 20
36.99999365266476
 10
-2.602304315067769
 20
36.8376398713732
 10
-3.004026310676416
 20
36.67381930233854
 10
-3.403949848589228
 20
36.50853846850748
  0
LWPOLYLINE
  5
3D0
330
1F
100
AcDbEntity
  8
1
100
AcDbPolyline
 90
        6
 70
     0
 43
0.0
 10
-0.155874199983745
 20
27.5678995022167
 10
-0.784897203388293
 20
28.03017429495944
 10
-1.424326211323222
 20
28.48766543681867
 10
-2.07405209837022
 20
28.9402948520243
 10
-2.733963981838141
 20
29.387985294512
 10
-3.403949240686291
 20
29.83066036110614
  0
LWPOLYLINE
  5
3D1
330
1F
100
AcDbEntity
  8
1
100
AcDbPolyline
 90
        5
 70
     0
 43
0.0
 10
-3.403949240655215
 20
-42.17547654672912
 10
-2.579391291451603
 20
-41.99528349824757
 10
-1.758416414442226
 20
-41.809717097663
 10
-0.9411296544661164
 20
-41.61880108844579
 10
-0.1276355844627725
 20
-41.42255989855595
  0
LWPOLYLINE
  5
3D2
330
1F
100
AcDbEntity
  8
1
100
AcDbPolyline
 90
        5
 70
     0
 43
0.0
 10
-3.403976776880143
 20
-40.15696031384226
 10
-2.591768259237746
 20
-40.3906915786575
 10
-1.774901260303906
 20
-40.61894717804504
 10
-0.9534865207211496
 20
-40.84169616795678
 10
-0.1276353976579649
 20
-41.058908350862
  0
LWPOLYLINE
  5
3D3
330
1F
100
AcDbEntity
  8
1
100
AcDbPolyline
 90
        5
 70
     0
 43
0.0
 10
-3.403977384852141
 20
-39.4267781683108
 10
-2.583463742138456
 20
-39.16241409639026
 10
-1.768529731686109
 20
-38.89235837124271
 10
-0.9592937916076072
 20
-38.61665024131032
 10
-0.1558735318886809
 20
-38.33532977652524
  0
LWPOLYLINE
  5
3D4
330
1F
100
AcDbEntity
  8
1
100
AcDbPolyline
 90
        5
 70
     0
 43
0.0
 10
-3.404495921366788
 20
-36.50832433888972
 10
-2.602904759745378
 20
-36.83740970441834
 10
-1.794184600952768
 20
-37.16062873674107
 10
-0.9784642331632014
 20
-37.47792996343127
 10
-0.1558735593297556
 20
-37.78926285446908
  0
LWPOLYLINE
  5
3D5
330
1F
100
AcDbEntity
  8
1
100
AcDbPolyline
 90
        5
 70
     0
 43
0.0
 10
-3.404496528989748
 20
-35.47093261813445
 10
-2.578833549937757
 20
-35.09357522939975
 10
-1.762076312173912
 20
-34.70981194904936
 10
-0.954373904500857
 20
-34.31971282826287
 10
-0.1558737628754109
 20
-33.9233490747482
  0
LWPOLYLINE
  5
3D6
330
1F
100
AcDbEntity
  8
1
100
AcDbPolyline
 90
        6
 70
     0
 43
0.0
 10
-3.404966860524304
 20
-31.3231038416822
 10
-2.769952368526162
 20
-31.69689196936703
 10
-2.127448236938747
 20
-32.0663891678836
 10
-1.477541444015692
 20
-32.43154541697606
 10
-0.8203199701373762
 20
-32.79231128403954
 10
-0.1558727859006197
 20
-33.14863793081209
  0
LWPOLYLINE
  5
3D7
330
1F
100
AcDbEntity
  8
1
100
AcDbPolyline
 90
        6
 70
     0
 43
0.0
 10
-3.404967468481754
 20
-29.8298015112988
 10
-2.734766475163166
 20
-29.38702254857058
 10
-2.074644798938121
 20
-28.93922534985153
 10
-1.424715164633146
 20
-28.48648638265266
 10
-0.785088556643889
 20
-28.02888295835972
 10
-0.1558741999829864
 20
-27.56649321903118
  0
LWPOLYLINE
  5
3D8
330
1F
100
AcDbEntity
  8
1
100
AcDbPolyline
 90
        5
 70
     0
 43
0.0
 10
-3.403949240696248
 20
-44.94076552463418
 10
-2.592361285411008
 20
-44.96238474060735
 10
-1.780427103264159
 20
-44.9791185837948
 10
-0.9682349147043969
 20
-44.99096523598616
 10
-0.1558729682140241
 20
-44.99792340998722
  0
LWPOLYLINE
  5
3D9
330
1F
100
AcDbEntity
  8
1
100
AcDbPolyline
 90
        5
 70
     0
 43
0.0
 10
-3.403949848600431
 20
-44.84832222875746
 10
-2.590655341171201
 20
-44.80719357904139
 10
-1.778151611849339
 20
-44.76114887925569
 10
-0.9665278050202702
 20
-44.71019318122514
 10
-0.1558729685281453
 20
-44.65433207558793
  0
LWPOLYLINE
  5
3DA
330
1F
100
AcDbEntity
  8
1
100
AcDbPolyline
 90
        5
 70
     0
 43
0.0
 10
-3.403949240709363
 20
-44.22638253026789
 10
-2.594111939496488
 20
-44.3116637650426
 10
-1.78275975350534
 20
-44.39200211565455
 10
-0.9699831875859815
 20
-44.4673886205079
 10
-0.1558729054754497
 20
-44.53781487037613
  0
LWPOLYLINE
  5
3DB
330
1F
100
AcDbEntity
  8
1
100
AcDbPolyline
 90
        5
 70
     0
 43
0.0
 10
-3.403949848639141
 20
-43.94395585470583
 10
-2.58880169507695
 20
-43.8375116219816
 10
-1.775677249932078
 20
-43.72602728376233
 10
-0.9646700001144746
 20
-43.60951565767559
 10
-0.1558731891149644
 20
-43.48799013934852
  0
LWPOLYLINE
  5
3DC
330
1F
100
AcDbEntity
  8
1
100
AcDbPolyline
 90
        5
 70
     0
 43
0.0
 10
-3.403949240722678
 20
-42.66466226254361
 10
-2.596115650358445
 20
-42.81825234384092
 10
-1.785427316715065
 20
-42.96674395374291
 10
-0.9719807704006023
 20
-43.11011941099677
 10
-0.1558728704501355
 20
-43.24836164354223
  0
LWPOLYLINE
  5
3DD
330
1F
100
AcDbEntity
  8
CUT
100
AcDbPolyline
 90
       14
 70
     0
 43
0.0
 10
59.71304727119346
 20
-46.27004964426974
 10
59.70863063612209
 20
-46.43889721682414
 10
59.70486896811868
 20
-46.60980453403376
 10
59.70176956904454
 20
-46.782439843727
 10
59.69933845521538
 20
-46.95646803948585
 10
59.69758034572281
 20
-47.13155131112872
 10
59.6964986532741
 20
-47.30734980044168
 10
59.69609547756765
 20
-47.48352226088511
 10
59.6963716012172
 20
-47.65972671999535
 10
59.69732648823271
 20
-47.83562114319538
 10
59.69895828506077
 20
-48.01086409772606
 10
59.70126382418257
 20
-48.18511541540931
 10
59.70423863026245
 20
-48.35803685295638
 10
59.7078769288351
 20
-48.5292927485398
  0
LWPOLYLINE
  5
3DE
330
1F
100
AcDbEntity
  8
CUT
100
AcDbPolyline
 90
       20
 70
     0
 43
0.0
 10
50.56013576727075
 20
48.93542909501028
 10
50.45885407599565
 20
48.79063962042875
 10
50.36840226659044
 20
48.64393685193948
 10
50.28891442914131
 20
48.49553826873939
 10
50.22050840021829
 20
48.3456638639822
 10
50.16328558818871
 20
48.19453581865005
 10
50.11733082288457
 20
48.0423781721818
 10
50.08271222984676
 20
47.88941649034626
 10
50.0594811293325
 20
47.73587753085269
 10
50.04767196023572
 20
47.58198890719436
 10
50.04730222903321
 20
47.4279787512234
 10
50.05837248383217
 20
47.27407537495726
 10
50.08086631355769
 20
47.12050693211805
 10
50.11475037228131
 20
46.96750107990655
 10
50.1599744286546
 20
46.81528464151231
 10
50.21647144037451
 20
46.66408326986009
 10
50.28415765357011
 20
46.51412111309119
 10
50.36293272696331
 20
46.36562048227555
 10
50.45267988061959
 20
46.21880152184712
 10
50.55326606906814
 20
46.07388188325132
  0
LWPOLYLINE
  5
3DF
330
1F
100
AcDbEntity
  8
1
100
AcDbPolyline
 90
        5
 70
     0
 43
0.0
 10
0.0441267763904854
 20
44.99792364974238
 10
-0.7682353238704883
 20
44.99096548701958
 10
-1.580427666173884
 20
44.97911884425407
 10
-2.392362001987301
 20
44.96238500863952
 10
-3.20395011081196
 20
44.94076579838615
  0
ENDSEC
  0
SECTION
  2
OBJECTS
  0
DICTIONARY
  5
C
330
0
100
AcDbDictionary
281
     1
  3
ACAD_DETAILVIEWSTYLE
350
39A
  3
ACAD_GROUP
350
D
  3
ACAD_LAYOUT
350
302
  3
ACAD_MATERIAL
350
316
  3
ACAD_MLEADERSTYLE
350
32D
  3
ACAD_MLINESTYLE
350
17
  3
ACAD_PLOTSETTINGS
350
36F
  3
ACAD_PLOTSTYLENAME
350
370
  3
ACAD_SCALELIST
350
2E0
  3
ACAD_SECTIONVIEWSTYLE
350
39B
  3
ACAD_TABLESTYLE
350
37C
  3
ACAD_VISUALSTYLE
350
305
  3
ACDB_RECOMPOSE_DATA
350
3E2
  3
AcDbVariableDictionary
350
32B
  3
APPDATA
350
37F
  0
SUN
  5
3A2
330
29
100
AcDbSun
 90
        1
290
     0
 63
     7
421
 16777215
 40
1.0
291
     1
 91
  2455826
 92
 54000000
292
     0
 70
     2
 71
   256
280
     1
  0
DICTIONARY
  5
380
330
2
100
AcDbDictionary
280
     1
281
     1
  3
ACAD_LAYERSTATES
360
381
  0
DICTIONARY
  5
39A
102
{ACAD_REACTORS
330
C
102
}
330
C
100
AcDbDictionary
281
     1
  0
DICTIONARY
  5
D
102
{ACAD_REACTORS
330
C
102
}
330
C
100
AcDbDictionary
281
     1
  0
DICTIONARY
  5
302
102
{ACAD_REACTORS
330
C
102
}
330
C
100
AcDbDictionary
281
     1
  3
Layout1
350
304
  3
Model
350
303
  0
DICTIONARY
  5
316
102
{ACAD_REACTORS
330
C
102
}
330
C
100
AcDbDictionary
281
     1
  3
ByBlock
350
318
  3
ByLayer
350
317
  3
Global
350
319
  0
DICTIONARY
  5
32D
102
{ACAD_REACTORS
330
C
102
}
330
C
100
AcDbDictionary
281
     1
  3
Standard
350
37E
  0
DICTIONARY
  5
17
102
{ACAD_REACTORS
330
C
102
}
330
C
100
AcDbDictionary
281
     1
  3
STANDARD
350
18
  0
DICTIONARY
  5
36F
102
{ACAD_REACTORS
330
C
102
}
330
C
100
AcDbDictionary
281
     1
  0
ACDBDICTIONARYWDFLT
  5
370
102
{ACAD_REACTORS
330
C
102
}
330
C
100
AcDbDictionary
281
     1
  3
Normal
350
371
100
AcDbDictionaryWithDefault
340
371
  0
DICTIONARY
  5
2E0
102
{ACAD_REACTORS
330
C
102
}
330
C
100
AcDbDictionary
281
     1
  3
A0
350
2E1
  3
A1
350
2E2
  3
A2
350
2E3
  3
A3
350
2E4
  3
A4
350
2E5
  3
A5
350
2E6
  3
A6
350
2E7
  3
A7
350
2E8
  3
A8
350
2E9
  3
A9
350
2EA
  3
B0
350
2EB
  3
B1
350
2EC
  3
B2
350
2ED
  3
B3
350
2EE
  3
B4
350
2EF
  3
B5
350
2F0
  3
B6
350
2F1
  3
B7
350
2F2
  3
B8
350
2F3
  3
B9
350
2F4
  3
C0
350
2F5
  3
C1
350
2F6
  3
C2
350
2F7
  3
C3
350
2F8
  3
C4
350
2F9
  3
C5
350
2FA
  3
C6
350
2FB
  3
C7
350
2FC
  3
C8
350
2FD
  3
C9
350
2FE
  3
D0
350
2FF
  3
D1
350
300
  3
D2
350
301
  0
DICTIONARY
  5
39B
102
{ACAD_REACTORS
330
C
102
}
330
C
100
AcDbDictionary
281
     1
  0
DICTIONARY
  5
37C
102
{ACAD_REACTORS
330
C
102
}
330
C
100
AcDbDictionary
281
     1
  3
Standard
350
37D
  0
DICTIONARY
  5
305
102
{ACAD_REACTORS
330
C
102
}
330
C
100
AcDbDictionary
281
     1
  3
2dWireframe
350
30A
  3
3D Hidden
350
30C
  3
3dWireframe
350
30B
  3
Basic
350
30D
  3
Brighten
350
311
  3
ColorChange
350
315
  3
Conceptual
350
30F
  3
Dim
350
310
  3
EdgeColorOff
350
376
  3
Facepattern
350
314
  3
Flat
350
306
  3
FlatWithEdges
350
307
  3
Gouraud
350
308
  3
GouraudWithEdges
350
309
  3
Hidden
350
373
  3
JitterOff
350
374
  3
Linepattern
350
313
  3
OverhangOff
350
375
  3
Realistic
350
30E
  3
Shaded
350
37B
  3
Shaded with edges
350
37A
  3
Shades of Gray
350
377
  3
Sketchy
350
378
  3
Thicken
350
312
  3
Wireframe
350
372
  3
X-Ray
350
379
  0
XRECORD
  5
3E2
102
{ACAD_REACTORS
330
C
102
}
330
C
100
AcDbXrecord
280
     1
 90
        1
330
37D
  0
DICTIONARY
  5
32B
102
{ACAD_REACTORS
330
C
102
}
330
C
100
AcDbDictionary
281
     1
  3
CANNOSCALE
350
397
  3
CMLEADERSTYLE
350
399
  3
CTABLESTYLE
350
398
  3
DIMASSOC
350
32F
  3
HIDETEXT
350
330
  3
MSLTSCALE
350
32E
  0
DICTIONARY
  5
37F
102
{ACAD_REACTORS
330
C
102
}
330
C
100
AcDbDictionary
281
     1
  0
DICTIONARY
  5
381
102
{ACAD_REACTORS
330
380
102
}
330
380
100
AcDbDictionary
281
     1
  0
LAYOUT
  5
304
102
{ACAD_REACTORS
330
302
102
}
330
302
100
AcDbPlotSettings
  1

  2
none_device
  4

  6

 40
0.0
 41
0.0
 42
0.0
 43
0.0
 44
0.0
 45
0.0
 46
0.0
 47
0.0
 48
0.0
 49
0.0
140
0.0
141
0.0
142
1.0
143
1.0
 70
   688
 72
     0
 73
     0
 74
     5
  7

 75
    16
 76
     0
 77
     2
 78
   300
147
1.0
148
0.0
149
0.0
100
AcDbLayout
  1
Layout1
 70
     1
 71
     1
 10
0.0
 20
0.0
 11
420.0
 21
297.0
 12
0.0
 22
0.0
 32
0.0
 14
1.000000000000000E+20
 24
1.000000000000000E+20
 34
1.000000000000000E+20
 15
-1.000000000000000E+20
 25
-1.000000000000000E+20
 35
-1.000000000000000E+20
146
0.0
 13
0.0
 23
0.0
 33
0.0
 16
1.0
 26
0.0
 36
0.0
 17
0.0
 27
1.0
 37
0.0
 76
     0
330
1B
  0
LAYOUT
  5
303
102
{ACAD_REACTORS
330
302
102
}
330
302
100
AcDbPlotSettings
  1

  2
none_device
  4

  6

 40
0.0
 41
0.0
 42
0.0
 43
0.0
 44
0.0
 45
0.0
 46
0.0
 47
0.0
 48
0.0
 49
0.0
140
0.0
141
0.0
142
1.0
143
1.0
 70
  1712
 72
     0
 73
     0
 74
     0
  7

 75
     0
 76
     0
 77
     2
 78
   300
147
1.0
148
0.0000001104899866
149
0.0
100
AcDbLayout
  1
Model
 70
     1
 71
     0
 10
0.0
 20
0.0
 11
210.0
 21
297.0
 12
0.0
 22
0.0
 32
0.0
 14
-53.96932962881297
 24
-81.16955957122784
 34
0.0
 15
126.001402078504
 25
89.14263555072341
 35
0.0
146
0.0
 13
0.0
 23
0.0
 33
0.0
 16
1.0
 26
0.0
 36
0.0
 17
0.0
 27
1.0
 37
0.0
 76
     0
330
1F
331
29
  0
MATERIAL
  5
318
102
{ACAD_REACTORS
330
316
102
}
330
316
100
AcDbMaterial
  1
ByBlock
 72
     1
 94
      127
  0
MATERIAL
  5
317
102
{ACAD_REACTORS
330
316
102
}
330
316
100
AcDbMaterial
  1
ByLayer
 72
     1
 94
      127
  0
MATERIAL
  5
319
102
{ACAD_REACTORS
330
316
102
}
330
316
100
AcDbMaterial
  1
Global
 72
     1
 94
      127
  0
MLEADERSTYLE
  5
37E
102
{ACAD_REACTORS
330
32D
102
}
330
32D
100
AcDbMLeaderStyle
179
     2
170
     2
171
     1
172
     0
 90
        2
 40
0.0
 41
0.0
173
     1
 91
-1056964608
340
14
 92
       -2
290
     1
 42
2.0
291
     1
 43
8.0
  3
Standard
341
0
 44
4.0
300

342
11
174
     1
178
     1
175
     1
176
     0
 93
-1056964608
 45
4.0
292
     0
297
     0
 46
4.0
343
0
 94
-1056964608
 47
1.0
 49
1.0
140
1.0
293
     1
141
0.0
294
     1
177
     0
142
1.0
295
     0
296
     0
143
3.75
271
     0
272
     9
273
     9
298
     0
  0
MLINESTYLE
  5
18
102
{ACAD_REACTORS
330
17
102
}
330
17
100
AcDbMlineStyle
  2
Standard
 70
     0
  3

 62
   256
 51
90.0
 52
90.0
 71
     2
 49
0.5
 62
   256
  6
BYLAYER
 49
-0.5
 62
   256
  6
BYLAYER
  0
ACDBPLACEHOLDER
  5
371
102
{ACAD_REACTORS
330
370
102
}
330
370
  0
SCALE
  5
2E1
102
{ACAD_REACTORS
330
2E0
102
}
330
2E0
100
AcDbScale
 70
     0
300
1:1
140
1.0
141
1.0
290
     1
  0
SCALE
  5
2E2
102
{ACAD_REACTORS
330
2E0
102
}
330
2E0
100
AcDbScale
 70
     0
300
1:2
140
1.0
141
2.0
290
     0
  0
SCALE
  5
2E3
102
{ACAD_REACTORS
330
2E0
102
}
330
2E0
100
AcDbScale
 70
     0
300
1:4
140
1.0
141
4.0
290
     0
  0
SCALE
  5
2E4
102
{ACAD_REACTORS
330
2E0
102
}
330
2E0
100
AcDbScale
 70
     0
300
1:5
140
1.0
141
5.0
290
     0
  0
SCALE
  5
2E5
102
{ACAD_REACTORS
330
2E0
102
}
330
2E0
100
AcDbScale
 70
     0
300
1:8
140
1.0
141
8.0
290
     0
  0
SCALE
  5
2E6
102
{ACAD_REACTORS
330
2E0
102
}
330
2E0
100
AcDbScale
 70
     0
300
1:10
140
1.0
141
10.0
290
     0
  0
SCALE
  5
2E7
102
{ACAD_REACTORS
330
2E0
102
}
330
2E0
100
AcDbScale
 70
     0
300
1:16
140
1.0
141
16.0
290
     0
  0
SCALE
  5
2E8
102
{ACAD_REACTORS
330
2E0
102
}
330
2E0
100
AcDbScale
 70
     0
300
1:20
140
1.0
141
20.0
290
     0
  0
SCALE
  5
2E9
102
{ACAD_REACTORS
330
2E0
102
}
330
2E0
100
AcDbScale
 70
     0
300
1:30
140
1.0
141
30.0
290
     0
  0
SCALE
  5
2EA
102
{ACAD_REACTORS
330
2E0
102
}
330
2E0
100
AcDbScale
 70
     0
300
1:40
140
1.0
141
40.0
290
     0
  0
SCALE
  5
2EB
102
{ACAD_REACTORS
330
2E0
102
}
330
2E0
100
AcDbScale
 70
     0
300
1:50
140
1.0
141
50.0
290
     0
  0
SCALE
  5
2EC
102
{ACAD_REACTORS
330
2E0
102
}
330
2E0
100
AcDbScale
 70
     0
300
1:100
140
1.0
141
100.0
290
     0
  0
SCALE
  5
2ED
102
{ACAD_REACTORS
330
2E0
102
}
330
2E0
100
AcDbScale
 70
     0
300
2:1
140
2.0
141
1.0
290
     0
  0
SCALE
  5
2EE
102
{ACAD_REACTORS
330
2E0
102
}
330
2E0
100
AcDbScale
 70
     0
300
4:1
140
4.0
141
1.0
290
     0
  0
SCALE
  5
2EF
102
{ACAD_REACTORS
330
2E0
102
}
330
2E0
100
AcDbScale
 70
     0
300
8:1
140
8.0
141
1.0
290
     0
  0
SCALE
  5
2F0
102
{ACAD_REACTORS
330
2E0
102
}
330
2E0
100
AcDbScale
 70
     0
300
10:1
140
10.0
141
1.0
290
     0
  0
SCALE
  5
2F1
102
{ACAD_REACTORS
330
2E0
102
}
330
2E0
100
AcDbScale
 70
     0
300
100:1
140
100.0
141
1.0
290
     0
  0
SCALE
  5
2F2
102
{ACAD_REACTORS
330
2E0
102
}
330
2E0
100
AcDbScale
 70
     0
300
1/128" = 1'-0"
140
0.0078125
141
12.0
290
     0
  0
SCALE
  5
2F3
102
{ACAD_REACTORS
330
2E0
102
}
330
2E0
100
AcDbScale
 70
     0
300
1/64" = 1'-0"
140
0.015625
141
12.0
290
     0
  0
SCALE
  5
2F4
102
{ACAD_REACTORS
330
2E0
102
}
330
2E0
100
AcDbScale
 70
     0
300
1/32" = 1'-0"
140
0.03125
141
12.0
290
     0
  0
SCALE
  5
2F5
102
{ACAD_REACTORS
330
2E0
102
}
330
2E0
100
AcDbScale
 70
     0
300
1/16" = 1'-0"
140
0.0625
141
12.0
290
     0
  0
SCALE
  5
2F6
102
{ACAD_REACTORS
330
2E0
102
}
330
2E0
100
AcDbScale
 70
     0
300
3/32" = 1'-0"
140
0.09375
141
12.0
290
     0
  0
SCALE
  5
2F7
102
{ACAD_REACTORS
330
2E0
102
}
330
2E0
100
AcDbScale
 70
     0
300
1/8" = 1'-0"
140
0.125
141
12.0
290
     0
  0
SCALE
  5
2F8
102
{ACAD_REACTORS
330
2E0
102
}
330
2E0
100
AcDbScale
 70
     0
300
3/16" = 1'-0"
140
0.1875
141
12.0
290
     0
  0
SCALE
  5
2F9
102
{ACAD_REACTORS
330
2E0
102
}
330
2E0
100
AcDbScale
 70
     0
300
1/4" = 1'-0"
140
0.25
141
12.0
290
     0
  0
SCALE
  5
2FA
102
{ACAD_REACTORS
330
2E0
102
}
330
2E0
100
AcDbScale
 70
     0
300
3/8" = 1'-0"
140
0.375
141
12.0
290
     0
  0
SCALE
  5
2FB
102
{ACAD_REACTORS
330
2E0
102
}
330
2E0
100
AcDbScale
 70
     0
300
1/2" = 1'-0"
140
0.5
141
12.0
290
     0
  0
SCALE
  5
2FC
102
{ACAD_REACTORS
330
2E0
102
}
330
2E0
100
AcDbScale
 70
     0
300
3/4" = 1'-0"
140
0.75
141
12.0
290
     0
  0
SCALE
  5
2FD
102
{ACAD_REACTORS
330
2E0
102
}
330
2E0
100
AcDbScale
 70
     0
300
1" = 1'-0"
140
1.0
141
12.0
290
     0
  0
SCALE
  5
2FE
102
{ACAD_REACTORS
330
2E0
102
}
330
2E0
100
AcDbScale
 70
     0
300
1-1/2" = 1'-0"
140
1.5
141
12.0
290
     0
  0
SCALE
  5
2FF
102
{ACAD_REACTORS
330
2E0
102
}
330
2E0
100
AcDbScale
 70
     0
300
3" = 1'-0"
140
3.0
141
12.0
290
     0
  0
SCALE
  5
300
102
{ACAD_REACTORS
330
2E0
102
}
330
2E0
100
AcDbScale
 70
     0
300
6" = 1'-0"
140
6.0
141
12.0
290
     0
  0
SCALE
  5
301
102
{ACAD_REACTORS
330
2E0
102
}
330
2E0
100
AcDbScale
 70
     0
300
1'-0" = 1'-0"
140
12.0
141
12.0
290
     0
  0
TABLESTYLE
  5
37D
102
{ACAD_REACTORS
330
37C
102
}
102
{ACAD_XDICTIONARY
360
3E0
102
}
330
37C
100
AcDbTableStyle
  3
Standard
 70
     0
 71
     0
 40
1.5
 41
1.5
280
     0
281
     0
  7
STANDARD
140
4.5
170
     2
 62
     0
 63
   257
283
     0
 90
        4
 91
        0
  1

274
    -2
284
     1
 64
     0
275
    -2
285
     1
 65
     0
276
    -2
286
     1
 66
     0
277
    -2
287
     1
 67
     0
278
    -2
288
     1
 68
     0
279
    -2
289
     1
 69
     0
  7
STANDARD
140
6.0
170
     5
 62
     0
 63
   257
283
     0
 90
        4
 91
        0
  1

274
    -2
284
     1
 64
     0
275
    -2
285
     1
 65
     0
276
    -2
286
     1
 66
     0
277
    -2
287
     1
 67
     0
278
    -2
288
     1
 68
     0
279
    -2
289
     1
 69
     0
  7
STANDARD
140
4.5
170
     5
 62
     0
 63
   257
283
     0
 90
        4
 91
        0
  1

274
    -2
284
     1
 64
     0
275
    -2
285
     1
 65
     0
276
    -2
286
     1
 66
     0
277
    -2
287
     1
 67
     0
278
    -2
288
     1
 68
     0
279
    -2
289
     1
 69
     0
  0
VISUALSTYLE
  5
30A
102
{ACAD_REACTORS
330
305
102
}
330
305
100
AcDbVisualStyle
  2
2dWireframe
 70
     4
177
     3
291
     0
 70
    58
 90
        0
176
     1
 90
        2
176
     1
 90
        0
176
     1
 90
        0
176
     1
 40
-0.6
176
     1
 40
-30.0
176
     1
 62
     7
176
     1
 90
        1
176
     1
 90
        4
176
     1
 62
     7
176
     1
 62
   257
176
     1
 90
        1
176
     1
 90
        1
176
     1
 40
1.0
176
     1
 90
        0
176
     1
 62
   257
176
     1
 40
1.0
176
     1
 90
        1
176
     1
 90
        6
176
     1
 90
        2
176
     1
 62
     7
176
     1
 90
        5
176
     1
 90
        0
176
     1
 90
        0
176
     1
290
     0
176
     1
 90
        1
176
     1
 40
0.0
176
     1
 90
        0
176
     1
290
     1
176
     1
290
     1
176
     1
290
     0
176
     1
290
     0
176
     1
290
     0
176
     1
290
     0
176
     1
290
     0
176
     1
290
     0
176
     1
290
     0
176
     1
 90
       50
176
     1
 40
0.0
176
     1
 40
1.0
176
     1
 90
        0
176
     1
 62
    18
420
        0
176
     1
 90
       50
176
     1
 90
        3
176
     1
 62
     5
420
      255
176
     1
290
     0
176
     1
 90
       50
176
     1
 90
       50
176
     1
 90
       50
176
     1
290
     0
176
     1
 90
       50
176
     1
 62
   256
176
     0
 40
1.0
176
     0
 90
        2
176
     1
  1
strokes_ogs.tif
176
     1
290
     0
176
     1
 40
1.0
176
     1
 40
1.0
176
     1
  0
VISUALSTYLE
  5
30C
102
{ACAD_REACTORS
330
305
102
}
330
305
100
AcDbVisualStyle
  2
3D Hidden
 70
     6
177
     3
291
     0
 70
    58
 90
        1
176
     1
 90
        2
176
     1
 90
        2
176
     1
 90
        0
176
     1
 40
-0.6
176
     1
 40
-30.0
176
     1
 62
     7
176
     1
 90
        2
176
     1
 90
        2
176
     1
 62
     7
176
     1
 62
   257
176
     1
 90
        2
176
     1
 90
        1
176
     1
 40
40.0
176
     1
 90
        0
176
     1
 62
   257
176
     1
 40
1.0
176
     1
 90
        1
176
     1
 90
        6
176
     1
 90
        2
176
     1
 62
     7
176
     1
 90
        3
176
     1
 90
        0
176
     1
 90
        0
176
     1
290
     0
176
     1
 90
        1
176
     1
 40
0.0
176
     1
 90
        0
176
     1
290
     0
176
     1
290
     1
176
     1
290
     1
176
     1
290
     0
176
     1
290
     0
176
     1
290
     0
176
     1
290
     0
176
     1
290
     0
176
     1
290
     0
176
     1
 90
       50
176
     1
 40
0.0
176
     1
 40
1.0
176
     1
 90
        0
176
     1
 62
    18
420
        0
176
     1
 90
       50
176
     1
 90
        3
176
     1
 62
     5
420
      255
176
     1
290
     0
176
     1
 90
       50
176
     1
 90
       50
176
     1
 90
       50
176
     1
290
     0
176
     1
 90
       50
176
     1
 62
   256
176
     0
 40
1.0
176
     0
 90
        2
176
     1
  1
strokes_ogs.tif
176
     1
290
     0
176
     1
 40
1.0
176
     1
 40
1.0
176
     1
  0
VISUALSTYLE
  5
30B
102
{ACAD_REACTORS
330
305
102
}
330
305
100
AcDbVisualStyle
  2
3dWireframe
 70
     5
177
     3
291
     0
 70
    58
 90
        0
176
     1
 90
        2
176
     1
 90
        0
176
     1
 90
        0
176
     1
 40
-0.6
176
     1
 40
-30.0
176
     1
 62
     7
176
     1
 90
        1
176
     1
 90
        4
176
     1
 62
     7
176
     1
 62
   257
176
     1
 90
        1
176
     1
 90
        1
176
     1
 40
1.0
176
     1
 90
        0
176
     1
 62
   257
176
     1
 40
1.0
176
     1
 90
        1
176
     1
 90
        6
176
     1
 90
        2
176
     1
 62
     7
176
     1
 90
        5
176
     1
 90
        0
176
     1
 90
        0
176
     1
290
     0
176
     1
 90
        1
176
     1
 40
0.0
176
     1
 90
        0
176
     1
290
     0
176
     1
290
     1
176
     1
290
     1
176
     1
290
     0
176
     1
290
     0
176
     1
290
     0
176
     1
290
     0
176
     1
290
     0
176
     1
290
     0
176
     1
 90
       50
176
     1
 40
0.0
176
     1
 40
1.0
176
     1
 90
        0
176
     1
 62
    18
420
        0
176
     1
 90
       50
176
     1
 90
        3
176
     1
 62
     5
420
      255
176
     1
290
     0
176
     1
 90
       50
176
     1
 90
       50
176
     1
 90
       50
176
     1
290
     0
176
     1
 90
       50
176
     1
 62
   256
176
     0
 40
1.0
176
     0
 90
        2
176
     1
  1
strokes_ogs.tif
176
     1
290
     0
176
     1
 40
1.0
176
     1
 40
1.0
176
     1
  0
VISUALSTYLE
  5
30D
102
{ACAD_REACTORS
330
305
102
}
330
305
100
AcDbVisualStyle
  2
Basic
 70
     7
177
     3
291
     1
 70
    58
 90
        1
176
     1
 90
        0
176
     1
 90
        1
176
     1
 90
        0
176
     1
 40
-0.6
176
     1
 40
-30.0
176
     1
 62
     7
176
     1
 90
        0
176
     1
 90
        4
176
     1
 62
     7
176
     1
 62
   257
176
     1
 90
        1
176
     1
 90
        1
176
     1
 40
1.0
176
     1
 90
        8
176
     1
 62
     7
176
     1
 40
1.0
176
     1
 90
        1
176
     1
 90
        6
176
     1
 90
        2
176
     1
 62
     7
176
     1
 90
        5
176
     1
 90
        0
176
     1
 90
        0
176
     1
290
     0
176
     1
 90
        1
176
     1
 40
0.0
176
     1
 90
        0
176
     1
290
     0
176
     1
290
     1
176
     1
290
     1
176
     1
290
     0
176
     1
290
     0
176
     1
290
     0
176
     1
290
     0
176
     1
290
     0
176
     1
290
     0
176
     1
 90
       50
176
     1
 40
0.0
176
     1
 40
1.0
176
     1
 90
        0
176
     1
 62
    18
420
        0
176
     1
 90
       50
176
     1
 90
        3
176
     1
 62
     5
420
      255
176
     1
290
     0
176
     1
 90
       50
176
     1
 90
       50
176
     1
 90
       50
176
     1
290
     0
176
     1
 90
       50
176
     1
 62
   256
176
     0
 40
1.0
176
     0
 90
        2
176
     1
  1
strokes_ogs.tif
176
     1
290
     0
176
     1
 40
1.0
176
     1
 40
1.0
176
     1
  0
VISUALSTYLE
  5
311
102
{ACAD_REACTORS
330
305
102
}
330
305
100
AcDbVisualStyle
  2
Brighten
 70
    12
177
     3
291
     1
 70
    58
 90
        2
176
     1
 90
        2
176
     1
 90
        0
176
     1
 90
        0
176
     1
 40
-0.6
176
     1
 40
-30.0
176
     1
 62
     7
176
     1
 90
        1
176
     1
 90
        4
176
     1
 62
     7
176
     1
 62
   257
176
     1
 90
        1
176
     1
 90
        1
176
     1
 40
1.0
176
     1
 90
        8
176
     1
 62
     7
176
     1
 40
1.0
176
     1
 90
        1
176
     1
 90
        6
176
     1
 90
        2
176
     1
 62
     7
176
     1
 90
        5
176
     1
 90
        0
176
     1
 90
        0
176
     1
290
     0
176
     1
 90
        1
176
     1
 40
50.0
176
     1
 90
        0
176
     1
290
     0
176
     1
290
     1
176
     1
290
     1
176
     1
290
     0
176
     1
290
     0
176
     1
290
     0
176
     1
290
     0
176
     1
290
     0
176
     1
290
     0
176
     1
 90
       50
176
     1
 40
0.0
176
     1
 40
1.0
176
     1
 90
        0
176
     1
 62
    18
420
        0
176
     1
 90
       50
176
     1
 90
        3
176
     1
 62
     5
420
      255
176
     1
290
     0
176
     1
 90
       50
176
     1
 90
       50
176
     1
 90
       50
176
     1
290
     0
176
     1
 90
       50
176
     1
 62
   256
176
     0
 40
1.0
176
     0
 90
        2
176
     1
  1
strokes_ogs.tif
176
     1
290
     0
176
     1
 40
1.0
176
     1
 40
1.0
176
     1
  0
VISUALSTYLE
  5
315
102
{ACAD_REACTORS
330
305
102
}
330
305
100
AcDbVisualStyle
  2
ColorChange
 70
    16
177
     3
291
     1
 70
    58
 90
        2
176
     1
 90
        2
176
     1
 90
        3
176
     1
 90
        0
176
     1
 40
-0.6
176
     1
 40
-30.0
176
     1
 62
     8
176
     1
 90
        1
176
     1
 90
        4
176
     1
 62
     7
176
     1
 62
   257
176
     1
 90
        1
176
     1
 90
        1
176
     1
 40
1.0
176
     1
 90
        8
176
     1
 62
     8
176
     1
 40
1.0
176
     1
 90
        1
176
     1
 90
        6
176
     1
 90
        2
176
     1
 62
     7
176
     1
 90
        5
176
     1
 90
        0
176
     1
 90
        0
176
     1
290
     0
176
     1
 90
        1
176
     1
 40
0.0
176
     1
 90
        0
176
     1
290
     0
176
     1
290
     1
176
     1
290
     1
176
     1
290
     0
176
     1
290
     0
176
     1
290
     0
176
     1
290
     0
176
     1
290
     0
176
     1
290
     0
176
     1
 90
       50
176
     1
 40
0.0
176
     1
 40
1.0
176
     1
 90
        0
176
     1
 62
    18
420
        0
176
     1
 90
       50
176
     1
 90
        3
176
     1
 62
     5
420
      255
176
     1
290
     0
176
     1
 90
       50
176
     1
 90
       50
176
     1
 90
       50
176
     1
290
     0
176
     1
 90
       50
176
     1
 62
   256
176
     0
 40
1.0
176
     0
 90
        2
176
     1
  1
strokes_ogs.tif
176
     1
290
     0
176
     1
 40
1.0
176
     1
 40
1.0
176
     1
  0
VISUALSTYLE
  5
30F
102
{ACAD_REACTORS
330
305
102
}
330
305
100
AcDbVisualStyle
  2
Conceptual
 70
     9
177
     3
291
     0
 70
    58
 90
        3
176
     1
 90
        2
176
     1
 90
        0
176
     1
 90
        0
176
     1
 40
-0.6
176
     1
 40
-30.0
176
     1
 62
     7
176
     1
 90
        2
176
     1
 90
        2
176
     1
 62
     7
176
     1
 62
   257
176
     1
 90
        1
176
     1
 90
        1
176
     1
 40
40.0
176
     1
 90
        8
176
     1
 62
     7
176
     1
 40
1.0
176
     1
 90
        1
176
     1
 90
        6
176
     1
 90
        2
176
     1
 62
     7
176
     1
 90
        3
176
     1
 90
        0
176
     1
 90
        0
176
     1
290
     0
176
     1
 90
        1
176
     1
 40
0.0
176
     1
 90
        0
176
     1
290
     0
176
     1
290
     1
176
     1
290
     1
176
     1
290
     0
176
     1
290
     0
176
     1
290
     0
176
     1
290
     0
176
     1
290
     0
176
     1
290
     0
176
     1
 90
       50
176
     1
 40
0.0
176
     1
 40
1.0
176
     1
 90
        0
176
     1
 62
    18
420
        0
176
     1
 90
       50
176
     1
 90
        3
176
     1
 62
     5
420
      255
176
     1
290
     0
176
     1
 90
       50
176
     1
 90
       50
176
     1
 90
       50
176
     1
290
     0
176
     1
 90
       50
176
     1
 62
   256
176
     0
 40
1.0
176
     0
 90
        2
176
     1
  1
strokes_ogs.tif
176
     1
290
     0
176
     1
 40
1.0
176
     1
 40
1.0
176
     1
  0
VISUALSTYLE
  5
310
102
{ACAD_REACTORS
330
305
102
}
330
305
100
AcDbVisualStyle
  2
Dim
 70
    11
177
     3
291
     1
 70
    58
 90
        2
176
     1
 90
        2
176
     1
 90
        0
176
     1
 90
        0
176
     1
 40
-0.6
176
     1
 40
-30.0
176
     1
 62
     7
176
     1
 90
        1
176
     1
 90
        4
176
     1
 62
     7
176
     1
 62
   257
176
     1
 90
        1
176
     1
 90
        1
176
     1
 40
1.0
176
     1
 90
        8
176
     1
 62
     7
176
     1
 40
1.0
176
     1
 90
        1
176
     1
 90
        6
176
     1
 90
        2
176
     1
 62
     7
176
     1
 90
        5
176
     1
 90
        0
176
     1
 90
        0
176
     1
290
     0
176
     1
 90
        1
176
     1
 40
-50.0
176
     1
 90
        0
176
     1
290
     0
176
     1
290
     1
176
     1
290
     1
176
     1
290
     0
176
     1
290
     0
176
     1
290
     0
176
     1
290
     0
176
     1
290
     0
176
     1
290
     0
176
     1
 90
       50
176
     1
 40
0.0
176
     1
 40
1.0
176
     1
 90
        0
176
     1
 62
    18
420
        0
176
     1
 90
       50
176
     1
 90
        3
176
     1
 62
     5
420
      255
176
     1
290
     0
176
     1
 90
       50
176
     1
 90
       50
176
     1
 90
       50
176
     1
290
     0
176
     1
 90
       50
176
     1
 62
   256
176
     0
 40
1.0
176
     0
 90
        2
176
     1
  1
strokes_ogs.tif
176
     1
290
     0
176
     1
 40
1.0
176
     1
 40
1.0
176
     1
  0
VISUALSTYLE
  5
376
102
{ACAD_REACTORS
330
305
102
}
330
305
100
AcDbVisualStyle
  2
EdgeColorOff
 70
    22
177
     3
291
     1
 70
    58
 90
        2
176
     0
 90
        2
176
     0
 90
        0
176
     0
 90
        0
176
     0
 40
0.6
176
     0
 40
30.0
176
     0
 62
     7
420
 16777215
176
     0
 90
        1
176
     0
 90
        4
176
     0
 62
     7
176
     0
 62
   257
176
     0
 90
        1
176
     0
 90
        1
176
     0
 40
1.0
176
     0
 90
        8
176
     2
 62
     7
176
     0
 40
1.0
176
     0
 90
        1
176
     0
 90
        6
176
     0
 90
        2
176
     0
 62
     7
176
     0
 90
        5
176
     0
 90
        0
176
     0
 90
        0
176
     0
290
     0
176
     0
 90
        1
176
     0
 40
0.0
176
     0
 90
        0
176
     0
290
     0
176
     0
290
     1
176
     0
290
     1
176
     0
290
     0
176
     0
290
     0
176
     0
290
     0
176
     0
290
     0
176
     0
290
     0
176
     0
290
     0
176
     0
 90
       50
176
     0
 40
0.0
176
     0
 40
1.0
176
     0
 90
        0
176
     0
 62
    18
420
        0
176
     0
 90
       50
176
     0
 90
        3
176
     0
 62
     5
420
      255
176
     0
290
     0
176
     0
 90
       50
176
     0
 90
       50
176
     0
 90
       50
176
     0
290
     0
176
     0
 90
       50
176
     0
 62
   256
176
     0
 40
1.0
176
     0
 90
        2
176
     0
  1
strokes_ogs.tif
176
     0
290
     0
176
     0
 40
1.0
176
     0
 40
1.0
176
     0
  0
VISUALSTYLE
  5
314
102
{ACAD_REACTORS
330
305
102
}
330
305
100
AcDbVisualStyle
  2
Facepattern
 70
    15
177
     3
291
     1
 70
    58
 90
        2
176
     1
 90
        2
176
     1
 90
        0
176
     1
 90
        0
176
     1
 40
-0.6
176
     1
 40
-30.0
176
     1
 62
     7
176
     1
 90
        1
176
     1
 90
        4
176
     1
 62
     7
176
     1
 62
   257
176
     1
 90
        1
176
     1
 90
        1
176
     1
 40
1.0
176
     1
 90
        8
176
     1
 62
     7
176
     1
 40
1.0
176
     1
 90
        1
176
     1
 90
        6
176
     1
 90
        2
176
     1
 62
     7
176
     1
 90
        5
176
     1
 90
        0
176
     1
 90
        0
176
     1
290
     0
176
     1
 90
        1
176
     1
 40
0.0
176
     1
 90
        0
176
     1
290
     0
176
     1
290
     1
176
     1
290
     1
176
     1
290
     0
176
     1
290
     0
176
     1
290
     0
176
     1
290
     0
176
     1
290
     0
176
     1
290
     0
176
     1
 90
       50
176
     1
 40
0.0
176
     1
 40
1.0
176
     1
 90
        0
176
     1
 62
    18
420
        0
176
     1
 90
       50
176
     1
 90
        3
176
     1
 62
     5
420
      255
176
     1
290
     0
176
     1
 90
       50
176
     1
 90
       50
176
     1
 90
       50
176
     1
290
     0
176
     1
 90
       50
176
     1
 62
   256
176
     0
 40
1.0
176
     0
 90
        2
176
     1
  1
strokes_ogs.tif
176
     1
290
     0
176
     1
 40
1.0
176
     1
 40
1.0
176
     1
  0
VISUALSTYLE
  5
306
102
{ACAD_REACTORS
330
305
102
}
330
305
100
AcDbVisualStyle
  2
Flat
 70
     0
177
     3
291
     1
 70
    58
 90
        2
176
     1
 90
        1
176
     1
 90
        1
176
     1
 90
        2
176
     1
 40
-0.6
176
     1
 40
30.0
176
     1
 62
     7
176
     1
 90
        0
176
     1
 90
        4
176
     1
 62
     7
176
     1
 62
   257
176
     1
 90
        1
176
     1
 90
        1
176
     1
 40
1.0
176
     1
 90
        8
176
     1
 62
     7
176
     1
 40
1.0
176
     1
 90
        1
176
     1
 90
        6
176
     1
 90
        2
176
     1
 62
     7
176
     1
 90
        5
176
     1
 90
        0
176
     1
 90
        0
176
     1
290
     0
176
     1
 90
       13
176
     1
 40
0.0
176
     1
 90
        0
176
     1
290
     0
176
     1
290
     1
176
     1
290
     1
176
     1
290
     0
176
     1
290
     0
176
     1
290
     0
176
     1
290
     0
176
     1
290
     0
176
     1
290
     0
176
     1
 90
       50
176
     1
 40
0.0
176
     1
 40
1.0
176
     1
 90
        0
176
     1
 62
    18
420
        0
176
     1
 90
       50
176
     1
 90
        3
176
     1
 62
     5
420
      255
176
     1
290
     0
176
     1
 90
       50
176
     1
 90
       50
176
     1
 90
       50
176
     1
290
     0
176
     1
 90
       50
176
     1
 62
   256
176
     0
 40
1.0
176
     0
 90
        2
176
     1
  1
strokes_ogs.tif
176
     1
290
     0
176
     1
 40
1.0
176
     1
 40
1.0
176
     1
  0
VISUALSTYLE
  5
307
102
{ACAD_REACTORS
330
305
102
}
330
305
100
AcDbVisualStyle
  2
FlatWithEdges
 70
     1
177
     3
291
     1
 70
    58
 90
        2
176
     1
 90
        1
176
     1
 90
        1
176
     1
 90
        2
176
     1
 40
-0.6
176
     1
 40
30.0
176
     1
 62
     7
176
     1
 90
        1
176
     1
 90
        4
176
     1
 62
     7
176
     1
 62
   257
176
     1
 90
        1
176
     1
 90
        1
176
     1
 40
1.0
176
     1
 90
        0
176
     1
 62
   257
176
     1
 40
1.0
176
     1
 90
        1
176
     1
 90
        6
176
     1
 90
        2
176
     1
 62
     7
176
     1
 90
        5
176
     1
 90
        0
176
     1
 90
        0
176
     1
290
     0
176
     1
 90
       13
176
     1
 40
0.0
176
     1
 90
        0
176
     1
290
     0
176
     1
290
     1
176
     1
290
     1
176
     1
290
     0
176
     1
290
     0
176
     1
290
     0
176
     1
290
     0
176
     1
290
     0
176
     1
290
     0
176
     1
 90
       50
176
     1
 40
0.0
176
     1
 40
1.0
176
     1
 90
        0
176
     1
 62
    18
420
        0
176
     1
 90
       50
176
     1
 90
        3
176
     1
 62
     5
420
      255
176
     1
290
     0
176
     1
 90
       50
176
     1
 90
       50
176
     1
 90
       50
176
     1
290
     0
176
     1
 90
       50
176
     1
 62
   256
176
     0
 40
1.0
176
     0
 90
        2
176
     1
  1
strokes_ogs.tif
176
     1
290
     0
176
     1
 40
1.0
176
     1
 40
1.0
176
     1
  0
VISUALSTYLE
  5
308
102
{ACAD_REACTORS
330
305
102
}
330
305
100
AcDbVisualStyle
  2
Gouraud
 70
     2
177
     3
291
     1
 70
    58
 90
        2
176
     1
 90
        2
176
     1
 90
        1
176
     1
 90
        2
176
     1
 40
-0.6
176
     1
 40
30.0
176
     1
 62
     7
176
     1
 90
        0
176
     1
 90
        4
176
     1
 62
     7
176
     1
 62
   257
176
     1
 90
        1
176
     1
 90
        1
176
     1
 40
1.0
176
     1
 90
        0
176
     1
 62
     7
176
     1
 40
1.0
176
     1
 90
        1
176
     1
 90
        6
176
     1
 90
        2
176
     1
 62
     7
176
     1
 90
        5
176
     1
 90
        0
176
     1
 90
        0
176
     1
290
     0
176
     1
 90
       13
176
     1
 40
0.0
176
     1
 90
        0
176
     1
290
     0
176
     1
290
     1
176
     1
290
     1
176
     1
290
     0
176
     1
290
     0
176
     1
290
     0
176
     1
290
     0
176
     1
290
     0
176
     1
290
     0
176
     1
 90
       50
176
     1
 40
0.0
176
     1
 40
1.0
176
     1
 90
        0
176
     1
 62
    18
420
        0
176
     1
 90
       50
176
     1
 90
        3
176
     1
 62
     5
420
      255
176
     1
290
     0
176
     1
 90
       50
176
     1
 90
       50
176
     1
 90
       50
176
     1
290
     0
176
     1
 90
       50
176
     1
 62
   256
176
     0
 40
1.0
176
     0
 90
        2
176
     1
  1
strokes_ogs.tif
176
     1
290
     0
176
     1
 40
1.0
176
     1
 40
1.0
176
     1
  0
VISUALSTYLE
  5
309
102
{ACAD_REACTORS
330
305
102
}
330
305
100
AcDbVisualStyle
  2
GouraudWithEdges
 70
     3
177
     3
291
     1
 70
    58
 90
        2
176
     1
 90
        2
176
     1
 90
        1
176
     1
 90
        2
176
     1
 40
-0.6
176
     1
 40
30.0
176
     1
 62
     7
176
     1
 90
        1
176
     1
 90
        4
176
     1
 62
     7
176
     1
 62
   257
176
     1
 90
        1
176
     1
 90
        1
176
     1
 40
1.0
176
     1
 90
        0
176
     1
 62
   257
176
     1
 40
1.0
176
     1
 90
        1
176
     1
 90
        6
176
     1
 90
        2
176
     1
 62
     7
176
     1
 90
        5
176
     1
 90
        0
176
     1
 90
        0
176
     1
290
     0
176
     1
 90
       13
176
     1
 40
0.0
176
     1
 90
        0
176
     1
290
     0
176
     1
290
     1
176
     1
290
     1
176
     1
290
     0
176
     1
290
     0
176
     1
290
     0
176
     1
290
     0
176
     1
290
     0
176
     1
290
     0
176
     1
 90
       50
176
     1
 40
0.0
176
     1
 40
1.0
176
     1
 90
        0
176
     1
 62
    18
420
        0
176
     1
 90
       50
176
     1
 90
        3
176
     1
 62
     5
420
      255
176
     1
290
     0
176
     1
 90
       50
176
     1
 90
       50
176
     1
 90
       50
176
     1
290
     0
176
     1
 90
       50
176
     1
 62
   256
176
     0
 40
1.0
176
     0
 90
        2
176
     1
  1
strokes_ogs.tif
176
     1
290
     0
176
     1
 40
1.0
176
     1
 40
1.0
176
     1
  0
VISUALSTYLE
  5
373
102
{ACAD_REACTORS
330
305
102
}
330
305
100
AcDbVisualStyle
  2
Hidden
 70
     6
177
     3
291
     0
 70
    58
 90
        1
176
     1
 90
        2
176
     1
 90
        2
176
     1
 90
        0
176
     1
 40
0.6
176
     1
 40
30.0
176
     1
 62
     7
420
 16777215
176
     1
 90
        2
176
     1
 90
        2
176
     1
 62
     7
176
     1
 62
   257
176
     1
 90
        2
176
     1
 90
        1
176
     1
 40
40.0
176
     1
 90
        0
176
     1
 62
   257
176
     1
 40
1.0
176
     1
 90
        1
176
     1
 90
        6
176
     1
 90
        2
176
     1
 62
     7
176
     1
 90
        3
176
     1
 90
        0
176
     1
 90
        0
176
     1
290
     0
176
     1
 90
        1
176
     1
 40
0.0
176
     1
 90
        0
176
     1
290
     0
176
     1
290
     1
176
     1
290
     1
176
     1
290
     0
176
     1
290
     0
176
     1
290
     0
176
     1
290
     0
176
     1
290
     0
176
     1
290
     0
176
     1
 90
       50
176
     1
 40
0.0
176
     1
 40
1.0
176
     1
 90
        0
176
     1
 62
    18
420
        0
176
     1
 90
       50
176
     1
 90
        3
176
     1
 62
     5
420
      255
176
     1
290
     0
176
     1
 90
       50
176
     1
 90
       50
176
     1
 90
       50
176
     1
290
     0
176
     1
 90
       50
176
     1
 62
   256
176
     0
 40
1.0
176
     0
 90
        2
176
     1
  1
strokes_ogs.tif
176
     1
290
     0
176
     1
 40
1.0
176
     1
 40
1.0
176
     1
  0
VISUALSTYLE
  5
374
102
{ACAD_REACTORS
330
305
102
}
330
305
100
AcDbVisualStyle
  2
JitterOff
 70
    20
177
     3
291
     1
 70
    58
 90
        2
176
     0
 90
        2
176
     0
 90
        0
176
     0
 90
        0
176
     0
 40
0.6
176
     0
 40
30.0
176
     0
 62
     7
420
 16777215
176
     0
 90
        1
176
     0
 90
        4
176
     0
 62
     7
176
     0
 62
   257
176
     0
 90
        1
176
     0
 90
        1
176
     0
 40
1.0
176
     0
 90
       10
176
     2
 62
     7
176
     0
 40
1.0
176
     0
 90
        1
176
     0
 90
        6
176
     0
 90
        2
176
     0
 62
     7
176
     0
 90
        5
176
     0
 90
        0
176
     0
 90
        0
176
     0
290
     0
176
     0
 90
        1
176
     0
 40
0.0
176
     0
 90
        0
176
     0
290
     0
176
     0
290
     1
176
     0
290
     1
176
     0
290
     0
176
     0
290
     0
176
     0
290
     0
176
     0
290
     0
176
     0
290
     0
176
     0
290
     0
176
     0
 90
       50
176
     0
 40
0.0
176
     0
 40
1.0
176
     0
 90
        0
176
     0
 62
    18
420
        0
176
     0
 90
       50
176
     0
 90
        3
176
     0
 62
     5
420
      255
176
     0
290
     0
176
     0
 90
       50
176
     0
 90
       50
176
     0
 90
       50
176
     0
290
     0
176
     0
 90
       50
176
     0
 62
   256
176
     0
 40
1.0
176
     0
 90
        2
176
     0
  1
strokes_ogs.tif
176
     0
290
     0
176
     0
 40
1.0
176
     0
 40
1.0
176
     0
  0
VISUALSTYLE
  5
313
102
{ACAD_REACTORS
330
305
102
}
330
305
100
AcDbVisualStyle
  2
Linepattern
 70
    14
177
     3
291
     1
 70
    58
 90
        2
176
     1
 90
        2
176
     1
 90
        0
176
     1
 90
        0
176
     1
 40
-0.6
176
     1
 40
-30.0
176
     1
 62
     7
176
     1
 90
        1
176
     1
 90
        4
176
     1
 62
     7
176
     1
 62
   257
176
     1
 90
        7
176
     1
 90
        7
176
     1
 40
1.0
176
     1
 90
        8
176
     1
 62
     7
176
     1
 40
1.0
176
     1
 90
        1
176
     1
 90
        6
176
     1
 90
        2
176
     1
 62
     7
176
     1
 90
        5
176
     1
 90
        0
176
     1
 90
        0
176
     1
290
     0
176
     1
 90
        1
176
     1
 40
0.0
176
     1
 90
        0
176
     1
290
     0
176
     1
290
     1
176
     1
290
     1
176
     1
290
     0
176
     1
290
     0
176
     1
290
     0
176
     1
290
     0
176
     1
290
     0
176
     1
290
     0
176
     1
 90
       50
176
     1
 40
0.0
176
     1
 40
1.0
176
     1
 90
        0
176
     1
 62
    18
420
        0
176
     1
 90
       50
176
     1
 90
        3
176
     1
 62
     5
420
      255
176
     1
290
     0
176
     1
 90
       50
176
     1
 90
       50
176
     1
 90
       50
176
     1
290
     0
176
     1
 90
       50
176
     1
 62
   256
176
     0
 40
1.0
176
     0
 90
        2
176
     1
  1
strokes_ogs.tif
176
     1
290
     0
176
     1
 40
1.0
176
     1
 40
1.0
176
     1
  0
VISUALSTYLE
  5
375
102
{ACAD_REACTORS
330
305
102
}
330
305
100
AcDbVisualStyle
  2
OverhangOff
 70
    21
177
     3
291
     1
 70
    58
 90
        2
176
     0
 90
        2
176
     0
 90
        0
176
     0
 90
        0
176
     0
 40
0.6
176
     0
 40
30.0
176
     0
 62
     7
420
 16777215
176
     0
 90
        1
176
     0
 90
        4
176
     0
 62
     7
176
     0
 62
   257
176
     0
 90
        1
176
     0
 90
        1
176
     0
 40
1.0
176
     0
 90
        9
176
     2
 62
     7
176
     0
 40
1.0
176
     0
 90
        1
176
     0
 90
        6
176
     0
 90
        2
176
     0
 62
     7
176
     0
 90
        5
176
     0
 90
        0
176
     0
 90
        0
176
     0
290
     0
176
     0
 90
        1
176
     0
 40
0.0
176
     0
 90
        0
176
     0
290
     0
176
     0
290
     1
176
     0
290
     1
176
     0
290
     0
176
     0
290
     0
176
     0
290
     0
176
     0
290
     0
176
     0
290
     0
176
     0
290
     0
176
     0
 90
       50
176
     0
 40
0.0
176
     0
 40
1.0
176
     0
 90
        0
176
     0
 62
    18
420
        0
176
     0
 90
       50
176
     0
 90
        3
176
     0
 62
     5
420
      255
176
     0
290
     0
176
     0
 90
       50
176
     0
 90
       50
176
     0
 90
       50
176
     0
290
     0
176
     0
 90
       50
176
     0
 62
   256
176
     0
 40
1.0
176
     0
 90
        2
176
     0
  1
strokes_ogs.tif
176
     0
290
     0
176
     0
 40
1.0
176
     0
 40
1.0
176
     0
  0
VISUALSTYLE
  5
30E
102
{ACAD_REACTORS
330
305
102
}
330
305
100
AcDbVisualStyle
  2
Realistic
 70
     8
177
     3
291
     0
 70
    58
 90
        2
176
     1
 90
        2
176
     1
 90
        0
176
     1
 90
        0
176
     1
 40
-0.6
176
     1
 40
-30.0
176
     1
 62
     7
176
     1
 90
        1
176
     1
 90
        0
176
     1
 62
     7
176
     1
 62
   257
176
     1
 90
        1
176
     1
 90
        1
176
     1
 40
1.0
176
     1
 90
        8
176
     1
 62
     8
176
     1
 40
1.0
176
     1
 90
        1
176
     1
 90
        6
176
     1
 90
        2
176
     1
 62
     7
176
     1
 90
        5
176
     1
 90
        0
176
     1
 90
        0
176
     1
290
     0
176
     1
 90
       13
176
     1
 40
0.0
176
     1
 90
        0
176
     1
290
     0
176
     1
290
     1
176
     1
290
     1
176
     1
290
     0
176
     1
290
     0
176
     1
290
     0
176
     1
290
     0
176
     1
290
     0
176
     1
290
     0
176
     1
 90
       50
176
     1
 40
0.0
176
     1
 40
1.0
176
     1
 90
        0
176
     1
 62
    18
420
        0
176
     1
 90
       50
176
     1
 90
        3
176
     1
 62
     5
420
      255
176
     1
290
     0
176
     1
 90
       50
176
     1
 90
       50
176
     1
 90
       50
176
     1
290
     0
176
     1
 90
       50
176
     1
 62
   256
176
     0
 40
1.0
176
     0
 90
        2
176
     1
  1
strokes_ogs.tif
176
     1
290
     0
176
     1
 40
1.0
176
     1
 40
1.0
176
     1
  0
VISUALSTYLE
  5
37B
102
{ACAD_REACTORS
330
305
102
}
330
305
100
AcDbVisualStyle
  2
Shaded
 70
    27
177
     3
291
     0
 70
    58
 90
        2
176
     1
 90
        2
176
     1
 90
        1
176
     1
 90
        2
176
     1
 40
0.6
176
     1
 40
30.0
176
     1
 62
     7
420
 16777215
176
     1
 90
        0
176
     1
 90
        4
176
     1
 62
     7
176
     1
 62
   257
176
     1
 90
        1
176
     1
 90
        1
176
     1
 40
1.0
176
     1
 90
        8
176
     1
 62
   257
176
     1
 40
1.0
176
     1
 90
        1
176
     1
 90
        6
176
     1
 90
        2
176
     1
 62
     8
420
  7895160
176
     1
 90
        3
176
     1
 90
        0
176
     1
 90
        0
176
     1
290
     0
176
     1
 90
        5
176
     1
 40
0.0
176
     1
 90
        0
176
     1
290
     0
176
     1
290
     1
176
     1
290
     1
176
     1
290
     0
176
     1
290
     0
176
     1
290
     0
176
     1
290
     0
176
     1
290
     0
176
     1
290
     0
176
     1
 90
       50
176
     1
 40
0.0
176
     1
 40
1.0
176
     1
 90
        0
176
     1
 62
    18
420
        0
176
     1
 90
       50
176
     1
 90
        3
176
     1
 62
     5
420
      255
176
     1
290
     0
176
     1
 90
       50
176
     1
 90
       50
176
     1
 90
       50
176
     1
290
     0
176
     1
 90
       50
176
     1
 62
   256
176
     0
 40
1.0
176
     0
 90
        2
176
     1
  1
strokes_ogs.tif
176
     1
290
     0
176
     1
 40
1.0
176
     1
 40
1.0
176
     1
  0
VISUALSTYLE
  5
37A
102
{ACAD_REACTORS
330
305
102
}
330
305
100
AcDbVisualStyle
  2
Shaded with edges
 70
    26
177
     3
291
     0
 70
    58
 90
        2
176
     1
 90
        2
176
     1
 90
        1
176
     1
 90
        2
176
     1
 40
0.6
176
     1
 40
30.0
176
     1
 62
     7
420
 16777215
176
     1
 90
        1
176
     1
 90
       10
176
     1
 62
     7
176
     1
 62
   257
176
     1
 90
        2
176
     1
 90
        1
176
     1
 40
1.0
176
     1
 90
        8
176
     1
 62
   257
176
     1
 40
1.0
176
     1
 90
        1
176
     1
 90
        6
176
     1
 90
        2
176
     1
 62
     7
176
     1
 90
        3
176
     1
 90
        0
176
     1
 90
        0
176
     1
290
     0
176
     1
 90
        5
176
     1
 40
0.0
176
     1
 90
        0
176
     1
290
     0
176
     1
290
     1
176
     1
290
     1
176
     1
290
     0
176
     1
290
     0
176
     1
290
     0
176
     1
290
     0
176
     1
290
     0
176
     1
290
     0
176
     1
 90
       50
176
     1
 40
0.0
176
     1
 40
1.0
176
     1
 90
        0
176
     1
 62
    18
420
        0
176
     1
 90
       50
176
     1
 90
        3
176
     1
 62
     5
420
      255
176
     1
290
     0
176
     1
 90
       50
176
     1
 90
       50
176
     1
 90
       50
176
     1
290
     0
176
     1
 90
       50
176
     1
 62
   256
176
     0
 40
1.0
176
     0
 90
        2
176
     1
  1
strokes_ogs.tif
176
     1
290
     0
176
     1
 40
1.0
176
     1
 40
1.0
176
     1
  0
VISUALSTYLE
  5
377
102
{ACAD_REACTORS
330
305
102
}
330
305
100
AcDbVisualStyle
  2
Shades of Gray
 70
    23
177
     3
291
     0
 70
    58
 90
        2
176
     1
 90
        2
176
     1
 90
        3
176
     1
 90
        0
176
     1
 40
0.6
176
     1
 40
30.0
176
     1
 62
     7
420
 16777215
176
     1
 90
        2
176
     1
 90
        2
176
     1
 62
     7
176
     1
 62
     7
176
     1
 90
        1
176
     1
 90
        1
176
     1
 40
40.0
176
     1
 90
        8
176
     1
 62
     7
176
     1
 40
1.0
176
     1
 90
        1
176
     1
 90
        6
176
     1
 90
        2
176
     1
 62
     7
176
     1
 90
        3
176
     1
 90
        0
176
     1
 90
        0
176
     1
290
     0
176
     1
 90
        1
176
     1
 40
0.0
176
     1
 90
        0
176
     1
290
     0
176
     1
290
     1
176
     1
290
     1
176
     1
290
     0
176
     1
290
     0
176
     1
290
     0
176
     1
290
     0
176
     1
290
     0
176
     1
290
     0
176
     1
 90
       50
176
     1
 40
0.0
176
     1
 40
1.0
176
     1
 90
        0
176
     1
 62
    18
420
        0
176
     1
 90
       50
176
     1
 90
        3
176
     1
 62
     5
420
      255
176
     1
290
     0
176
     1
 90
       50
176
     1
 90
       50
176
     1
 90
       50
176
     1
290
     0
176
     1
 90
       50
176
     1
 62
   256
176
     0
 40
1.0
176
     0
 90
        2
176
     1
  1
strokes_ogs.tif
176
     1
290
     0
176
     1
 40
1.0
176
     1
 40
1.0
176
     1
  0
VISUALSTYLE
  5
378
102
{ACAD_REACTORS
330
305
102
}
330
305
100
AcDbVisualStyle
  2
Sketchy
 70
    24
177
     3
291
     0
 70
    58
 90
        1
176
     1
 90
        2
176
     1
 90
        2
176
     1
 90
        0
176
     1
 40
0.6
176
     1
 40
30.0
176
     1
 62
     7
420
 16777215
176
     1
 90
        2
176
     1
 90
        2
176
     1
 62
     7
176
     1
 62
     7
176
     1
 90
        1
176
     1
 90
        1
176
     1
 40
40.0
176
     1
 90
       11
176
     1
 62
     7
176
     1
 40
1.0
176
     1
 90
        1
176
     1
 90
        6
176
     1
 90
        2
176
     1
 62
     7
176
     1
 90
        6
176
     1
 90
        0
176
     1
 90
        0
176
     1
290
     0
176
     1
 90
        1
176
     1
 40
0.0
176
     1
 90
        0
176
     1
290
     0
176
     1
290
     1
176
     1
290
     1
176
     1
290
     0
176
     1
290
     0
176
     1
290
     0
176
     1
290
     0
176
     1
290
     0
176
     1
290
     0
176
     1
 90
       50
176
     1
 40
0.0
176
     1
 40
1.0
176
     1
 90
        0
176
     1
 62
    18
420
        0
176
     1
 90
       50
176
     1
 90
        3
176
     1
 62
     5
420
      255
176
     1
290
     0
176
     1
 90
       50
176
     1
 90
       50
176
     1
 90
       50
176
     1
290
     0
176
     1
 90
       50
176
     1
 62
   256
176
     0
 40
1.0
176
     0
 90
        2
176
     1
  1
strokes_ogs.tif
176
     1
290
     0
176
     1
 40
1.0
176
     1
 40
1.0
176
     1
  0
VISUALSTYLE
  5
312
102
{ACAD_REACTORS
330
305
102
}
330
305
100
AcDbVisualStyle
  2
Thicken
 70
    13
177
     3
291
     1
 70
    58
 90
        2
176
     1
 90
        2
176
     1
 90
        0
176
     1
 90
        0
176
     1
 40
-0.6
176
     1
 40
-30.0
176
     1
 62
     7
176
     1
 90
        1
176
     1
 90
        4
176
     1
 62
     7
176
     1
 62
   257
176
     1
 90
        1
176
     1
 90
        1
176
     1
 40
1.0
176
     1
 90
       12
176
     1
 62
     7
176
     1
 40
1.0
176
     1
 90
        1
176
     1
 90
        6
176
     1
 90
        2
176
     1
 62
     7
176
     1
 90
        5
176
     1
 90
        0
176
     1
 90
        0
176
     1
290
     0
176
     1
 90
        1
176
     1
 40
0.0
176
     1
 90
        0
176
     1
290
     0
176
     1
290
     1
176
     1
290
     1
176
     1
290
     0
176
     1
290
     0
176
     1
290
     0
176
     1
290
     0
176
     1
290
     0
176
     1
290
     0
176
     1
 90
       50
176
     1
 40
0.0
176
     1
 40
1.0
176
     1
 90
        0
176
     1
 62
    18
420
        0
176
     1
 90
       50
176
     1
 90
        3
176
     1
 62
     5
420
      255
176
     1
290
     0
176
     1
 90
       50
176
     1
 90
       50
176
     1
 90
       50
176
     1
290
     0
176
     1
 90
       50
176
     1
 62
   256
176
     0
 40
1.0
176
     0
 90
        2
176
     1
  1
strokes_ogs.tif
176
     1
290
     0
176
     1
 40
1.0
176
     1
 40
1.0
176
     1
  0
VISUALSTYLE
  5
372
102
{ACAD_REACTORS
330
305
102
}
330
305
100
AcDbVisualStyle
  2
Wireframe
 70
     5
177
     3
291
     0
 70
    58
 90
        0
176
     1
 90
        2
176
     1
 90
        0
176
     1
 90
        0
176
     1
 40
0.6
176
     1
 40
30.0
176
     1
 62
     7
420
 16777215
176
     1
 90
        1
176
     1
 90
        4
176
     1
 62
     7
176
     1
 62
   257
176
     1
 90
        1
176
     1
 90
        1
176
     1
 40
1.0
176
     1
 90
        0
176
     1
 62
   257
176
     1
 40
1.0
176
     1
 90
        1
176
     1
 90
        6
176
     1
 90
        2
176
     1
 62
     7
176
     1
 90
        3
176
     1
 90
        0
176
     1
 90
        0
176
     1
290
     0
176
     1
 90
        1
176
     1
 40
0.0
176
     1
 90
        0
176
     1
290
     0
176
     1
290
     1
176
     1
290
     1
176
     1
290
     0
176
     1
290
     0
176
     1
290
     0
176
     1
290
     0
176
     1
290
     0
176
     1
290
     0
176
     1
 90
       50
176
     1
 40
0.0
176
     1
 40
1.0
176
     1
 90
        0
176
     1
 62
    18
420
        0
176
     1
 90
       50
176
     1
 90
        3
176
     1
 62
     5
420
      255
176
     1
290
     0
176
     1
 90
       50
176
     1
 90
       50
176
     1
 90
       50
176
     1
290
     0
176
     1
 90
       50
176
     1
 62
   256
176
     0
 40
1.0
176
     0
 90
        2
176
     1
  1
strokes_ogs.tif
176
     1
290
     0
176
     1
 40
1.0
176
     1
 40
1.0
176
     1
  0
VISUALSTYLE
  5
379
102
{ACAD_REACTORS
330
305
102
}
330
305
100
AcDbVisualStyle
  2
X-Ray
 70
    25
177
     3
291
     0
 70
    58
 90
        2
176
     1
 90
        2
176
     1
 90
        1
176
     1
 90
        1
176
     1
 40
0.5
176
     1
 40
30.0
176
     1
 62
     7
420
 16777215
176
     1
 90
        1
176
     1
 90
        0
176
     1
 62
     7
176
     1
 62
   257
176
     1
 90
        1
176
     1
 90
        1
176
     1
 40
1.0
176
     1
 90
        8
176
     1
 62
     7
176
     1
 40
1.0
176
     1
 90
        1
176
     1
 90
        6
176
     1
 90
        2
176
     1
 62
     7
176
     1
 90
        3
176
     1
 90
        0
176
     1
 90
        0
176
     1
290
     0
176
     1
 90
       13
176
     1
 40
0.0
176
     1
 90
        0
176
     1
290
     0
176
     1
290
     1
176
     1
290
     1
176
     1
290
     0
176
     1
290
     0
176
     1
290
     0
176
     1
290
     0
176
     1
290
     0
176
     1
290
     0
176
     1
 90
       50
176
     1
 40
0.0
176
     1
 40
1.0
176
     1
 90
        0
176
     1
 62
    18
420
        0
176
     1
 90
       50
176
     1
 90
        3
176
     1
 62
     5
420
      255
176
     1
290
     0
176
     1
 90
       50
176
     1
 90
       50
176
     1
 90
       50
176
     1
290
     0
176
     1
 90
       50
176
     1
 62
   256
176
     0
 40
1.0
176
     0
 90
        2
176
     1
  1
strokes_ogs.tif
176
     1
290
     0
176
     1
 40
1.0
176
     1
 40
1.0
176
     1
  0
DICTIONARYVAR
  5
397
102
{ACAD_REACTORS
330
32B
102
}
330
32B
100
DictionaryVariables
280
     0
  1
1:1
  0
DICTIONARYVAR
  5
399
102
{ACAD_REACTORS
330
32B
102
}
330
32B
100
DictionaryVariables
280
     0
  1
Standard
  0
DICTIONARYVAR
  5
398
102
{ACAD_REACTORS
330
32B
102
}
330
32B
100
DictionaryVariables
280
     0
  1
Standard
  0
DICTIONARYVAR
  5
32F
102
{ACAD_REACTORS
330
32B
102
}
330
32B
100
DictionaryVariables
280
     0
  1
2
  0
DICTIONARYVAR
  5
330
102
{ACAD_REACTORS
330
32B
102
}
330
32B
100
DictionaryVariables
280
     0
  1
1
  0
DICTIONARYVAR
  5
32E
102
{ACAD_REACTORS
330
32B
102
}
330
32B
100
DictionaryVariables
280
     0
  1
0
  0
DICTIONARY
  5
3E0
330
37D
100
AcDbDictionary
280
     1
281
     1
  3
ACAD_ROUNDTRIP_2008_TABLESTYLE_CELLSTYLEMAP
360
3E1
  0
CELLSTYLEMAP
  5
3E1
102
{ACAD_REACTORS
330
3E0
102
}
330
3E0
100
AcDbCellStyleMap
 90
        3
300
CELLSTYLE
  1
TABLEFORMAT_BEGIN
 90
        5
170
     1
 91
        0
 92
    32768
 62
   257
 93
        1
300
CONTENTFORMAT
  1
CONTENTFORMAT_BEGIN
 90
        0
 91
        0
 92
        4
 93
        0
300

 40
0.0
140
1.0
 94
        5
 62
     0
340
11
144
6.0
309
CONTENTFORMAT_END
171
     1
301
MARGIN
  1
CELLMARGIN_BEGIN
 40
1.5
 40
1.5
 40
1.5
 40
1.5
 40
1.5
 40
1.5
309
CELLMARGIN_END
 94
        6
 95
        1
302
GRIDFORMAT
  1
GRIDFORMAT_BEGIN
 90
        0
 91
        1
 62
     0
 92
       -2
340
14
 93
        0
 40
0.045
309
GRIDFORMAT_END
 95
        2
302
GRIDFORMAT
  1
GRIDFORMAT_BEGIN
 90
        0
 91
        1
 62
     0
 92
       -2
340
14
 93
        0
 40
0.045
309
GRIDFORMAT_END
 95
        4
302
GRIDFORMAT
  1
GRIDFORMAT_BEGIN
 90
        0
 91
        1
 62
     0
 92
       -2
340
14
 93
        0
 40
0.045
309
GRIDFORMAT_END
 95
        8
302
GRIDFORMAT
  1
GRIDFORMAT_BEGIN
 90
        0
 91
        1
 62
     0
 92
       -2
340
14
 93
        0
 40
0.045
309
GRIDFORMAT_END
 95
       16
302
GRIDFORMAT
  1
GRIDFORMAT_BEGIN
 90
        0
 91
        1
 62
     0
 92
       -2
340
14
 93
        0
 40
0.045
309
GRIDFORMAT_END
 95
       32
302
GRIDFORMAT
  1
GRIDFORMAT_BEGIN
 90
        0
 91
        1
 62
     0
 92
       -2
340
14
 93
        0
 40
0.045
309
GRIDFORMAT_END
309
TABLEFORMAT_END
  1
CELLSTYLE_BEGIN
 90
        1
 91
        1
300
_TITLE
309
CELLSTYLE_END
300
CELLSTYLE
  1
TABLEFORMAT_BEGIN
 90
        5
170
     1
 91
        0
 92
        0
 62
   257
 93
        1
300
CONTENTFORMAT
  1
CONTENTFORMAT_BEGIN
 90
        0
 91
        0
 92
        4
 93
        0
300

 40
0.0
140
1.0
 94
        5
 62
     0
340
11
144
4.5
309
CONTENTFORMAT_END
171
     1
301
MARGIN
  1
CELLMARGIN_BEGIN
 40
1.5
 40
1.5
 40
1.5
 40
1.5
 40
1.5
 40
1.5
309
CELLMARGIN_END
 94
        6
 95
        1
302
GRIDFORMAT
  1
GRIDFORMAT_BEGIN
 90
        0
 91
        1
 62
     0
 92
       -2
340
14
 93
        0
 40
0.045
309
GRIDFORMAT_END
 95
        2
302
GRIDFORMAT
  1
GRIDFORMAT_BEGIN
 90
        0
 91
        1
 62
     0
 92
       -2
340
14
 93
        0
 40
0.045
309
GRIDFORMAT_END
 95
        4
302
GRIDFORMAT
  1
GRIDFORMAT_BEGIN
 90
        0
 91
        1
 62
     0
 92
       -2
340
14
 93
        0
 40
0.045
309
GRIDFORMAT_END
 95
        8
302
GRIDFORMAT
  1
GRIDFORMAT_BEGIN
 90
        0
 91
        1
 62
     0
 92
       -2
340
14
 93
        0
 40
0.045
309
GRIDFORMAT_END
 95
       16
302
GRIDFORMAT
  1
GRIDFORMAT_BEGIN
 90
        0
 91
        1
 62
     0
 92
       -2
340
14
 93
        0
 40
0.045
309
GRIDFORMAT_END
 95
       32
302
GRIDFORMAT
  1
GRIDFORMAT_BEGIN
 90
        0
 91
        1
 62
     0
 92
       -2
340
14
 93
        0
 40
0.045
309
GRIDFORMAT_END
309
TABLEFORMAT_END
  1
CELLSTYLE_BEGIN
 90
        2
 91
        1
300
_HEADER
309
CELLSTYLE_END
300
CELLSTYLE
  1
TABLEFORMAT_BEGIN
 90
        5
170
     1
 91
        0
 92
        0
 62
   257
 93
        1
300
CONTENTFORMAT
  1
CONTENTFORMAT_BEGIN
 90
        0
 91
        0
 92
        4
 93
        0
300

 40
0.0
140
1.0
 94
        2
 62
     0
340
11
144
4.5
309
CONTENTFORMAT_END
171
     1
301
MARGIN
  1
CELLMARGIN_BEGIN
 40
1.5
 40
1.5
 40
1.5
 40
1.5
 40
1.5
 40
1.5
309
CELLMARGIN_END
 94
        6
 95
        1
302
GRIDFORMAT
  1
GRIDFORMAT_BEGIN
 90
        0
 91
        1
 62
     0
 92
       -2
340
14
 93
        0
 40
0.045
309
GRIDFORMAT_END
 95
        2
302
GRIDFORMAT
  1
GRIDFORMAT_BEGIN
 90
        0
 91
        1
 62
     0
 92
       -2
340
14
 93
        0
 40
0.045
309
GRIDFORMAT_END
 95
        4
302
GRIDFORMAT
  1
GRIDFORMAT_BEGIN
 90
        0
 91
        1
 62
     0
 92
       -2
340
14
 93
        0
 40
0.045
309
GRIDFORMAT_END
 95
        8
302
GRIDFORMAT
  1
GRIDFORMAT_BEGIN
 90
        0
 91
        1
 62
     0
 92
       -2
340
14
 93
        0
 40
0.045
309
GRIDFORMAT_END
 95
       16
302
GRIDFORMAT
  1
GRIDFORMAT_BEGIN
 90
        0
 91
        1
 62
     0
 92
       -2
340
14
 93
        0
 40
0.045
309
GRIDFORMAT_END
 95
       32
302
GRIDFORMAT
  1
GRIDFORMAT_BEGIN
 90
        0
 91
        1
 62
     0
 92
       -2
340
14
 93
        0
 40
0.045
309
GRIDFORMAT_END
309
TABLEFORMAT_END
  1
CELLSTYLE_BEGIN
 90
        3
 91
        2
300
_DATA
309
CELLSTYLE_END
  0
ENDSEC
  0
EOF
