  0
SECTION
  2
HEADER
  9
$ACADVER
  1
AC1027
  9
$ACADMAINTVER
 70
   105
  9
$DWGCODEPAGE
  3
ANSI_1252
  9
$REQUIREDVERSIONS
160
                 0
  9
$LASTSAVEDBY
  1
matthias.ochs
  9
$INSBASE
 10
0.0
 20
0.0
 30
0.0
  9
$EXTMIN
 10
-33.61222737155572
 20
-86.21080971116899
 30
0.0
  9
$EXTMAX
 10
98.38777262844422
 20
77.0184585815139
 30
0.0
  9
$LIMMIN
 10
0.0
 20
0.0
  9
$LIMMAX
 10
210.0
 20
297.0
  9
$ORTHOMODE
 70
     0
  9
$REGENMODE
 70
     1
  9
$FILLMODE
 70
     1
  9
$QTEXTMODE
 70
     0
  9
$MIRRTEXT
 70
     1
  9
$LTSCALE
 40
1.0
  9
$ATTMODE
 70
     1
  9
$TEXTSIZE
 40
3.5
  9
$TRACEWID
 40
1.0
  9
$TEXTSTYLE
  7
STANDARD
  9
$CLAYER
  8
1
  9
$CELTYPE
  6
BYLAYER
  9
$CECOLOR
 62
   256
  9
$CELTSCALE
 40
1.0
  9
$DISPSILH
 70
     0
  9
$DIMSCALE
 40
1.0
  9
$DIMASZ
 40
3.5
  9
$DIMEXO
 40
0.0
  9
$DIMDLI
 40
3.75
  9
$DIMRND
 40
0.0
  9
$DIMDLE
 40
0.0
  9
$DIMEXE
 40
1.0
  9
$DIMTP
 40
0.0
  9
$DIMTM
 40
0.0
  9
$DIMTXT
 40
3.5
  9
$DIMCEN
 40
2.5
  9
$DIMTSZ
 40
0.0
  9
$DIMTOL
 70
     0
  9
$DIMLIM
 70
     0
  9
$DIMTIH
 70
     1
  9
$DIMTOH
 70
     1
  9
$DIMSE1
 70
     0
  9
$DIMSE2
 70
     0
  9
$DIMTAD
 70
     1
  9
$DIMZIN
 70
     0
  9
$DIMBLK
  1

  9
$DIMASO
 70
     1
  9
$DIMSHO
 70
     1
  9
$DIMPOST
  1

  9
$DIMAPOST
  1

  9
$DIMALT
 70
     0
  9
$DIMALTD
 70
     3
  9
$DIMALTF
 40
0.0393700787
  9
$DIMLFAC
 40
1.0
  9
$DIMTOFL
 70
     1
  9
$DIMTVP
 40
0.0
  9
$DIMTIX
 70
     0
  9
$DIMSOXD
 70
     0
  9
$DIMSAH
 70
     0
  9
$DIMBLK1
  1

  9
$DIMBLK2
  1

  9
$DIMSTYLE
  2
ISO-25
  9
$DIMCLRD
 70
     0
  9
$DIMCLRE
 70
     0
  9
$DIMCLRT
 70
     0
  9
$DIMTFAC
 40
1.0
  9
$DIMGAP
 40
1.5
  9
$DIMJUST
 70
     0
  9
$DIMSD1
 70
     0
  9
$DIMSD2
 70
     0
  9
$DIMTOLJ
 70
     0
  9
$DIMTZIN
 70
     0
  9
$DIMALTZ
 70
     0
  9
$DIMALTTZ
 70
     0
  9
$DIMUPT
 70
     0
  9
$DIMDEC
 70
     2
  9
$DIMTDEC
 70
     3
  9
$DIMALTU
 70
     2
  9
$DIMALTTD
 70
     3
  9
$DIMTXSTY
  7
STANDARD
  9
$DIMAUNIT
 70
     0
  9
$DIMADEC
 70
     0
  9
$DIMALTRND
 40
0.0
  9
$DIMAZIN
 70
     0
  9
$DIMDSEP
 70
    46
  9
$DIMATFIT
 70
     3
  9
$DIMFRAC
 70
     0
  9
$DIMLDRBLK
  1

  9
$DIMLUNIT
 70
     2
  9
$DIMLWD
 70
    -2
  9
$DIMLWE
 70
    -2
  9
$DIMTMOVE
 70
     2
  9
$DIMFXL
 40
1.0
  9
$DIMFXLON
 70
     0
  9
$DIMJOGANG
 40
0.7853981633974483
  9
$DIMTFILL
 70
     0
  9
$DIMTFILLCLR
 70
     0
  9
$DIMARCSYM
 70
     0
  9
$DIMLTYPE
  6

  9
$DIMLTEX1
  6

  9
$DIMLTEX2
  6

  9
$DIMTXTDIRECTION
 70
     0
  9
$LUNITS
 70
     2
  9
$LUPREC
 70
     2
  9
$SKETCHINC
 40
1.0
  9
$FILLETRAD
 40
10.0
  9
$AUNITS
 70
     0
  9
$AUPREC
 70
     2
  9
$MENU
  1
.
  9
$ELEVATION
 40
0.0
  9
$PELEVATION
 40
0.0
  9
$THICKNESS
 40
0.0
  9
$LIMCHECK
 70
     0
  9
$CHAMFERA
 40
0.0
  9
$CHAMFERB
 40
0.0
  9
$CHAMFERC
 40
0.0
  9
$CHAMFERD
 40
0.0
  9
$SKPOLY
 70
     0
  9
$TDCREATE
 40
2456973.350155926
  9
$TDUCREATE
 40
2456973.266822593
  9
$TDUPDATE
 40
2458677.472173056
  9
$TDUUPDATE
 40
2458677.388839722
  9
$TDINDWG
 40
0.0026286458
  9
$TDUSRTIMER
 40
0.0036483681
  9
$USRTIMER
 70
     1
  9
$ANGBASE
 50
0.0
  9
$ANGDIR
 70
     0
  9
$PDMODE
 70
     0
  9
$PDSIZE
 40
-1.0
  9
$PLINEWID
 40
0.0
  9
$SPLFRAME
 70
     0
  9
$SPLINETYPE
 70
     6
  9
$SPLINESEGS
 70
     8
  9
$HANDSEED
  5
475
  9
$SURFTAB1
 70
     6
  9
$SURFTAB2
 70
     6
  9
$SURFTYPE
 70
     6
  9
$SURFU
 70
     6
  9
$SURFV
 70
     6
  9
$UCSBASE
  2

  9
$UCSNAME
  2

  9
$UCSORG
 10
0.0
 20
0.0
 30
0.0
  9
$UCSXDIR
 10
1.0
 20
0.0
 30
0.0
  9
$UCSYDIR
 10
0.0
 20
1.0
 30
0.0
  9
$UCSORTHOREF
  2

  9
$UCSORTHOVIEW
 70
     0
  9
$UCSORGTOP
 10
0.0
 20
0.0
 30
0.0
  9
$UCSORGBOTTOM
 10
0.0
 20
0.0
 30
0.0
  9
$UCSORGLEFT
 10
0.0
 20
0.0
 30
0.0
  9
$UCSORGRIGHT
 10
0.0
 20
0.0
 30
0.0
  9
$UCSORGFRONT
 10
0.0
 20
0.0
 30
0.0
  9
$UCSORGBACK
 10
0.0
 20
0.0
 30
0.0
  9
$PUCSBASE
  2

  9
$PUCSNAME
  2

  9
$PUCSORG
 10
0.0
 20
0.0
 30
0.0
  9
$PUCSXDIR
 10
1.0
 20
0.0
 30
0.0
  9
$PUCSYDIR
 10
0.0
 20
1.0
 30
0.0
  9
$PUCSORTHOREF
  2

  9
$PUCSORTHOVIEW
 70
     0
  9
$PUCSORGTOP
 10
0.0
 20
0.0
 30
0.0
  9
$PUCSORGBOTTOM
 10
0.0
 20
0.0
 30
0.0
  9
$PUCSORGLEFT
 10
0.0
 20
0.0
 30
0.0
  9
$PUCSORGRIGHT
 10
0.0
 20
0.0
 30
0.0
  9
$PUCSORGFRONT
 10
0.0
 20
0.0
 30
0.0
  9
$PUCSORGBACK
 10
0.0
 20
0.0
 30
0.0
  9
$USERI1
 70
     0
  9
$USERI2
 70
     0
  9
$USERI3
 70
     0
  9
$USERI4
 70
     0
  9
$USERI5
 70
     0
  9
$USERR1
 40
0.0
  9
$USERR2
 40
0.0
  9
$USERR3
 40
0.0
  9
$USERR4
 40
0.0
  9
$USERR5
 40
0.0
  9
$WORLDVIEW
 70
     1
  9
$SHADEDGE
 70
     3
  9
$SHADEDIF
 70
    70
  9
$TILEMODE
 70
     1
  9
$MAXACTVP
 70
    64
  9
$PINSBASE
 10
0.0
 20
0.0
 30
0.0
  9
$PLIMCHECK
 70
     0
  9
$PEXTMIN
 10
1.000000000000000E+20
 20
1.000000000000000E+20
 30
1.000000000000000E+20
  9
$PEXTMAX
 10
-1.000000000000000E+20
 20
-1.000000000000000E+20
 30
-1.000000000000000E+20
  9
$PLIMMIN
 10
0.0
 20
0.0
  9
$PLIMMAX
 10
0.0
 20
0.0
  9
$UNITMODE
 70
     0
  9
$VISRETAIN
 70
     1
  9
$PLINEGEN
 70
     0
  9
$PSLTSCALE
 70
     1
  9
$TREEDEPTH
 70
  3020
  9
$CMLSTYLE
  2
STANDARD
  9
$CMLJUST
 70
     0
  9
$CMLSCALE
 40
20.0
  9
$PROXYGRAPHICS
 70
     1
  9
$MEASUREMENT
 70
     1
  9
$CELWEIGHT
370
    -1
  9
$ENDCAPS
280
     0
  9
$JOINSTYLE
280
     0
  9
$LWDISPLAY
290
     0
  9
$INSUNITS
 70
     0
  9
$HYPERLINKBASE
  1

  9
$STYLESHEET
  1

  9
$XEDIT
290
     1
  9
$CEPSNTYPE
380
     0
  9
$PSTYLEMODE
290
     1
  9
$FINGERPRINTGUID
  2
{49F66077-C45C-4558-B8D0-46D1B901E30A}
  9
$VERSIONGUID
  2
{FAEB1C32-E019-11D5-929B-00C0DF256EC4}
  9
$EXTNAMES
290
     1
  9
$PSVPSCALE
 40
0.0
  9
$OLESTARTUP
290
     0
  9
$SORTENTS
280
   127
  9
$INDEXCTL
280
     0
  9
$HIDETEXT
280
     1
  9
$XCLIPFRAME
280
     2
  9
$HALOGAP
280
     0
  9
$OBSCOLOR
 70
   257
  9
$OBSLTYPE
280
     0
  9
$INTERSECTIONDISPLAY
280
     0
  9
$INTERSECTIONCOLOR
 70
   257
  9
$DIMASSOC
280
     2
  9
$PROJECTNAME
  1

  9
$CAMERADISPLAY
290
     0
  9
$LENSLENGTH
 40
50.0
  9
$CAMERAHEIGHT
 40
0.0
  9
$STEPSPERSEC
 40
2.0
  9
$STEPSIZE
 40
6.0
  9
$3DDWFPREC
 40
2.0
  9
$PSOLWIDTH
 40
0.25
  9
$PSOLHEIGHT
 40
4.0
  9
$LOFTANG1
 40
1.570796326794897
  9
$LOFTANG2
 40
1.570796326794897
  9
$LOFTMAG1
 40
0.0
  9
$LOFTMAG2
 40
0.0
  9
$LOFTPARAM
 70
     7
  9
$LOFTNORMALS
280
     1
  9
$LATITUDE
 40
37.795
  9
$LONGITUDE
 40
-122.394
  9
$NORTHDIRECTION
 40
0.0
  9
$TIMEZONE
 70
 -8000
  9
$LIGHTGLYPHDISPLAY
280
     1
  9
$TILEMODELIGHTSYNCH
280
     1
  9
$SOLIDHIST
280
     0
  9
$SHOWHIST
280
     1
  9
$DWFFRAME
280
     2
  9
$DGNFRAME
280
     2
  9
$REALWORLDSCALE
290
     1
  9
$INTERFERECOLOR
 62
   256
  9
$CSHADOW
280
     0
  9
$SHADOWPLANELOCATION
 40
0.0
  0
ENDSEC
  0
SECTION
  2
CLASSES
  0
CLASS
  1
ACDBDICTIONARYWDFLT
  2
AcDbDictionaryWithDefault
  3
ObjectDBX Classes
 90
        0
 91
       15
280
     0
281
     0
  0
CLASS
  1
VISUALSTYLE
  2
AcDbVisualStyle
  3
ObjectDBX Classes
 90
     4095
 91
       15
280
     0
281
     0
  0
CLASS
  1
MATERIAL
  2
AcDbMaterial
  3
ObjectDBX Classes
 90
     1153
 91
       15
280
     0
281
     0
  0
CLASS
  1
SCALE
  2
AcDbScale
  3
ObjectDBX Classes
 90
     1153
 91
       15
280
     0
281
     0
  0
CLASS
  1
SUN
  2
AcDbSun
  3
SCENEOE
 90
     1153
 91
       15
280
     0
281
     0
  0
CLASS
  1
XRECORD
  2
AcDbXrecord
  3
ObjectDBX Classes
 90
        0
 91
        1
280
     0
281
     0
  0
CLASS
  1
LWPOLYLINE
  2
AcDbPolyline
  3
ObjectDBX Classes
 90
        0
 91
        1
280
     0
281
     1
  0
CLASS
  1
HATCH
  2
AcDbHatch
  3
ObjectDBX Classes
 90
        0
 91
        1
280
     0
281
     1
  0
CLASS
  1
DICTIONARYVAR
  2
AcDbDictionaryVar
  3
ObjectDBX Classes
 90
        0
 91
       13
280
     0
281
     0
  0
CLASS
  1
ACDBPLACEHOLDER
  2
AcDbPlaceHolder
  3
ObjectDBX Classes
 90
        0
 91
        1
280
     0
281
     0
  0
CLASS
  1
LAYOUT
  2
AcDbLayout
  3
ObjectDBX Classes
 90
        0
 91
        1
280
     0
281
     0
  0
CLASS
  1
TABLESTYLE
  2
AcDbTableStyle
  3
ObjectDBX Classes
 90
     4095
 91
       15
280
     0
281
     0
  0
CLASS
  1
MLEADERSTYLE
  2
AcDbMLeaderStyle
  3
ACDB_MLEADERSTYLE_CLASS
 90
     4095
 91
       15
280
     0
281
     0
  0
CLASS
  1
CELLSTYLEMAP
  2
AcDbCellStyleMap
  3
ObjectDBX Classes
 90
     1152
 91
        9
280
     0
281
     0
  0
ENDSEC
  0
SECTION
  2
TABLES
  0
TABLE
  2
VPORT
  5
8
330
0
100
AcDbSymbolTable
 70
     1
  0
VPORT
  5
29
330
8
100
AcDbSymbolTableRecord
100
AcDbViewportTableRecord
  2
*ACTIVE
 70
     0
 10
0.0
 20
0.0
 11
1.0
 21
1.0
 12
-13.09545415062395
 22
-29.78070351234894
 13
0.0
 23
0.0
 14
10.0
 24
10.0
 15
10.0
 25
10.0
 16
0.0
 26
0.0
 36
1.0
 17
0.0
 27
0.0
 37
0.0
 40
425.8463228330553
 41
1.831002331002331
 42
50.0
 43
0.0
 44
0.0
 50
0.0
 51
0.0
 71
    16
 72
  2000
 73
     1
 74
     3
 75
     0
 76
     0
 77
     0
 78
     0
281
     0
 65
     1
110
0.0
120
0.0
130
0.0
111
1.0
121
0.0
131
0.0
112
0.0
122
1.0
132
0.0
 79
     0
146
0.0
348
39A
 60
     3
 61
     5
292
     1
282
     1
141
0.0
142
0.0
 63
   256
361
432
  0
ENDTAB
  0
TABLE
  2
LTYPE
  5
5
330
0
100
AcDbSymbolTable
 70
     9
  0
LTYPE
  5
14
330
5
100
AcDbSymbolTableRecord
100
AcDbLinetypeTableRecord
  2
BYBLOCK
 70
     0
  3

 72
    65
 73
     0
 40
0.0
  0
LTYPE
  5
15
330
5
100
AcDbSymbolTableRecord
100
AcDbLinetypeTableRecord
  2
BYLAYER
 70
     0
  3

 72
    65
 73
     0
 40
0.0
  0
LTYPE
  5
16
330
5
100
AcDbSymbolTableRecord
100
AcDbLinetypeTableRecord
  2
CONTINUOUS
 70
     0
  3
Solid line
 72
    65
 73
     0
 40
0.0
  0
LTYPE
  5
6A
330
5
100
AcDbSymbolTableRecord
100
AcDbLinetypeTableRecord
  2
HIDDEN
 70
     0
  3
Hidden __ __ __ __ __ __ __ __ __ __ __ __ __ __
 72
    65
 73
     2
 40
1.905
 49
1.27
 74
     0
 49
-0.635
 74
     0
  0
LTYPE
  5
6B
330
5
100
AcDbSymbolTableRecord
100
AcDbLinetypeTableRecord
  2
PHANTOM
 70
     0
  3
Phantom ______  __  __  ______  __  __  ______
 72
    65
 73
     6
 40
12.7
 49
6.35
 74
     0
 49
-1.27
 74
     0
 49
1.27
 74
     0
 49
-1.27
 74
     0
 49
1.27
 74
     0
 49
-1.27
 74
     0
  0
LTYPE
  5
6C
330
5
100
AcDbSymbolTableRecord
100
AcDbLinetypeTableRecord
  2
CENTER
 70
     0
  3
Center ____ _ ____ _ ____ _ ____ _ ____ _ ____
 72
    65
 73
     4
 40
10.16
 49
6.35
 74
     0
 49
-1.27
 74
     0
 49
1.27
 74
     0
 49
-1.27
 74
     0
  0
LTYPE
  5
6D
330
5
100
AcDbSymbolTableRecord
100
AcDbLinetypeTableRecord
  2
CENTERX2
 70
     0
  3
Center (2x) ________  __  ________  __  _____
 72
    65
 73
     4
 40
20.32
 49
12.7
 74
     0
 49
-2.54
 74
     0
 49
2.54
 74
     0
 49
-2.54
 74
     0
  0
LTYPE
  5
6E
330
5
100
AcDbSymbolTableRecord
100
AcDbLinetypeTableRecord
  2
DOT2
 70
     0
  3
Dot (.5x) ........................................
 72
    65
 73
     2
 40
0.635
 49
0.0
 74
     0
 49
-0.635
 74
     0
  0
LTYPE
  5
3EE
330
5
100
AcDbSymbolTableRecord
100
AcDbLinetypeTableRecord
  2
DASH
 70
     0
  3
DASH _ _ _ _ _
 72
    65
 73
     2
 40
0.75
 49
0.4
 74
     0
 49
-0.35
 74
     0
  0
LTYPE
  5
3EF
330
5
100
AcDbSymbolTableRecord
100
AcDbLinetypeTableRecord
  2
LONGDASH_DASH
 70
     0
  3
LONGDASH_DASH __ . __ . __
 72
    65
 73
     4
 40
0.85
 49
0.4
 74
     0
 49
-0.2
 74
     0
 49
0.05
 74
     0
 49
-0.2
 74
     0
  0
LTYPE
  5
3F0
330
5
100
AcDbSymbolTableRecord
100
AcDbLinetypeTableRecord
  2
LONGDASH_DASH_DASH
 70
     0
  3
LONGDASH_DASH_DASH __ . . __ . . __
 72
    65
 73
     6
 40
1.1
 49
0.4
 74
     0
 49
-0.2
 74
     0
 49
0.05
 74
     0
 49
-0.2
 74
     0
 49
0.05
 74
     0
 49
-0.2
 74
     0
  0
ENDTAB
  0
TABLE
  2
LAYER
  5
2
102
{ACAD_XDICTIONARY
360
410
102
}
330
0
100
AcDbSymbolTable
 70
    16
  0
LAYER
  5
3AB
330
2
100
AcDbSymbolTableRecord
100
AcDbLayerTableRecord
  2
200
 70
     0
 62
     2
  6
CONTINUOUS
370
    50
390
401
347
3A9
348
0
  0
LAYER
  5
3AE
330
2
100
AcDbSymbolTableRecord
100
AcDbLayerTableRecord
  2
Defpoints
 70
     0
 62
     7
  6
CONTINUOUS
290
     0
370
    -3
390
401
347
3A9
348
0
  0
LAYER
  5
3F1
330
2
100
AcDbSymbolTableRecord
100
AcDbLayerTableRecord
  2
0
 70
     0
 62
     1
  6
CONTINUOUS
370
    -3
390
401
347
3A9
348
0
  0
LAYER
  5
3F2
330
2
100
AcDbSymbolTableRecord
100
AcDbLayerTableRecord
  2
1
 70
     0
 62
     4
  6
CONTINUOUS
370
    50
390
401
347
3A9
348
0
  0
LAYER
  5
3F3
330
2
100
AcDbSymbolTableRecord
100
AcDbLayerTableRecord
  2
2
 70
     0
 62
     7
  6
CONTINUOUS
370
    25
390
401
347
3A9
348
0
  0
LAYER
  5
3F4
330
2
100
AcDbSymbolTableRecord
100
AcDbLayerTableRecord
  2
3
 70
     0
 62
     1
  6
DASH
370
    35
390
401
347
3A9
348
0
  0
LAYER
  5
3F5
330
2
100
AcDbSymbolTableRecord
100
AcDbLayerTableRecord
  2
4
 70
     0
 62
     2
  6
LONGDASH_DASH
370
    25
390
401
347
3A9
348
0
  0
LAYER
  5
3F6
330
2
100
AcDbSymbolTableRecord
100
AcDbLayerTableRecord
  2
6
 70
     0
 62
     5
  6
CONTINUOUS
370
    -3
390
401
347
3A9
348
0
  0
LAYER
  5
3F7
330
2
100
AcDbSymbolTableRecord
100
AcDbLayerTableRecord
  2
CUT
 70
     0
 62
     1
  6
CONTINUOUS
370
    25
390
401
347
3A9
348
0
  0
LAYER
  5
3F8
330
2
100
AcDbSymbolTableRecord
100
AcDbLayerTableRecord
  2
NOCUT
 70
     0
 62
     7
  6
CONTINUOUS
370
    25
390
401
347
3A9
348
0
  0
LAYER
  5
3F9
330
2
100
AcDbSymbolTableRecord
100
AcDbLayerTableRecord
  2
SK1
 70
     0
 62
     4
  6
CONTINUOUS
370
    50
390
401
347
3A9
348
0
  0
LAYER
  5
3FA
330
2
100
AcDbSymbolTableRecord
100
AcDbLayerTableRecord
  2
SK2
 70
     0
 62
     7
  6
CONTINUOUS
370
    25
390
401
347
3A9
348
0
  0
LAYER
  5
3FB
330
2
100
AcDbSymbolTableRecord
100
AcDbLayerTableRecord
  2
SK3
 70
     0
 62
     1
  6
DASH
370
    35
390
401
347
3A9
348
0
  0
LAYER
  5
3FC
330
2
100
AcDbSymbolTableRecord
100
AcDbLayerTableRecord
  2
SK4
 70
     0
 62
     2
  6
LONGDASH_DASH
370
    25
390
401
347
3A9
348
0
  0
LAYER
  5
3FD
330
2
100
AcDbSymbolTableRecord
100
AcDbLayerTableRecord
  2
SK6
 70
     0
 62
     5
  6
CONTINUOUS
370
    -3
390
401
347
3A9
348
0
  0
LAYER
  5
3FE
330
2
100
AcDbSymbolTableRecord
100
AcDbLayerTableRecord
  2
INFTOTAL
 70
     0
 62
     9
  6
CONTINUOUS
370
    18
390
401
347
3A9
348
0
  0
ENDTAB
  0
TABLE
  2
STYLE
  5
3
330
0
100
AcDbSymbolTable
 70
     3
  0
STYLE
  5
11
330
3
100
AcDbSymbolTableRecord
100
AcDbTextStyleTableRecord
  2
STANDARD
 70
     0
 40
0.0
 41
1.0
 50
0.0
 71
     0
 42
3.5
  3
txt
  4

  0
STYLE
  5
34E
330
3
100
AcDbSymbolTableRecord
100
AcDbTextStyleTableRecord
  2
SLDTEXTSTYLE0
 70
     0
 40
0.0
 41
0.605
 50
0.0
 71
     0
 42
3.5
  3
TXT
  4

  0
STYLE
  5
3AA
330
3
100
AcDbSymbolTableRecord
100
AcDbTextStyleTableRecord
  2
BMG_Text
 70
     0
 40
3.5
 41
1.0
 50
0.0
 71
     0
 42
3.5
  3
monos.ttf
  4

1001
ACAD
1000
Monospac821 BT
1071
       49
  0
ENDTAB
  0
TABLE
  2
VIEW
  5
6
330
0
100
AcDbSymbolTable
 70
     0
  0
ENDTAB
  0
TABLE
  2
UCS
  5
7
330
0
100
AcDbSymbolTable
 70
     0
  0
ENDTAB
  0
TABLE
  2
APPID
  5
9
330
0
100
AcDbSymbolTable
 70
     5
  0
APPID
  5
12
330
9
100
AcDbSymbolTableRecord
100
AcDbRegAppTableRecord
  2
ACAD
 70
     0
  0
APPID
  5
3C1
330
9
100
AcDbSymbolTableRecord
100
AcDbRegAppTableRecord
  2
ACAD_DSTYLE_DIM_LINETYPE
 70
     0
  0
APPID
  5
3C2
330
9
100
AcDbSymbolTableRecord
100
AcDbRegAppTableRecord
  2
ACAD_DSTYLE_DIM_EXT1_LINETYPE
 70
     0
  0
APPID
  5
3C3
330
9
100
AcDbSymbolTableRecord
100
AcDbRegAppTableRecord
  2
ACAD_DSTYLE_DIM_EXT2_LINETYPE
 70
     0
  0
APPID
  5
45B
330
9
100
AcDbSymbolTableRecord
100
AcDbRegAppTableRecord
  2
FX_DIMP_FAV_VERSION
 70
     0
  0
ENDTAB
  0
TABLE
  2
DIMSTYLE
  5
A
330
0
100
AcDbSymbolTable
 70
     3
100
AcDbDimStyleTable
  0
DIMSTYLE
105
27
330
A
100
AcDbSymbolTableRecord
100
AcDbDimStyleTableRecord
  2
ISO-25
 70
     0
 41
2.5
 42
0.625
 43
3.75
 44
1.25
 73
     0
 74
     0
 77
     1
 78
     8
140
2.5
141
2.5
143
0.0393700787
147
0.625
171
     3
172
     1
178
     0
271
     2
272
     2
274
     3
283
     0
284
     8
340
11
  0
DIMSTYLE
105
34F
102
{ACAD_REACTORS
330
34D
102
}
330
A
100
AcDbSymbolTableRecord
100
AcDbDimStyleTableRecord
  2
SLDDIMSTYLE0
 70
     0
 41
3.5
 44
0.0
 45
0.000000001
 73
     0
 74
     0
 77
     1
 78
    12
140
3.5
147
0.875
173
     1
178
     0
271
     2
272
     3
284
    12
340
34E
  0
DIMSTYLE
105
358
102
{ACAD_REACTORS
330
357
330
364
102
}
330
A
100
AcDbSymbolTableRecord
100
AcDbDimStyleTableRecord
  2
SLDDIMSTYLE1
 70
     0
 41
3.5
 44
0.0
 45
0.000000001
 73
     0
 74
     0
 77
     1
 78
    12
140
3.5
147
0.875
173
     1
178
     0
271
     2
272
     3
284
    12
340
34E
  0
ENDTAB
  0
TABLE
  2
BLOCK_RECORD
  5
1
330
0
100
AcDbSymbolTable
 70
     3
  0
BLOCK_RECORD
  5
1F
330
1
100
AcDbSymbolTableRecord
100
AcDbBlockTableRecord
  2
*MODEL_SPACE
340
393
 70
     0
280
     1
281
     0
  0
BLOCK_RECORD
  5
1B
330
1
100
AcDbSymbolTableRecord
100
AcDbBlockTableRecord
  2
*PAPER_SPACE
340
394
 70
     0
280
     1
281
     0
  0
BLOCK_RECORD
  5
350
330
1
100
AcDbSymbolTableRecord
100
AcDbBlockTableRecord
  2
_D
340
0
 70
     0
280
     1
281
     0
  0
BLOCK_RECORD
  5
359
330
1
100
AcDbSymbolTableRecord
100
AcDbBlockTableRecord
  2
_D_1
340
0
 70
     0
280
     1
281
     0
  0
BLOCK_RECORD
  5
365
330
1
100
AcDbSymbolTableRecord
100
AcDbBlockTableRecord
  2
_D_2
340
0
 70
     0
280
     1
281
     0
  0
ENDTAB
  0
ENDSEC
  0
SECTION
  2
BLOCKS
  0
BLOCK
  5
20
330
1F
100
AcDbEntity
  8
0
100
AcDbBlockBegin
  2
*MODEL_SPACE
 70
     0
 10
0.0
 20
0.0
 30
0.0
  3
*MODEL_SPACE
  1

  0
ENDBLK
  5
21
330
1F
100
AcDbEntity
  8
0
100
AcDbBlockEnd
  0
BLOCK
  5
1C
330
1B
100
AcDbEntity
 67
     1
  8
0
100
AcDbBlockBegin
  2
*PAPER_SPACE
 70
     0
 10
0.0
 20
0.0
 30
0.0
  3
*PAPER_SPACE
  1

  0
ENDBLK
  5
1D
330
1B
100
AcDbEntity
 67
     1
  8
0
100
AcDbBlockEnd
  0
BLOCK
  5
351
330
350
100
AcDbEntity
  8
0
100
AcDbBlockBegin
  2
_D
 70
     0
 10
0.0
 20
0.0
 30
0.0
  3
_D
  1
_D
  0
LINE
  5
353
330
350
100
AcDbEntity
  8
2
  6
ByBlock
370
    -2
100
AcDbLine
 10
55.5000015048
 20
43.8671550055
 30
0.0
 11
55.5000015048
 21
57.2768979582
 31
0.0
  0
LINE
  5
354
330
350
100
AcDbEntity
  8
2
  6
ByBlock
370
    -2
100
AcDbLine
 10
-4.7499988974
 20
22.3689124584
 30
0.0
 11
-4.749998897400001
 21
57.2768979582
 31
0.0
  0
LINE
  5
355
330
350
100
AcDbEntity
  8
2
  6
ByBlock
370
    -2
100
AcDbLine
 10
52.0000015048
 20
57.2768979582
 30
0.0
 11
-1.249998897400001
 21
57.2768979582
 31
0.0
  0
SOLID
  5
356
330
350
100
AcDbEntity
  8
2
100
AcDbTrace
 10
52.0000015048
 20
56.69356462486667
 30
0.0
 11
52.0000015048
 21
57.86023129153334
 31
0.0
 12
55.5000015048
 22
57.2768979582
 32
0.0
 13
55.5000015048
 23
57.2768979582
 33
0.0
  0
SOLID
  5
3AF
330
350
100
AcDbEntity
  8
2
100
AcDbTrace
 10
-1.249998897400001
 20
57.86023129153334
 30
0.0
 11
-1.249998897400001
 21
56.69356462486667
 31
0.0
 12
-4.749998897400001
 22
57.2768979582
 32
0.0
 13
-4.749998897400001
 23
57.2768979582
 33
0.0
  0
MTEXT
  5
3B0
330
350
100
AcDbEntity
  8
2
100
AcDbMText
 10
8.9765143867
 20
59.9631479582
 30
0.0
 40
3.5
 41
0.0
 46
0.0
 71
     5
 72
     1
  1
\A1;95
  7
BMG_Text
 73
     1
 44
1.0
  0
POINT
  5
3B1
330
350
100
AcDbEntity
  8
Defpoints
 62
     0
100
AcDbPoint
 10
55.5000015048
 20
43.8046550055
 30
0.0
  0
POINT
  5
3B2
330
350
100
AcDbEntity
  8
Defpoints
 62
     0
100
AcDbPoint
 10
-4.7499988974
 20
22.3064124584
 30
0.0
  0
POINT
  5
3B3
330
350
100
AcDbEntity
  8
Defpoints
 62
     0
100
AcDbPoint
 10
-4.7499988974
 20
57.2768979582
 30
0.0
  0
ENDBLK
  5
352
330
350
100
AcDbEntity
  8
0
100
AcDbBlockEnd
  0
BLOCK
  5
35A
330
359
100
AcDbEntity
  8
0
100
AcDbBlockBegin
  2
_D_1
 70
     0
 10
0.0
 20
0.0
 30
0.0
  3
_D_1
  1
_D_1
  0
LINE
  5
35C
330
359
100
AcDbEntity
  8
SK2
  6
ByBlock
370
    -2
100
AcDbLine
 10
55.2916455864
 20
-43.9992174520774
 30
0.0
 11
64.61637133263326
 21
-43.99921765757828
 31
0.0
  0
LINE
  5
35D
330
359
100
AcDbEntity
  8
SK2
  6
ByBlock
370
    -2
100
AcDbLine
 10
55.2916475257
 20
43.99921672182261
 30
0.0
 11
64.61637327196672
 21
43.99921651632172
 31
0.0
  0
LINE
  5
35E
330
359
100
AcDbEntity
  8
SK2
  6
ByBlock
370
    -2
100
AcDbLine
 10
64.61637140976721
 20
-40.49921765757828
 30
0.0
 11
64.61637319483278
 21
40.49921651632172
 31
0.0
  0
SOLID
  5
35F
330
359
100
AcDbEntity
  8
SK2
100
AcDbTrace
 10
64.03303807643388
 20
-40.49921764472262
 30
0.0
 11
65.19970474310054
 21
-40.49921767043394
 31
0.0
 12
64.61637133263326
 22
-43.99921765757828
 32
0.0
 13
64.61637133263326
 23
-43.99921765757828
 33
0.0
  0
SOLID
  5
360
330
359
100
AcDbEntity
  8
SK2
100
AcDbTrace
 10
65.1997065281661
 20
40.49921650346607
 30
0.0
 11
64.03303986149945
 21
40.49921652917738
 31
0.0
 12
64.61637327196672
 22
43.99921651632172
 32
0.0
 13
64.61637327196672
 23
43.99921651632172
 33
0.0
  0
MTEXT
  5
361
330
359
100
AcDbEntity
  8
SK2
100
AcDbMText
 10
61.87937230229999
 20
-0.0000005102812486
 30
0.0
 40
3.5
 41
0.0
 46
0.0
 71
     5
 72
     1
  1
\A1;%%c88 - 110
  7
BMG_Text
 11
2.203827234510673E-8
 21
0.9999999999999999
 31
0.0
 73
     1
 44
1.0
  0
POINT
  5
362
330
359
100
AcDbEntity
  8
Defpoints
 62
     0
100
AcDbPoint
 10
55.2291455864
 20
-43.9992174507
 30
0.0
  0
POINT
  5
363
330
359
100
AcDbEntity
  8
Defpoints
 62
     0
100
AcDbPoint
 10
55.2291475257
 20
43.9992167232
 30
0.0
  0
POINT
  5
3B4
330
359
100
AcDbEntity
  8
Defpoints
 62
     0
100
AcDbPoint
 10
64.61637327196672
 20
43.99921651632176
 30
0.0
  0
ENDBLK
  5
35B
330
359
100
AcDbEntity
  8
0
100
AcDbBlockEnd
  0
BLOCK
  5
366
330
365
100
AcDbEntity
  8
0
100
AcDbBlockBegin
  2
_D_2
 70
     0
 10
0.0
 20
0.0
 30
0.0
  3
_D_2
  1
_D_2
  0
LINE
  5
368
330
365
100
AcDbEntity
  8
SK2
  6
ByBlock
370
    -2
100
AcDbLine
 10
42.5625
 20
48.5000088811
 30
0.0
 11
74.4973741012
 21
48.5000088811
 31
0.0
  0
LINE
  5
369
330
365
100
AcDbEntity
  8
SK2
  6
ByBlock
370
    -2
100
AcDbLine
 10
42.5625
 20
-48.5000088811
 30
0.0
 11
74.4973741012
 21
-48.5000088811
 31
0.0
  0
LINE
  5
36A
330
365
100
AcDbEntity
  8
SK2
  6
ByBlock
370
    -2
100
AcDbLine
 10
74.4973741012
 20
45.0000088811
 30
0.0
 11
74.4973741012
 21
-45.0000088811
 31
0.0
  0
SOLID
  5
36B
330
365
100
AcDbEntity
  8
SK2
100
AcDbTrace
 10
75.08070743453332
 20
45.0000088811
 30
0.0
 11
73.91404076786667
 21
45.0000088811
 31
0.0
 12
74.4973741012
 22
48.5000088811
 32
0.0
 13
74.4973741012
 23
48.5000088811
 33
0.0
  0
SOLID
  5
36C
330
365
100
AcDbEntity
  8
SK2
100
AcDbTrace
 10
73.91404076786667
 20
-45.0000088811
 30
0.0
 11
75.08070743453332
 21
-45.0000088811
 31
0.0
 12
74.4973741012
 22
-48.5000088811
 32
0.0
 13
74.4973741012
 23
-48.5000088811
 33
0.0
  0
MTEXT
  5
36D
330
365
100
AcDbEntity
  8
SK2
100
AcDbMText
 10
71.7603741012
 20
0.0
 30
0.0
 40
3.5
 41
0.0
 46
0.0
 71
     5
 72
     1
  1
\A1;%%c 99 - 121
  7
BMG_Text
 11
0.0
 21
1.0
 31
0.0
 73
     1
 44
1.0
  0
POINT
  5
36E
330
365
100
AcDbEntity
  8
Defpoints
 62
     0
100
AcDbPoint
 10
42.5
 20
48.5000088811
 30
0.0
  0
POINT
  5
3B5
330
365
100
AcDbEntity
  8
Defpoints
 62
     0
100
AcDbPoint
 10
42.5
 20
-48.5000088811
 30
0.0
  0
POINT
  5
3B6
330
365
100
AcDbEntity
  8
Defpoints
 62
     0
100
AcDbPoint
 10
74.4973741012
 20
-48.5000088811
 30
0.0
  0
ENDBLK
  5
367
330
365
100
AcDbEntity
  8
0
100
AcDbBlockEnd
  0
ENDSEC
  0
SECTION
  2
ENTITIES
  0
LINE
  5
75
330
1F
100
AcDbEntity
  8
1
100
AcDbLine
 10
13.6500005062
 20
32.0004550361
 30
0.0
 11
-1.5234690015
 21
32.0004550361
 31
0.0
  0
LINE
  5
76
330
1F
100
AcDbEntity
  8
1
100
AcDbLine
 10
10.0832502543
 20
-47.1102893353
 30
0.0
 11
10.4631330072
 21
-47.4324822426
 31
0.0
  0
LINE
  5
77
330
1F
100
AcDbEntity
  8
1
100
AcDbLine
 10
15.036869347
 20
-47.4324822426
 30
0.0
 11
15.4167520999
 21
-47.1102893353
 31
0.0
  0
LINE
  5
78
330
1F
100
AcDbEntity
  8
1
100
AcDbLine
 10
-1.3234694303
 20
-32.0004560054
 30
0.0
 11
5.2689346671
 21
-32.0004560054
 31
0.0
  0
LINE
  5
79
330
1F
100
AcDbEntity
  8
1
100
AcDbLine
 10
-0.9520228335
 20
4.0499913009
 30
0.0
 11
-0.9519222506
 21
4.0499913009
 31
0.0
  0
LINE
  5
7A
330
1F
100
AcDbEntity
  8
1
100
AcDbLine
 10
-0.9520228335
 20
3.9499910052
 30
0.0
 11
-0.9520228335
 21
4.0499913009
 31
0.0
  0
LINE
  5
7B
330
1F
100
AcDbEntity
  8
1
100
AcDbLine
 10
-0.9520228335
 20
3.9499910052
 30
0.0
 11
-0.9519222506
 21
3.9499910052
 31
0.0
  0
LINE
  5
7C
330
1F
100
AcDbEntity
  8
1
100
AcDbLine
 10
-0.9519222506
 20
3.049991137
 30
0.0
 11
-0.9519222506
 21
3.9499910052
 31
0.0
  0
LINE
  5
7D
330
1F
100
AcDbEntity
  8
1
100
AcDbLine
 10
-0.9520228335
 20
3.049991137
 30
0.0
 11
-0.9519222506
 21
3.049991137
 31
0.0
  0
LINE
  5
7E
330
1F
100
AcDbEntity
  8
1
100
AcDbLine
 10
-0.9520228335
 20
2.9499913069
 30
0.0
 11
-0.9520228335
 21
3.049991137
 31
0.0
  0
LINE
  5
7F
330
1F
100
AcDbEntity
  8
1
100
AcDbLine
 10
-0.9520228335
 20
2.9499913069
 30
0.0
 11
-0.9519222506
 21
2.9499913069
 31
0.0
  0
LINE
  5
80
330
1F
100
AcDbEntity
  8
1
100
AcDbLine
 10
-0.9519222506
 20
2.0499912059
 30
0.0
 11
-0.9519222506
 21
2.9499913069
 31
0.0
  0
LINE
  5
81
330
1F
100
AcDbEntity
  8
1
100
AcDbLine
 10
-0.9520228335
 20
2.0499912059
 30
0.0
 11
-0.9519222506
 21
2.0499912059
 31
0.0
  0
LINE
  5
82
330
1F
100
AcDbEntity
  8
1
100
AcDbLine
 10
-0.9520228335
 20
1.9499912594
 30
0.0
 11
-0.9520228335
 21
2.0499912059
 31
0.0
  0
LINE
  5
83
330
1F
100
AcDbEntity
  8
1
100
AcDbLine
 10
-0.9520228335
 20
1.9499912594
 30
0.0
 11
-0.9519222506
 21
1.9499912594
 31
0.0
  0
LINE
  5
84
330
1F
100
AcDbEntity
  8
1
100
AcDbLine
 10
-0.9519222506
 20
1.0499911584
 30
0.0
 11
-0.9519222506
 21
1.9499912594
 31
0.0
  0
LINE
  5
85
330
1F
100
AcDbEntity
  8
1
100
AcDbLine
 10
-0.9520228335
 20
1.0499911584
 30
0.0
 11
-0.9519222506
 21
1.0499911584
 31
0.0
  0
LINE
  5
86
330
1F
100
AcDbEntity
  8
1
100
AcDbLine
 10
-0.9520228335
 20
0.9499912119
 30
0.0
 11
-0.9520228335
 21
1.0499911584
 31
0.0
  0
LINE
  5
87
330
1F
100
AcDbEntity
  8
1
100
AcDbLine
 10
-0.9520228335
 20
0.9499912119
 30
0.0
 11
-0.9519222506
 21
0.9499912119
 31
0.0
  0
LINE
  5
88
330
1F
100
AcDbEntity
  8
1
100
AcDbLine
 10
-0.9519222506
 20
0.0499912165
 30
0.0
 11
-0.9519222506
 21
0.9499912119
 31
0.0
  0
LINE
  5
89
330
1F
100
AcDbEntity
  8
1
100
AcDbLine
 10
-0.9520228335
 20
0.0499912165
 30
0.0
 11
-0.9519222506
 21
0.0499912165
 31
0.0
  0
LINE
  5
8A
330
1F
100
AcDbEntity
  8
1
100
AcDbLine
 10
-0.9520228335
 20
-0.0500087847
 30
0.0
 11
-0.9520228335
 21
0.0499912165
 31
0.0
  0
LINE
  5
8B
330
1F
100
AcDbEntity
  8
1
100
AcDbLine
 10
-0.9520228335
 20
-0.0500087847
 30
0.0
 11
-0.9519222506
 21
-0.0500087847
 31
0.0
  0
LINE
  5
8C
330
1F
100
AcDbEntity
  8
1
100
AcDbLine
 10
-0.9519222506
 20
-0.9500087619
 30
0.0
 11
-0.9519222506
 21
-0.0500087847
 31
0.0
  0
LINE
  5
8D
330
1F
100
AcDbEntity
  8
1
100
AcDbLine
 10
-0.9520228335
 20
-0.9500087619
 30
0.0
 11
-0.9519222506
 21
-0.9500087619
 31
0.0
  0
LINE
  5
8E
330
1F
100
AcDbEntity
  8
1
100
AcDbLine
 10
-0.9520228335
 20
-1.0500087667
 30
0.0
 11
-0.9520228335
 21
-0.9500087619
 31
0.0
  0
LINE
  5
8F
330
1F
100
AcDbEntity
  8
1
100
AcDbLine
 10
-0.9520228335
 20
-1.0500087667
 30
0.0
 11
-0.9519222506
 21
-1.0500087667
 31
0.0
  0
LINE
  5
90
330
1F
100
AcDbEntity
  8
1
100
AcDbLine
 10
-0.9519222506
 20
-1.9500087512
 30
0.0
 11
-0.9519222506
 21
-1.0500087667
 31
0.0
  0
LINE
  5
91
330
1F
100
AcDbEntity
  8
1
100
AcDbLine
 10
-0.9520228335
 20
-1.9500087512
 30
0.0
 11
-0.9519222506
 21
-1.9500087512
 31
0.0
  0
LINE
  5
92
330
1F
100
AcDbEntity
  8
1
100
AcDbLine
 10
-0.9520228335
 20
-2.0500088142
 30
0.0
 11
-0.9520228335
 21
-1.9500087512
 31
0.0
  0
LINE
  5
93
330
1F
100
AcDbEntity
  8
1
100
AcDbLine
 10
-0.9520228335
 20
-2.0500088142
 30
0.0
 11
-0.9519222506
 21
-2.0500088142
 31
0.0
  0
LINE
  5
94
330
1F
100
AcDbEntity
  8
1
100
AcDbLine
 10
-0.9519222506
 20
-2.9500086823
 30
0.0
 11
-0.9519222506
 21
-2.0500088142
 31
0.0
  0
LINE
  5
95
330
1F
100
AcDbEntity
  8
1
100
AcDbLine
 10
-0.9520228335
 20
-2.9500086823
 30
0.0
 11
-0.9519222506
 21
-2.9500086823
 31
0.0
  0
LINE
  5
96
330
1F
100
AcDbEntity
  8
1
100
AcDbLine
 10
-0.9520228335
 20
-3.0500087453
 30
0.0
 11
-0.9520228335
 21
-2.9500086823
 31
0.0
  0
LINE
  5
97
330
1F
100
AcDbEntity
  8
1
100
AcDbLine
 10
-0.9520228335
 20
-3.0500087453
 30
0.0
 11
-0.9519222506
 21
-3.0500087453
 31
0.0
  0
LINE
  5
98
330
1F
100
AcDbEntity
  8
1
100
AcDbLine
 10
-0.9519222506
 20
-3.9500086134
 30
0.0
 11
-0.9519222506
 21
-3.0500087453
 31
0.0
  0
LINE
  5
99
330
1F
100
AcDbEntity
  8
1
100
AcDbLine
 10
-0.9520228335
 20
-3.9500086134
 30
0.0
 11
-0.9519222506
 21
-3.9500086134
 31
0.0
  0
LINE
  5
9A
330
1F
100
AcDbEntity
  8
1
100
AcDbLine
 10
-0.9520228335
 20
-4.0500089092
 30
0.0
 11
-0.9520228335
 21
-3.9500086134
 31
0.0
  0
LINE
  5
9B
330
1F
100
AcDbEntity
  8
1
100
AcDbLine
 10
-0.9520228335
 20
-4.0500089092
 30
0.0
 11
-0.9519222506
 21
-4.0500089092
 31
0.0
  0
LINE
  5
9C
330
1F
100
AcDbEntity
  8
1
100
AcDbLine
 10
-0.9519222506
 20
-4.9500087773
 30
0.0
 11
-0.9519222506
 21
-4.0500089092
 31
0.0
  0
LINE
  5
9D
330
1F
100
AcDbEntity
  8
1
100
AcDbLine
 10
-0.9520228335
 20
-4.9500087773
 30
0.0
 11
-0.9519222506
 21
-4.9500087773
 31
0.0
  0
LINE
  5
9E
330
1F
100
AcDbEntity
  8
1
100
AcDbLine
 10
-0.9520228335
 20
-5.0500086074
 30
0.0
 11
-0.9520228335
 21
-4.9500087773
 31
0.0
  0
LINE
  5
9F
330
1F
100
AcDbEntity
  8
1
100
AcDbLine
 10
-0.9520228335
 20
-5.0500086074
 30
0.0
 11
-0.9519222506
 21
-5.0500086074
 31
0.0
  0
LINE
  5
A0
330
1F
100
AcDbEntity
  8
1
100
AcDbLine
 10
-0.9519222506
 20
-10.3953205546
 30
0.0
 11
-0.9519222506
 21
-5.0500086074
 31
0.0
  0
LINE
  5
A1
330
1F
100
AcDbEntity
  8
1
100
AcDbLine
 10
-0.951922452
 20
6.0499911631
 30
0.0
 11
-0.951922452
 21
18.9802458623
 31
0.0
  0
LINE
  5
A2
330
1F
100
AcDbEntity
  8
1
100
AcDbLine
 10
-0.9520228335
 20
6.0499911631
 30
0.0
 11
-0.951922452
 21
6.0499911631
 31
0.0
  0
LINE
  5
A3
330
1F
100
AcDbEntity
  8
1
100
AcDbLine
 10
-0.9520228335
 20
5.949991333
 30
0.0
 11
-0.9520228335
 21
6.0499911631
 31
0.0
  0
LINE
  5
A4
330
1F
100
AcDbEntity
  8
1
100
AcDbLine
 10
-0.9520228335
 20
5.949991333
 30
0.0
 11
-0.9519222506
 21
5.949991333
 31
0.0
  0
LINE
  5
A5
330
1F
100
AcDbEntity
  8
1
100
AcDbLine
 10
-0.9519222506
 20
5.0499909992
 30
0.0
 11
-0.9519222506
 21
5.949991333
 31
0.0
  0
LINE
  5
A6
330
1F
100
AcDbEntity
  8
1
100
AcDbLine
 10
-0.9520228335
 20
5.0499909992
 30
0.0
 11
-0.9519222506
 21
5.0499909992
 31
0.0
  0
LINE
  5
A7
330
1F
100
AcDbEntity
  8
1
100
AcDbLine
 10
-0.9520228335
 20
4.9499911691
 30
0.0
 11
-0.9520228335
 21
5.0499909992
 31
0.0
  0
LINE
  5
A8
330
1F
100
AcDbEntity
  8
1
100
AcDbLine
 10
-0.9520228335
 20
4.9499911691
 30
0.0
 11
-0.9519222506
 21
4.9499911691
 31
0.0
  0
LINE
  5
A9
330
1F
100
AcDbEntity
  8
1
100
AcDbLine
 10
-0.9519222506
 20
4.0499913009
 30
0.0
 11
-0.9519222506
 21
4.9499911691
 31
0.0
  0
LINE
  5
AA
330
1F
100
AcDbEntity
  8
1
100
AcDbLine
 10
-1.201924267
 20
-25.8512456862
 30
0.0
 11
-1.1283497836
 21
-25.8881241975
 31
0.0
  0
LINE
  5
AB
330
1F
100
AcDbEntity
  8
1
100
AcDbLine
 10
-1.1283497836
 20
-25.8881241975
 30
0.0
 11
-1.0308701124
 21
-25.9669494775
 31
0.0
  0
LINE
  5
AC
330
1F
100
AcDbEntity
  8
1
100
AcDbLine
 10
-1.0308701124
 20
-25.9669494775
 30
0.0
 11
-0.9654540147
 21
-26.0747016368
 31
0.0
  0
LINE
  5
AD
330
1F
100
AcDbEntity
  8
1
100
AcDbLine
 10
-0.9654540147
 20
-26.0747016368
 30
0.0
 11
-0.9574967946
 21
-26.2056847063
 31
0.0
  0
LINE
  5
AE
330
1F
100
AcDbEntity
  8
1
100
AcDbLine
 10
-0.9574967946
 20
-26.2056847063
 30
0.0
 11
-1.0305945576
 21
-26.3378527016
 31
0.0
  0
LINE
  5
AF
330
1F
100
AcDbEntity
  8
1
100
AcDbLine
 10
-1.0305945576
 20
-26.3378527016
 30
0.0
 11
-1.1443015933
 21
-26.4215376228
 31
0.0
  0
LINE
  5
B0
330
1F
100
AcDbEntity
  8
1
100
AcDbLine
 10
-1.1443015933
 20
-26.4215376228
 30
0.0
 11
-1.2019231688
 21
-26.4473788928
 31
0.0
  0
LINE
  5
B1
330
1F
100
AcDbEntity
  8
1
100
AcDbLine
 10
-4.4499975443
 20
-23.1847483665
 30
0.0
 11
-4.4499993802
 21
-24.4056592752
 31
0.0
  0
LINE
  5
B2
330
1F
100
AcDbEntity
  8
1
100
AcDbLine
 10
-4.4499975443
 20
-15.5316432938
 30
0.0
 11
-4.4499993802
 21
-17.7746060881
 31
0.0
  0
LINE
  5
B3
330
1F
100
AcDbEntity
  8
1
100
AcDbLine
 10
4.7000007479
 20
-10.3953205546
 30
0.0
 11
-0.9519222506
 21
-10.3953205546
 31
0.0
  0
LINE
  5
B4
330
1F
100
AcDbEntity
  8
1
100
AcDbLine
 10
4.7000007479
 20
-31.749846914
 30
0.0
 11
-0.9620269985
 21
-31.749846914
 31
0.0
  0
LINE
  5
B5
330
1F
100
AcDbEntity
  8
1
100
AcDbLine
 10
-4.4499976768
 20
-31.5346515755
 30
0.0
 11
-4.4499995126
 21
-31.6659859466
 31
0.0
  0
LINE
  5
B6
330
1F
100
AcDbEntity
  8
1
100
AcDbLine
 10
-1.2019244
 20
-31.0914666828
 30
0.0
 11
-1.0723960563
 21
-31.1135148134
 31
0.0
  0
LINE
  5
B7
330
1F
100
AcDbEntity
  8
1
100
AcDbLine
 10
-1.0723960563
 20
-31.1135148134
 30
0.0
 11
-0.9862934216
 21
-31.1423113074
 31
0.0
  0
LINE
  5
B8
330
1F
100
AcDbEntity
  8
1
100
AcDbLine
 10
-0.9862934216
 20
-31.1423113074
 30
0.0
 11
-0.9522032901
 21
-31.1747082945
 31
0.0
  0
LINE
  5
B9
330
1F
100
AcDbEntity
  8
1
100
AcDbLine
 10
-0.9522032901
 20
-31.1747082945
 30
0.0
 11
-0.9757769271
 21
-31.2069022533
 31
0.0
  0
LINE
  5
BA
330
1F
100
AcDbEntity
  8
1
100
AcDbLine
 10
-0.9757769271
 20
-31.2069022533
 30
0.0
 11
-1.0552783474
 21
-31.234970453
 31
0.0
  0
LINE
  5
BB
330
1F
100
AcDbEntity
  8
1
100
AcDbLine
 10
-1.0552783474
 20
-31.234970453
 30
0.0
 11
-1.1805039808
 21
-31.2558115896
 31
0.0
  0
LINE
  5
BC
330
1F
100
AcDbEntity
  8
1
100
AcDbLine
 10
-1.1805039808
 20
-31.2558115896
 30
0.0
 11
-1.2019231851
 21
-31.2581449465
 31
0.0
  0
LINE
  5
BD
330
1F
100
AcDbEntity
  8
1
100
AcDbLine
 10
-4.4499975443
 20
-30.2346441895
 30
0.0
 11
-4.4499993802
 21
-30.6436823246
 31
0.0
  0
LINE
  5
BE
330
1F
100
AcDbEntity
  8
1
100
AcDbLine
 10
-1.2019241413
 20
-29.2144333395
 30
0.0
 11
-1.1956507524
 21
-29.2159998241
 31
0.0
  0
LINE
  5
BF
330
1F
100
AcDbEntity
  8
1
100
AcDbLine
 10
-1.1956507524
 20
-29.2159998241
 30
0.0
 11
-1.0765569469
 21
-29.2579298291
 31
0.0
  0
LINE
  5
C0
330
1F
100
AcDbEntity
  8
1
100
AcDbLine
 10
-1.0765569469
 20
-29.2579298291
 30
0.0
 11
-0.990644302
 21
-29.315444586
 31
0.0
  0
LINE
  5
C1
330
1F
100
AcDbEntity
  8
1
100
AcDbLine
 10
-0.990644302
 20
-29.315444586
 30
0.0
 11
-0.9525755604
 21
-29.3844984296
 31
0.0
  0
LINE
  5
C2
330
1F
100
AcDbEntity
  8
1
100
AcDbLine
 10
-0.9525755604
 20
-29.3844984296
 30
0.0
 11
-0.9759258753
 21
-29.4569677424
 31
0.0
  0
LINE
  5
C3
330
1F
100
AcDbEntity
  8
1
100
AcDbLine
 10
-0.9759258753
 20
-29.4569677424
 30
0.0
 11
-1.0631870753
 21
-29.5213668358
 31
0.0
  0
LINE
  5
C4
330
1F
100
AcDbEntity
  8
1
100
AcDbLine
 10
-1.0631870753
 20
-29.5213668358
 30
0.0
 11
-1.1993129081
 21
-29.5674244624
 31
0.0
  0
LINE
  5
C5
330
1F
100
AcDbEntity
  8
1
100
AcDbLine
 10
-1.1993129081
 20
-29.5674244624
 30
0.0
 11
-1.2019231217
 21
-29.5680191981
 31
0.0
  0
LINE
  5
C6
330
1F
100
AcDbEntity
  8
1
100
AcDbLine
 10
-4.4499993801
 20
-27.6013253176
 30
0.0
 11
-4.4499993801
 21
-28.343178151
 31
0.0
  0
LINE
  5
C7
330
1F
100
AcDbEntity
  8
SK4
100
AcDbLine
 10
-8.2159834417
 20
0.0
 30
0.0
 11
27.031158756
 21
0.0
 31
0.0
  0
LINE
  5
C8
330
1F
100
AcDbEntity
  8
1
100
AcDbLine
 10
-4.4499975443
 20
23.8353423774
 30
0.0
 11
-4.4499975443
 21
23.1247674673
 31
0.0
  0
LINE
  5
C9
330
1F
100
AcDbEntity
  8
1
100
AcDbLine
 10
-4.4499975443
 20
29.117397964
 30
0.0
 11
-4.4499993802
 21
28.1019450583
 31
0.0
  0
LINE
  5
CA
330
1F
100
AcDbEntity
  8
1
100
AcDbLine
 10
-1.0405331782
 20
30.4292334343
 30
0.0
 11
-1.0987557403
 21
30.3872084344
 31
0.0
  0
LINE
  5
CB
330
1F
100
AcDbEntity
  8
1
100
AcDbLine
 10
-1.0987557403
 20
30.3872084344
 30
0.0
 11
-1.201922715
 21
30.3393064095
 31
0.0
  0
LINE
  5
CD
330
1F
100
AcDbEntity
  8
1
100
AcDbLine
 10
13.6500005062
 20
18.9802458623
 30
0.0
 11
-0.951922452
 21
18.9802458623
 31
0.0
  0
LINE
  5
CE
330
1F
100
AcDbEntity
  8
1
100
AcDbLine
 10
-4.4499975443
 20
22.9726545512
 30
0.0
 11
-4.4499993802
 21
22.2130341935
 31
0.0
  0
LINE
  5
CF
330
1F
100
AcDbEntity
  8
1
100
AcDbLine
 10
13.6500005062
 20
8.8198439546
 30
0.0
 11
13.6500005062
 21
32.0004550361
 31
0.0
  0
LINE
  5
D0
330
1F
100
AcDbEntity
  8
1
100
AcDbLine
 10
39.2425391078
 20
-23.5000066459
 30
0.0
 11
14.8197784042
 21
5.6059056929
 31
0.0
  0
LINE
  5
D2
330
1F
100
AcDbEntity
  8
1
100
AcDbLine
 10
4.7000007479
 20
-10.3953205546
 30
0.0
 11
4.7993505149
 21
-10.4142198836
 31
0.0
  0
LINE
  5
D3
330
1F
100
AcDbEntity
  8
1
100
AcDbLine
 10
4.7993505149
 20
-10.4142198836
 30
0.0
 11
4.908263102
 21
-10.4792671775
 31
0.0
  0
LINE
  5
D4
330
1F
100
AcDbEntity
  8
1
100
AcDbLine
 10
4.908263102
 20
-10.4792671775
 30
0.0
 11
5.0550730674
 21
-10.6464721759
 31
0.0
  0
LINE
  5
D5
330
1F
100
AcDbEntity
  8
1
100
AcDbLine
 10
5.0550730674
 20
-10.6464721759
 30
0.0
 11
5.3128445296
 21
-11.2379467612
 31
0.0
  0
LINE
  5
D6
330
1F
100
AcDbEntity
  8
1
100
AcDbLine
 10
5.3128445296
 20
-11.2379467612
 30
0.0
 11
5.4559776335
 21
-11.9265508403
 31
0.0
  0
LINE
  5
D7
330
1F
100
AcDbEntity
  8
1
100
AcDbLine
 10
5.4559776335
 20
-11.9265508403
 30
0.0
 11
5.4999993889
 21
-12.6294386139
 31
0.0
  0
LINE
  5
D8
330
1F
100
AcDbEntity
  8
1
100
AcDbLine
 10
12.7499993145
 20
-36.7740206421
 30
0.0
 11
13.3066247403
 21
-36.7233976722
 31
0.0
  0
LINE
  5
D9
330
1F
100
AcDbEntity
  8
1
100
AcDbLine
 10
13.3066247403
 20
-36.7233976722
 30
0.0
 11
13.8414311409
 21
-36.5806482733
 31
0.0
  0
LINE
  5
DA
330
1F
100
AcDbEntity
  8
1
100
AcDbLine
 10
13.8414311409
 20
-36.5806482733
 30
0.0
 11
14.3321897089
 21
-36.3619402051
 31
0.0
  0
LINE
  5
DB
330
1F
100
AcDbEntity
  8
1
100
AcDbLine
 10
14.3321897089
 20
-36.3619402051
 30
0.0
 11
14.7813516855
 21
-36.0825657845
 31
0.0
  0
LINE
  5
DC
330
1F
100
AcDbEntity
  8
1
100
AcDbLine
 10
14.7813516855
 20
-36.0825657845
 30
0.0
 11
15.4334749281
 21
-35.5194993317
 31
0.0
  0
LINE
  5
DD
330
1F
100
AcDbEntity
  8
1
100
AcDbLine
 10
15.4334749281
 20
-35.5194993317
 30
0.0
 11
15.9783396124
 21
-34.8642468453
 31
0.0
  0
LINE
  5
DE
330
1F
100
AcDbEntity
  8
1
100
AcDbLine
 10
15.9783396124
 20
-34.8642468453
 30
0.0
 11
16.5872345864
 21
-33.8150411845
 31
0.0
  0
LINE
  5
DF
330
1F
100
AcDbEntity
  8
1
100
AcDbLine
 10
16.5872345864
 20
-33.8150411845
 30
0.0
 11
17.0035432279
 21
-32.666888088
 31
0.0
  0
LINE
  5
E0
330
1F
100
AcDbEntity
  8
1
100
AcDbLine
 10
17.0035432279
 20
-32.666888088
 30
0.0
 11
17.2226350009
 21
-31.4330793917
 31
0.0
  0
LINE
  5
E1
330
1F
100
AcDbEntity
  8
1
100
AcDbLine
 10
17.2226350009
 20
-31.4330793917
 30
0.0
 11
17.2174307704
 21
-30.1615297795
 31
0.0
  0
LINE
  5
E2
330
1F
100
AcDbEntity
  8
1
100
AcDbLine
 10
17.2174307704
 20
-30.1615297795
 30
0.0
 11
17.0512008667
 21
-29.2221885175
 31
0.0
  0
LINE
  5
E3
330
1F
100
AcDbEntity
  8
1
100
AcDbLine
 10
17.0512008667
 20
-29.2221885175
 30
0.0
 11
16.7346145212
 21
-28.3127930016
 31
0.0
  0
LINE
  5
E4
330
1F
100
AcDbEntity
  8
1
100
AcDbLine
 10
16.7346145212
 20
-28.3127930016
 30
0.0
 11
16.3425202667
 21
-27.5936126709
 31
0.0
  0
LINE
  5
E5
330
1F
100
AcDbEntity
  8
1
100
AcDbLine
 10
16.3425202667
 20
-27.5936126709
 30
0.0
 11
15.8371064066
 21
-26.9443038851
 31
0.0
  0
LINE
  5
E6
330
1F
100
AcDbEntity
  8
1
100
AcDbLine
 10
15.8371064066
 20
-26.9443038851
 30
0.0
 11
15.2182202041
 21
-26.3897031546
 31
0.0
  0
LINE
  5
E7
330
1F
100
AcDbEntity
  8
1
100
AcDbLine
 10
15.2182202041
 20
-26.3897031546
 30
0.0
 11
14.5058143138
 21
-25.959501043
 31
0.0
  0
LINE
  5
E8
330
1F
100
AcDbEntity
  8
1
100
AcDbLine
 10
14.5058143138
 20
-25.959501043
 30
0.0
 11
13.8130109012
 21
-25.7030948997
 31
0.0
  0
LINE
  5
E9
330
1F
100
AcDbEntity
  8
1
100
AcDbLine
 10
13.8130109012
 20
-25.7030948997
 30
0.0
 11
13.0854579806
 21
-25.5741402507
 31
0.0
  0
LINE
  5
EA
330
1F
100
AcDbEntity
  8
1
100
AcDbLine
 10
13.0854579806
 20
-25.5741402507
 30
0.0
 11
12.3974192142
 21
-25.5760923028
 31
0.0
  0
LINE
  5
EB
330
1F
100
AcDbEntity
  8
1
100
AcDbLine
 10
12.3974192142
 20
-25.5760923028
 30
0.0
 11
11.7195504903
 21
-25.6937369705
 31
0.0
  0
LINE
  5
EC
330
1F
100
AcDbEntity
  8
1
100
AcDbLine
 10
11.7195504903
 20
-25.6937369705
 30
0.0
 11
11.0802273452
 21
-25.9201917798
 31
0.0
  0
LINE
  5
ED
330
1F
100
AcDbEntity
  8
1
100
AcDbLine
 10
11.0802273452
 20
-25.9201917798
 30
0.0
 11
10.4857976734
 21
-26.2460485101
 31
0.0
  0
LINE
  5
EE
330
1F
100
AcDbEntity
  8
1
100
AcDbLine
 10
10.4857976734
 20
-26.2460485101
 30
0.0
 11
9.9350246787
 21
-26.6749318689
 31
0.0
  0
LINE
  5
EF
330
1F
100
AcDbEntity
  8
1
100
AcDbLine
 10
9.9350246787
 20
-26.6749318689
 30
0.0
 11
9.4568911194
 21
-27.1816700697
 31
0.0
  0
LINE
  5
F0
330
1F
100
AcDbEntity
  8
1
100
AcDbLine
 10
9.4568911194
 20
-27.1816700697
 30
0.0
 11
9.0308967232
 21
-27.7977641672
 31
0.0
  0
LINE
  5
F1
330
1F
100
AcDbEntity
  8
1
100
AcDbLine
 10
9.0308967232
 20
-27.7977641672
 30
0.0
 11
8.6996737122
 21
-28.4656453878
 31
0.0
  0
LINE
  5
F2
330
1F
100
AcDbEntity
  8
1
100
AcDbLine
 10
8.6996737122
 20
-28.4656453878
 30
0.0
 11
8.4383818507
 21
-29.2624644935
 31
0.0
  0
LINE
  5
F3
330
1F
100
AcDbEntity
  8
1
100
AcDbLine
 10
8.4383818507
 20
-29.2624644935
 30
0.0
 11
8.2911211252
 21
-30.0808120519
 31
0.0
  0
LINE
  5
F4
330
1F
100
AcDbEntity
  8
1
100
AcDbLine
 10
8.2911211252
 20
-30.0808120519
 30
0.0
 11
8.2540060579
 21
-31.0526639223
 31
0.0
  0
LINE
  5
F5
330
1F
100
AcDbEntity
  8
1
100
AcDbLine
 10
8.2540060579
 20
-31.0526639223
 30
0.0
 11
8.3518359065
 21
-32.0089384914
 31
0.0
  0
LINE
  5
F6
330
1F
100
AcDbEntity
  8
1
100
AcDbLine
 10
8.3518359065
 20
-32.0089384914
 30
0.0
 11
8.6323502659
 21
-33.1140160561
 31
0.0
  0
LINE
  5
F7
330
1F
100
AcDbEntity
  8
1
100
AcDbLine
 10
8.6323502659
 20
-33.1140160561
 30
0.0
 11
9.0800333023
 21
-34.1502353549
 31
0.0
  0
LINE
  5
F8
330
1F
100
AcDbEntity
  8
1
100
AcDbLine
 10
9.0800333023
 20
-34.1502353549
 30
0.0
 11
9.6050868928
 21
-34.9787473679
 31
0.0
  0
LINE
  5
F9
330
1F
100
AcDbEntity
  8
1
100
AcDbLine
 10
9.6050868928
 20
-34.9787473679
 30
0.0
 11
10.2638076245
 21
-35.7116274536
 31
0.0
  0
LINE
  5
FA
330
1F
100
AcDbEntity
  8
1
100
AcDbLine
 10
10.2638076245
 20
-35.7116274536
 30
0.0
 11
10.7396613061
 21
-36.0974334181
 31
0.0
  0
LINE
  5
FB
330
1F
100
AcDbEntity
  8
1
100
AcDbLine
 10
10.7396613061
 20
-36.0974334181
 30
0.0
 11
11.2735661864
 21
-36.4165380597
 31
0.0
  0
LINE
  5
FC
330
1F
100
AcDbEntity
  8
1
100
AcDbLine
 10
11.2735661864
 20
-36.4165380597
 30
0.0
 11
11.7322537303
 21
-36.6058200598
 31
0.0
  0
LINE
  5
FD
330
1F
100
AcDbEntity
  8
1
100
AcDbLine
 10
11.7322537303
 20
-36.6058200598
 30
0.0
 11
12.2200506925
 21
-36.728836596
 31
0.0
  0
LINE
  5
FE
330
1F
100
AcDbEntity
  8
1
100
AcDbLine
 10
12.2200506925
 20
-36.728836596
 30
0.0
 11
12.7499993145
 21
-36.7740206421
 31
0.0
  0
LINE
  5
FF
330
1F
100
AcDbEntity
  8
1
100
AcDbLine
 10
42.5
 20
-48.5000088811
 30
0.0
 11
42.5
 21
-27.3820981384
 31
0.0
  0
LINE
  5
100
330
1F
100
AcDbEntity
  8
1
100
AcDbLine
 10
5.4999993889
 20
-48.5000088811
 30
0.0
 11
42.5
 21
-48.5000088811
 31
0.0
  0
LINE
  5
101
330
1F
100
AcDbEntity
  8
1
100
AcDbLine
 10
5.4999993889
 20
-12.6294386139
 30
0.0
 11
5.4999993889
 21
-48.5000088811
 31
0.0
  0
LINE
  5
102
330
1F
100
AcDbEntity
  8
1
100
AcDbLine
 10
15.0918993353
 20
-46.6796047986
 30
0.0
 11
15.4351587593
 21
-46.8347258866
 31
0.0
  0
LINE
  5
103
330
1F
100
AcDbEntity
  8
1
100
AcDbLine
 10
15.4351587593
 20
-46.8347258866
 30
0.0
 11
15.7034280896
 21
-47.0007248223
 31
0.0
  0
LINE
  5
104
330
1F
100
AcDbEntity
  8
1
100
AcDbLine
 10
15.7034280896
 20
-47.0007248223
 30
0.0
 11
15.8880683779
 21
-47.1705533564
 31
0.0
  0
LINE
  5
105
330
1F
100
AcDbEntity
  8
1
100
AcDbLine
 10
15.8880683779
 20
-47.1705533564
 30
0.0
 11
15.9852388501
 21
-47.3376698792
 31
0.0
  0
LINE
  5
106
330
1F
100
AcDbEntity
  8
1
100
AcDbLine
 10
15.9852388501
 20
-47.3376698792
 30
0.0
 11
15.9913446009
 21
-47.4959500134
 31
0.0
  0
LINE
  5
107
330
1F
100
AcDbEntity
  8
1
100
AcDbLine
 10
15.9913446009
 20
-47.4959500134
 30
0.0
 11
15.9081216156
 21
-47.6413667202
 31
0.0
  0
LINE
  5
108
330
1F
100
AcDbEntity
  8
1
100
AcDbLine
 10
15.9081216156
 20
-47.6413667202
 30
0.0
 11
15.735450685
 21
-47.7713793516
 31
0.0
  0
LINE
  5
109
330
1F
100
AcDbEntity
  8
1
100
AcDbLine
 10
15.735450685
 20
-47.7713793516
 30
0.0
 11
15.4798883199
 21
-47.883220017
 31
0.0
  0
LINE
  5
10A
330
1F
100
AcDbEntity
  8
1
100
AcDbLine
 10
15.4798883199
 20
-47.883220017
 30
0.0
 11
15.1426750421
 21
-47.976911068
 31
0.0
  0
LINE
  5
10B
330
1F
100
AcDbEntity
  8
1
100
AcDbLine
 10
15.1426750421
 20
-47.976911068
 30
0.0
 11
14.7367599606
 21
-48.0513647199
 31
0.0
  0
LINE
  5
10C
330
1F
100
AcDbEntity
  8
1
100
AcDbLine
 10
14.7367599606
 20
-48.0513647199
 30
0.0
 11
14.271556884
 21
-48.107162118
 31
0.0
  0
LINE
  5
10D
330
1F
100
AcDbEntity
  8
1
100
AcDbLine
 10
14.271556884
 20
-48.107162118
 30
0.0
 11
13.7613224983
 21
-48.1454059482
 31
0.0
  0
LINE
  5
10E
330
1F
100
AcDbEntity
  8
1
100
AcDbLine
 10
13.7613224983
 20
-48.1454059482
 30
0.0
 11
13.2298055291
 21
-48.1666699052
 31
0.0
  0
LINE
  5
10F
330
1F
100
AcDbEntity
  8
1
100
AcDbLine
 10
13.2298055291
 20
-48.1666699052
 30
0.0
 11
12.684225589
 21
-48.1724962592
 31
0.0
  0
LINE
  5
110
330
1F
100
AcDbEntity
  8
1
100
AcDbLine
 10
12.684225589
 20
-48.1724962592
 30
0.0
 11
12.1511700749
 21
-48.1633208692
 31
0.0
  0
LINE
  5
111
330
1F
100
AcDbEntity
  8
1
100
AcDbLine
 10
12.1511700749
 20
-48.1633208692
 30
0.0
 11
11.6349603235
 21
-48.1392107904
 31
0.0
  0
LINE
  5
112
330
1F
100
AcDbEntity
  8
1
100
AcDbLine
 10
11.6349603235
 20
-48.1392107904
 30
0.0
 11
11.1500392854
 21
-48.0993874371
 31
0.0
  0
LINE
  5
113
330
1F
100
AcDbEntity
  8
1
100
AcDbLine
 10
11.1500392854
 20
-48.0993874371
 30
0.0
 11
10.7090170681
 21
-48.0430983007
 31
0.0
  0
LINE
  5
114
330
1F
100
AcDbEntity
  8
1
100
AcDbLine
 10
10.7090170681
 20
-48.0430983007
 30
0.0
 11
10.3169526159
 21
-47.9676239193
 31
0.0
  0
LINE
  5
115
330
1F
100
AcDbEntity
  8
1
100
AcDbLine
 10
10.3169526159
 20
-47.9676239193
 30
0.0
 11
9.992505908
 21
-47.8734560311
 31
0.0
  0
LINE
  5
116
330
1F
100
AcDbEntity
  8
1
100
AcDbLine
 10
9.992505908
 20
-47.8734560311
 30
0.0
 11
9.7416485846
 21
-47.75807634
 31
0.0
  0
LINE
  5
117
330
1F
100
AcDbEntity
  8
1
100
AcDbLine
 10
9.7416485846
 20
-47.75807634
 30
0.0
 11
9.5767001807
 21
-47.6241670549
 31
0.0
  0
LINE
  5
118
330
1F
100
AcDbEntity
  8
1
100
AcDbLine
 10
9.5767001807
 20
-47.6241670549
 30
0.0
 11
9.5039974153
 21
-47.4736504257
 31
0.0
  0
LINE
  5
119
330
1F
100
AcDbEntity
  8
1
100
AcDbLine
 10
9.5039974153
 20
-47.4736504257
 30
0.0
 11
9.5246280729
 21
-47.3103262484
 31
0.0
  0
LINE
  5
11A
330
1F
100
AcDbEntity
  8
1
100
AcDbLine
 10
9.5246280729
 20
-47.3103262484
 30
0.0
 11
9.6377912163
 21
-47.1411384642
 31
0.0
  0
LINE
  5
11B
330
1F
100
AcDbEntity
  8
1
100
AcDbLine
 10
9.6377912163
 20
-47.1411384642
 30
0.0
 11
9.8389457166
 21
-46.9703003764
 31
0.0
  0
LINE
  5
11C
330
1F
100
AcDbEntity
  8
1
100
AcDbLine
 10
9.8389457166
 20
-46.9703003764
 30
0.0
 11
10.121140182
 21
-46.8059033156
 31
0.0
  0
LINE
  5
11D
330
1F
100
AcDbEntity
  8
1
100
AcDbLine
 10
10.121140182
 20
-46.8059033156
 30
0.0
 11
10.476603657
 21
-46.6536320746
 31
0.0
  0
LINE
  5
11E
330
1F
100
AcDbEntity
  8
1
100
AcDbLine
 10
10.476603657
 20
-46.6536320746
 30
0.0
 11
10.8970771729
 21
-46.5204752982
 31
0.0
  0
LINE
  5
11F
330
1F
100
AcDbEntity
  8
1
100
AcDbLine
 10
10.8970771729
 20
-46.5204752982
 30
0.0
 11
11.3693322241
 21
-46.4128106833
 31
0.0
  0
LINE
  5
120
330
1F
100
AcDbEntity
  8
1
100
AcDbLine
 10
11.3693322241
 20
-46.4128106833
 30
0.0
 11
11.8827033042
 21
-46.33628577
 31
0.0
  0
LINE
  5
121
330
1F
100
AcDbEntity
  8
1
100
AcDbLine
 10
11.8827033042
 20
-46.33628577
 30
0.0
 11
12.4205160141
 21
-46.2947525084
 31
0.0
  0
LINE
  5
122
330
1F
100
AcDbEntity
  8
1
100
AcDbLine
 10
12.4205160141
 20
-46.2947525084
 30
0.0
 11
12.9678915441
 21
-46.2910458446
 31
0.0
  0
LINE
  5
123
330
1F
100
AcDbEntity
  8
1
100
AcDbLine
 10
12.9678915441
 20
-46.2910458446
 30
0.0
 11
13.5091166198
 21
-46.3247150183
 31
0.0
  0
LINE
  5
124
330
1F
100
AcDbEntity
  8
1
100
AcDbLine
 10
13.5091166198
 20
-46.3247150183
 30
0.0
 11
14.0283736586
 21
-46.3945828379
 31
0.0
  0
LINE
  5
125
330
1F
100
AcDbEntity
  8
1
100
AcDbLine
 10
14.0283736586
 20
-46.3945828379
 30
0.0
 11
14.5116443932
 21
-46.496424824
 31
0.0
  0
LINE
  5
126
330
1F
100
AcDbEntity
  8
1
100
AcDbLine
 10
14.5116443932
 20
-46.496424824
 30
0.0
 11
15.0918993353
 21
-46.6796047986
 31
0.0
  0
LINE
  5
127
330
1F
100
AcDbEntity
  8
1
100
AcDbLine
 10
42.5
 20
-27.3820981384
 30
0.0
 11
41.4190772175
 21
-26.0939076543
 31
0.0
  0
LINE
  5
128
330
1F
100
AcDbEntity
  8
1
100
AcDbLine
 10
41.4190772175
 20
-26.0939076543
 30
0.0
 11
40.3322833776
 21
-24.7987098992
 31
0.0
  0
LINE
  5
129
330
1F
100
AcDbEntity
  8
1
100
AcDbLine
 10
40.3322833776
 20
-24.7987098992
 30
0.0
 11
39.2425391078
 21
-23.5000066459
 31
0.0
  0
LINE
  5
12A
330
1F
100
AcDbEntity
  8
1
100
AcDbLine
 10
-4.4999983907
 20
-15.4808722437
 30
0.0
 11
-4.4499975443
 21
-15.5316432938
 31
0.0
  0
LINE
  5
12B
330
1F
100
AcDbEntity
  8
1
100
AcDbLine
 10
-4.4499993802
 20
22.2130341935
 30
0.0
 11
-4.4999983907
 21
22.1691075712
 31
0.0
  0
LINE
  5
12C
330
1F
100
AcDbEntity
  8
1
100
AcDbLine
 10
-4.4999983907
 20
22.1691075712
 30
0.0
 11
-4.5436252654
 21
22.1346709877
 31
0.0
  0
LINE
  5
12D
330
1F
100
AcDbEntity
  8
1
100
AcDbLine
 10
-4.5436252654
 20
22.1346709877
 30
0.0
 11
-4.6139140428
 21
22.0994204282
 31
0.0
  0
LINE
  5
12E
330
1F
100
AcDbEntity
  8
1
100
AcDbLine
 10
-4.6139140428
 20
22.0994204282
 30
0.0
 11
-4.6615046263
 21
22.0967419445
 31
0.0
  0
LINE
  5
12F
330
1F
100
AcDbEntity
  8
1
100
AcDbLine
 10
-4.6615046263
 20
22.0967419445
 30
0.0
 11
-4.698522836
 21
22.1160575747
 31
0.0
  0
LINE
  5
130
330
1F
100
AcDbEntity
  8
1
100
AcDbLine
 10
-4.698522836
 20
22.1160575747
 30
0.0
 11
-4.7325384617
 21
22.1733003854
 31
0.0
  0
LINE
  5
131
330
1F
100
AcDbEntity
  8
1
100
AcDbLine
 10
-4.7325384617
 20
22.1733003854
 30
0.0
 11
-4.7499988974
 21
22.3064124584
 31
0.0
  0
LINE
  5
133
330
1F
100
AcDbEntity
  8
1
100
AcDbLine
 10
-4.4999983907
 20
23.7288065255
 30
0.0
 11
-4.4499975443
 21
23.8353423774
 31
0.0
  0
LINE
  5
134
330
1F
100
AcDbEntity
  8
1
100
AcDbLine
 10
-4.4599999488
 20
23.1182742864
 30
0.0
 11
-4.4499975443
 21
23.1247674673
 31
0.0
  0
LINE
  5
135
330
1F
100
AcDbEntity
  8
1
100
AcDbLine
 10
-4.4599999488
 20
23.1182742864
 30
0.0
 11
-4.4599999488
 21
22.9661613702
 31
0.0
  0
LINE
  5
136
330
1F
100
AcDbEntity
  8
1
100
AcDbLine
 10
-4.4499975443
 20
22.9726545512
 30
0.0
 11
-4.4599999488
 21
22.9661613702
 31
0.0
  0
LINE
  5
137
330
1F
100
AcDbEntity
  8
1
100
AcDbLine
 10
-4.7499988974
 20
-15.736553818
 30
0.0
 11
-4.7388677299
 21
-15.5760934577
 31
0.0
  0
LINE
  5
138
330
1F
100
AcDbEntity
  8
1
100
AcDbLine
 10
-4.7388677299
 20
-15.5760934577
 30
0.0
 11
-4.718002379
 21
-15.493137762
 31
0.0
  0
LINE
  5
139
330
1F
100
AcDbEntity
  8
1
100
AcDbLine
 10
-4.718002379
 20
-15.493137762
 30
0.0
 11
-4.6780896187
 21
-15.42827487
 31
0.0
  0
LINE
  5
13A
330
1F
100
AcDbEntity
  8
1
100
AcDbLine
 10
-4.6780896187
 20
-15.42827487
 30
0.0
 11
-4.6437722445
 21
-15.409626998
 31
0.0
  0
LINE
  5
13B
330
1F
100
AcDbEntity
  8
1
100
AcDbLine
 10
-4.6437722445
 20
-15.409626998
 30
0.0
 11
-4.6014752985
 21
-15.4113601894
 31
0.0
  0
LINE
  5
13C
330
1F
100
AcDbEntity
  8
1
100
AcDbLine
 10
-4.6014752985
 20
-15.4113601894
 30
0.0
 11
-4.5599457622
 21
-15.4307745397
 31
0.0
  0
LINE
  5
13D
330
1F
100
AcDbEntity
  8
1
100
AcDbLine
 10
-4.5599457622
 20
-15.4307745397
 30
0.0
 11
-4.4999983907
 21
-15.4808722437
 31
0.0
  0
LINE
  5
13F
330
1F
100
AcDbEntity
  8
1
100
AcDbLine
 10
-4.4999983907
 20
-17.6421198994
 30
0.0
 11
-4.7291447223
 21
-16.7750902474
 31
0.0
  0
LINE
  5
140
330
1F
100
AcDbEntity
  8
1
100
AcDbLine
 10
-4.7291447223
 20
-16.7750902474
 30
0.0
 11
-4.7499988974
 21
-16.5063831956
 31
0.0
  0
LINE
  5
142
330
1F
100
AcDbEntity
  8
1
100
AcDbLine
 10
-4.4499993802
 20
-17.7746060881
 30
0.0
 11
-4.4999983907
 21
-17.6421198994
 31
0.0
  0
LINE
  5
143
330
1F
100
AcDbEntity
  8
1
100
AcDbLine
 10
-4.4999983907
 20
-23.1432840228
 30
0.0
 11
-4.4499975443
 21
-23.1847483665
 31
0.0
  0
LINE
  5
144
330
1F
100
AcDbEntity
  8
1
100
AcDbLine
 10
-4.4499993802
 20
28.1019450583
 30
0.0
 11
-4.4999983907
 21
28.0610639602
 31
0.0
  0
LINE
  5
145
330
1F
100
AcDbEntity
  8
1
100
AcDbLine
 10
-4.4999983907
 20
28.0610639602
 30
0.0
 11
-4.5658428967
 21
28.0129332095
 31
0.0
  0
LINE
  5
146
330
1F
100
AcDbEntity
  8
1
100
AcDbLine
 10
-4.5658428967
 20
28.0129332095
 30
0.0
 11
-4.6389554441
 21
27.9772188514
 31
0.0
  0
LINE
  5
147
330
1F
100
AcDbEntity
  8
1
100
AcDbLine
 10
-4.6389554441
 20
27.9772188514
 30
0.0
 11
-4.698355198
 21
27.9736798256
 31
0.0
  0
LINE
  5
148
330
1F
100
AcDbEntity
  8
1
100
AcDbLine
 10
-4.698355198
 20
27.9736798256
 30
0.0
 11
-4.731450677
 21
27.998091653
 31
0.0
  0
LINE
  5
149
330
1F
100
AcDbEntity
  8
1
100
AcDbLine
 10
-4.731450677
 20
27.998091653
 30
0.0
 11
-4.7497269512
 21
28.0651189387
 31
0.0
  0
LINE
  5
14A
330
1F
100
AcDbEntity
  8
1
100
AcDbLine
 10
-4.7497269512
 20
28.0651189387
 30
0.0
 11
-4.7499988974
 21
28.0772857368
 31
0.0
  0
LINE
  5
14C
330
1F
100
AcDbEntity
  8
1
100
AcDbLine
 10
-4.4999983907
 20
29.0362201631
 30
0.0
 11
-4.4499975443
 21
29.117397964
 31
0.0
  0
LINE
  5
14D
330
1F
100
AcDbEntity
  8
1
100
AcDbLine
 10
-4.7499988974
 20
-23.6157327891
 30
0.0
 11
-4.7499988974
 21
31.4819142222
 31
0.0
  0
LINE
  5
14E
330
1F
100
AcDbEntity
  8
1
100
AcDbLine
 10
-4.7499988974
 20
-23.2033878565
 30
0.0
 11
-4.7423546017
 21
-23.1337975711
 31
0.0
  0
LINE
  5
14F
330
1F
100
AcDbEntity
  8
1
100
AcDbLine
 10
-4.7423546017
 20
-23.1337975711
 30
0.0
 11
-4.71467942
 21
-23.081343621
 31
0.0
  0
LINE
  5
150
330
1F
100
AcDbEntity
  8
1
100
AcDbLine
 10
-4.71467942
 20
-23.081343621
 30
0.0
 11
-4.6736453474
 21
-23.0620764196
 31
0.0
  0
LINE
  5
151
330
1F
100
AcDbEntity
  8
1
100
AcDbLine
 10
-4.6736453474
 20
-23.0620764196
 30
0.0
 11
-4.617330134
 21
-23.0703614652
 31
0.0
  0
LINE
  5
152
330
1F
100
AcDbEntity
  8
1
100
AcDbLine
 10
-4.617330134
 20
-23.0703614652
 30
0.0
 11
-4.5561645926
 21
-23.1016539038
 31
0.0
  0
LINE
  5
153
330
1F
100
AcDbEntity
  8
1
100
AcDbLine
 10
-4.5561645926
 20
-23.1016539038
 30
0.0
 11
-4.4999983907
 21
-23.1432840228
 31
0.0
  0
LINE
  5
154
330
1F
100
AcDbEntity
  8
1
100
AcDbLine
 10
-4.4499993802
 20
-24.4056592752
 30
0.0
 11
-4.4999983907
 21
-24.3164636195
 31
0.0
  0
LINE
  5
157
330
1F
100
AcDbEntity
  8
1
100
AcDbLine
 10
-1.2019245311
 20
30.8246123193
 30
0.0
 11
-1.1644704624
 21
30.8125349281
 31
0.0
  0
LINE
  5
158
330
1F
100
AcDbEntity
  8
1
100
AcDbLine
 10
-1.1644704624
 20
30.8125349281
 30
0.0
 11
-1.0552822038
 21
30.7587827144
 31
0.0
  0
LINE
  5
159
330
1F
100
AcDbEntity
  8
1
100
AcDbLine
 10
-1.0552822038
 20
30.7587827144
 30
0.0
 11
-0.9794762715
 21
30.6842620073
 31
0.0
  0
LINE
  5
15A
330
1F
100
AcDbEntity
  8
1
100
AcDbLine
 10
-0.9794762715
 20
30.6842620073
 30
0.0
 11
-0.9519687279
 21
30.5905392913
 31
0.0
  0
LINE
  5
15B
330
1F
100
AcDbEntity
  8
1
100
AcDbLine
 10
-0.9519687279
 20
30.5905392913
 30
0.0
 11
-0.9893700412
 21
30.4852748389
 31
0.0
  0
LINE
  5
15C
330
1F
100
AcDbEntity
  8
1
100
AcDbLine
 10
-0.9893700412
 20
30.4852748389
 30
0.0
 11
-1.0405331782
 21
30.4292334343
 31
0.0
  0
LINE
  5
15D
330
1F
100
AcDbEntity
  8
1
100
AcDbLine
 10
-4.4499975443
 20
31.8699143827
 30
0.0
 11
-4.4499993802
 21
31.5624802136
 31
0.0
  0
LINE
  5
15F
330
1F
100
AcDbEntity
  8
1
100
AcDbLine
 10
-4.4499993802
 20
31.5624802136
 30
0.0
 11
-4.4999983907
 21
31.5187945962
 31
0.0
  0
LINE
  5
160
330
1F
100
AcDbEntity
  8
1
100
AcDbLine
 10
-4.4999983907
 20
-27.5602210313
 30
0.0
 11
-4.4499993801
 21
-27.6013253176
 31
0.0
  0
LINE
  5
161
330
1F
100
AcDbEntity
  8
1
100
AcDbLine
 10
-4.4999983907
 20
31.5187945962
 30
0.0
 11
-4.6008010209
 21
31.4359404146
 31
0.0
  0
LINE
  5
162
330
1F
100
AcDbEntity
  8
1
100
AcDbLine
 10
-4.6008010209
 20
31.4359404146
 30
0.0
 11
-4.6809916199
 21
31.3814654946
 31
0.0
  0
LINE
  5
163
330
1F
100
AcDbEntity
  8
1
100
AcDbLine
 10
-4.6809916199
 20
31.3814654946
 30
0.0
 11
-4.7345799208
 21
31.361117959
 31
0.0
  0
LINE
  5
164
330
1F
100
AcDbEntity
  8
1
100
AcDbLine
 10
-4.7345799208
 20
31.361117959
 30
0.0
 11
-4.7499877215
 21
31.3760749995
 31
0.0
  0
LINE
  5
165
330
1F
100
AcDbEntity
  8
1
100
AcDbLine
 10
-4.7499877215
 20
31.3760749995
 30
0.0
 11
-4.7499988974
 21
31.3769578933
 31
0.0
  0
LINE
  5
167
330
1F
100
AcDbEntity
  8
1
100
AcDbLine
 10
-4.4999983907
 20
31.8147651851
 30
0.0
 11
-4.4499975443
 21
31.8699143827
 31
0.0
  0
LINE
  5
169
330
1F
100
AcDbEntity
  8
1
100
AcDbLine
 10
-4.7499988974
 20
-27.5164525956
 30
0.0
 11
-4.7448654473
 21
-27.4826548994
 31
0.0
  0
LINE
  5
16A
330
1F
100
AcDbEntity
  8
1
100
AcDbLine
 10
-4.7448654473
 20
-27.4826548994
 30
0.0
 11
-4.7107455135
 21
-27.4531040341
 31
0.0
  0
LINE
  5
16B
330
1F
100
AcDbEntity
  8
1
100
AcDbLine
 10
-4.7107455135
 20
-27.4531040341
 30
0.0
 11
-4.6546575428
 21
-27.4614170194
 31
0.0
  0
LINE
  5
16C
330
1F
100
AcDbEntity
  8
1
100
AcDbLine
 10
-4.6546575428
 20
-27.4614170194
 30
0.0
 11
-4.5882840455
 21
-27.4955052883
 31
0.0
  0
LINE
  5
16D
330
1F
100
AcDbEntity
  8
1
100
AcDbLine
 10
-4.5882840455
 20
-27.4955052883
 30
0.0
 11
-4.4999983907
 21
-27.5602210313
 31
0.0
  0
LINE
  5
16E
330
1F
100
AcDbEntity
  8
1
100
AcDbLine
 10
-4.4499993801
 20
-28.343178151
 30
0.0
 11
-4.4999983906
 21
-28.2725356519
 31
0.0
  0
LINE
  5
171
330
1F
100
AcDbEntity
  8
1
100
AcDbLine
 10
15.871271044
 20
-47.1212677658
 30
0.0
 11
15.8575433492
 21
-47.1385158599
 31
0.0
  0
LINE
  5
172
330
1F
100
AcDbEntity
  8
1
100
AcDbLine
 10
15.8575433492
 20
-47.1385158599
 30
0.0
 11
15.6520079076
 21
-47.3301224411
 31
0.0
  0
LINE
  5
173
330
1F
100
AcDbEntity
  8
1
100
AcDbLine
 10
15.6520079076
 20
-47.3301224411
 30
0.0
 11
15.3629924356
 21
-47.5059598685
 31
0.0
  0
LINE
  5
174
330
1F
100
AcDbEntity
  8
1
100
AcDbLine
 10
15.3629924356
 20
-47.5059598685
 30
0.0
 11
14.9988006055
 21
-47.6609729231
 31
0.0
  0
LINE
  5
175
330
1F
100
AcDbEntity
  8
1
100
AcDbLine
 10
14.9988006055
 20
-47.6609729231
 30
0.0
 11
14.5699191093
 21
-47.7906987071
 31
0.0
  0
LINE
  5
176
330
1F
100
AcDbEntity
  8
1
100
AcDbLine
 10
14.5699191093
 20
-47.7906987071
 30
0.0
 11
14.088678658
 21
-47.8914082051
 31
0.0
  0
LINE
  5
177
330
1F
100
AcDbEntity
  8
1
100
AcDbLine
 10
14.088678658
 20
-47.8914082051
 30
0.0
 11
13.5689298808
 21
-47.9601994157
 31
0.0
  0
LINE
  5
178
330
1F
100
AcDbEntity
  8
1
100
AcDbLine
 10
13.5689298808
 20
-47.9601994157
 30
0.0
 11
13.0256186425
 21
-47.9950979352
 31
0.0
  0
LINE
  5
179
330
1F
100
AcDbEntity
  8
1
100
AcDbLine
 10
13.0256186425
 20
-47.9950979352
 30
0.0
 11
12.4743799865
 21
-47.9950979352
 31
0.0
  0
LINE
  5
17A
330
1F
100
AcDbEntity
  8
1
100
AcDbLine
 10
12.4743799865
 20
-47.9950979352
 30
0.0
 11
11.9310724735
 21
-47.9601994157
 31
0.0
  0
LINE
  5
17B
330
1F
100
AcDbEntity
  8
1
100
AcDbLine
 10
11.9310724735
 20
-47.9601994157
 30
0.0
 11
11.411319971
 21
-47.8914082051
 31
0.0
  0
LINE
  5
17C
330
1F
100
AcDbEntity
  8
1
100
AcDbLine
 10
11.411319971
 20
-47.8914082051
 30
0.0
 11
10.930083245
 21
-47.7906987071
 31
0.0
  0
LINE
  5
17D
330
1F
100
AcDbEntity
  8
1
100
AcDbLine
 10
10.930083245
 20
-47.7906987071
 30
0.0
 11
10.5011980235
 21
-47.6609729231
 31
0.0
  0
LINE
  5
17E
330
1F
100
AcDbEntity
  8
1
100
AcDbLine
 10
10.5011980235
 20
-47.6609729231
 30
0.0
 11
10.1370099186
 21
-47.5059598685
 31
0.0
  0
LINE
  5
17F
330
1F
100
AcDbEntity
  8
1
100
AcDbLine
 10
10.1370099186
 20
-47.5059598685
 30
0.0
 11
9.8479907214
 21
-47.3301224411
 31
0.0
  0
LINE
  5
180
330
1F
100
AcDbEntity
  8
1
100
AcDbLine
 10
9.8479907214
 20
-47.3301224411
 30
0.0
 11
9.6424590051
 21
-47.1385158599
 31
0.0
  0
LINE
  5
181
330
1F
100
AcDbEntity
  8
1
100
AcDbLine
 10
9.6424590051
 20
-47.1385158599
 30
0.0
 11
9.6273045241
 21
-47.1194200218
 31
0.0
  0
LINE
  5
182
330
1F
100
AcDbEntity
  8
1
100
AcDbLine
 10
-4.4999983907
 20
-30.1913879812
 30
0.0
 11
-4.4499975443
 21
-30.2346441895
 31
0.0
  0
LINE
  5
183
330
1F
100
AcDbEntity
  8
1
100
AcDbLine
 10
-4.4499993802
 20
-30.6436823246
 30
0.0
 11
-4.4999983907
 21
-30.5840186775
 31
0.0
  0
LINE
  5
185
330
1F
100
AcDbEntity
  8
1
100
AcDbLine
 10
-4.7499988974
 20
-30.0651490689
 30
0.0
 11
-4.744604677
 21
-30.0482138992
 31
0.0
  0
LINE
  5
186
330
1F
100
AcDbEntity
  8
1
100
AcDbLine
 10
-4.744604677
 20
-30.0482138992
 30
0.0
 11
-4.7122952342
 21
-30.0455279649
 31
0.0
  0
LINE
  5
187
330
1F
100
AcDbEntity
  8
1
100
AcDbLine
 10
-4.7122952342
 20
-30.0455279649
 30
0.0
 11
-4.658215195
 21
-30.0712790341
 31
0.0
  0
LINE
  5
188
330
1F
100
AcDbEntity
  8
1
100
AcDbLine
 10
-4.658215195
 20
-30.0712790341
 30
0.0
 11
-4.565038234
 21
-30.1374103874
 31
0.0
  0
LINE
  5
189
330
1F
100
AcDbEntity
  8
1
100
AcDbLine
 10
-4.565038234
 20
-30.1374103874
 30
0.0
 11
-4.4999983907
 21
-30.1913879812
 31
0.0
  0
LINE
  5
18A
330
1F
100
AcDbEntity
  8
1
100
AcDbLine
 10
-4.7499988974
 20
-23.6157327891
 30
0.0
 11
-4.7499988974
 21
-30.0651490689
 31
0.0
  0
LINE
  5
18B
330
1F
100
AcDbEntity
  8
1
100
AcDbLine
 10
-4.4999985232
 20
-31.4876793902
 30
0.0
 11
-4.4499976768
 21
-31.5346515755
 31
0.0
  0
LINE
  5
18C
330
1F
100
AcDbEntity
  8
1
100
AcDbLine
 10
-4.7499988974
 20
-31.3277691603
 30
0.0
 11
-4.7499988974
 21
-30.0651490689
 31
0.0
  0
LINE
  5
18D
330
1F
100
AcDbEntity
  8
1
100
AcDbLine
 10
-4.4499995126
 20
-31.6659859466
 30
0.0
 11
-4.4999985232
 21
-31.613732038
 31
0.0
  0
LINE
  5
18F
330
1F
100
AcDbEntity
  8
CUT
100
AcDbLine
 10
43.299998641
 20
-43.5292944312
 30
0.0
 11
55.1618295908
 21
-43.5292944312
 31
0.0
  0
LINE
  5
190
330
1F
100
AcDbEntity
  8
CUT
100
AcDbLine
 10
43.2999983326
 20
-41.2700474601
 30
0.0
 11
55.1669999854
 21
-41.2700474601
 31
0.0
  0
LINE
  5
191
330
1F
100
AcDbEntity
  8
CUT
100
AcDbLine
 10
55.5000006198
 20
-43.8046529889
 30
0.0
 11
55.499998468
 21
-41.2046530691
 31
0.0
  0
LINE
  5
192
330
1F
100
AcDbEntity
  8
CUT
100
AcDbLine
 10
55.4512643022
 20
-43.9354950171
 30
0.0
 11
55.1618295908
 21
-43.5292944312
 31
0.0
  0
LINE
  5
193
330
1F
100
AcDbEntity
  8
CUT
100
AcDbLine
 10
55.1669999854
 20
-41.2700474601
 30
0.0
 11
55.434271988
 21
-41.0564277414
 31
0.0
  0
LINE
  5
194
330
1F
100
AcDbEntity
  8
CUT
100
AcDbLine
 10
55.2291455864
 20
-43.9992174507
 30
0.0
 11
55.3375875834
 21
-44.0010905809
 31
0.0
  0
LINE
  5
195
330
1F
100
AcDbEntity
  8
CUT
100
AcDbLine
 10
54.5000019669
 20
-43.9354255796
 30
0.0
 11
55.2291455864
 21
-43.9992174507
 31
0.0
  0
LINE
  5
196
330
1F
100
AcDbEntity
  8
CUT
100
AcDbLine
 10
43.3000006198
 20
-43.9354273171
 30
0.0
 11
54.5000019669
 21
-43.9354255796
 31
0.0
  0
LINE
  5
197
330
1F
100
AcDbEntity
  8
CUT
100
AcDbLine
 10
55.2746534244
 20
-41.0061069171
 30
0.0
 11
54.5000016586
 21
-41.0738811235
 31
0.0
  0
LINE
  5
198
330
1F
100
AcDbEntity
  8
CUT
100
AcDbLine
 10
55.320049812
 20
-41.0056598823
 30
0.0
 11
55.2746534244
 21
-41.0061069171
 31
0.0
  0
LINE
  5
199
330
1F
100
AcDbEntity
  8
CUT
100
AcDbLine
 10
54.5000016586
 20
-41.0738811235
 30
0.0
 11
43.3000003115
 21
-41.0738812775
 31
0.0
  0
LINE
  5
19A
330
1F
100
AcDbEntity
  8
CUT
100
AcDbLine
 10
43.3000019518
 20
43.9354403311
 30
0.0
 11
53.5000017968
 21
43.9354270958
 31
0.0
  0
LINE
  5
19B
330
1F
100
AcDbEntity
  8
CUT
100
AcDbLine
 10
46.0072140731
 20
41.0738935613
 30
0.0
 11
43.2999967845
 21
41.0738969201
 31
0.0
  0
LINE
  5
19C
330
1F
100
AcDbEntity
  8
CUT
100
AcDbLine
 10
53.5000017968
 20
43.9354270958
 30
0.0
 11
53.4999980838
 21
41.0738836849
 31
0.0
  0
LINE
  5
19D
330
1F
100
AcDbEntity
  8
CUT
100
AcDbLine
 10
53.4999980838
 20
41.0738836849
 30
0.0
 11
46.0072140731
 21
41.0738935613
 31
0.0
  0
LINE
  5
19F
330
1F
100
AcDbEntity
  8
CUT
100
AcDbLine
 10
55.2746517882
 20
41.0061071757
 30
0.0
 11
54.5000001104
 21
41.0738823873
 31
0.0
  0
LINE
  5
1A0
330
1F
100
AcDbEntity
  8
CUT
100
AcDbLine
 10
54.5000038234
 20
43.9354257982
 30
0.0
 11
55.2291475257
 21
43.9992167232
 31
0.0
  0
LINE
  5
1A1
330
1F
100
AcDbEntity
  8
CUT
100
AcDbLine
 10
55.2291475257
 20
43.9992167232
 30
0.0
 11
55.3375907287
 21
44.0010904035
 31
0.0
  0
LINE
  5
1A2
330
1F
100
AcDbEntity
  8
CUT
100
AcDbLine
 10
55.3200481752
 20
41.0056600819
 30
0.0
 11
55.2746517882
 21
41.0061071757
 31
0.0
  0
LINE
  5
1A3
330
1F
100
AcDbEntity
  8
CUT
100
AcDbLine
 10
55.5000015048
 20
43.8046550055
 30
0.0
 11
55.5000015048
 21
41.2046544054
 31
0.0
  0
LINE
  5
1A4
330
1F
100
AcDbEntity
  8
CUT
100
AcDbLine
 10
54.4871068684
 20
43.9354258149
 30
0.0
 11
54.5000038234
 21
43.9354257982
 31
0.0
  0
LINE
  5
1A5
330
1F
100
AcDbEntity
  8
CUT
100
AcDbLine
 10
54.5000001104
 20
41.0738823873
 30
0.0
 11
54.4871031554
 21
41.073882404
 31
0.0
  0
LINE
  5
1A6
330
1F
100
AcDbEntity
  8
CUT
100
AcDbLine
 10
53.6949536887
 20
43.9354268428
 30
0.0
 11
54.4871068684
 21
43.9354258149
 31
0.0
  0
LINE
  5
1A7
330
1F
100
AcDbEntity
  8
CUT
100
AcDbLine
 10
54.4871031554
 20
41.073882404
 30
0.0
 11
53.6949499757
 21
41.0738834319
 31
0.0
  0
LINE
  5
1A8
330
1F
100
AcDbEntity
  8
CUT
100
AcDbLine
 10
53.5000017968
 20
43.9354270958
 30
0.0
 11
53.6949536887
 21
43.9354268428
 31
0.0
  0
LINE
  5
1A9
330
1F
100
AcDbEntity
  8
CUT
100
AcDbLine
 10
53.6949499757
 20
41.0738834319
 30
0.0
 11
53.4999980838
 21
41.0738836849
 31
0.0
  0
LINE
  5
1AA
330
1F
100
AcDbEntity
  8
1
100
AcDbLine
 10
21.3660258054
 20
-44.0000072122
 30
0.0
 11
22.2320514917
 21
-42.5000078976
 31
0.0
  0
LINE
  5
1AB
330
1F
100
AcDbEntity
  8
1
100
AcDbLine
 10
22.2320514917
 20
-42.5000078976
 30
0.0
 11
21.3660258054
 21
-41.0000085831
 31
0.0
  0
LINE
  5
1AC
330
1F
100
AcDbEntity
  8
1
100
AcDbLine
 10
21.3660258054
 20
-41.0000085831
 30
0.0
 11
19.6339744329
 21
-41.0000085831
 31
0.0
  0
LINE
  5
1AD
330
1F
100
AcDbEntity
  8
1
100
AcDbLine
 10
19.6339744329
 20
-41.0000085831
 30
0.0
 11
18.7679487466
 21
-42.5000078976
 31
0.0
  0
LINE
  5
1AE
330
1F
100
AcDbEntity
  8
1
100
AcDbLine
 10
18.7679487466
 20
-42.5000078976
 30
0.0
 11
19.6339744329
 21
-44.0000072122
 31
0.0
  0
LINE
  5
1AF
330
1F
100
AcDbEntity
  8
1
100
AcDbLine
 10
19.6339744329
 20
-44.0000072122
 30
0.0
 11
21.3660258054
 21
-44.0000072122
 31
0.0
  0
LINE
  5
1B0
330
1F
100
AcDbEntity
  8
1
100
AcDbLine
 10
36.2320500612
 20
-42.5000078976
 30
0.0
 11
35.3660243749
 21
-41.0000085831
 31
0.0
  0
LINE
  5
1B1
330
1F
100
AcDbEntity
  8
1
100
AcDbLine
 10
32.7679473161
 20
-42.5000078976
 30
0.0
 11
33.6339730024
 21
-44.0000072122
 31
0.0
  0
LINE
  5
1B2
330
1F
100
AcDbEntity
  8
1
100
AcDbLine
 10
33.6339730024
 20
-44.0000072122
 30
0.0
 11
35.3660243749
 21
-44.0000072122
 31
0.0
  0
LINE
  5
1B3
330
1F
100
AcDbEntity
  8
1
100
AcDbLine
 10
35.3660243749
 20
-44.0000072122
 30
0.0
 11
36.2320500612
 21
-42.5000078976
 31
0.0
  0
LINE
  5
1B4
330
1F
100
AcDbEntity
  8
1
100
AcDbLine
 10
33.6339730024
 20
-41.0000085831
 30
0.0
 11
32.7679473161
 21
-42.5000078976
 31
0.0
  0
LINE
  5
1B5
330
1F
100
AcDbEntity
  8
1
100
AcDbLine
 10
35.3660243749
 20
-41.0000085831
 30
0.0
 11
33.6339730024
 21
-41.0000085831
 31
0.0
  0
LINE
  5
1B6
330
1F
100
AcDbEntity
  8
1
100
AcDbLine
 10
10.5136702954
 20
-46.6354750097
 30
0.0
 11
10.3512699902
 21
-46.7902570963
 31
0.0
  0
LINE
  5
1B7
330
1F
100
AcDbEntity
  8
1
100
AcDbLine
 10
10.3512699902
 20
-46.7902570963
 30
0.0
 11
10.2613191306
 21
-46.9650812447
 31
0.0
  0
LINE
  5
1B8
330
1F
100
AcDbEntity
  8
1
100
AcDbLine
 10
10.2613191306
 20
-46.9650812447
 30
0.0
 11
10.2613191306
 21
-47.143124044
 31
0.0
  0
LINE
  5
1B9
330
1F
100
AcDbEntity
  8
1
100
AcDbLine
 10
10.2613191306
 20
-47.143124044
 30
0.0
 11
10.3512699902
 21
-47.3179519177
 31
0.0
  0
LINE
  5
1BA
330
1F
100
AcDbEntity
  8
1
100
AcDbLine
 10
10.3512699902
 20
-47.3179519177
 30
0.0
 11
10.5279120802
 21
-47.4832393229
 31
0.0
  0
LINE
  5
1BB
330
1F
100
AcDbEntity
  8
1
100
AcDbLine
 10
10.5279120802
 20
-47.4832393229
 30
0.0
 11
10.7848677039
 21
-47.6330183447
 31
0.0
  0
LINE
  5
1BC
330
1F
100
AcDbEntity
  8
1
100
AcDbLine
 10
10.7848677039
 20
-47.6330183447
 30
0.0
 11
11.1128497123
 21
-47.7618761361
 31
0.0
  0
LINE
  5
1BD
330
1F
100
AcDbEntity
  8
1
100
AcDbLine
 10
11.1128497123
 20
-47.7618761361
 30
0.0
 11
11.5000005066
 21
-47.865152359
 31
0.0
  0
LINE
  5
1BE
330
1F
100
AcDbEntity
  8
1
100
AcDbLine
 10
11.5000005066
 20
-47.865152359
 30
0.0
 11
11.9323316216
 21
-47.9391105473
 31
0.0
  0
LINE
  5
1BF
330
1F
100
AcDbEntity
  8
1
100
AcDbLine
 10
11.9323316216
 20
-47.9391105473
 30
0.0
 11
12.3942117393
 21
-47.9810871184
 31
0.0
  0
LINE
  5
1C0
330
1F
100
AcDbEntity
  8
1
100
AcDbLine
 10
12.3942117393
 20
-47.9810871184
 30
0.0
 11
12.8689552843
 21
-47.9895584286
 31
0.0
  0
LINE
  5
1C1
330
1F
100
AcDbEntity
  8
1
100
AcDbLine
 10
12.8689552843
 20
-47.9895584286
 30
0.0
 11
13.3393961191
 21
-47.9642227292
 31
0.0
  0
LINE
  5
1C2
330
1F
100
AcDbEntity
  8
1
100
AcDbLine
 10
13.3393961191
 20
-47.9642227292
 30
0.0
 11
13.7885394692
 21
-47.9059889913
 31
0.0
  0
LINE
  5
1C3
330
1F
100
AcDbEntity
  8
1
100
AcDbLine
 10
13.7885394692
 20
-47.9059889913
 30
0.0
 11
14.200143069
 21
-47.816965729
 31
0.0
  0
LINE
  5
1C4
330
1F
100
AcDbEntity
  8
1
100
AcDbLine
 10
14.200143069
 20
-47.816965729
 30
0.0
 11
14.5593355596
 21
-47.7003753186
 31
0.0
  0
LINE
  5
1C5
330
1F
100
AcDbEntity
  8
1
100
AcDbLine
 10
14.5593355596
 20
-47.7003753186
 30
0.0
 11
14.8531343042
 21
-47.5604236126
 31
0.0
  0
LINE
  5
1C6
330
1F
100
AcDbEntity
  8
1
100
AcDbLine
 10
14.8531343042
 20
-47.5604236126
 30
0.0
 11
15.0709222257
 21
-47.4021732807
 31
0.0
  0
LINE
  5
1C7
330
1F
100
AcDbEntity
  8
1
100
AcDbLine
 10
15.0709222257
 20
-47.4021732807
 30
0.0
 11
15.2048240602
 21
-47.2313389182
 31
0.0
  0
LINE
  5
1C8
330
1F
100
AcDbEntity
  8
1
100
AcDbLine
 10
15.2048240602
 20
-47.2313389182
 30
0.0
 11
15.2500006556
 21
-47.054104507
 31
0.0
  0
LINE
  5
1C9
330
1F
100
AcDbEntity
  8
1
100
AcDbLine
 10
11.8839736282
 20
-47.6160123945
 30
0.0
 11
11.0179516673
 21
-47.054104507
 31
0.0
  0
LINE
  5
1CA
330
1F
100
AcDbEntity
  8
1
100
AcDbLine
 10
13.6160250008
 20
-47.6160123945
 30
0.0
 11
11.8839736282
 21
-47.6160123945
 31
0.0
  0
LINE
  5
1CB
330
1F
100
AcDbEntity
  8
1
100
AcDbLine
 10
14.482050687
 20
-47.054104507
 30
0.0
 11
13.6160250008
 21
-47.6160123945
 31
0.0
  0
LINE
  5
1CC
330
1F
100
AcDbEntity
  8
1
100
AcDbLine
 10
13.6160250008
 20
-46.4921928943
 30
0.0
 11
14.482050687
 21
-47.054104507
 31
0.0
  0
LINE
  5
1CD
330
1F
100
AcDbEntity
  8
1
100
AcDbLine
 10
11.8839736282
 20
-46.4921928943
 30
0.0
 11
13.6160250008
 21
-46.4921928943
 31
0.0
  0
LINE
  5
1CE
330
1F
100
AcDbEntity
  8
1
100
AcDbLine
 10
11.0179516673
 20
-47.054104507
 30
0.0
 11
11.8839736282
 21
-46.4921928943
 31
0.0
  0
LINE
  5
1CF
330
1F
100
AcDbEntity
  8
1
100
AcDbLine
 10
13.6160250008
 20
-46.4921928943
 30
0.0
 11
13.6160250008
 21
-47.6160123945
 31
0.0
  0
LINE
  5
1D0
330
1F
100
AcDbEntity
  8
1
100
AcDbLine
 10
11.8839736282
 20
-46.4921928943
 30
0.0
 11
11.8839736282
 21
-47.6160123945
 31
0.0
  0
LINE
  5
1D1
330
1F
100
AcDbEntity
  8
1
100
AcDbLine
 10
15.5459451675
 20
43.3044806122
 30
0.0
 11
15.767879337
 21
43.760985136
 31
0.0
  0
LINE
  5
1D2
330
1F
100
AcDbEntity
  8
1
100
AcDbLine
 10
15.767879337
 20
43.760985136
 30
0.0
 11
15.9038561582
 21
44.2455932498
 31
0.0
  0
LINE
  5
1D3
330
1F
100
AcDbEntity
  8
1
100
AcDbLine
 10
15.9038561582
 20
44.2455932498
 30
0.0
 11
15.9499976038
 21
44.744502753
 31
0.0
  0
LINE
  5
1D4
330
1F
100
AcDbEntity
  8
1
100
AcDbLine
 10
15.9499976038
 20
44.744502753
 30
0.0
 11
15.904996097
 21
45.2435016632
 31
0.0
  0
LINE
  5
1D5
330
1F
100
AcDbEntity
  8
1
100
AcDbLine
 10
15.904996097
 20
45.2435016632
 30
0.0
 11
15.7701256871
 21
45.7283742726
 31
0.0
  0
LINE
  5
1D6
330
1F
100
AcDbEntity
  8
1
100
AcDbLine
 10
15.7701256871
 20
45.7283742726
 30
0.0
 11
15.5492345988
 21
46.1853146553
 31
0.0
  0
LINE
  5
1D7
330
1F
100
AcDbEntity
  8
1
100
AcDbLine
 10
15.5492345988
 20
46.1853146553
 30
0.0
 11
15.2486111223
 21
46.601306647
 31
0.0
  0
LINE
  5
1D8
330
1F
100
AcDbEntity
  8
1
100
AcDbLine
 10
15.2486111223
 20
46.601306647
 30
0.0
 11
14.8768197
 21
46.9644963741
 31
0.0
  0
LINE
  5
1D9
330
1F
100
AcDbEntity
  8
1
100
AcDbLine
 10
14.8768197
 20
46.9644963741
 30
0.0
 11
14.4444476068
 21
47.2645461559
 31
0.0
  0
LINE
  5
1DA
330
1F
100
AcDbEntity
  8
1
100
AcDbLine
 10
14.4444476068
 20
47.2645461559
 30
0.0
 11
13.9638143777
 21
47.4929027259
 31
0.0
  0
LINE
  5
1DB
330
1F
100
AcDbEntity
  8
1
100
AcDbLine
 10
13.9638143777
 20
47.4929027259
 30
0.0
 11
13.4486067295
 21
47.6430691778
 31
0.0
  0
LINE
  5
1DC
330
1F
100
AcDbEntity
  8
1
100
AcDbLine
 10
13.4486067295
 20
47.6430691778
 30
0.0
 11
12.9134985804
 21
47.7107614278
 31
0.0
  0
LINE
  5
1DD
330
1F
100
AcDbEntity
  8
1
100
AcDbLine
 10
12.9134985804
 20
47.7107614278
 30
0.0
 11
12.3737338185
 21
47.6940535009
 31
0.0
  0
LINE
  5
1DE
330
1F
100
AcDbEntity
  8
1
100
AcDbLine
 10
12.3737338185
 20
47.6940535009
 30
0.0
 11
11.8446867167
 21
47.593422234
 31
0.0
  0
LINE
  5
1DF
330
1F
100
AcDbEntity
  8
1
100
AcDbLine
 10
11.8446867167
 20
47.593422234
 30
0.0
 11
11.3414260745
 21
47.4117361009
 31
0.0
  0
LINE
  5
1E0
330
1F
100
AcDbEntity
  8
1
100
AcDbLine
 10
11.3414260745
 20
47.4117361009
 30
0.0
 11
10.8782868087
 21
47.1541658044
 31
0.0
  0
LINE
  5
1E1
330
1F
100
AcDbEntity
  8
1
100
AcDbLine
 10
10.8782868087
 20
47.1541658044
 30
0.0
 11
10.4684601724
 21
46.8280501663
 31
0.0
  0
LINE
  5
1E2
330
1F
100
AcDbEntity
  8
1
100
AcDbLine
 10
10.4684601724
 20
46.8280501663
 30
0.0
 11
10.1236212253
 21
46.4426763355
 31
0.0
  0
LINE
  5
1E3
330
1F
100
AcDbEntity
  8
1
100
AcDbLine
 10
10.1236212253
 20
46.4426763355
 30
0.0
 11
9.8535861074
 21
46.0090227425
 31
0.0
  0
LINE
  5
1E4
330
1F
100
AcDbEntity
  8
1
100
AcDbLine
 10
9.8535861074
 20
46.0090227425
 30
0.0
 11
9.6660549938
 21
45.5394424498
 31
0.0
  0
LINE
  5
1E5
330
1F
100
AcDbEntity
  8
1
100
AcDbLine
 10
9.6660549938
 20
45.5394424498
 30
0.0
 11
9.5663625001
 21
45.0473092496
 31
0.0
  0
LINE
  5
1E6
330
1F
100
AcDbEntity
  8
1
100
AcDbLine
 10
9.5663625001
 20
45.0473092496
 30
0.0
 11
9.5573510229
 21
44.5466376841
 31
0.0
  0
LINE
  5
1E7
330
1F
100
AcDbEntity
  8
1
100
AcDbLine
 10
9.5573510229
 20
44.5466376841
 30
0.0
 11
9.6392813324
 21
44.051695615
 31
0.0
  0
LINE
  5
1E8
330
1F
100
AcDbEntity
  8
1
100
AcDbLine
 10
9.6392813324
 20
44.051695615
 30
0.0
 11
9.8098102211
 21
43.5765720904
 31
0.0
  0
LINE
  5
1E9
330
1F
100
AcDbEntity
  8
1
100
AcDbLine
 10
9.8098102211
 20
43.5765720904
 30
0.0
 11
10.0640873611
 21
43.1348085403
 31
0.0
  0
LINE
  5
1EA
330
1F
100
AcDbEntity
  8
1
100
AcDbLine
 10
10.0640873611
 20
43.1348085403
 30
0.0
 11
10.3948670625
 21
42.7389815449
 31
0.0
  0
LINE
  5
1EB
330
1F
100
AcDbEntity
  8
1
100
AcDbLine
 10
10.3948670625
 20
42.7389815449
 30
0.0
 11
10.7927317917
 21
42.4003712833
 31
0.0
  0
LINE
  5
1EC
330
1F
100
AcDbEntity
  8
1
100
AcDbLine
 10
10.7927317917
 20
42.4003712833
 30
0.0
 11
11.2463454902
 21
42.1286150813
 31
0.0
  0
LINE
  5
1ED
330
1F
100
AcDbEntity
  8
1
100
AcDbLine
 10
11.2463454902
 20
42.1286150813
 30
0.0
 11
11.7427888512
 21
41.9314615428
 31
0.0
  0
LINE
  5
1EE
330
1F
100
AcDbEntity
  8
1
100
AcDbLine
 10
11.7427888512
 20
41.9314615428
 30
0.0
 11
12.2679169476
 21
41.8145209551
 31
0.0
  0
LINE
  5
1EF
330
1F
100
AcDbEntity
  8
1
100
AcDbLine
 10
12.2679169476
 20
41.8145209551
 30
0.0
 11
12.8067801892
 21
41.7811274528
 31
0.0
  0
LINE
  5
1F0
330
1F
100
AcDbEntity
  8
1
100
AcDbLine
 10
12.8067801892
 20
41.7811274528
 30
0.0
 11
13.3440266549
 21
41.8322272598
 31
0.0
  0
LINE
  5
1F1
330
1F
100
AcDbEntity
  8
1
100
AcDbLine
 10
13.3440266549
 20
41.8322272598
 30
0.0
 11
13.8643528521
 21
41.9663712382
 31
0.0
  0
LINE
  5
1F2
330
1F
100
AcDbEntity
  8
1
100
AcDbLine
 10
13.8643528521
 20
41.9663712382
 30
0.0
 11
14.3529358506
 21
42.1797335148
 31
0.0
  0
LINE
  5
1F3
330
1F
100
AcDbEntity
  8
1
100
AcDbLine
 10
14.3529358506
 20
42.1797335148
 30
0.0
 11
14.7958654165
 21
42.466238141
 31
0.0
  0
LINE
  5
1F4
330
1F
100
AcDbEntity
  8
1
100
AcDbLine
 10
14.7958654165
 20
42.466238141
 30
0.0
 11
15.1805202662
 21
42.8177267313
 31
0.0
  0
LINE
  5
1F5
330
1F
100
AcDbEntity
  8
1
100
AcDbLine
 10
15.1805202662
 20
42.8177267313
 30
0.0
 11
15.4959443211
 21
43.2241857052
 31
0.0
  0
LINE
  5
1F6
330
1F
100
AcDbEntity
  8
1
100
AcDbLine
 10
15.4959443211
 20
43.2241857052
 30
0.0
 11
15.5046056211
 21
43.215803802
 31
0.0
  0
LINE
  5
1F7
330
1F
100
AcDbEntity
  8
1
100
AcDbLine
 10
15.5546064675
 20
43.2960987091
 30
0.0
 11
15.5459451675
 21
43.3044806122
 31
0.0
  0
LINE
  5
1F8
330
1F
100
AcDbEntity
  8
1
100
AcDbLine
 10
14.4544574618
 20
43.7817014754
 30
0.0
 11
15.4959443211
 21
43.2241857052
 31
0.0
  0
LINE
  5
1F9
330
1F
100
AcDbEntity
  8
1
100
AcDbLine
 10
15.5459451675
 20
43.3044806122
 30
0.0
 11
14.5044583082
 21
43.8620001077
 31
0.0
  0
LINE
  5
1FA
330
1F
100
AcDbEntity
  8
1
100
AcDbLine
 10
14.4544574618
 20
43.7817014754
 30
0.0
 11
14.1930389404
 21
43.4668660164
 31
0.0
  0
LINE
  5
1FB
330
1F
100
AcDbEntity
  8
1
100
AcDbLine
 10
14.1930389404
 20
43.4668660164
 30
0.0
 11
13.8652133941
 21
43.2109721005
 31
0.0
  0
LINE
  5
1FC
330
1F
100
AcDbEntity
  8
1
100
AcDbLine
 10
13.8652133941
 20
43.2109721005
 30
0.0
 11
13.4860607981
 21
43.025791645
 31
0.0
  0
LINE
  5
1FD
330
1F
100
AcDbEntity
  8
1
100
AcDbLine
 10
13.4860607981
 20
43.025791645
 30
0.0
 11
13.073041588
 21
42.9198518395
 31
0.0
  0
LINE
  5
1FE
330
1F
100
AcDbEntity
  8
1
100
AcDbLine
 10
13.073041588
 20
42.9198518395
 30
0.0
 11
12.645151019
 21
42.8980290889
 31
0.0
  0
LINE
  5
1FF
330
1F
100
AcDbEntity
  8
1
100
AcDbLine
 10
12.645151019
 20
42.8980290889
 30
0.0
 11
12.2220884263
 21
42.9613217711
 31
0.0
  0
LINE
  5
200
330
1F
100
AcDbEntity
  8
1
100
AcDbLine
 10
12.2220884263
 20
42.9613217711
 30
0.0
 11
11.8233184516
 21
43.1068204343
 31
0.0
  0
LINE
  5
201
330
1F
100
AcDbEntity
  8
1
100
AcDbLine
 10
11.8233184516
 20
43.1068204343
 30
0.0
 11
11.4671956002
 21
43.3278307318
 31
0.0
  0
LINE
  5
202
330
1F
100
AcDbEntity
  8
1
100
AcDbLine
 10
11.4671956002
 20
43.3278307318
 30
0.0
 11
11.1701074242
 21
43.6141788959
 31
0.0
  0
LINE
  5
203
330
1F
100
AcDbEntity
  8
1
100
AcDbLine
 10
11.1701074242
 20
43.6141788959
 30
0.0
 11
10.9457220137
 21
43.9526885748
 31
0.0
  0
LINE
  5
204
330
1F
100
AcDbEntity
  8
1
100
AcDbLine
 10
10.9457220137
 20
43.9526885748
 30
0.0
 11
10.8043733239
 21
44.3277843296
 31
0.0
  0
LINE
  5
205
330
1F
100
AcDbEntity
  8
1
100
AcDbLine
 10
10.8043733239
 20
44.3277843296
 30
0.0
 11
10.7525582611
 21
44.72219944
 31
0.0
  0
LINE
  5
206
330
1F
100
AcDbEntity
  8
1
100
AcDbLine
 10
10.7525582611
 20
44.72219944
 30
0.0
 11
10.7926647365
 21
45.1177880168
 31
0.0
  0
LINE
  5
207
330
1F
100
AcDbEntity
  8
1
100
AcDbLine
 10
10.7926647365
 20
45.1177880168
 30
0.0
 11
10.9228487312
 21
45.496340841
 31
0.0
  0
LINE
  5
208
330
1F
100
AcDbEntity
  8
1
100
AcDbLine
 10
10.9228487312
 20
45.496340841
 30
0.0
 11
11.1371162533
 21
45.8404384553
 31
0.0
  0
LINE
  5
209
330
1F
100
AcDbEntity
  8
1
100
AcDbLine
 10
11.1371162533
 20
45.8404384553
 30
0.0
 11
11.4256064593
 21
46.1342483759
 31
0.0
  0
LINE
  5
20A
330
1F
100
AcDbEntity
  8
1
100
AcDbLine
 10
11.4256064593
 20
46.1342483759
 30
0.0
 11
11.7750461399
 21
46.3642477989
 31
0.0
  0
LINE
  5
20B
330
1F
100
AcDbEntity
  8
1
100
AcDbLine
 10
11.7750461399
 20
46.3642477989
 30
0.0
 11
12.1693532168
 21
46.5198494494
 31
0.0
  0
LINE
  5
20C
330
1F
100
AcDbEntity
  8
1
100
AcDbLine
 10
12.1693532168
 20
46.5198494494
 30
0.0
 11
12.5903818011
 21
46.5938970446
 31
0.0
  0
LINE
  5
20D
330
1F
100
AcDbEntity
  8
1
100
AcDbLine
 10
12.5903818011
 20
46.5938970446
 30
0.0
 11
13.0187566578
 21
46.5829819441
 31
0.0
  0
LINE
  5
20E
330
1F
100
AcDbEntity
  8
1
100
AcDbLine
 10
13.0187566578
 20
46.5829819441
 30
0.0
 11
13.4347598254
 21
46.4876033365
 31
0.0
  0
LINE
  5
20F
330
1F
100
AcDbEntity
  8
1
100
AcDbLine
 10
13.4347598254
 20
46.4876033365
 30
0.0
 11
13.8192544877
 21
46.3121533394
 31
0.0
  0
LINE
  5
210
330
1F
100
AcDbEntity
  8
1
100
AcDbLine
 10
13.8192544877
 20
46.3121533394
 30
0.0
 11
14.1545417904
 21
46.0647046566
 31
0.0
  0
LINE
  5
211
330
1F
100
AcDbEntity
  8
1
100
AcDbLine
 10
14.1545417904
 20
46.0647046566
 30
0.0
 11
14.4251915812
 21
45.7566455006
 31
0.0
  0
LINE
  5
212
330
1F
100
AcDbEntity
  8
1
100
AcDbLine
 10
14.4251915812
 20
45.7566455006
 30
0.0
 11
14.6187502145
 21
45.4021543264
 31
0.0
  0
LINE
  5
213
330
1F
100
AcDbEntity
  8
1
100
AcDbLine
 10
14.6187502145
 20
45.4021543264
 30
0.0
 11
14.7263105213
 21
45.0175441801
 31
0.0
  0
LINE
  5
214
330
1F
100
AcDbEntity
  8
1
100
AcDbLine
 10
14.7263105213
 20
45.0175441801
 30
0.0
 11
14.7429215908
 21
44.6205101907
 31
0.0
  0
LINE
  5
215
330
1F
100
AcDbEntity
  8
1
100
AcDbLine
 10
14.7429215908
 20
44.6205101907
 30
0.0
 11
14.6678197383
 21
44.2293286323
 31
0.0
  0
LINE
  5
216
330
1F
100
AcDbEntity
  8
1
100
AcDbLine
 10
14.6678197383
 20
44.2293286323
 30
0.0
 11
14.5044583082
 21
43.8620001077
 31
0.0
  0
LINE
  5
217
330
1F
100
AcDbEntity
  8
1
100
AcDbLine
 10
14.4494581222
 20
43.7806323171
 30
0.0
 11
14.4544574618
 21
43.7817014754
 31
0.0
  0
LINE
  5
218
330
1F
100
AcDbEntity
  8
1
100
AcDbLine
 10
14.5044583082
 20
43.8620001077
 30
0.0
 11
14.4994552433
 21
43.8609309494
 31
0.0
  0
LINE
  5
219
330
1F
100
AcDbEntity
  8
1
100
AcDbLine
 10
15.5546064675
 20
43.2960987091
 30
0.0
 11
14.4994552433
 21
43.8609309494
 31
0.0
  0
LINE
  5
21A
330
1F
100
AcDbEntity
  8
1
100
AcDbLine
 10
13.6160250007
 20
44.4526933133
 30
0.0
 11
13.6160250007
 21
45.966103673
 31
0.0
  0
LINE
  5
21B
330
1F
100
AcDbEntity
  8
1
100
AcDbLine
 10
13.6160250007
 20
44.4526933133
 30
0.0
 11
14.0490378438
 21
43.7573045492
 31
0.0
  0
LINE
  5
21C
330
1F
100
AcDbEntity
  8
1
100
AcDbLine
 10
11.8839736282
 20
44.4526933133
 30
0.0
 11
11.8839736282
 21
45.966103673
 31
0.0
  0
LINE
  5
21D
330
1F
100
AcDbEntity
  8
1
100
AcDbLine
 10
11.4509607851
 20
43.7573045492
 30
0.0
 11
11.8839736282
 21
44.4526933133
 31
0.0
  0
LINE
  5
21F
330
1F
100
AcDbEntity
  8
1
100
AcDbLine
 10
13.6160250007
 20
44.4526933133
 30
0.0
 11
11.8839736282
 21
44.4526933133
 31
0.0
  0
LINE
  5
220
330
1F
100
AcDbEntity
  8
1
100
AcDbLine
 10
9.9787186086
 20
-35.3675484658
 30
0.0
 11
10.2889831364
 21
-35.7804559172
 31
0.0
  0
LINE
  5
221
330
1F
100
AcDbEntity
  8
1
100
AcDbLine
 10
10.2889831364
 20
-35.7804559172
 30
0.0
 11
10.3070954978
 21
-35.8004830778
 31
0.0
  0
LINE
  5
222
330
1F
100
AcDbEntity
  8
1
100
AcDbLine
 10
15.3828631341
 20
-35.5704203248
 30
0.0
 11
15.4263223707
 21
-35.5105437339
 31
0.0
  0
LINE
  5
223
330
1F
100
AcDbEntity
  8
1
100
AcDbLine
 10
15.4263223707
 20
-35.5105437339
 30
0.0
 11
15.6842912733
 21
-35.067781806
 31
0.0
  0
LINE
  5
224
330
1F
100
AcDbEntity
  8
1
100
AcDbLine
 10
15.6842912733
 20
-35.067781806
 30
0.0
 11
15.8578450977
 21
-34.5909669996
 31
0.0
  0
LINE
  5
225
330
1F
100
AcDbEntity
  8
1
100
AcDbLine
 10
15.8578450977
 20
-34.5909669996
 30
0.0
 11
15.941991955
 21
-34.0938158334
 31
0.0
  0
LINE
  5
226
330
1F
100
AcDbEntity
  8
1
100
AcDbLine
 10
15.941991955
 20
-34.0938158334
 30
0.0
 11
15.9343141317
 21
-33.5906296969
 31
0.0
  0
LINE
  5
227
330
1F
100
AcDbEntity
  8
1
100
AcDbLine
 10
15.9343141317
 20
-33.5906296969
 30
0.0
 11
15.8350239694
 21
-33.0958850682
 31
0.0
  0
LINE
  5
228
330
1F
100
AcDbEntity
  8
1
100
AcDbLine
 10
15.8350239694
 20
-33.0958850682
 30
0.0
 11
15.6469862163
 21
-32.6238125563
 31
0.0
  0
LINE
  5
229
330
1F
100
AcDbEntity
  8
1
100
AcDbLine
 10
15.6469862163
 20
-32.6238125563
 30
0.0
 11
15.3756099939
 21
-32.1879982949
 31
0.0
  0
LINE
  5
22A
330
1F
100
AcDbEntity
  8
1
100
AcDbLine
 10
15.3756099939
 20
-32.1879982949
 30
0.0
 11
15.0286960601
 21
-31.8009741605
 31
0.0
  0
LINE
  5
22B
330
1F
100
AcDbEntity
  8
1
100
AcDbLine
 10
15.0286960601
 20
-31.8009741605
 30
0.0
 11
14.616228193
 21
-31.4738787711
 31
0.0
  0
LINE
  5
22C
330
1F
100
AcDbEntity
  8
1
100
AcDbLine
 10
14.616228193
 20
-31.4738787711
 30
0.0
 11
14.1500751674
 21
-31.2161184848
 31
0.0
  0
LINE
  5
22D
330
1F
100
AcDbEntity
  8
1
100
AcDbLine
 10
14.1500751674
 20
-31.2161184848
 30
0.0
 11
13.6436405777
 21
-31.0351103545
 31
0.0
  0
LINE
  5
22E
330
1F
100
AcDbEntity
  8
1
100
AcDbLine
 10
13.6436405777
 20
-31.0351103545
 30
0.0
 11
13.1115014851
 21
-30.9360604734
 31
0.0
  0
LINE
  5
22F
330
1F
100
AcDbEntity
  8
1
100
AcDbLine
 10
13.1115014851
 20
-30.9360604734
 30
0.0
 11
12.5689613819
 21
-30.9218186885
 31
0.0
  0
LINE
  5
230
330
1F
100
AcDbEntity
  8
1
100
AcDbLine
 10
12.5689613819
 20
-30.9218186885
 30
0.0
 11
12.0316292345
 21
-30.9927966446
 31
0.0
  0
LINE
  5
231
330
1F
100
AcDbEntity
  8
1
100
AcDbLine
 10
12.0316292345
 20
-30.9927966446
 30
0.0
 11
11.5149612724
 21
-31.1469491572
 31
0.0
  0
LINE
  5
232
330
1F
100
AcDbEntity
  8
1
100
AcDbLine
 10
11.5149612724
 20
-31.1469491572
 30
0.0
 11
11.0338251292
 21
-31.3798449934
 31
0.0
  0
LINE
  5
233
330
1F
100
AcDbEntity
  8
1
100
AcDbLine
 10
11.0338251292
 20
-31.3798449934
 30
0.0
 11
10.6020602583
 21
-31.6847823561
 31
0.0
  0
LINE
  5
234
330
1F
100
AcDbEntity
  8
1
100
AcDbLine
 10
10.6020602583
 20
-31.6847823561
 30
0.0
 11
10.2320867776
 21
-32.0529863239
 31
0.0
  0
LINE
  5
235
330
1F
100
AcDbEntity
  8
1
100
AcDbLine
 10
10.2320867776
 20
-32.0529863239
 30
0.0
 11
9.9345515668
 21
-32.4738696218
 31
0.0
  0
LINE
  5
236
330
1F
100
AcDbEntity
  8
1
100
AcDbLine
 10
9.9345515668
 20
-32.4738696218
 30
0.0
 11
9.7180078923
 21
-32.9353213311
 31
0.0
  0
LINE
  5
237
330
1F
100
AcDbEntity
  8
1
100
AcDbLine
 10
9.7180078923
 20
-32.9353213311
 30
0.0
 11
9.5886918902
 21
-33.4240645171
 31
0.0
  0
LINE
  5
238
330
1F
100
AcDbEntity
  8
1
100
AcDbLine
 10
9.5886918902
 20
-33.4240645171
 30
0.0
 11
9.5503214001
 21
-33.9260399342
 31
0.0
  0
LINE
  5
239
330
1F
100
AcDbEntity
  8
1
100
AcDbLine
 10
9.5503214001
 20
-33.9260399342
 30
0.0
 11
9.603999108
 21
-34.4268120826
 31
0.0
  0
LINE
  5
23A
330
1F
100
AcDbEntity
  8
1
100
AcDbLine
 10
9.603999108
 20
-34.4268120826
 30
0.0
 11
9.7481790185
 21
-34.9119640887
 31
0.0
  0
LINE
  5
23B
330
1F
100
AcDbEntity
  8
1
100
AcDbLine
 10
9.7481790185
 20
-34.9119640887
 30
0.0
 11
9.9787186086
 21
-35.3675484658
 31
0.0
  0
LINE
  5
23C
330
1F
100
AcDbEntity
  8
1
100
AcDbLine
 10
11.0200005769
 20
-34.810140729
 30
0.0
 11
11.2751643359
 21
-35.1333096624
 31
0.0
  0
LINE
  5
23D
330
1F
100
AcDbEntity
  8
1
100
AcDbLine
 10
11.2751643359
 20
-35.1333096624
 30
0.0
 11
11.5992869436
 21
-35.3980623186
 31
0.0
  0
LINE
  5
23E
330
1F
100
AcDbEntity
  8
1
100
AcDbLine
 10
11.5992869436
 20
-35.3980623186
 30
0.0
 11
11.9772176444
 21
-35.5920232833
 31
0.0
  0
LINE
  5
23F
330
1F
100
AcDbEntity
  8
1
100
AcDbLine
 10
11.9772176444
 20
-35.5920232833
 30
0.0
 11
12.3912836611
 21
-35.7061214745
 31
0.0
  0
LINE
  5
240
330
1F
100
AcDbEntity
  8
1
100
AcDbLine
 10
12.3912836611
 20
-35.7061214745
 30
0.0
 11
12.8221209347
 21
-35.7350222767
 31
0.0
  0
LINE
  5
241
330
1F
100
AcDbEntity
  8
1
100
AcDbLine
 10
12.8221209347
 20
-35.7350222767
 30
0.0
 11
13.2495868206
 21
-35.677369684
 31
0.0
  0
LINE
  5
242
330
1F
100
AcDbEntity
  8
1
100
AcDbLine
 10
13.2495868206
 20
-35.677369684
 30
0.0
 11
13.653691411
 21
-35.5358682573
 31
0.0
  0
LINE
  5
243
330
1F
100
AcDbEntity
  8
1
100
AcDbLine
 10
13.653691411
 20
-35.5358682573
 30
0.0
 11
14.0155400335
 21
-35.3171303869
 31
0.0
  0
LINE
  5
244
330
1F
100
AcDbEntity
  8
1
100
AcDbLine
 10
14.0155400335
 20
-35.3171303869
 30
0.0
 11
14.318216145
 21
-35.0313819945
 31
0.0
  0
LINE
  5
245
330
1F
100
AcDbEntity
  8
1
100
AcDbLine
 10
14.318216145
 20
-35.0313819945
 30
0.0
 11
14.5475636422
 21
-34.6919856966
 31
0.0
  0
LINE
  5
246
330
1F
100
AcDbEntity
  8
1
100
AcDbLine
 10
14.5475636422
 20
-34.6919856966
 30
0.0
 11
14.6928574144
 21
-34.3148112297
 31
0.0
  0
LINE
  5
247
330
1F
100
AcDbEntity
  8
1
100
AcDbLine
 10
14.6928574144
 20
-34.3148112297
 30
0.0
 11
14.7473062574
 21
-33.9174941182
 31
0.0
  0
LINE
  5
248
330
1F
100
AcDbEntity
  8
1
100
AcDbLine
 10
14.7473062574
 20
-33.9174941182
 30
0.0
 11
14.708365798
 21
-33.5186161101
 31
0.0
  0
LINE
  5
249
330
1F
100
AcDbEntity
  8
1
100
AcDbLine
 10
14.708365798
 20
-33.5186161101
 30
0.0
 11
14.5778502523
 21
-33.1368260086
 31
0.0
  0
LINE
  5
24A
330
1F
100
AcDbEntity
  8
1
100
AcDbLine
 10
14.5778502523
 20
-33.1368260086
 30
0.0
 11
14.3618690967
 21
-32.7899716795
 31
0.0
  0
LINE
  5
24B
330
1F
100
AcDbEntity
  8
1
100
AcDbLine
 10
14.3618690967
 20
-32.7899716795
 30
0.0
 11
14.0705178678
 21
-32.4942804873
 31
0.0
  0
LINE
  5
24C
330
1F
100
AcDbEntity
  8
1
100
AcDbLine
 10
14.0705178678
 20
-32.4942804873
 30
0.0
 11
13.7174199521
 21
-32.2635695339
 31
0.0
  0
LINE
  5
24D
330
1F
100
AcDbEntity
  8
1
100
AcDbLine
 10
13.7174199521
 20
-32.2635695339
 30
0.0
 11
13.3190858364
 21
-32.1086309851
 31
0.0
  0
LINE
  5
24E
330
1F
100
AcDbEntity
  8
1
100
AcDbLine
 10
13.3190858364
 20
-32.1086309851
 30
0.0
 11
12.8941456973
 21
-32.0367105306
 31
0.0
  0
LINE
  5
24F
330
1F
100
AcDbEntity
  8
1
100
AcDbLine
 10
12.8941456973
 20
-32.0367105306
 30
0.0
 11
12.4624627828
 21
-32.0511721075
 31
0.0
  0
LINE
  5
250
330
1F
100
AcDbEntity
  8
1
100
AcDbLine
 10
12.4624627828
 20
-32.0511721075
 30
0.0
 11
12.044224441
 21
-32.1513339877
 31
0.0
  0
LINE
  5
251
330
1F
100
AcDbEntity
  8
1
100
AcDbLine
 10
12.044224441
 20
-32.1513339877
 30
0.0
 11
11.658988446
 21
-32.3325172067
 31
0.0
  0
LINE
  5
252
330
1F
100
AcDbEntity
  8
1
100
AcDbLine
 10
11.658988446
 20
-32.3325172067
 30
0.0
 11
11.3247665762
 21
-32.5862504542
 31
0.0
  0
LINE
  5
253
330
1F
100
AcDbEntity
  8
1
100
AcDbLine
 10
11.3247665762
 20
-32.5862504542
 30
0.0
 11
11.0571864247
 21
-32.9006649554
 31
0.0
  0
LINE
  5
254
330
1F
100
AcDbEntity
  8
1
100
AcDbLine
 10
11.0571864247
 20
-32.9006649554
 30
0.0
 11
10.8687612414
 21
-33.2610607148
 31
0.0
  0
LINE
  5
255
330
1F
100
AcDbEntity
  8
1
100
AcDbLine
 10
10.8687612414
 20
-33.2610607148
 30
0.0
 11
10.7683013379
 21
-33.6505882442
 31
0.0
  0
LINE
  5
256
330
1F
100
AcDbEntity
  8
1
100
AcDbLine
 10
10.7683013379
 20
-33.6505882442
 30
0.0
 11
10.7605043053
 21
-34.0510345996
 31
0.0
  0
LINE
  5
257
330
1F
100
AcDbEntity
  8
1
100
AcDbLine
 10
10.7605043053
 20
-34.0510345996
 30
0.0
 11
10.8457314968
 21
-34.4436727465
 31
0.0
  0
LINE
  5
258
330
1F
100
AcDbEntity
  8
1
100
AcDbLine
 10
10.8457314968
 20
-34.4436727465
 30
0.0
 11
11.0200005769
 21
-34.810140729
 31
0.0
  0
LINE
  5
259
330
1F
100
AcDbEntity
  8
1
100
AcDbLine
 10
11.8839736282
 20
-34.1790094972
 30
0.0
 11
11.8839736282
 21
-32.6655991376
 31
0.0
  0
LINE
  5
25A
330
1F
100
AcDbEntity
  8
1
100
AcDbLine
 10
11.8839736282
 20
-34.1790094972
 30
0.0
 11
11.4509607851
 21
-34.8743982613
 31
0.0
  0
LINE
  5
25B
330
1F
100
AcDbEntity
  8
1
100
AcDbLine
 10
13.6160250007
 20
-34.1790094972
 30
0.0
 11
13.6160250007
 21
-32.6655991376
 31
0.0
  0
LINE
  5
25C
330
1F
100
AcDbEntity
  8
1
100
AcDbLine
 10
13.6160250007
 20
-34.1790094972
 30
0.0
 11
14.0490378438
 21
-34.8743982613
 31
0.0
  0
LINE
  5
25E
330
1F
100
AcDbEntity
  8
1
100
AcDbLine
 10
11.8839736282
 20
-34.1790094972
 30
0.0
 11
13.6160250007
 21
-34.1790094972
 31
0.0
  0
LINE
  5
25F
330
1F
100
AcDbEntity
  8
1
100
AcDbLine
 10
19.1331091523
 20
42.3616357147
 30
0.0
 11
19.1042232513
 21
42.2229804098
 31
0.0
  0
LINE
  5
260
330
1F
100
AcDbEntity
  8
1
100
AcDbLine
 10
19.1042232513
 20
42.2229804098
 30
0.0
 11
19.0172377228
 21
42.1070680022
 31
0.0
  0
LINE
  5
261
330
1F
100
AcDbEntity
  8
1
100
AcDbLine
 10
19.0172377228
 20
42.1070680022
 30
0.0
 11
18.7519262731
 21
41.9695042073
 31
0.0
  0
LINE
  5
262
330
1F
100
AcDbEntity
  8
1
100
AcDbLine
 10
18.7519262731
 20
41.9695042073
 30
0.0
 11
18.1467305123
 21
41.8965555727
 31
0.0
  0
LINE
  5
263
330
1F
100
AcDbEntity
  8
1
100
AcDbLine
 10
18.1467305123
 20
42.8237393498
 30
0.0
 11
18.7510210275
 21
42.7517145872
 31
0.0
  0
LINE
  5
264
330
1F
100
AcDbEntity
  8
1
100
AcDbLine
 10
18.7510210275
 20
42.7517145872
 30
0.0
 11
19.016354829
 21
42.6151566207
 31
0.0
  0
LINE
  5
265
330
1F
100
AcDbEntity
  8
1
100
AcDbLine
 10
19.016354829
 20
42.6151566207
 30
0.0
 11
19.1037128865
 21
42.4998961389
 31
0.0
  0
LINE
  5
266
330
1F
100
AcDbEntity
  8
1
100
AcDbLine
 10
19.1037128865
 20
42.4998961389
 30
0.0
 11
19.1331091523
 21
42.3616357147
 31
0.0
  0
LINE
  5
267
330
1F
100
AcDbEntity
  8
1
100
AcDbLine
 10
17.1587499976
 20
42.3616357147
 30
0.0
 11
17.1881835162
 21
42.5000600516
 31
0.0
  0
LINE
  5
268
330
1F
100
AcDbEntity
  8
1
100
AcDbLine
 10
17.1881835162
 20
42.5000600516
 30
0.0
 11
17.2759252786
 21
42.6153391599
 31
0.0
  0
LINE
  5
269
330
1F
100
AcDbEntity
  8
1
100
AcDbLine
 10
17.2759252786
 20
42.6153391599
 30
0.0
 11
17.5417210161
 21
42.7517592907
 31
0.0
  0
LINE
  5
26A
330
1F
100
AcDbEntity
  8
1
100
AcDbLine
 10
17.5417210161
 20
42.7517592907
 30
0.0
 11
18.1467305123
 21
42.8237393498
 31
0.0
  0
LINE
  5
26B
330
1F
100
AcDbEntity
  8
1
100
AcDbLine
 10
18.1467305123
 20
41.8965555727
 30
0.0
 11
17.8406755626
 21
41.9115014374
 31
0.0
  0
LINE
  5
26C
330
1F
100
AcDbEntity
  8
1
100
AcDbLine
 10
17.8406755626
 20
41.9115014374
 30
0.0
 11
17.541013211
 21
41.9695042073
 31
0.0
  0
LINE
  5
26D
330
1F
100
AcDbEntity
  8
1
100
AcDbLine
 10
17.541013211
 20
41.9695042073
 30
0.0
 11
17.2754186391
 21
42.1072430908
 31
0.0
  0
LINE
  5
26E
330
1F
100
AcDbEntity
  8
1
100
AcDbLine
 10
17.2754186391
 20
42.1072430908
 30
0.0
 11
17.1879786253
 21
42.2229580581
 31
0.0
  0
LINE
  5
26F
330
1F
100
AcDbEntity
  8
1
100
AcDbLine
 10
17.1879786253
 20
42.2229580581
 30
0.0
 11
17.1587499976
 21
42.3616357147
 31
0.0
  0
LINE
  5
270
330
1F
100
AcDbEntity
  8
1
100
AcDbLine
 10
16.2496450543
 20
44.7940044105
 30
0.0
 11
16.1960567534
 21
45.3151986003
 31
0.0
  0
LINE
  5
271
330
1F
100
AcDbEntity
  8
1
100
AcDbLine
 10
16.1960567534
 20
45.3151986003
 30
0.0
 11
16.0527709126
 21
45.821622014
 31
0.0
  0
LINE
  5
272
330
1F
100
AcDbEntity
  8
1
100
AcDbLine
 10
16.0527709126
 20
45.821622014
 30
0.0
 11
15.8235202729
 21
46.3000871241
 31
0.0
  0
LINE
  5
273
330
1F
100
AcDbEntity
  8
1
100
AcDbLine
 10
15.8235202729
 20
46.3000871241
 30
0.0
 11
15.5142652988
 21
46.7381440103
 31
0.0
  0
LINE
  5
274
330
1F
100
AcDbEntity
  8
1
100
AcDbLine
 10
15.5142652988
 20
46.7381440103
 30
0.0
 11
15.1330600678
 21
47.124389559
 31
0.0
  0
LINE
  5
275
330
1F
100
AcDbEntity
  8
1
100
AcDbLine
 10
15.1330600678
 20
47.124389559
 30
0.0
 11
14.6898250281
 21
47.448772937
 31
0.0
  0
LINE
  5
276
330
1F
100
AcDbEntity
  8
1
100
AcDbLine
 10
14.6898250281
 20
47.448772937
 30
0.0
 11
14.196101129
 21
47.7028489113
 31
0.0
  0
LINE
  5
277
330
1F
100
AcDbEntity
  8
1
100
AcDbLine
 10
14.196101129
 20
47.7028489113
 30
0.0
 11
13.6647331714
 21
47.8800013661
 31
0.0
  0
LINE
  5
278
330
1F
100
AcDbEntity
  8
1
100
AcDbLine
 10
13.6647331714
 20
47.8800013661
 30
0.0
 11
13.1095568835
 21
47.9756221175
 31
0.0
  0
LINE
  5
279
330
1F
100
AcDbEntity
  8
1
100
AcDbLine
 10
13.1095568835
 20
47.9756221175
 30
0.0
 11
12.5450226664
 21
47.9872189462
 31
0.0
  0
LINE
  5
27A
330
1F
100
AcDbEntity
  8
1
100
AcDbLine
 10
12.5450226664
 20
47.9872189462
 30
0.0
 11
11.985823065
 21
47.9144975543
 31
0.0
  0
LINE
  5
27B
330
1F
100
AcDbEntity
  8
1
100
AcDbLine
 10
11.985823065
 20
47.9144975543
 30
0.0
 11
11.4465127885
 21
47.7593429386
 31
0.0
  0
LINE
  5
27C
330
1F
100
AcDbEntity
  8
1
100
AcDbLine
 10
11.4465127885
 20
47.7593429386
 30
0.0
 11
10.941132456
 21
47.5257970392
 31
0.0
  0
LINE
  5
27D
330
1F
100
AcDbEntity
  8
1
100
AcDbLine
 10
10.941132456
 20
47.5257970392
 30
0.0
 11
10.4828360676
 21
47.2199358046
 31
0.0
  0
LINE
  5
27E
330
1F
100
AcDbEntity
  8
1
100
AcDbLine
 10
10.4828360676
 20
47.2199358046
 30
0.0
 11
10.0835482776
 21
46.8497276306
 31
0.0
  0
LINE
  5
27F
330
1F
100
AcDbEntity
  8
1
100
AcDbLine
 10
10.0835482776
 20
46.8497276306
 30
0.0
 11
9.7536700964
 21
46.4248023927
 31
0.0
  0
LINE
  5
280
330
1F
100
AcDbEntity
  8
1
100
AcDbLine
 10
9.7536700964
 20
46.4248023927
 30
0.0
 11
9.5017845928
 21
45.9562204778
 31
0.0
  0
LINE
  5
281
330
1F
100
AcDbEntity
  8
1
100
AcDbLine
 10
9.5017845928
 20
45.9562204778
 30
0.0
 11
9.3344445526
 21
45.4561822116
 31
0.0
  0
LINE
  5
282
330
1F
100
AcDbEntity
  8
1
100
AcDbLine
 10
9.3344445526
 20
45.4561822116
 30
0.0
 11
9.2560085654
 21
44.9377000332
 31
0.0
  0
LINE
  5
283
330
1F
100
AcDbEntity
  8
1
100
AcDbLine
 10
9.2560085654
 20
44.9377000332
 30
0.0
 11
9.2685180902
 21
44.4142706692
 31
0.0
  0
LINE
  5
284
330
1F
100
AcDbEntity
  8
1
100
AcDbLine
 10
9.2685180902
 20
44.4142706692
 30
0.0
 11
9.3716490268
 21
43.8995212316
 31
0.0
  0
LINE
  5
285
330
1F
100
AcDbEntity
  8
1
100
AcDbLine
 10
9.3716490268
 20
43.8995212316
 30
0.0
 11
9.5627154409
 21
43.4068478644
 31
0.0
  0
LINE
  5
286
330
1F
100
AcDbEntity
  8
1
100
AcDbLine
 10
9.5627154409
 20
43.4068478644
 30
0.0
 11
9.8367403447
 21
42.9490730166
 31
0.0
  0
LINE
  5
287
330
1F
100
AcDbEntity
  8
1
100
AcDbLine
 10
9.8367403447
 20
42.9490730166
 30
0.0
 11
10.1866009831
 21
42.538113892
 31
0.0
  0
LINE
  5
288
330
1F
100
AcDbEntity
  8
1
100
AcDbLine
 10
10.1866009831
 20
42.538113892
 30
0.0
 11
10.6031778454
 21
42.1846657991
 31
0.0
  0
LINE
  5
289
330
1F
100
AcDbEntity
  8
1
100
AcDbLine
 10
10.6031778454
 20
42.1846657991
 30
0.0
 11
11.0756415128
 21
41.8979302048
 31
0.0
  0
LINE
  5
28A
330
1F
100
AcDbEntity
  8
1
100
AcDbLine
 10
11.0756415128
 20
41.8979302048
 30
0.0
 11
11.5916836261
 21
41.6853688657
 31
0.0
  0
LINE
  5
28B
330
1F
100
AcDbEntity
  8
1
100
AcDbLine
 10
11.5916836261
 20
41.6853688657
 30
0.0
 11
12.1378745138
 21
41.5525212884
 31
0.0
  0
LINE
  5
28C
330
1F
100
AcDbEntity
  8
1
100
AcDbLine
 10
12.1378745138
 20
41.5525212884
 30
0.0
 11
12.7000021934
 21
41.5028333664
 31
0.0
  0
LINE
  5
28F
330
1F
100
AcDbEntity
  8
1
100
AcDbLine
 10
5.4999995231
 20
48.5000088811
 30
0.0
 11
42.5
 21
48.5000088811
 31
0.0
  0
LINE
  5
292
330
1F
100
AcDbEntity
  8
1
100
AcDbLine
 10
15.7557795941
 20
43.085090816
 30
0.0
 11
16.6221144795
 21
42.6213368774
 31
0.0
  0
LINE
  5
293
330
1F
100
AcDbEntity
  8
1
100
AcDbLine
 10
16.6221144795
 20
42.6213368774
 30
0.0
 11
16.6721153259
 21
42.7016317845
 31
0.0
  0
LINE
  5
294
330
1F
100
AcDbEntity
  8
1
100
AcDbLine
 10
16.6721153259
 20
42.7016317845
 30
0.0
 11
15.8057804405
 21
43.1653894485
 31
0.0
  0
LINE
  5
295
330
1F
100
AcDbEntity
  8
1
100
AcDbLine
 10
16.2496450542
 20
44.7012893856
 30
0.0
 11
17.2500009834
 21
44.7012893856
 31
0.0
  0
LINE
  5
296
330
1F
100
AcDbEntity
  8
1
100
AcDbLine
 10
17.2500009834
 20
44.7012893856
 30
0.0
 11
17.2500009834
 21
44.7940044105
 31
0.0
  0
LINE
  5
297
330
1F
100
AcDbEntity
  8
1
100
AcDbLine
 10
17.2500009834
 20
44.7940044105
 30
0.0
 11
16.2496450543
 21
44.7940044105
 31
0.0
  0
LINE
  5
298
330
1F
100
AcDbEntity
  8
1
100
AcDbLine
 10
19.3499992787
 20
44.817186892
 30
0.0
 11
18.8250015676
 21
44.817186892
 31
0.0
  0
LINE
  5
29A
330
1F
100
AcDbEntity
  8
1
100
AcDbLine
 10
18.8250015676
 20
45.3039556741
 30
0.0
 11
18.6749990284
 21
45.3039556741
 31
0.0
  0
LINE
  5
29C
330
1F
100
AcDbEntity
  8
1
100
AcDbLine
 10
18.6749990284
 20
44.817186892
 30
0.0
 11
18.1500013172
 21
44.817186892
 31
0.0
  0
LINE
  5
29D
330
1F
100
AcDbEntity
  8
1
100
AcDbLine
 10
18.1500013172
 20
44.817186892
 30
0.0
 11
18.1500013172
 21
44.678106904
 31
0.0
  0
LINE
  5
29E
330
1F
100
AcDbEntity
  8
1
100
AcDbLine
 10
18.1500013172
 20
44.678106904
 30
0.0
 11
18.6749990284
 21
44.678106904
 31
0.0
  0
LINE
  5
29F
330
1F
100
AcDbEntity
  8
1
100
AcDbLine
 10
18.6749990284
 20
44.678106904
 30
0.0
 11
18.6749990284
 21
44.1913381219
 31
0.0
  0
LINE
  5
2A0
330
1F
100
AcDbEntity
  8
1
100
AcDbLine
 10
18.6749990284
 20
44.1913381219
 30
0.0
 11
18.8250015676
 21
44.1913381219
 31
0.0
  0
LINE
  5
2A1
330
1F
100
AcDbEntity
  8
1
100
AcDbLine
 10
18.8250015676
 20
44.1913381219
 30
0.0
 11
18.8250015676
 21
44.678106904
 31
0.0
  0
LINE
  5
2A2
330
1F
100
AcDbEntity
  8
1
100
AcDbLine
 10
18.8250015676
 20
44.678106904
 30
0.0
 11
19.3499992787
 21
44.678106904
 31
0.0
  0
LINE
  5
2A3
330
1F
100
AcDbEntity
  8
1
100
AcDbLine
 10
19.3499992787
 20
44.678106904
 30
0.0
 11
19.3499992787
 21
44.817186892
 31
0.0
  0
LINE
  5
2A4
330
1F
100
AcDbEntity
  8
1
100
AcDbLine
 10
5.4999995231
 20
37.5000089407
 30
0.0
 11
42.5
 21
37.5000089407
 31
0.0
  0
LINE
  5
2A6
330
1F
100
AcDbEntity
  8
1
100
AcDbLine
 10
12.8000001609
 20
40.4912009835
 30
0.0
 11
12.8000001609
 21
41.5028333664
 31
0.0
  0
LINE
  5
2A8
330
1F
100
AcDbEntity
  8
1
100
AcDbLine
 10
12.8250005841
 20
39.7912040353
 30
0.0
 11
12.6750017702
 21
39.7912040353
 31
0.0
  0
LINE
  5
2A9
330
1F
100
AcDbEntity
  8
1
100
AcDbLine
 10
12.7000021934
 20
41.5028333664
 30
0.0
 11
12.7000021934
 21
40.4912009835
 31
0.0
  0
LINE
  5
2AA
330
1F
100
AcDbEntity
  8
1
100
AcDbLine
 10
12.6750017702
 20
38.5912023484
 30
0.0
 11
12.8250005841
 21
38.5912023484
 31
0.0
  0
LINE
  5
2AB
330
1F
100
AcDbEntity
  8
1
100
AcDbLine
 10
12.7000021934
 20
40.4912009835
 30
0.0
 11
12.8000001609
 21
40.4912009835
 31
0.0
  0
LINE
  5
2AC
330
1F
100
AcDbEntity
  8
1
100
AcDbLine
 10
12.8250005841
 20
38.5912023484
 30
0.0
 11
12.8250005841
 21
39.7912040353
 31
0.0
  0
LINE
  5
2AD
330
1F
100
AcDbEntity
  8
1
100
AcDbLine
 10
12.6750017702
 20
39.7912040353
 30
0.0
 11
12.6750017702
 21
38.5912023484
 31
0.0
  0
LINE
  5
2B0
330
1F
100
AcDbEntity
  8
1
100
AcDbLine
 10
12.7000021934
 20
41.1892570555
 30
0.0
 11
12.8000001609
 21
41.1892570555
 31
0.0
  0
LINE
  5
2B1
330
1F
100
AcDbEntity
  8
1
100
AcDbLine
 10
15.8057804405
 20
43.1653894485
 30
0.0
 11
15.8057804405
 21
43.1616418064
 31
0.0
  0
LINE
  5
2B2
330
1F
100
AcDbEntity
  8
1
100
AcDbLine
 10
16.2496450543
 20
44.7940044105
 30
0.0
 11
16.2496450543
 21
44.7902604937
 31
0.0
  0
LINE
  5
2B3
330
1F
100
AcDbEntity
  8
1
100
AcDbLine
 10
18.1467305123
 20
42.8199954331
 30
0.0
 11
18.7510210275
 21
42.7479706704
 31
0.0
  0
LINE
  5
2B4
330
1F
100
AcDbEntity
  8
1
100
AcDbLine
 10
18.7510210275
 20
42.7479706704
 30
0.0
 11
19.016354829
 21
42.6114089787
 31
0.0
  0
LINE
  5
2B5
330
1F
100
AcDbEntity
  8
1
100
AcDbLine
 10
19.016354829
 20
42.6114089787
 30
0.0
 11
19.1037128865
 21
42.4961484968
 31
0.0
  0
LINE
  5
2B6
330
1F
100
AcDbEntity
  8
1
100
AcDbLine
 10
19.1037128865
 20
42.4961484968
 30
0.0
 11
19.1331091523
 21
42.3578880727
 31
0.0
  0
LINE
  5
2B7
330
1F
100
AcDbEntity
  8
1
100
AcDbLine
 10
17.1587499976
 20
42.3578880727
 30
0.0
 11
17.1881835162
 21
42.4963124096
 31
0.0
  0
LINE
  5
2B8
330
1F
100
AcDbEntity
  8
1
100
AcDbLine
 10
17.1881835162
 20
42.4963124096
 30
0.0
 11
17.2759252786
 21
42.6115915179
 31
0.0
  0
LINE
  5
2B9
330
1F
100
AcDbEntity
  8
1
100
AcDbLine
 10
17.2759252786
 20
42.6115915179
 30
0.0
 11
17.5417210161
 21
42.7480116486
 31
0.0
  0
LINE
  5
2BA
330
1F
100
AcDbEntity
  8
1
100
AcDbLine
 10
17.5417210161
 20
42.7480116486
 30
0.0
 11
18.1467305123
 21
42.8199954331
 31
0.0
  0
LINE
  5
2BB
330
1F
100
AcDbEntity
  8
1
100
AcDbLine
 10
17.2356735169
 20
42.3552878201
 30
0.0
 11
17.2654087841
 21
42.2310531139
 31
0.0
  0
LINE
  5
2BC
330
1F
100
AcDbEntity
  8
1
100
AcDbLine
 10
17.2654087841
 20
42.2310531139
 30
0.0
 11
17.3518206179
 21
42.1320311725
 31
0.0
  0
LINE
  5
2BD
330
1F
100
AcDbEntity
  8
1
100
AcDbLine
 10
17.3518206179
 20
42.1320311725
 30
0.0
 11
17.5990010798
 21
42.0208200812
 31
0.0
  0
LINE
  5
2BE
330
1F
100
AcDbEntity
  8
1
100
AcDbLine
 10
17.5990010798
 20
42.0208200812
 30
0.0
 11
18.1471291184
 21
41.9641323387
 31
0.0
  0
LINE
  5
2BF
330
1F
100
AcDbEntity
  8
1
100
AcDbLine
 10
18.1471291184
 20
41.9641323387
 30
0.0
 11
18.6942960321
 21
42.0206710696
 31
0.0
  0
LINE
  5
2C0
330
1F
100
AcDbEntity
  8
1
100
AcDbLine
 10
18.6942960321
 20
42.0206710696
 30
0.0
 11
18.9407910406
 21
42.1321243047
 31
0.0
  0
LINE
  5
2C1
330
1F
100
AcDbEntity
  8
1
100
AcDbLine
 10
18.9407910406
 20
42.1321243047
 30
0.0
 11
19.0266142785
 21
42.2313027084
 31
0.0
  0
LINE
  5
2C2
330
1F
100
AcDbEntity
  8
1
100
AcDbLine
 10
19.0266142785
 20
42.2313027084
 30
0.0
 11
19.0561856329
 21
42.3552878201
 31
0.0
  0
LINE
  5
2C3
330
1F
100
AcDbEntity
  8
1
100
AcDbLine
 10
17.2356735169
 20
42.3590354621
 30
0.0
 11
17.2654087841
 21
42.2347970307
 31
0.0
  0
LINE
  5
2C4
330
1F
100
AcDbEntity
  8
1
100
AcDbLine
 10
17.2654087841
 20
42.2347970307
 30
0.0
 11
17.3518206179
 21
42.1357788145
 31
0.0
  0
LINE
  5
2C5
330
1F
100
AcDbEntity
  8
1
100
AcDbLine
 10
17.3518206179
 20
42.1357788145
 30
0.0
 11
17.5990010798
 21
42.024563998
 31
0.0
  0
LINE
  5
2C6
330
1F
100
AcDbEntity
  8
1
100
AcDbLine
 10
17.5990010798
 20
42.024563998
 30
0.0
 11
18.1471291184
 21
41.9678799808
 31
0.0
  0
LINE
  5
2C7
330
1F
100
AcDbEntity
  8
1
100
AcDbLine
 10
18.1471291184
 20
42.752418667
 30
0.0
 11
17.5985689461
 21
42.6948182285
 31
0.0
  0
LINE
  5
2C8
330
1F
100
AcDbEntity
  8
1
100
AcDbLine
 10
17.5985689461
 20
42.6948182285
 30
0.0
 11
17.3514965176
 21
42.5828285515
 31
0.0
  0
LINE
  5
2C9
330
1F
100
AcDbEntity
  8
1
100
AcDbLine
 10
17.3514965176
 20
42.5828285515
 30
0.0
 11
17.2654609382
 21
42.4833707511
 31
0.0
  0
LINE
  5
2CA
330
1F
100
AcDbEntity
  8
1
100
AcDbLine
 10
17.2654609382
 20
42.4833707511
 30
0.0
 11
17.2356735169
 21
42.3590354621
 31
0.0
  0
LINE
  5
2CB
330
1F
100
AcDbEntity
  8
1
100
AcDbLine
 10
19.0561856329
 20
42.3590354621
 30
0.0
 11
19.0268675982
 21
42.4832627177
 31
0.0
  0
LINE
  5
2CC
330
1F
100
AcDbEntity
  8
1
100
AcDbLine
 10
19.0268675982
 20
42.4832627177
 30
0.0
 11
18.941130042
 21
42.5827056169
 31
0.0
  0
LINE
  5
2CD
330
1F
100
AcDbEntity
  8
1
100
AcDbLine
 10
18.941130042
 20
42.5827056169
 30
0.0
 11
18.6948026716
 21
42.6950529217
 31
0.0
  0
LINE
  5
2CE
330
1F
100
AcDbEntity
  8
1
100
AcDbLine
 10
18.6948026716
 20
42.6950529217
 30
0.0
 11
18.1471291184
 21
42.752418667
 31
0.0
  0
LINE
  5
2CF
330
1F
100
AcDbEntity
  8
1
100
AcDbLine
 10
18.1471291184
 20
41.9678799808
 30
0.0
 11
18.6942960321
 21
42.0244187116
 31
0.0
  0
LINE
  5
2D0
330
1F
100
AcDbEntity
  8
1
100
AcDbLine
 10
18.6942960321
 20
42.0244187116
 30
0.0
 11
18.9407910406
 21
42.1358682215
 31
0.0
  0
LINE
  5
2D1
330
1F
100
AcDbEntity
  8
1
100
AcDbLine
 10
18.9407910406
 20
42.1358682215
 30
0.0
 11
19.0266142785
 21
42.2350466251
 31
0.0
  0
LINE
  5
2D2
330
1F
100
AcDbEntity
  8
1
100
AcDbLine
 10
19.0266142785
 20
42.2350466251
 30
0.0
 11
19.0561856329
 21
42.3590354621
 31
0.0
  0
LINE
  5
2D3
330
1F
100
AcDbEntity
  8
1
100
AcDbLine
 10
18.1471291184
 20
41.9641323387
 30
0.0
 11
18.1471291184
 21
41.9678799808
 31
0.0
  0
LINE
  5
2D4
330
1F
100
AcDbEntity
  8
1
100
AcDbLine
 10
17.2356735169
 20
42.3552878201
 30
0.0
 11
17.2356735169
 21
42.3590354621
 31
0.0
  0
LINE
  5
2D5
330
1F
100
AcDbEntity
  8
1
100
AcDbLine
 10
19.0561856329
 20
42.3552878201
 30
0.0
 11
19.0561856329
 21
42.3590354621
 31
0.0
  0
LINE
  5
2D6
330
1F
100
AcDbEntity
  8
1
100
AcDbLine
 10
18.1467305123
 20
42.8199954331
 30
0.0
 11
18.1467305123
 21
42.8237393498
 31
0.0
  0
LINE
  5
2D7
330
1F
100
AcDbEntity
  8
1
100
AcDbLine
 10
16.6703644394
 20
42.6988229156
 30
0.0
 11
15.8057804405
 21
43.1616418064
 31
0.0
  0
LINE
  5
2D8
330
1F
100
AcDbEntity
  8
1
100
AcDbLine
 10
18.6749990284
 20
44.81343925
 30
0.0
 11
18.1500013172
 21
44.81343925
 31
0.0
  0
LINE
  5
2D9
330
1F
100
AcDbEntity
  8
1
100
AcDbLine
 10
18.8250015676
 20
45.3002117574
 30
0.0
 11
18.6749990284
 21
45.3002117574
 31
0.0
  0
LINE
  5
2DA
330
1F
100
AcDbEntity
  8
1
100
AcDbLine
 10
19.3499992787
 20
44.81343925
 30
0.0
 11
18.8250015676
 21
44.81343925
 31
0.0
  0
LINE
  5
2DB
330
1F
100
AcDbEntity
  8
1
100
AcDbLine
 10
17.2500009834
 20
44.7902604937
 30
0.0
 11
16.2496450543
 21
44.7902604937
 31
0.0
  0
LINE
  5
2DC
330
1F
100
AcDbEntity
  8
1
100
AcDbLine
 10
18.8250015676
 20
44.81343925
 30
0.0
 11
18.8250015676
 21
45.3039556741
 31
0.0
  0
LINE
  5
2DD
330
1F
100
AcDbEntity
  8
1
100
AcDbLine
 10
18.6749990284
 20
44.81343925
 30
0.0
 11
18.6749990284
 21
45.3039556741
 31
0.0
  0
LINE
  5
2E0
330
1F
100
AcDbEntity
  8
1
100
AcDbLine
 10
19.5236909389
 20
0.0
 30
0.0
 11
42.5
 21
27.3820981383
 31
0.0
  0
LINE
  5
2E1
330
1F
100
AcDbEntity
  8
1
100
AcDbLine
 10
5.4999995231
 20
48.5000088811
 30
0.0
 11
5.4999995231
 21
32.5498543679
 31
0.0
  0
LINE
  5
2E2
330
1F
100
AcDbEntity
  8
1
100
AcDbLine
 10
42.5
 20
27.3820981383
 30
0.0
 11
42.5
 21
48.5000088811
 31
0.0
  0
LINE
  5
2E3
330
1F
100
AcDbEntity
  8
1
100
AcDbLine
 10
-1.0019231688
 20
-31.9500673602
 30
0.0
 11
-0.9406548738
 21
-31.9539941848
 31
0.0
  0
LINE
  5
2E4
330
1F
100
AcDbEntity
  8
1
100
AcDbLine
 10
-0.9406548738
 20
-31.9539941848
 30
0.0
 11
-0.8289296925
 21
-31.9647751749
 31
0.0
  0
LINE
  5
2E5
330
1F
100
AcDbEntity
  8
1
100
AcDbLine
 10
-0.8289296925
 20
-31.9647751749
 30
0.0
 11
-0.7644821703
 21
-31.9762043655
 31
0.0
  0
LINE
  5
2E6
330
1F
100
AcDbEntity
  8
1
100
AcDbLine
 10
-0.7644821703
 20
-31.9762043655
 30
0.0
 11
-0.7551540434
 21
-31.9860950113
 31
0.0
  0
LINE
  5
2E7
330
1F
100
AcDbEntity
  8
1
100
AcDbLine
 10
-0.7551540434
 20
-31.9860950113
 30
0.0
 11
-0.8020628989
 21
-31.9931656123
 31
0.0
  0
LINE
  5
2E8
330
1F
100
AcDbEntity
  8
1
100
AcDbLine
 10
-0.8020628989
 20
-31.9931656123
 30
0.0
 11
-0.8996729553
 21
-31.9972932339
 31
0.0
  0
LINE
  5
2E9
330
1F
100
AcDbEntity
  8
1
100
AcDbLine
 10
-0.8996729553
 20
-31.9972932339
 30
0.0
 11
-1.0019231688
 21
-31.9988893595
 31
0.0
  0
LINE
  5
2EA
330
1F
100
AcDbEntity
  8
1
100
AcDbLine
 10
-4.2999987305
 20
-31.8147651851
 30
0.0
 11
-4.2499993801
 21
-31.8699152176
 31
0.0
  0
LINE
  5
2EB
330
1F
100
AcDbEntity
  8
1
100
AcDbLine
 10
-4.4272509218
 20
-31.6665545106
 30
0.0
 11
-4.3970090151
 21
-31.7045599223
 31
0.0
  0
LINE
  5
2EC
330
1F
100
AcDbEntity
  8
1
100
AcDbLine
 10
-4.3970090151
 20
-31.7045599223
 30
0.0
 11
-4.2999987305
 21
-31.8147651851
 31
0.0
  0
LINE
  5
2ED
330
1F
100
AcDbEntity
  8
1
100
AcDbLine
 10
4.7000007479
 20
-31.749846914
 30
0.0
 11
4.7000007479
 21
-10.3953205546
 31
0.0
  0
LINE
  5
2EE
330
1F
100
AcDbEntity
  8
1
100
AcDbLine
 10
-1.0405331782
 20
30.4292334343
 30
0.0
 11
13.6500005062
 21
30.4292334343
 31
0.0
  0
LINE
  5
2EF
330
1F
100
AcDbEntity
  8
1
100
AcDbLine
 10
5.4999993889
 20
-23.5000066459
 30
0.0
 11
39.2425391078
 21
-23.5000066459
 31
0.0
  0
LINE
  5
2F0
330
1F
100
AcDbEntity
  8
1
100
AcDbLine
 10
-1.2019241413
 20
-29.2144333395
 30
0.0
 11
-1.2019231217
 21
-29.5680191981
 31
0.0
  0
LINE
  5
2F1
330
1F
100
AcDbEntity
  8
1
100
AcDbLine
 10
-1.2019244
 20
-31.0914666828
 30
0.0
 11
-1.2019231851
 21
-31.2581449465
 31
0.0
  0
LINE
  5
2F2
330
1F
100
AcDbEntity
  8
CUT
100
AcDbLine
 10
43.299998641
 20
-43.5292944312
 30
0.0
 11
43.3000006198
 21
-43.9354273171
 31
0.0
  0
LINE
  5
2F3
330
1F
100
AcDbEntity
  8
CUT
100
AcDbLine
 10
43.3000003115
 20
-41.0738812775
 30
0.0
 11
43.2999983326
 21
-41.2700474601
 31
0.0
  0
LINE
  5
2F4
330
1F
100
AcDbEntity
  8
CUT
100
AcDbLine
 10
54.4871068684
 20
43.9354258149
 30
0.0
 11
54.4871031554
 21
41.073882404
 31
0.0
  0
LINE
  5
2F5
330
1F
100
AcDbEntity
  8
CUT
100
AcDbLine
 10
53.6949536887
 20
43.9354268428
 30
0.0
 11
53.6949499757
 21
41.0738834319
 31
0.0
  0
LINE
  5
2F6
330
1F
100
AcDbEntity
  8
1
100
AcDbLine
 10
42.5
 20
35.7000082731
 30
0.0
 11
5.4999995231
 21
35.7000082731
 31
0.0
  0
LINE
  5
2F7
330
1F
100
AcDbEntity
  8
1
100
AcDbLine
 10
-1.0019231688
 20
-31.9988893595
 30
0.0
 11
-1.0019231688
 21
-31.9500673602
 31
0.0
  0
LINE
  5
2F8
330
1F
100
AcDbEntity
  8
1
100
AcDbLine
 10
-4.2999987305
 20
-31.8147651851
 30
0.0
 11
-4.2999987305
 21
-31.672179699
 31
0.0
  0
ARC
  5
2F9
330
1F
100
AcDbEntity
  8
1
100
AcDbCircle
 10
-3.0382204602
 20
-10.5649179232
 30
0.0
 40
2.093180232755853
100
AcDbArc
 50
331.3155472077
 51
4.647414890199999
  0
ARC
  5
2FA
330
1F
100
AcDbEntity
  8
1
100
AcDbCircle
 10
-1.8409141338
 20
19.0280700531
 30
0.0
 40
0.890277127448527
100
AcDbArc
 50
356.9206848458001
 51
44.13145631910001
  0
ARC
  5
2FB
330
1F
100
AcDbEntity
  8
1
100
AcDbCircle
 10
-1.5558840014
 20
-20.7755891245
 30
0.0
 40
0.6127853439475506
100
AcDbArc
 50
305.2837760068
 51
54.71636488839998
  0
ARC
  5
2FC
330
1F
100
AcDbEntity
  8
1
100
AcDbCircle
 10
-1.4582416099
 20
-64.0556393282
 30
0.0
 40
32.30960309952285
100
AcDbArc
 50
89.1200102126
 51
89.5454589278
  0
ARC
  5
2FD
330
1F
100
AcDbEntity
  8
1
100
AcDbCircle
 10
-1.4008442861
 20
26.1515618923
 30
0.0
 40
0.4443945215222919
100
AcDbArc
 50
296.5912819459
 51
63.4088546515
  0
ARC
  5
2FE
330
1F
100
AcDbEntity
  8
1
100
AcDbCircle
 10
18.6500009919
 20
8.8198440535
 30
0.0
 40
5.000000485750028
100
AcDbArc
 50
180.0000011333
 51
220.0
  0
CIRCLE
  5
2FF
330
1F
100
AcDbEntity
  8
1
100
AcDbCircle
 10
34.4973130112
 20
-42.5010345573
 30
0.0
 40
3.251026904665821
  0
CIRCLE
  5
300
330
1F
100
AcDbEntity
  8
1
100
AcDbCircle
 10
20.4973143775
 20
-42.5010354372
 30
0.0
 40
3.251027784633461
  0
ARC
  5
301
330
1F
100
AcDbEntity
  8
1
100
AcDbCircle
 10
12.7492312388
 20
-34.2722329604
 30
0.0
 40
4.595740688261573
100
AcDbArc
 50
20.8161631907
 51
158.6995981349
  0
ARC
  5
302
330
1F
100
AcDbEntity
  8
1
100
AcDbCircle
 10
4.7000007034
 20
-32.5498455996
 30
0.0
 40
0.7999986855713151
100
AcDbArc
 50
359.9994695797
 51
89.9999968129
  0
ARC
  5
303
330
1F
100
AcDbEntity
  8
1
100
AcDbCircle
 10
-2.3380568104
 20
22.637343005
 30
0.0
 40
2.421834844255764
100
AcDbArc
 50
153.2129182909
 51
174.8194962638
  0
ARC
  5
304
330
1F
100
AcDbEntity
  8
1
100
AcDbCircle
 10
12.751827835
 20
-34.0111506088
 30
0.0
 40
3.46213228053233
100
AcDbArc
 50
350.1502869872999
 51
190.6921151317
  0
ARC
  5
305
330
1F
100
AcDbEntity
  8
1
100
AcDbCircle
 10
-3.2966582165
 20
28.1895751377
 30
0.0
 40
1.471337953700339
100
AcDbArc
 50
144.8705811046
 51
171.0292563933
  0
ARC
  5
306
330
1F
100
AcDbEntity
  8
1
100
AcDbCircle
 10
-3.2396222283
 20
-23.4718359414
 30
0.0
 40
1.517215866460702
100
AcDbArc
 50
185.4422662467
 51
213.8275958612
  0
ARC
  5
307
330
1F
100
AcDbEntity
  8
1
100
AcDbCircle
 10
-3.7454081614
 20
30.9876894701
 30
0.0
 40
1.119580569893022
100
AcDbArc
 50
132.3760524195
 51
153.8043701462
  0
ARC
  5
308
330
1F
100
AcDbEntity
  8
1
100
AcDbCircle
 10
-3.684006714
 20
-27.5548848273
 30
0.0
 40
1.086676181019039
100
AcDbArc
 50
191.196855732
 51
221.3310795569
  0
ARC
  5
309
330
1F
100
AcDbEntity
  8
1
100
AcDbCircle
 10
-3.9318475648
 20
-29.9390978547
 30
0.0
 40
0.8594871893476649
100
AcDbArc
 50
197.8417528132
 51
228.6211699991
  0
ARC
  5
30A
330
1F
100
AcDbEntity
  8
1
100
AcDbCircle
 10
-3.4017520427
 20
-30.4013386281
 30
0.0
 40
1.635861581007626
100
AcDbArc
 50
214.4944042983
 51
227.82814509
  0
ARC
  5
30B
330
1F
100
AcDbEntity
  8
1
100
AcDbCircle
 10
-5.3219546315
 20
-32.239989908
 30
0.0
 40
1.114263415504177
100
AcDbArc
 50
42.4668851657
 51
59.1158488186
  0
ARC
  5
30C
330
1F
100
AcDbEntity
  8
CUT
100
AcDbCircle
 10
43.3151222282
 20
-44.3448757513
 30
0.0
 40
0.8157215288263846
100
AcDbArc
 50
91.0623323488
 51
182.1964210644
  0
ARC
  5
30D
330
1F
100
AcDbEntity
  8
CUT
100
AcDbCircle
 10
43.3130864097
 20
-40.4569249866
 30
0.0
 40
0.8132277999560488
100
AcDbArc
 50
178.9327319713
 51
269.0778427019
  0
ARC
  5
30E
330
1F
100
AcDbEntity
  8
CUT
100
AcDbCircle
 10
55.2999975101
 20
-41.2046530691
 30
0.0
 40
0.2000009579923155
100
AcDbArc
 50
0.0
 51
84.245798104
  0
ARC
  5
310
330
1F
100
AcDbEntity
  8
CUT
100
AcDbCircle
 10
43.3000006198
 20
-44.7354273171
 30
0.0
 40
0.8000000000000185
100
AcDbArc
 50
90.0
 51
180.0
  0
ARC
  5
311
330
1F
100
AcDbEntity
  8
CUT
100
AcDbCircle
 10
55.3000006198
 20
-43.8046542804
 30
0.0
 40
0.2000000000000232
100
AcDbArc
 50
280.8322870219
 51
0.000369981300005
  0
ARC
  5
312
330
1F
100
AcDbEntity
  8
CUT
100
AcDbCircle
 10
43.3000003115
 20
-40.2738812775
 30
0.0
 40
0.8000000000000114
100
AcDbArc
 50
180.0
 51
270.0
  0
ARC
  5
314
330
1F
100
AcDbEntity
  8
CUT
100
AcDbCircle
 10
43.3000026547
 20
44.735438637
 30
0.0
 40
0.7999983059009103
100
AcDbArc
 50
179.9996348487
 51
269.9999496557999
  0
ARC
  5
315
330
1F
100
AcDbEntity
  8
CUT
100
AcDbCircle
 10
43.3000002591
 20
40.2738937663
 30
0.0
 40
0.8000031538076315
100
AcDbArc
 50
90.0002488514
 51
179.9996024518
  0
ARC
  5
316
330
1F
100
AcDbEntity
  8
CUT
100
AcDbCircle
 10
55.3000010525
 20
43.8046541615
 30
0.0
 40
0.2000004522804706
100
AcDbArc
 50
0.0002417913
 51
79.1669465739
  0
ARC
  5
317
330
1F
100
AcDbEntity
  8
CUT
100
AcDbCircle
 10
55.2999988599
 20
41.2046552651
 30
0.0
 40
0.2000026448925049
100
AcDbArc
 50
275.7532932934
 51
359.9997537412
  0
CIRCLE
  5
318
330
1F
100
AcDbEntity
  8
1
100
AcDbCircle
 10
20.5000006198
 20
-42.50000743
 30
0.0
 40
2.299999999999969
  0
CIRCLE
  5
319
330
1F
100
AcDbEntity
  8
1
100
AcDbCircle
 10
20.5000006198
 20
-42.50000743
 30
0.0
 40
3.0
  0
CIRCLE
  5
31A
330
1F
100
AcDbEntity
  8
1
100
AcDbCircle
 10
34.5000006198
 20
-42.50000743
 30
0.0
 40
2.300000000000026
  0
CIRCLE
  5
31B
330
1F
100
AcDbEntity
  8
1
100
AcDbCircle
 10
34.5000006198
 20
-42.50000743
 30
0.0
 40
3.0
  0
ARC
  5
31C
330
1F
100
AcDbEntity
  8
1
100
AcDbCircle
 10
14.6668102527
 20
-47.127642983
 30
0.0
 40
0.5878086028123203
100
AcDbArc
 50
7.186886319000001
 51
58.36292643139999
  0
ARC
  5
31D
330
1F
100
AcDbEntity
  8
1
100
AcDbCircle
 10
12.724436123
 20
44.3916593852
 30
0.0
 40
3.537766710968187
100
AcDbArc
 50
4.8611533898
 51
148.1631661848
  0
ARC
  5
31E
330
1F
100
AcDbEntity
  8
1
100
AcDbCircle
 10
12.3118856608
 20
44.6292527023
 30
0.0
 40
3.061992578870793
100
AcDbArc
 50
147.8680230916
 51
178.8360022481
  0
ARC
  5
31F
330
1F
100
AcDbEntity
  8
1
100
AcDbCircle
 10
13.0313507212
 20
44.8116524218
 30
0.0
 40
2.943420224353099
100
AcDbArc
 50
327.1681819510001
 51
329.0095323041
  0
ARC
  5
320
330
1F
100
AcDbEntity
  8
1
100
AcDbCircle
 10
7.7627801543
 20
47.5673058232
 30
0.0
 40
4.421321519051704
100
AcDbArc
 50
317.4124386456999
 51
338.7674204055
  0
ARC
  5
321
330
1F
100
AcDbEntity
  8
1
100
AcDbCircle
 10
14.8010949531
 20
45.9660355893
 30
0.0
 40
4.03066320611166
100
AcDbArc
 50
200.1837742768
 51
223.6365043988
  0
ARC
  5
322
330
1F
100
AcDbEntity
  8
1
100
AcDbCircle
 10
12.7499993145
 20
45.670225681
 30
0.0
 40
2.632218159448173
100
AcDbArc
 50
250.7913119166
 51
289.2086880836
  0
ARC
  5
323
330
1F
100
AcDbEntity
  8
1
100
AcDbCircle
 10
10.3609573015
 20
46.176482704
 30
0.0
 40
4.421211713952474
100
AcDbArc
 50
317.4119987607
 51
338.7675013835001
  0
ARC
  5
324
330
1F
100
AcDbEntity
  8
1
100
AcDbCircle
 10
17.8239254101
 20
47.6213062353
 30
0.0
 40
4.521738755952668
100
AcDbArc
 50
201.4724893472
 51
222.3478727802
  0
ARC
  5
325
330
1F
100
AcDbEntity
  8
1
100
AcDbCircle
 10
12.7499993144
 20
48.4517636233
 30
0.0
 40
2.632205515898093
100
AcDbArc
 50
250.7912160301
 51
289.2087839707
  0
ARC
  5
326
330
1F
100
AcDbEntity
  8
1
100
AcDbCircle
 10
12.932137277
 20
44.781091016
 30
0.0
 40
1.81746531072886
100
AcDbArc
 50
326.6007911143
 51
329.5831395813
  0
ARC
  5
327
330
1F
100
AcDbEntity
  8
1
100
AcDbCircle
 10
12.7500282729
 20
42.4354766559
 30
0.0
 40
1.570689167578184
100
AcDbArc
 50
42.9644125277
 51
137.1370821109
  0
ARC
  5
328
330
1F
100
AcDbEntity
  8
1
100
AcDbCircle
 10
12.7301446037
 20
42.9287381714
 30
0.0
 40
1.524084474078322
100
AcDbArc
 50
89.2535693834
 51
147.0676385917
  0
ARC
  5
329
330
1F
100
AcDbEntity
  8
1
100
AcDbCircle
 10
12.7698621191
 20
42.9287532913
 30
0.0
 40
1.524069460940882
100
AcDbArc
 50
32.9320497502
 51
90.74674227190002
  0
ARC
  5
32A
330
1F
100
AcDbEntity
  8
1
100
AcDbCircle
 10
12.7499993145
 20
-30.1799257983
 30
0.0
 40
2.632218159443607
100
AcDbArc
 50
250.7913119164
 51
289.2086880836
  0
ARC
  5
32B
330
1F
100
AcDbEntity
  8
1
100
AcDbCircle
 10
7.6760512085
 20
-31.0103918211
 30
0.0
 40
4.521760978909398
100
AcDbArc
 50
317.6523023676
 51
338.5275566838
  0
ARC
  5
32C
330
1F
100
AcDbEntity
  8
1
100
AcDbCircle
 10
15.0142288611
 20
-32.5329507115
 30
0.0
 40
4.276804654069948
100
AcDbArc
 50
200.8674109426
 51
222.952867734
  0
ARC
  5
32D
330
1F
100
AcDbEntity
  8
1
100
AcDbCircle
 10
12.7499993144
 20
-32.9614905185
 30
0.0
 40
2.632205515889998
100
AcDbArc
 50
250.7912160299
 51
289.2087839704
  0
ARC
  5
32E
330
1F
100
AcDbEntity
  8
1
100
AcDbCircle
 10
10.6988790865
 20
-32.6656417763
 30
0.0
 40
4.030698561186423
100
AcDbArc
 50
316.3634750355
 51
339.8160251090999
  0
ARC
  5
32F
330
1F
100
AcDbEntity
  8
1
100
AcDbCircle
 10
17.612334614
 20
-31.1421524174
 30
0.0
 40
4.276842343882378
100
AcDbArc
 50
200.8675161836
 51
222.9528459419
  0
ARC
  5
330
330
1F
100
AcDbEntity
  8
1
100
AcDbCircle
 10
12.7301446037
 20
-35.7029646392
 30
0.0
 40
1.52408447415551
100
AcDbArc
 50
89.253569385
 51
147.0676385901
  0
ARC
  5
331
330
1F
100
AcDbEntity
  8
1
100
AcDbCircle
 10
12.7698621191
 20
-35.7029495192
 30
0.0
 40
1.524069460940879
100
AcDbArc
 50
32.9320497502
 51
90.74674227199999
  0
ARC
  5
332
330
1F
100
AcDbEntity
  8
1
100
AcDbCircle
 10
12.7971246197
 20
45.0601462513
 30
0.0
 40
3.557314047155598
100
AcDbArc
 50
270.0463148292
 51
326.2748370900999
  0
ARC
  5
333
330
1F
100
AcDbEntity
  8
1
100
AcDbCircle
 10
13.1843234886
 20
44.7550595335
 30
0.0
 40
3.06579313225928
100
AcDbArc
 50
328.7670803396001
 51
358.995052709
  0
ARC
  5
334
330
1F
100
AcDbEntity
  8
1
100
AcDbCircle
 10
12.7500011771
 20
45.2595183112
 30
0.0
 40
3.760761242287411
100
AcDbArc
 50
269.2382353032
 51
270.7617646968
  0
ARC
  5
335
330
1F
100
AcDbEntity
  8
1
100
AcDbCircle
 10
13.2063018068
 20
44.7439011186
 30
0.0
 40
3.04369632412215
100
AcDbArc
 50
359.1272784911
 51
0.8727215088999998
  0
ARC
  5
336
330
1F
100
AcDbEntity
  8
1
100
AcDbCircle
 10
13.0669917442
 20
44.8114111295
 30
0.0
 40
3.197296098648041
100
AcDbArc
 50
327.2412921578
 51
328.9364220815
  0
ARC
  5
337
330
1F
100
AcDbEntity
  8
1
100
AcDbCircle
 10
4.8207207224
 20
32.5122544998
 30
0.0
 40
0.680318630574416
100
AcDbArc
 50
311.2106604681
 51
3.1682389883
  0
POINT
  5
34C
330
1F
100
AcDbEntity
  8
1
100
AcDbPoint
 10
0.0
 20
0.0
 30
0.0
  0
DIMENSION
  5
34D
330
1F
100
AcDbEntity
  8
2
100
AcDbDimension
280
     0
  2
_D
 10
-4.749998897400001
 20
57.2768979582
 30
0.0
 11
8.9765143867
 21
57.2768979582
 31
0.0
 70
   160
  1
95
 71
     5
 42
60.25000040219999
 73
     0
 74
     0
 75
     0
  3
SLDDIMSTYLE0
100
AcDbAlignedDimension
 13
55.5000015048
 23
43.8046550055
 33
0.0
 14
-4.7499988974
 24
22.3064124584
 34
0.0
100
AcDbRotatedDimension
1001
ACAD
1000
DSTYLE
1002
{
1070
   140
1040
3.5
1070
   340
1005
3AA
1070
   177
1070
   256
1070
   176
1070
   256
1070
   178
1070
   256
1070
   347
1005
14
1070
   346
1005
14
1070
   345
1005
14
1002
}
  0
DIMENSION
  5
357
330
1F
100
AcDbEntity
  8
SK2
100
AcDbDimension
280
     0
  2
_D_1
 10
64.61637327196672
 20
43.99921651632172
 30
0.0
 11
64.6163723023
 21
-0.0000005706
 31
0.0
 70
   160
  1
%%c<> - 110
 71
     5
 42
87.99843417390002
 73
     0
 74
     0
 75
     0
  3
SLDDIMSTYLE1
100
AcDbAlignedDimension
 13
55.2291455864
 23
-43.9992174507
 33
0.0
 14
55.2291475257
 24
43.9992167232
 34
0.0
 50
89.9999987373
100
AcDbRotatedDimension
1001
ACAD
1000
DSTYLE
1002
{
1070
   140
1040
3.5
1070
   340
1005
3AA
1070
   177
1070
   256
1070
   176
1070
   256
1070
   178
1070
   256
1070
   347
1005
14
1070
   346
1005
14
1070
   345
1005
14
1002
}
  0
DIMENSION
  5
364
330
1F
100
AcDbEntity
  8
SK2
100
AcDbDimension
280
     0
  2
_D_2
 10
74.4973741012
 20
-48.5000088811
 30
0.0
 11
74.4973741012
 21
0.0
 31
0.0
 70
   160
  1
%%c 99 - 121
 71
     5
 42
97.0000177622
 73
     0
 74
     0
 75
     0
  3
SLDDIMSTYLE1
100
AcDbAlignedDimension
 13
42.5
 23
48.5000088811
 33
0.0
 14
42.5
 24
-48.5000088811
 34
0.0
 50
90.0
100
AcDbRotatedDimension
1001
ACAD
1000
DSTYLE
1002
{
1070
   140
1040
3.5
1070
   340
1005
3AA
1070
   177
1070
   256
1070
   176
1070
   256
1070
   178
1070
   256
1070
   347
1005
14
1070
   346
1005
14
1070
   345
1005
14
1002
}
  0
MTEXT
  5
36F
330
1F
100
AcDbEntity
  8
SK6
100
AcDbMText
 10
19.00077784189999
 20
-61.84360958003046
 30
0.0
 40
3.5
 41
0.0
 46
0.0
 71
     1
 72
     1
  1
639.667
  7
BMG_Text
 73
     1
 44
1.0
  0
LINE
  5
41D
330
1F
100
AcDbEntity
  8
NOCUT
100
AcDbLine
 10
0.0
 20
0.0
 30
0.0
 11
0.000000000000002
 21
32.0004550361
 31
0.0
  0
LINE
  5
41E
330
1F
100
AcDbEntity
  8
NOCUT
100
AcDbLine
 10
0.000000000000002
 20
32.0004550361
 30
0.0
 11
5.291293038136162
 21
32.0004550361
 31
0.0
  0
ARC
  5
41F
330
1F
100
AcDbEntity
  8
NOCUT
100
AcDbCircle
 10
4.820720722399972
 20
32.51225449980002
 30
0.0
 40
0.680318630574444
100
AcDbArc
 50
311.2106604681008
 51
359.9999999999987
  0
LINE
  5
420
330
1F
100
AcDbEntity
  8
NOCUT
100
AcDbLine
 10
5.501039352974416
 20
32.5122544998
 30
0.0
 11
5.501039352974417
 21
48.46134222940782
 31
0.0
  0
LINE
  5
421
330
1F
100
AcDbEntity
  8
NOCUT
100
AcDbLine
 10
5.501039352974417
 20
48.46134222940782
 30
0.0
 11
42.5
 21
48.46134222940782
 31
0.0
  0
LINE
  5
422
330
1F
100
AcDbEntity
  8
NOCUT
100
AcDbLine
 10
42.5
 20
48.46134222940782
 30
0.0
 11
42.5
 21
44.7437480569271
 31
0.0
  0
ARC
  5
423
330
1F
100
AcDbEntity
  8
NOCUT
100
AcDbCircle
 10
43.30000265469898
 20
44.73543863699958
 30
0.0
 40
0.7999983058998864
100
AcDbArc
 50
179.9996348486697
 51
269.9999496584622
  0
ARC
  5
424
330
1F
100
AcDbEntity
  8
NOCUT
100
AcDbCircle
 10
55.30000105247318
 20
43.80465416145691
 30
0.0
 40
0.2000004523285991
100
AcDbArc
 50
0.0002417999879718
 51
76.60858600581909
  0
ARC
  5
425
330
1F
100
AcDbEntity
  8
NOCUT
100
AcDbCircle
 10
55.29978809856974
 20
41.20473642998949
 30
0.0
 40
0.2002134230230353
100
AcDbArc
 50
262.7876211826344
 51
359.9765267578769
  0
LINE
  5
426
330
1F
100
AcDbEntity
  8
NOCUT
100
AcDbLine
 10
43.3000019518
 20
43.9354403311
 30
0.0
 11
54.4871068684
 21
43.9354258149
 31
0.0
  0
LINE
  5
427
330
1F
100
AcDbEntity
  8
NOCUT
100
AcDbLine
 10
54.4871068684
 20
43.9354258149
 30
0.0
 11
55.2291475257
 21
43.9992167232
 31
0.0
  0
LINE
  5
428
330
1F
100
AcDbEntity
  8
NOCUT
100
AcDbLine
 10
55.2291475257
 20
43.9992167232
 30
0.0
 11
55.34632158252683
 21
43.99921672061769
 31
0.0
  0
LINE
  5
429
330
1F
100
AcDbEntity
  8
NOCUT
100
AcDbLine
 10
55.5000015048
 20
43.8046550055
 30
0.0
 11
55.50000150479066
 21
41.20465440548326
 31
0.0
  0
LINE
  5
42A
330
1F
100
AcDbEntity
  8
NOCUT
100
AcDbLine
 10
55.27492284803373
 20
41.00566008194717
 30
0.0
 11
54.4871031554
 21
41.073882404
 31
0.0
  0
LINE
  5
42B
330
1F
100
AcDbEntity
  8
NOCUT
100
AcDbLine
 10
54.4871031554
 20
41.073882404
 30
0.0
 11
43.28284168242695
 21
41.073882404
 31
0.0
  0
ARC
  5
42C
330
1F
100
AcDbEntity
  8
NOCUT
100
AcDbCircle
 10
43.30000025909985
 20
40.27389376630006
 30
0.0
 40
0.8000031538074837
100
AcDbArc
 50
90.00024884890264
 51
179.9996024518044
  0
LINE
  5
42D
330
1F
100
AcDbEntity
  8
NOCUT
100
AcDbLine
 10
42.49999710531163
 20
40.2738993171419
 30
0.0
 11
42.49999710531163
 21
27.44364090939685
 31
0.0
  0
LINE
  5
42E
330
1F
100
AcDbEntity
  8
NOCUT
100
AcDbLine
 10
42.49999710531163
 20
27.44364090939685
 30
0.0
 11
19.5236909389
 21
0.0
 31
0.0
  0
LINE
  5
42F
330
1F
100
AcDbEntity
  8
NOCUT
100
AcDbLine
 10
19.5236909389
 20
0.0
 30
0.0
 11
0.0
 21
0.0
 31
0.0
  0
LWPOLYLINE
  5
431
330
1F
100
AcDbEntity
  8
INFTOTAL
100
AcDbPolyline
 90
        4
 70
     1
 43
0.0
 10
-33.61222737155572
 20
77.0184585815139
 10
-33.61222737155572
 20
-86.21080971116899
 10
98.38777262844422
 20
-86.21080971116899
 10
98.38777262844422
 20
77.0184585815139
  0
LINE
  5
435
330
1F
100
AcDbEntity
  8
4
100
AcDbLine
 10
0.0
 20
0.0
 30
0.0
 11
27.031158756
 21
0.0
 31
0.0
  0
LWPOLYLINE
  5
45E
330
1F
100
AcDbEntity
  8
1
100
AcDbPolyline
 90
        6
 70
     0
 43
0.0
 10
-4.449999380109801
 20
-27.60132531756705
 10
-3.789417418082873
 20
-27.38098731366613
 10
-3.13419324594587
 20
-27.15537974826986
 10
-2.484452963790277
 20
-26.92454604031154
 10
-1.84032161631455
 20
-26.68853061451318
 10
-1.201923168758824
 20
-26.44737889283576
  0
LWPOLYLINE
  5
45F
330
1F
100
AcDbEntity
  8
1
100
AcDbPolyline
 90
        6
 70
     0
 43
0.0
 10
-4.449999380189656
 20
-24.40565927522714
 10
-3.815471528191941
 20
-24.7059036427408
 10
-3.173256322611331
 20
-25.00064944585062
 10
-2.523496695387561
 20
-25.28983108569034
 10
-1.866337257553019
 20
-25.57338420175845
 10
-1.20192426704798
 20
-25.85124568624224
  0
LWPOLYLINE
  5
460
330
1F
100
AcDbEntity
  8
1
100
AcDbPolyline
 90
        7
 70
     0
 43
0.0
 10
-4.449997544332553
 20
-23.18474836647192
 10
-3.889470632940203
 20
-22.87767609189127
 10
-3.336472123381108
 20
-22.56608703973594
 10
-2.791111195106576
 20
-22.25004272757091
 10
-2.253495519667045
 20
-21.92960555257084
 10
-1.723731239454308
 20
-21.60483877920092
 10
-1.201922946745611
 20
-21.27580652672637
  0
LWPOLYLINE
  5
461
330
1F
100
AcDbEntity
  8
1
100
AcDbPolyline
 90
        7
 70
     0
 43
0.0
 10
-4.449999380203058
 20
-17.77460608814192
 10
-3.938525179911534
 20
-18.20404048739254
 10
-3.414910982858705
 20
-18.62856992884795
 10
-2.879297873469616
 20
-19.04808002582327
 10
-2.331830169197863
 20
-19.46245774406317
 10
-1.772655381640212
 20
-19.87159143219827
 10
-1.201924176790526
 20
-20.27537085182884
  0
LWPOLYLINE
  5
462
330
1F
100
AcDbEntity
  8
1
100
AcDbPolyline
 90
        9
 70
     0
 43
0.0
 10
-4.449997544296083
 20
-15.53164329380425
 10
-3.992549402053601
 20
-15.05107932249984
 10
-3.549544714888397
 20
-14.56602577166282
 10
-3.121115626537488
 20
-14.07662732777331
 10
-2.707389932986859
 20
-13.5830299733483
 10
-2.308491044351183
 20
-13.08538094339657
 10
-1.924537948061917
 20
-12.58382868149997
 10
-1.555645173374494
 20
-12.07852279553427
 10
-1.201922757205519
 20
-11.56961401304266
  0
LWPOLYLINE
  5
463
330
1F
100
AcDbEntity
  8
1
100
AcDbPolyline
 90
        5
 70
     0
 43
0.0
 10
-4.449999512649712
 20
-31.66598594658223
 10
-3.638847864202412
 20
-31.69664611177689
 10
-2.826999870456387
 20
-31.72038053838029
 10
-2.014632920779524
 20
-31.7371840404032
 10
-1.201924517931958
 20
-31.74705294626842
  0
LWPOLYLINE
  5
464
330
1F
100
AcDbEntity
  8
1
100
AcDbPolyline
 90
        5
 70
     0
 43
0.0
 10
-4.449997676730061
 20
-31.53465157552579
 10
-3.635388405239815
 20
-31.47603088267852
 10
-2.822385521726406
 20
-31.41039620310913
 10
-2.011170192386492
 20
-31.33776216257788
 10
-1.201923185085555
 20
-31.25814494655366
  0
LWPOLYLINE
  5
465
330
1F
100
AcDbEntity
  8
1
100
AcDbPolyline
 90
        5
 70
     0
 43
0.0
 10
-4.449999380163092
 20
-30.64368232462541
 10
-3.642490511230525
 20
-30.76629354121381
 10
-2.831850359595339
 20
-30.88181215336688
 10
-2.018265803514928
 20
-30.99021153038185
 10
-1.201924400025262
 20
-31.09146668276536
  0
LWPOLYLINE
  5
466
330
1F
100
AcDbEntity
  8
1
100
AcDbPolyline
 90
        6
 70
     0
 43
0.0
 10
-4.449997544280406
 20
-30.23464418950424
 10
-3.794693352307141
 20
-30.11074628013789
 10
-3.142131440740225
 20
-29.98211423199792
 10
-2.492414408147209
 20
-29.84876826916369
 10
-1.84564440581162
 20
-29.71072935685632
 10
-1.201923121672342
 20
-29.56801919814246
  0
LWPOLYLINE
  5
467
330
1F
100
AcDbEntity
  8
1
100
AcDbPolyline
 90
        6
 70
     0
 43
0.0
 10
-4.449999380076353
 20
-28.34317815100901
 10
-3.80835889226486
 20
-28.52717241584825
 10
-3.162621193557098
 20
-28.70632505890957
 10
-2.512895878359191
 20
-28.88060567446082
 10
-1.859293217854311
 20
-29.04998468364884
 10
-1.201924141287506
 20
-29.21443333951964
  0
LWPOLYLINE
  5
468
330
1F
100
AcDbEntity
  8
1
100
AcDbPolyline
 90
        6
 70
     0
 43
0.0
 10
-1.201923064174081
 20
25.75417437585347
 10
-1.871490510856284
 20
25.38183764152975
 10
-2.531231345635413
 20
25.00369898628873
 10
-3.180994761344446
 20
24.61984484713162
 10
-3.820632231509353
 20
24.23036296753621
 10
-4.449997544300093
 20
23.83534237739997
  0
LWPOLYLINE
  5
469
330
1F
100
AcDbEntity
  8
1
100
AcDbPolyline
 90
        6
 70
     0
 43
0.0
 10
-1.201924011609043
 20
26.5489498830262
 10
-1.83665375080615
 20
26.86978269564125
 10
-2.478947760024385
 20
27.18555757774066
 10
-3.128685134768222
 20
27.49621508831726
 10
-3.785743569413808
 20
27.80169674965049
 10
-4.449999380231538
 20
28.10194505831415
  0
LWPOLYLINE
  5
46A
330
1F
100
AcDbEntity
  8
1
100
AcDbPolyline
 90
        6
 70
     0
 43
0.0
 10
-1.201922714971441
 20
30.33930640951936
 10
-1.862111676579942
 20
30.10442441860098
 10
-2.517117402005612
 20
29.86475407996693
 10
-3.166835707413176
 20
29.62033351507799
 10
-3.811163249973271
 20
29.37120160095599
 10
-4.449997544299944
 20
29.11739796400006
  0
LWPOLYLINE
  5
46B
330
1F
100
AcDbEntity
  8
1
100
AcDbPolyline
 90
        7
 70
     0
 43
0.0
 10
-1.20192295860055
 20
19.64797620862374
 10
-1.71544124398471
 20
20.08698825990286
 10
-2.240248939150076
 20
20.52152734752852
 10
-2.776229180147212
 20
20.95149670852555
 10
-3.323262615129041
 20
21.37680059750358
 10
-3.88122743092806
 20
21.79734430797748
 10
-4.449999380181636
 20
22.2130341934566
  0
LWPOLYLINE
  5
46C
330
1F
100
AcDbEntity
  8
1
100
AcDbPolyline
 90
        8
 70
     0
 43
0.0
 10
-1.201924531067503
 20
30.82461231934372
 10
-1.650777868783849
 20
30.95091156400293
 10
-2.10520967422343
 20
31.07037641321013
 10
-2.564907824322834
 20
31.18292481343332
 10
-3.029556578869482
 20
31.28847946165134
 10
-3.49883679736541
 20
31.38696785844897
 10
-3.97242615822652
 20
31.47832235781254
 10
-4.449999380166732
 20
31.56248021359213
  0
LWPOLYLINE
  5
46D
330
1F
100
AcDbEntity
  8
1
100
AcDbPolyline
 90
        8
 70
     0
 43
0.0
 10
-1.523469001499985
 20
32.00045503609773
 10
-1.943172259544012
 20
31.99778577941459
 10
-2.362671826728489
 20
31.98977926667942
 10
-2.781764110322053
 20
31.97643938363591
 10
-3.20024571525738
 20
31.95777260443431
 10
-3.617913542843459
 20
31.93378798848936
 10
-4.034564889334036
 20
31.90449717608357
 10
-4.449997544304372
 20
31.86991438271789
  0
LWPOLYLINE
  5
46E
330
1F
100
AcDbEntity
  8
CUT
100
AcDbPolyline
 90
       14
 70
     0
 43
0.0
 10
55.16699998534067
 20
-41.27004746007525
 10
55.16258333233779
 20
-41.43889529611106
 10
55.15882164859905
 20
-41.60980288891962
 10
55.15572223604207
 20
-41.78243848462294
 10
55.15329111102999
 20
-41.95646697506448
 10
55.15153299269278
 20
-42.1315505482978
 10
55.15045129376696
 20
-42.30734934432346
 10
55.15004811397088
 20
-42.48352211480147
 10
55.15032423592899
 20
-42.65972688545882
 10
55.15127912365266
 20
-42.83562161990591
 10
55.15291092358054
 20
-43.01086488357387
 10
55.15521646817663
 20
-43.18511650648328
 10
55.15819128207883
 20
-43.35803824355857
 10
55.16182959078626
 20
-43.52929443120556
  0
LWPOLYLINE
  5
46F
330
1F
100
AcDbEntity
  8
CUT
100
AcDbPolyline
 90
       20
 70
     0
 43
0.0
 10
46.01408455057484
 20
43.93543680934418
 10
45.91280310619089
 20
43.79064762165569
 10
45.82235151354248
 20
43.64394513717879
 10
45.74286386200622
 20
43.49554683405972
 10
45.67445798753536
 20
43.34567270440003
 10
45.61723529797467
 20
43.19454492813075
 10
45.57128062272897
 20
43.04238754364319
 10
45.53666208700839
 20
42.8894261156647
 10
45.51343101083661
 20
42.73588740087166
 10
45.50162183297173
 20
42.58199901173556
 10
45.50125205985286
 20
42.42798907910036
 10
45.51232223964777
 20
42.27408591399136
 10
45.53481596144025
 20
42.12051766915706
 10
45.56869987955838
 20
41.96751200084557
 10
45.61392376300761
 20
41.81529573131706
 10
45.67042056993535
 20
41.66409451259264
 10
45.73810654701678
 20
41.5141324919379
 10
45.81688135361434
 20
41.36563197957732
 10
45.90662821052716
 20
41.21881311913186
 10
46.00721407310952
 20
41.07389356126856
  0
LWPOLYLINE
  5
470
330
1F
100
AcDbEntity
  8
1
100
AcDbPolyline
 90
        7
 70
     0
 43
0.0
 10
-3.623524636144881
 20
-31.69716000542166
 10
-3.191233748302383
 20
-31.75395186401619
 10
-2.75677112606861
 20
-31.8049210939535
 10
-2.320372015223464
 20
-31.85004009724094
 10
-1.882272710085318
 20
-31.88928444357181
 10
-1.442710425566198
 20
-31.92263288355344
 10
-1.001923168728498
 20
-31.95006736021298
  0
LWPOLYLINE
  5
471
330
1F
100
AcDbEntity
  8
1
100
AcDbPolyline
 90
        8
 70
     0
 43
0.0
 10
-4.249999380121554
 20
-31.86991521764498
 10
-3.789022644969773
 20
-31.90796190010323
 10
-3.326573084107073
 20
-31.93949285921371
 10
-2.862926947066216
 20
-31.96448925959747
 10
-2.398361198168425
 20
-31.98293616936893
 10
-1.933153351075582
 20
-31.99482256905563
 10
-1.467581303014267
 20
-32.00014135818079
 10
-1.001923168770672
 20
-31.99888935950493
  0
ENDSEC
  0
SECTION
  2
OBJECTS
  0
DICTIONARY
  5
C
330
0
100
AcDbDictionary
281
     1
  3
ACAD_DETAILVIEWSTYLE
350
41A
  3
ACAD_GROUP
350
D
  3
ACAD_LAYOUT
350
392
  3
ACAD_MATERIAL
350
3A6
  3
ACAD_MLEADERSTYLE
350
3BD
  3
ACAD_MLINESTYLE
350
17
  3
ACAD_PLOTSETTINGS
350
3FF
  3
ACAD_PLOTSTYLENAME
350
400
  3
ACAD_SCALELIST
350
370
  3
ACAD_SECTIONVIEWSTYLE
350
41B
  3
ACAD_TABLESTYLE
350
40C
  3
ACAD_VISUALSTYLE
350
395
  3
ACDB_RECOMPOSE_DATA
350
474
  3
AcDbVariableDictionary
350
3BB
  3
APPDATA
350
40F
  3
FX_DICT_DIMENSION_PALETTE
350
45A
  0
SUN
  5
432
330
29
100
AcDbSun
 90
        1
290
     0
 63
     7
421
 16777215
 40
1.0
291
     1
 91
  2455826
 92
 54000000
292
     0
 70
     2
 71
   256
280
     1
  0
DICTIONARY
  5
410
330
2
100
AcDbDictionary
280
     1
281
     1
  3
ACAD_LAYERSTATES
360
411
  0
DICTIONARY
  5
41A
102
{ACAD_REACTORS
330
C
102
}
330
C
100
AcDbDictionary
281
     1
  0
DICTIONARY
  5
D
102
{ACAD_REACTORS
330
C
102
}
330
C
100
AcDbDictionary
281
     1
  0
DICTIONARY
  5
392
102
{ACAD_REACTORS
330
C
102
}
330
C
100
AcDbDictionary
281
     1
  3
Layout1
350
394
  3
Model
350
393
  0
DICTIONARY
  5
3A6
102
{ACAD_REACTORS
330
C
102
}
330
C
100
AcDbDictionary
281
     1
  3
ByBlock
350
3A8
  3
ByLayer
350
3A7
  3
Global
350
3A9
  0
DICTIONARY
  5
3BD
102
{ACAD_REACTORS
330
C
102
}
330
C
100
AcDbDictionary
281
     1
  3
Standard
350
40E
  0
DICTIONARY
  5
17
102
{ACAD_REACTORS
330
C
102
}
330
C
100
AcDbDictionary
281
     1
  3
STANDARD
350
18
  0
DICTIONARY
  5
3FF
102
{ACAD_REACTORS
330
C
102
}
330
C
100
AcDbDictionary
281
     1
  0
ACDBDICTIONARYWDFLT
  5
400
102
{ACAD_REACTORS
330
C
102
}
330
C
100
AcDbDictionary
281
     1
  3
Normal
350
401
100
AcDbDictionaryWithDefault
340
401
  0
DICTIONARY
  5
370
102
{ACAD_REACTORS
330
C
102
}
330
C
100
AcDbDictionary
281
     1
  3
A0
350
371
  3
A1
350
372
  3
A2
350
373
  3
A3
350
374
  3
A4
350
375
  3
A5
350
376
  3
A6
350
377
  3
A7
350
378
  3
A8
350
379
  3
A9
350
37A
  3
B0
350
37B
  3
B1
350
37C
  3
B2
350
37D
  3
B3
350
37E
  3
B4
350
37F
  3
B5
350
380
  3
B6
350
381
  3
B7
350
382
  3
B8
350
383
  3
B9
350
384
  3
C0
350
385
  3
C1
350
386
  3
C2
350
387
  3
C3
350
388
  3
C4
350
389
  3
C5
350
38A
  3
C6
350
38B
  3
C7
350
38C
  3
C8
350
38D
  3
C9
350
38E
  3
D0
350
38F
  3
D1
350
390
  3
D2
350
391
  0
DICTIONARY
  5
41B
102
{ACAD_REACTORS
330
C
102
}
330
C
100
AcDbDictionary
281
     1
  0
DICTIONARY
  5
40C
102
{ACAD_REACTORS
330
C
102
}
330
C
100
AcDbDictionary
281
     1
  3
Standard
350
40D
  0
DICTIONARY
  5
395
102
{ACAD_REACTORS
330
C
102
}
330
C
100
AcDbDictionary
281
     1
  3
2dWireframe
350
39A
  3
3D Hidden
350
39C
  3
3dWireframe
350
39B
  3
Basic
350
39D
  3
Brighten
350
3A1
  3
ColorChange
350
3A5
  3
Conceptual
350
39F
  3
Dim
350
3A0
  3
EdgeColorOff
350
406
  3
Facepattern
350
3A4
  3
Flat
350
396
  3
FlatWithEdges
350
397
  3
Gouraud
350
398
  3
GouraudWithEdges
350
399
  3
Hidden
350
403
  3
JitterOff
350
404
  3
Linepattern
350
3A3
  3
OverhangOff
350
405
  3
Realistic
350
39E
  3
Shaded
350
40B
  3
Shaded with edges
350
40A
  3
Shades of Gray
350
407
  3
Sketchy
350
408
  3
Thicken
350
3A2
  3
Wireframe
350
402
  3
X-Ray
350
409
  0
XRECORD
  5
474
102
{ACAD_REACTORS
330
C
102
}
330
C
100
AcDbXrecord
280
     1
 90
        1
330
40D
  0
DICTIONARY
  5
3BB
102
{ACAD_REACTORS
330
C
102
}
330
C
100
AcDbDictionary
281
     1
  3
CANNOSCALE
350
417
  3
CMLEADERSTYLE
350
419
  3
CTABLESTYLE
350
418
  3
DIMASSOC
350
3BF
  3
HIDETEXT
350
3C0
  3
MSLTSCALE
350
3BE
  0
DICTIONARY
  5
40F
102
{ACAD_REACTORS
330
C
102
}
330
C
100
AcDbDictionary
281
     1
  0
DICTIONARY
  5
45A
102
{ACAD_REACTORS
330
C
102
}
330
C
100
AcDbDictionary
281
     1
1001
FX_DIMP_FAV_VERSION
1071
        1
  0
DICTIONARY
  5
411
102
{ACAD_REACTORS
330
410
102
}
330
410
100
AcDbDictionary
281
     1
  0
LAYOUT
  5
394
102
{ACAD_REACTORS
330
392
102
}
330
392
100
AcDbPlotSettings
  1

  2
none_device
  4

  6

 40
0.0
 41
0.0
 42
0.0
 43
0.0
 44
0.0
 45
0.0
 46
0.0
 47
0.0
 48
0.0
 49
0.0
140
0.0
141
0.0
142
1.0
143
1.0
 70
   688
 72
     0
 73
     0
 74
     5
  7

 75
    16
 76
     0
 77
     2
 78
   300
147
1.0
148
0.0
149
0.0
100
AcDbLayout
  1
Layout1
 70
     1
 71
     1
 10
0.0
 20
0.0
 11
420.0
 21
297.0
 12
0.0
 22
0.0
 32
0.0
 14
1.000000000000000E+20
 24
1.000000000000000E+20
 34
1.000000000000000E+20
 15
-1.000000000000000E+20
 25
-1.000000000000000E+20
 35
-1.000000000000000E+20
146
0.0
 13
0.0
 23
0.0
 33
0.0
 16
1.0
 26
0.0
 36
0.0
 17
0.0
 27
1.0
 37
0.0
 76
     0
330
1B
  0
LAYOUT
  5
393
102
{ACAD_REACTORS
330
392
102
}
330
392
100
AcDbPlotSettings
  1

  2
none_device
  4

  6

 40
0.0
 41
0.0
 42
0.0
 43
0.0
 44
0.0
 45
0.0
 46
0.0
 47
0.0
 48
0.0
 49
0.0
140
0.0
141
0.0
142
1.0
143
1.0
 70
  1712
 72
     0
 73
     0
 74
     0
  7

 75
     0
 76
     0
 77
     2
 78
   300
147
1.0
148
0.0000001104899866
149
0.0
100
AcDbLayout
  1
Model
 70
     1
 71
     0
 10
0.0
 20
0.0
 11
210.0
 21
297.0
 12
0.0
 22
0.0
 32
0.0
 14
-33.61222737155572
 24
-86.21080971116899
 34
0.0
 15
98.38777262844422
 25
77.0184585815139
 35
0.0
146
0.0
 13
0.0
 23
0.0
 33
0.0
 16
1.0
 26
0.0
 36
0.0
 17
0.0
 27
1.0
 37
0.0
 76
     0
330
1F
331
29
  0
MATERIAL
  5
3A8
102
{ACAD_REACTORS
330
3A6
102
}
330
3A6
100
AcDbMaterial
  1
ByBlock
 72
     1
 94
      127
  0
MATERIAL
  5
3A7
102
{ACAD_REACTORS
330
3A6
102
}
330
3A6
100
AcDbMaterial
  1
ByLayer
 72
     1
 94
      127
  0
MATERIAL
  5
3A9
102
{ACAD_REACTORS
330
3A6
102
}
330
3A6
100
AcDbMaterial
  1
Global
 72
     1
 94
      127
  0
MLEADERSTYLE
  5
40E
102
{ACAD_REACTORS
330
3BD
102
}
330
3BD
100
AcDbMLeaderStyle
179
     2
170
     2
171
     1
172
     0
 90
        2
 40
0.0
 41
0.0
173
     1
 91
-1056964608
340
14
 92
       -2
290
     1
 42
2.0
291
     1
 43
8.0
  3
Standard
341
0
 44
4.0
300

342
11
174
     1
178
     1
175
     1
176
     0
 93
-1056964608
 45
4.0
292
     0
297
     0
 46
4.0
343
0
 94
-1056964608
 47
1.0
 49
1.0
140
1.0
293
     1
141
0.0
294
     1
177
     0
142
1.0
295
     0
296
     0
143
3.75
271
     0
272
     9
273
     9
298
     0
  0
MLINESTYLE
  5
18
102
{ACAD_REACTORS
330
17
102
}
330
17
100
AcDbMlineStyle
  2
Standard
 70
     0
  3

 62
   256
 51
90.0
 52
90.0
 71
     2
 49
0.5
 62
   256
  6
BYLAYER
 49
-0.5
 62
   256
  6
BYLAYER
  0
ACDBPLACEHOLDER
  5
401
102
{ACAD_REACTORS
330
400
102
}
330
400
  0
SCALE
  5
371
102
{ACAD_REACTORS
330
370
102
}
330
370
100
AcDbScale
 70
     0
300
1:1
140
1.0
141
1.0
290
     1
  0
SCALE
  5
372
102
{ACAD_REACTORS
330
370
102
}
330
370
100
AcDbScale
 70
     0
300
1:2
140
1.0
141
2.0
290
     0
  0
SCALE
  5
373
102
{ACAD_REACTORS
330
370
102
}
330
370
100
AcDbScale
 70
     0
300
1:4
140
1.0
141
4.0
290
     0
  0
SCALE
  5
374
102
{ACAD_REACTORS
330
370
102
}
330
370
100
AcDbScale
 70
     0
300
1:5
140
1.0
141
5.0
290
     0
  0
SCALE
  5
375
102
{ACAD_REACTORS
330
370
102
}
330
370
100
AcDbScale
 70
     0
300
1:8
140
1.0
141
8.0
290
     0
  0
SCALE
  5
376
102
{ACAD_REACTORS
330
370
102
}
330
370
100
AcDbScale
 70
     0
300
1:10
140
1.0
141
10.0
290
     0
  0
SCALE
  5
377
102
{ACAD_REACTORS
330
370
102
}
330
370
100
AcDbScale
 70
     0
300
1:16
140
1.0
141
16.0
290
     0
  0
SCALE
  5
378
102
{ACAD_REACTORS
330
370
102
}
330
370
100
AcDbScale
 70
     0
300
1:20
140
1.0
141
20.0
290
     0
  0
SCALE
  5
379
102
{ACAD_REACTORS
330
370
102
}
330
370
100
AcDbScale
 70
     0
300
1:30
140
1.0
141
30.0
290
     0
  0
SCALE
  5
37A
102
{ACAD_REACTORS
330
370
102
}
330
370
100
AcDbScale
 70
     0
300
1:40
140
1.0
141
40.0
290
     0
  0
SCALE
  5
37B
102
{ACAD_REACTORS
330
370
102
}
330
370
100
AcDbScale
 70
     0
300
1:50
140
1.0
141
50.0
290
     0
  0
SCALE
  5
37C
102
{ACAD_REACTORS
330
370
102
}
330
370
100
AcDbScale
 70
     0
300
1:100
140
1.0
141
100.0
290
     0
  0
SCALE
  5
37D
102
{ACAD_REACTORS
330
370
102
}
330
370
100
AcDbScale
 70
     0
300
2:1
140
2.0
141
1.0
290
     0
  0
SCALE
  5
37E
102
{ACAD_REACTORS
330
370
102
}
330
370
100
AcDbScale
 70
     0
300
4:1
140
4.0
141
1.0
290
     0
  0
SCALE
  5
37F
102
{ACAD_REACTORS
330
370
102
}
330
370
100
AcDbScale
 70
     0
300
8:1
140
8.0
141
1.0
290
     0
  0
SCALE
  5
380
102
{ACAD_REACTORS
330
370
102
}
330
370
100
AcDbScale
 70
     0
300
10:1
140
10.0
141
1.0
290
     0
  0
SCALE
  5
381
102
{ACAD_REACTORS
330
370
102
}
330
370
100
AcDbScale
 70
     0
300
100:1
140
100.0
141
1.0
290
     0
  0
SCALE
  5
382
102
{ACAD_REACTORS
330
370
102
}
330
370
100
AcDbScale
 70
     0
300
1/128" = 1'-0"
140
0.0078125
141
12.0
290
     0
  0
SCALE
  5
383
102
{ACAD_REACTORS
330
370
102
}
330
370
100
AcDbScale
 70
     0
300
1/64" = 1'-0"
140
0.015625
141
12.0
290
     0
  0
SCALE
  5
384
102
{ACAD_REACTORS
330
370
102
}
330
370
100
AcDbScale
 70
     0
300
1/32" = 1'-0"
140
0.03125
141
12.0
290
     0
  0
SCALE
  5
385
102
{ACAD_REACTORS
330
370
102
}
330
370
100
AcDbScale
 70
     0
300
1/16" = 1'-0"
140
0.0625
141
12.0
290
     0
  0
SCALE
  5
386
102
{ACAD_REACTORS
330
370
102
}
330
370
100
AcDbScale
 70
     0
300
3/32" = 1'-0"
140
0.09375
141
12.0
290
     0
  0
SCALE
  5
387
102
{ACAD_REACTORS
330
370
102
}
330
370
100
AcDbScale
 70
     0
300
1/8" = 1'-0"
140
0.125
141
12.0
290
     0
  0
SCALE
  5
388
102
{ACAD_REACTORS
330
370
102
}
330
370
100
AcDbScale
 70
     0
300
3/16" = 1'-0"
140
0.1875
141
12.0
290
     0
  0
SCALE
  5
389
102
{ACAD_REACTORS
330
370
102
}
330
370
100
AcDbScale
 70
     0
300
1/4" = 1'-0"
140
0.25
141
12.0
290
     0
  0
SCALE
  5
38A
102
{ACAD_REACTORS
330
370
102
}
330
370
100
AcDbScale
 70
     0
300
3/8" = 1'-0"
140
0.375
141
12.0
290
     0
  0
SCALE
  5
38B
102
{ACAD_REACTORS
330
370
102
}
330
370
100
AcDbScale
 70
     0
300
1/2" = 1'-0"
140
0.5
141
12.0
290
     0
  0
SCALE
  5
38C
102
{ACAD_REACTORS
330
370
102
}
330
370
100
AcDbScale
 70
     0
300
3/4" = 1'-0"
140
0.75
141
12.0
290
     0
  0
SCALE
  5
38D
102
{ACAD_REACTORS
330
370
102
}
330
370
100
AcDbScale
 70
     0
300
1" = 1'-0"
140
1.0
141
12.0
290
     0
  0
SCALE
  5
38E
102
{ACAD_REACTORS
330
370
102
}
330
370
100
AcDbScale
 70
     0
300
1-1/2" = 1'-0"
140
1.5
141
12.0
290
     0
  0
SCALE
  5
38F
102
{ACAD_REACTORS
330
370
102
}
330
370
100
AcDbScale
 70
     0
300
3" = 1'-0"
140
3.0
141
12.0
290
     0
  0
SCALE
  5
390
102
{ACAD_REACTORS
330
370
102
}
330
370
100
AcDbScale
 70
     0
300
6" = 1'-0"
140
6.0
141
12.0
290
     0
  0
SCALE
  5
391
102
{ACAD_REACTORS
330
370
102
}
330
370
100
AcDbScale
 70
     0
300
1'-0" = 1'-0"
140
12.0
141
12.0
290
     0
  0
TABLESTYLE
  5
40D
102
{ACAD_REACTORS
330
40C
102
}
102
{ACAD_XDICTIONARY
360
472
102
}
330
40C
100
AcDbTableStyle
  3
Standard
 70
     0
 71
     0
 40
1.5
 41
1.5
280
     0
281
     0
  7
STANDARD
140
4.5
170
     2
 62
     0
 63
   257
283
     0
 90
        4
 91
        0
  1

274
    -2
284
     1
 64
     0
275
    -2
285
     1
 65
     0
276
    -2
286
     1
 66
     0
277
    -2
287
     1
 67
     0
278
    -2
288
     1
 68
     0
279
    -2
289
     1
 69
     0
  7
STANDARD
140
6.0
170
     5
 62
     0
 63
   257
283
     0
 90
        4
 91
        0
  1

274
    -2
284
     1
 64
     0
275
    -2
285
     1
 65
     0
276
    -2
286
     1
 66
     0
277
    -2
287
     1
 67
     0
278
    -2
288
     1
 68
     0
279
    -2
289
     1
 69
     0
  7
STANDARD
140
4.5
170
     5
 62
     0
 63
   257
283
     0
 90
        4
 91
        0
  1

274
    -2
284
     1
 64
     0
275
    -2
285
     1
 65
     0
276
    -2
286
     1
 66
     0
277
    -2
287
     1
 67
     0
278
    -2
288
     1
 68
     0
279
    -2
289
     1
 69
     0
  0
VISUALSTYLE
  5
39A
102
{ACAD_REACTORS
330
395
102
}
330
395
100
AcDbVisualStyle
  2
2dWireframe
 70
     4
177
     3
291
     0
 70
    58
 90
        0
176
     1
 90
        2
176
     1
 90
        0
176
     1
 90
        0
176
     1
 40
-0.6
176
     1
 40
-30.0
176
     1
 62
     7
176
     1
 90
        1
176
     1
 90
        4
176
     1
 62
     7
176
     1
 62
   257
176
     1
 90
        1
176
     1
 90
        1
176
     1
 40
1.0
176
     1
 90
        0
176
     1
 62
   257
176
     1
 40
1.0
176
     1
 90
        1
176
     1
 90
        6
176
     1
 90
        2
176
     1
 62
     7
176
     1
 90
        5
176
     1
 90
        0
176
     1
 90
        0
176
     1
290
     0
176
     1
 90
        1
176
     1
 40
0.0
176
     1
 90
        0
176
     1
290
     1
176
     1
290
     1
176
     1
290
     0
176
     1
290
     0
176
     1
290
     0
176
     1
290
     0
176
     1
290
     0
176
     1
290
     0
176
     1
290
     0
176
     1
 90
       50
176
     1
 40
0.0
176
     1
 40
1.0
176
     1
 90
        0
176
     1
 62
    18
420
        0
176
     1
 90
       50
176
     1
 90
        3
176
     1
 62
     5
420
      255
176
     1
290
     0
176
     1
 90
       50
176
     1
 90
       50
176
     1
 90
       50
176
     1
290
     0
176
     1
 90
       50
176
     1
 62
   256
176
     0
 40
1.0
176
     0
 90
        2
176
     1
  1
strokes_ogs.tif
176
     1
290
     0
176
     1
 40
1.0
176
     1
 40
1.0
176
     1
  0
VISUALSTYLE
  5
39C
102
{ACAD_REACTORS
330
395
102
}
330
395
100
AcDbVisualStyle
  2
3D Hidden
 70
     6
177
     3
291
     0
 70
    58
 90
        1
176
     1
 90
        2
176
     1
 90
        2
176
     1
 90
        0
176
     1
 40
-0.6
176
     1
 40
-30.0
176
     1
 62
     7
176
     1
 90
        2
176
     1
 90
        2
176
     1
 62
     7
176
     1
 62
   257
176
     1
 90
        2
176
     1
 90
        1
176
     1
 40
40.0
176
     1
 90
        0
176
     1
 62
   257
176
     1
 40
1.0
176
     1
 90
        1
176
     1
 90
        6
176
     1
 90
        2
176
     1
 62
     7
176
     1
 90
        3
176
     1
 90
        0
176
     1
 90
        0
176
     1
290
     0
176
     1
 90
        1
176
     1
 40
0.0
176
     1
 90
        0
176
     1
290
     0
176
     1
290
     1
176
     1
290
     1
176
     1
290
     0
176
     1
290
     0
176
     1
290
     0
176
     1
290
     0
176
     1
290
     0
176
     1
290
     0
176
     1
 90
       50
176
     1
 40
0.0
176
     1
 40
1.0
176
     1
 90
        0
176
     1
 62
    18
420
        0
176
     1
 90
       50
176
     1
 90
        3
176
     1
 62
     5
420
      255
176
     1
290
     0
176
     1
 90
       50
176
     1
 90
       50
176
     1
 90
       50
176
     1
290
     0
176
     1
 90
       50
176
     1
 62
   256
176
     0
 40
1.0
176
     0
 90
        2
176
     1
  1
strokes_ogs.tif
176
     1
290
     0
176
     1
 40
1.0
176
     1
 40
1.0
176
     1
  0
VISUALSTYLE
  5
39B
102
{ACAD_REACTORS
330
395
102
}
330
395
100
AcDbVisualStyle
  2
3dWireframe
 70
     5
177
     3
291
     0
 70
    58
 90
        0
176
     1
 90
        2
176
     1
 90
        0
176
     1
 90
        0
176
     1
 40
-0.6
176
     1
 40
-30.0
176
     1
 62
     7
176
     1
 90
        1
176
     1
 90
        4
176
     1
 62
     7
176
     1
 62
   257
176
     1
 90
        1
176
     1
 90
        1
176
     1
 40
1.0
176
     1
 90
        0
176
     1
 62
   257
176
     1
 40
1.0
176
     1
 90
        1
176
     1
 90
        6
176
     1
 90
        2
176
     1
 62
     7
176
     1
 90
        5
176
     1
 90
        0
176
     1
 90
        0
176
     1
290
     0
176
     1
 90
        1
176
     1
 40
0.0
176
     1
 90
        0
176
     1
290
     0
176
     1
290
     1
176
     1
290
     1
176
     1
290
     0
176
     1
290
     0
176
     1
290
     0
176
     1
290
     0
176
     1
290
     0
176
     1
290
     0
176
     1
 90
       50
176
     1
 40
0.0
176
     1
 40
1.0
176
     1
 90
        0
176
     1
 62
    18
420
        0
176
     1
 90
       50
176
     1
 90
        3
176
     1
 62
     5
420
      255
176
     1
290
     0
176
     1
 90
       50
176
     1
 90
       50
176
     1
 90
       50
176
     1
290
     0
176
     1
 90
       50
176
     1
 62
   256
176
     0
 40
1.0
176
     0
 90
        2
176
     1
  1
strokes_ogs.tif
176
     1
290
     0
176
     1
 40
1.0
176
     1
 40
1.0
176
     1
  0
VISUALSTYLE
  5
39D
102
{ACAD_REACTORS
330
395
102
}
330
395
100
AcDbVisualStyle
  2
Basic
 70
     7
177
     3
291
     1
 70
    58
 90
        1
176
     1
 90
        0
176
     1
 90
        1
176
     1
 90
        0
176
     1
 40
-0.6
176
     1
 40
-30.0
176
     1
 62
     7
176
     1
 90
        0
176
     1
 90
        4
176
     1
 62
     7
176
     1
 62
   257
176
     1
 90
        1
176
     1
 90
        1
176
     1
 40
1.0
176
     1
 90
        8
176
     1
 62
     7
176
     1
 40
1.0
176
     1
 90
        1
176
     1
 90
        6
176
     1
 90
        2
176
     1
 62
     7
176
     1
 90
        5
176
     1
 90
        0
176
     1
 90
        0
176
     1
290
     0
176
     1
 90
        1
176
     1
 40
0.0
176
     1
 90
        0
176
     1
290
     0
176
     1
290
     1
176
     1
290
     1
176
     1
290
     0
176
     1
290
     0
176
     1
290
     0
176
     1
290
     0
176
     1
290
     0
176
     1
290
     0
176
     1
 90
       50
176
     1
 40
0.0
176
     1
 40
1.0
176
     1
 90
        0
176
     1
 62
    18
420
        0
176
     1
 90
       50
176
     1
 90
        3
176
     1
 62
     5
420
      255
176
     1
290
     0
176
     1
 90
       50
176
     1
 90
       50
176
     1
 90
       50
176
     1
290
     0
176
     1
 90
       50
176
     1
 62
   256
176
     0
 40
1.0
176
     0
 90
        2
176
     1
  1
strokes_ogs.tif
176
     1
290
     0
176
     1
 40
1.0
176
     1
 40
1.0
176
     1
  0
VISUALSTYLE
  5
3A1
102
{ACAD_REACTORS
330
395
102
}
330
395
100
AcDbVisualStyle
  2
Brighten
 70
    12
177
     3
291
     1
 70
    58
 90
        2
176
     1
 90
        2
176
     1
 90
        0
176
     1
 90
        0
176
     1
 40
-0.6
176
     1
 40
-30.0
176
     1
 62
     7
176
     1
 90
        1
176
     1
 90
        4
176
     1
 62
     7
176
     1
 62
   257
176
     1
 90
        1
176
     1
 90
        1
176
     1
 40
1.0
176
     1
 90
        8
176
     1
 62
     7
176
     1
 40
1.0
176
     1
 90
        1
176
     1
 90
        6
176
     1
 90
        2
176
     1
 62
     7
176
     1
 90
        5
176
     1
 90
        0
176
     1
 90
        0
176
     1
290
     0
176
     1
 90
        1
176
     1
 40
50.0
176
     1
 90
        0
176
     1
290
     0
176
     1
290
     1
176
     1
290
     1
176
     1
290
     0
176
     1
290
     0
176
     1
290
     0
176
     1
290
     0
176
     1
290
     0
176
     1
290
     0
176
     1
 90
       50
176
     1
 40
0.0
176
     1
 40
1.0
176
     1
 90
        0
176
     1
 62
    18
420
        0
176
     1
 90
       50
176
     1
 90
        3
176
     1
 62
     5
420
      255
176
     1
290
     0
176
     1
 90
       50
176
     1
 90
       50
176
     1
 90
       50
176
     1
290
     0
176
     1
 90
       50
176
     1
 62
   256
176
     0
 40
1.0
176
     0
 90
        2
176
     1
  1
strokes_ogs.tif
176
     1
290
     0
176
     1
 40
1.0
176
     1
 40
1.0
176
     1
  0
VISUALSTYLE
  5
3A5
102
{ACAD_REACTORS
330
395
102
}
330
395
100
AcDbVisualStyle
  2
ColorChange
 70
    16
177
     3
291
     1
 70
    58
 90
        2
176
     1
 90
        2
176
     1
 90
        3
176
     1
 90
        0
176
     1
 40
-0.6
176
     1
 40
-30.0
176
     1
 62
     8
176
     1
 90
        1
176
     1
 90
        4
176
     1
 62
     7
176
     1
 62
   257
176
     1
 90
        1
176
     1
 90
        1
176
     1
 40
1.0
176
     1
 90
        8
176
     1
 62
     8
176
     1
 40
1.0
176
     1
 90
        1
176
     1
 90
        6
176
     1
 90
        2
176
     1
 62
     7
176
     1
 90
        5
176
     1
 90
        0
176
     1
 90
        0
176
     1
290
     0
176
     1
 90
        1
176
     1
 40
0.0
176
     1
 90
        0
176
     1
290
     0
176
     1
290
     1
176
     1
290
     1
176
     1
290
     0
176
     1
290
     0
176
     1
290
     0
176
     1
290
     0
176
     1
290
     0
176
     1
290
     0
176
     1
 90
       50
176
     1
 40
0.0
176
     1
 40
1.0
176
     1
 90
        0
176
     1
 62
    18
420
        0
176
     1
 90
       50
176
     1
 90
        3
176
     1
 62
     5
420
      255
176
     1
290
     0
176
     1
 90
       50
176
     1
 90
       50
176
     1
 90
       50
176
     1
290
     0
176
     1
 90
       50
176
     1
 62
   256
176
     0
 40
1.0
176
     0
 90
        2
176
     1
  1
strokes_ogs.tif
176
     1
290
     0
176
     1
 40
1.0
176
     1
 40
1.0
176
     1
  0
VISUALSTYLE
  5
39F
102
{ACAD_REACTORS
330
395
102
}
330
395
100
AcDbVisualStyle
  2
Conceptual
 70
     9
177
     3
291
     0
 70
    58
 90
        3
176
     1
 90
        2
176
     1
 90
        0
176
     1
 90
        0
176
     1
 40
-0.6
176
     1
 40
-30.0
176
     1
 62
     7
176
     1
 90
        2
176
     1
 90
        2
176
     1
 62
     7
176
     1
 62
   257
176
     1
 90
        1
176
     1
 90
        1
176
     1
 40
40.0
176
     1
 90
        8
176
     1
 62
     7
176
     1
 40
1.0
176
     1
 90
        1
176
     1
 90
        6
176
     1
 90
        2
176
     1
 62
     7
176
     1
 90
        3
176
     1
 90
        0
176
     1
 90
        0
176
     1
290
     0
176
     1
 90
        1
176
     1
 40
0.0
176
     1
 90
        0
176
     1
290
     0
176
     1
290
     1
176
     1
290
     1
176
     1
290
     0
176
     1
290
     0
176
     1
290
     0
176
     1
290
     0
176
     1
290
     0
176
     1
290
     0
176
     1
 90
       50
176
     1
 40
0.0
176
     1
 40
1.0
176
     1
 90
        0
176
     1
 62
    18
420
        0
176
     1
 90
       50
176
     1
 90
        3
176
     1
 62
     5
420
      255
176
     1
290
     0
176
     1
 90
       50
176
     1
 90
       50
176
     1
 90
       50
176
     1
290
     0
176
     1
 90
       50
176
     1
 62
   256
176
     0
 40
1.0
176
     0
 90
        2
176
     1
  1
strokes_ogs.tif
176
     1
290
     0
176
     1
 40
1.0
176
     1
 40
1.0
176
     1
  0
VISUALSTYLE
  5
3A0
102
{ACAD_REACTORS
330
395
102
}
330
395
100
AcDbVisualStyle
  2
Dim
 70
    11
177
     3
291
     1
 70
    58
 90
        2
176
     1
 90
        2
176
     1
 90
        0
176
     1
 90
        0
176
     1
 40
-0.6
176
     1
 40
-30.0
176
     1
 62
     7
176
     1
 90
        1
176
     1
 90
        4
176
     1
 62
     7
176
     1
 62
   257
176
     1
 90
        1
176
     1
 90
        1
176
     1
 40
1.0
176
     1
 90
        8
176
     1
 62
     7
176
     1
 40
1.0
176
     1
 90
        1
176
     1
 90
        6
176
     1
 90
        2
176
     1
 62
     7
176
     1
 90
        5
176
     1
 90
        0
176
     1
 90
        0
176
     1
290
     0
176
     1
 90
        1
176
     1
 40
-50.0
176
     1
 90
        0
176
     1
290
     0
176
     1
290
     1
176
     1
290
     1
176
     1
290
     0
176
     1
290
     0
176
     1
290
     0
176
     1
290
     0
176
     1
290
     0
176
     1
290
     0
176
     1
 90
       50
176
     1
 40
0.0
176
     1
 40
1.0
176
     1
 90
        0
176
     1
 62
    18
420
        0
176
     1
 90
       50
176
     1
 90
        3
176
     1
 62
     5
420
      255
176
     1
290
     0
176
     1
 90
       50
176
     1
 90
       50
176
     1
 90
       50
176
     1
290
     0
176
     1
 90
       50
176
     1
 62
   256
176
     0
 40
1.0
176
     0
 90
        2
176
     1
  1
strokes_ogs.tif
176
     1
290
     0
176
     1
 40
1.0
176
     1
 40
1.0
176
     1
  0
VISUALSTYLE
  5
406
102
{ACAD_REACTORS
330
395
102
}
330
395
100
AcDbVisualStyle
  2
EdgeColorOff
 70
    22
177
     3
291
     1
 70
    58
 90
        2
176
     0
 90
        2
176
     0
 90
        0
176
     0
 90
        0
176
     0
 40
0.6
176
     0
 40
30.0
176
     0
 62
     7
420
 16777215
176
     0
 90
        1
176
     0
 90
        4
176
     0
 62
     7
176
     0
 62
   257
176
     0
 90
        1
176
     0
 90
        1
176
     0
 40
1.0
176
     0
 90
        8
176
     2
 62
     7
176
     0
 40
1.0
176
     0
 90
        1
176
     0
 90
        6
176
     0
 90
        2
176
     0
 62
     7
176
     0
 90
        5
176
     0
 90
        0
176
     0
 90
        0
176
     0
290
     0
176
     0
 90
        1
176
     0
 40
0.0
176
     0
 90
        0
176
     0
290
     0
176
     0
290
     1
176
     0
290
     1
176
     0
290
     0
176
     0
290
     0
176
     0
290
     0
176
     0
290
     0
176
     0
290
     0
176
     0
290
     0
176
     0
 90
       50
176
     0
 40
0.0
176
     0
 40
1.0
176
     0
 90
        0
176
     0
 62
    18
420
        0
176
     0
 90
       50
176
     0
 90
        3
176
     0
 62
     5
420
      255
176
     0
290
     0
176
     0
 90
       50
176
     0
 90
       50
176
     0
 90
       50
176
     0
290
     0
176
     0
 90
       50
176
     0
 62
   256
176
     0
 40
1.0
176
     0
 90
        2
176
     0
  1
strokes_ogs.tif
176
     0
290
     0
176
     0
 40
1.0
176
     0
 40
1.0
176
     0
  0
VISUALSTYLE
  5
3A4
102
{ACAD_REACTORS
330
395
102
}
330
395
100
AcDbVisualStyle
  2
Facepattern
 70
    15
177
     3
291
     1
 70
    58
 90
        2
176
     1
 90
        2
176
     1
 90
        0
176
     1
 90
        0
176
     1
 40
-0.6
176
     1
 40
-30.0
176
     1
 62
     7
176
     1
 90
        1
176
     1
 90
        4
176
     1
 62
     7
176
     1
 62
   257
176
     1
 90
        1
176
     1
 90
        1
176
     1
 40
1.0
176
     1
 90
        8
176
     1
 62
     7
176
     1
 40
1.0
176
     1
 90
        1
176
     1
 90
        6
176
     1
 90
        2
176
     1
 62
     7
176
     1
 90
        5
176
     1
 90
        0
176
     1
 90
        0
176
     1
290
     0
176
     1
 90
        1
176
     1
 40
0.0
176
     1
 90
        0
176
     1
290
     0
176
     1
290
     1
176
     1
290
     1
176
     1
290
     0
176
     1
290
     0
176
     1
290
     0
176
     1
290
     0
176
     1
290
     0
176
     1
290
     0
176
     1
 90
       50
176
     1
 40
0.0
176
     1
 40
1.0
176
     1
 90
        0
176
     1
 62
    18
420
        0
176
     1
 90
       50
176
     1
 90
        3
176
     1
 62
     5
420
      255
176
     1
290
     0
176
     1
 90
       50
176
     1
 90
       50
176
     1
 90
       50
176
     1
290
     0
176
     1
 90
       50
176
     1
 62
   256
176
     0
 40
1.0
176
     0
 90
        2
176
     1
  1
strokes_ogs.tif
176
     1
290
     0
176
     1
 40
1.0
176
     1
 40
1.0
176
     1
  0
VISUALSTYLE
  5
396
102
{ACAD_REACTORS
330
395
102
}
330
395
100
AcDbVisualStyle
  2
Flat
 70
     0
177
     3
291
     1
 70
    58
 90
        2
176
     1
 90
        1
176
     1
 90
        1
176
     1
 90
        2
176
     1
 40
-0.6
176
     1
 40
30.0
176
     1
 62
     7
176
     1
 90
        0
176
     1
 90
        4
176
     1
 62
     7
176
     1
 62
   257
176
     1
 90
        1
176
     1
 90
        1
176
     1
 40
1.0
176
     1
 90
        8
176
     1
 62
     7
176
     1
 40
1.0
176
     1
 90
        1
176
     1
 90
        6
176
     1
 90
        2
176
     1
 62
     7
176
     1
 90
        5
176
     1
 90
        0
176
     1
 90
        0
176
     1
290
     0
176
     1
 90
       13
176
     1
 40
0.0
176
     1
 90
        0
176
     1
290
     0
176
     1
290
     1
176
     1
290
     1
176
     1
290
     0
176
     1
290
     0
176
     1
290
     0
176
     1
290
     0
176
     1
290
     0
176
     1
290
     0
176
     1
 90
       50
176
     1
 40
0.0
176
     1
 40
1.0
176
     1
 90
        0
176
     1
 62
    18
420
        0
176
     1
 90
       50
176
     1
 90
        3
176
     1
 62
     5
420
      255
176
     1
290
     0
176
     1
 90
       50
176
     1
 90
       50
176
     1
 90
       50
176
     1
290
     0
176
     1
 90
       50
176
     1
 62
   256
176
     0
 40
1.0
176
     0
 90
        2
176
     1
  1
strokes_ogs.tif
176
     1
290
     0
176
     1
 40
1.0
176
     1
 40
1.0
176
     1
  0
VISUALSTYLE
  5
397
102
{ACAD_REACTORS
330
395
102
}
330
395
100
AcDbVisualStyle
  2
FlatWithEdges
 70
     1
177
     3
291
     1
 70
    58
 90
        2
176
     1
 90
        1
176
     1
 90
        1
176
     1
 90
        2
176
     1
 40
-0.6
176
     1
 40
30.0
176
     1
 62
     7
176
     1
 90
        1
176
     1
 90
        4
176
     1
 62
     7
176
     1
 62
   257
176
     1
 90
        1
176
     1
 90
        1
176
     1
 40
1.0
176
     1
 90
        0
176
     1
 62
   257
176
     1
 40
1.0
176
     1
 90
        1
176
     1
 90
        6
176
     1
 90
        2
176
     1
 62
     7
176
     1
 90
        5
176
     1
 90
        0
176
     1
 90
        0
176
     1
290
     0
176
     1
 90
       13
176
     1
 40
0.0
176
     1
 90
        0
176
     1
290
     0
176
     1
290
     1
176
     1
290
     1
176
     1
290
     0
176
     1
290
     0
176
     1
290
     0
176
     1
290
     0
176
     1
290
     0
176
     1
290
     0
176
     1
 90
       50
176
     1
 40
0.0
176
     1
 40
1.0
176
     1
 90
        0
176
     1
 62
    18
420
        0
176
     1
 90
       50
176
     1
 90
        3
176
     1
 62
     5
420
      255
176
     1
290
     0
176
     1
 90
       50
176
     1
 90
       50
176
     1
 90
       50
176
     1
290
     0
176
     1
 90
       50
176
     1
 62
   256
176
     0
 40
1.0
176
     0
 90
        2
176
     1
  1
strokes_ogs.tif
176
     1
290
     0
176
     1
 40
1.0
176
     1
 40
1.0
176
     1
  0
VISUALSTYLE
  5
398
102
{ACAD_REACTORS
330
395
102
}
330
395
100
AcDbVisualStyle
  2
Gouraud
 70
     2
177
     3
291
     1
 70
    58
 90
        2
176
     1
 90
        2
176
     1
 90
        1
176
     1
 90
        2
176
     1
 40
-0.6
176
     1
 40
30.0
176
     1
 62
     7
176
     1
 90
        0
176
     1
 90
        4
176
     1
 62
     7
176
     1
 62
   257
176
     1
 90
        1
176
     1
 90
        1
176
     1
 40
1.0
176
     1
 90
        0
176
     1
 62
     7
176
     1
 40
1.0
176
     1
 90
        1
176
     1
 90
        6
176
     1
 90
        2
176
     1
 62
     7
176
     1
 90
        5
176
     1
 90
        0
176
     1
 90
        0
176
     1
290
     0
176
     1
 90
       13
176
     1
 40
0.0
176
     1
 90
        0
176
     1
290
     0
176
     1
290
     1
176
     1
290
     1
176
     1
290
     0
176
     1
290
     0
176
     1
290
     0
176
     1
290
     0
176
     1
290
     0
176
     1
290
     0
176
     1
 90
       50
176
     1
 40
0.0
176
     1
 40
1.0
176
     1
 90
        0
176
     1
 62
    18
420
        0
176
     1
 90
       50
176
     1
 90
        3
176
     1
 62
     5
420
      255
176
     1
290
     0
176
     1
 90
       50
176
     1
 90
       50
176
     1
 90
       50
176
     1
290
     0
176
     1
 90
       50
176
     1
 62
   256
176
     0
 40
1.0
176
     0
 90
        2
176
     1
  1
strokes_ogs.tif
176
     1
290
     0
176
     1
 40
1.0
176
     1
 40
1.0
176
     1
  0
VISUALSTYLE
  5
399
102
{ACAD_REACTORS
330
395
102
}
330
395
100
AcDbVisualStyle
  2
GouraudWithEdges
 70
     3
177
     3
291
     1
 70
    58
 90
        2
176
     1
 90
        2
176
     1
 90
        1
176
     1
 90
        2
176
     1
 40
-0.6
176
     1
 40
30.0
176
     1
 62
     7
176
     1
 90
        1
176
     1
 90
        4
176
     1
 62
     7
176
     1
 62
   257
176
     1
 90
        1
176
     1
 90
        1
176
     1
 40
1.0
176
     1
 90
        0
176
     1
 62
   257
176
     1
 40
1.0
176
     1
 90
        1
176
     1
 90
        6
176
     1
 90
        2
176
     1
 62
     7
176
     1
 90
        5
176
     1
 90
        0
176
     1
 90
        0
176
     1
290
     0
176
     1
 90
       13
176
     1
 40
0.0
176
     1
 90
        0
176
     1
290
     0
176
     1
290
     1
176
     1
290
     1
176
     1
290
     0
176
     1
290
     0
176
     1
290
     0
176
     1
290
     0
176
     1
290
     0
176
     1
290
     0
176
     1
 90
       50
176
     1
 40
0.0
176
     1
 40
1.0
176
     1
 90
        0
176
     1
 62
    18
420
        0
176
     1
 90
       50
176
     1
 90
        3
176
     1
 62
     5
420
      255
176
     1
290
     0
176
     1
 90
       50
176
     1
 90
       50
176
     1
 90
       50
176
     1
290
     0
176
     1
 90
       50
176
     1
 62
   256
176
     0
 40
1.0
176
     0
 90
        2
176
     1
  1
strokes_ogs.tif
176
     1
290
     0
176
     1
 40
1.0
176
     1
 40
1.0
176
     1
  0
VISUALSTYLE
  5
403
102
{ACAD_REACTORS
330
395
102
}
330
395
100
AcDbVisualStyle
  2
Hidden
 70
     6
177
     3
291
     0
 70
    58
 90
        1
176
     1
 90
        2
176
     1
 90
        2
176
     1
 90
        0
176
     1
 40
0.6
176
     1
 40
30.0
176
     1
 62
     7
420
 16777215
176
     1
 90
        2
176
     1
 90
        2
176
     1
 62
     7
176
     1
 62
   257
176
     1
 90
        2
176
     1
 90
        1
176
     1
 40
40.0
176
     1
 90
        0
176
     1
 62
   257
176
     1
 40
1.0
176
     1
 90
        1
176
     1
 90
        6
176
     1
 90
        2
176
     1
 62
     7
176
     1
 90
        3
176
     1
 90
        0
176
     1
 90
        0
176
     1
290
     0
176
     1
 90
        1
176
     1
 40
0.0
176
     1
 90
        0
176
     1
290
     0
176
     1
290
     1
176
     1
290
     1
176
     1
290
     0
176
     1
290
     0
176
     1
290
     0
176
     1
290
     0
176
     1
290
     0
176
     1
290
     0
176
     1
 90
       50
176
     1
 40
0.0
176
     1
 40
1.0
176
     1
 90
        0
176
     1
 62
    18
420
        0
176
     1
 90
       50
176
     1
 90
        3
176
     1
 62
     5
420
      255
176
     1
290
     0
176
     1
 90
       50
176
     1
 90
       50
176
     1
 90
       50
176
     1
290
     0
176
     1
 90
       50
176
     1
 62
   256
176
     0
 40
1.0
176
     0
 90
        2
176
     1
  1
strokes_ogs.tif
176
     1
290
     0
176
     1
 40
1.0
176
     1
 40
1.0
176
     1
  0
VISUALSTYLE
  5
404
102
{ACAD_REACTORS
330
395
102
}
330
395
100
AcDbVisualStyle
  2
JitterOff
 70
    20
177
     3
291
     1
 70
    58
 90
        2
176
     0
 90
        2
176
     0
 90
        0
176
     0
 90
        0
176
     0
 40
0.6
176
     0
 40
30.0
176
     0
 62
     7
420
 16777215
176
     0
 90
        1
176
     0
 90
        4
176
     0
 62
     7
176
     0
 62
   257
176
     0
 90
        1
176
     0
 90
        1
176
     0
 40
1.0
176
     0
 90
       10
176
     2
 62
     7
176
     0
 40
1.0
176
     0
 90
        1
176
     0
 90
        6
176
     0
 90
        2
176
     0
 62
     7
176
     0
 90
        5
176
     0
 90
        0
176
     0
 90
        0
176
     0
290
     0
176
     0
 90
        1
176
     0
 40
0.0
176
     0
 90
        0
176
     0
290
     0
176
     0
290
     1
176
     0
290
     1
176
     0
290
     0
176
     0
290
     0
176
     0
290
     0
176
     0
290
     0
176
     0
290
     0
176
     0
290
     0
176
     0
 90
       50
176
     0
 40
0.0
176
     0
 40
1.0
176
     0
 90
        0
176
     0
 62
    18
420
        0
176
     0
 90
       50
176
     0
 90
        3
176
     0
 62
     5
420
      255
176
     0
290
     0
176
     0
 90
       50
176
     0
 90
       50
176
     0
 90
       50
176
     0
290
     0
176
     0
 90
       50
176
     0
 62
   256
176
     0
 40
1.0
176
     0
 90
        2
176
     0
  1
strokes_ogs.tif
176
     0
290
     0
176
     0
 40
1.0
176
     0
 40
1.0
176
     0
  0
VISUALSTYLE
  5
3A3
102
{ACAD_REACTORS
330
395
102
}
330
395
100
AcDbVisualStyle
  2
Linepattern
 70
    14
177
     3
291
     1
 70
    58
 90
        2
176
     1
 90
        2
176
     1
 90
        0
176
     1
 90
        0
176
     1
 40
-0.6
176
     1
 40
-30.0
176
     1
 62
     7
176
     1
 90
        1
176
     1
 90
        4
176
     1
 62
     7
176
     1
 62
   257
176
     1
 90
        7
176
     1
 90
        7
176
     1
 40
1.0
176
     1
 90
        8
176
     1
 62
     7
176
     1
 40
1.0
176
     1
 90
        1
176
     1
 90
        6
176
     1
 90
        2
176
     1
 62
     7
176
     1
 90
        5
176
     1
 90
        0
176
     1
 90
        0
176
     1
290
     0
176
     1
 90
        1
176
     1
 40
0.0
176
     1
 90
        0
176
     1
290
     0
176
     1
290
     1
176
     1
290
     1
176
     1
290
     0
176
     1
290
     0
176
     1
290
     0
176
     1
290
     0
176
     1
290
     0
176
     1
290
     0
176
     1
 90
       50
176
     1
 40
0.0
176
     1
 40
1.0
176
     1
 90
        0
176
     1
 62
    18
420
        0
176
     1
 90
       50
176
     1
 90
        3
176
     1
 62
     5
420
      255
176
     1
290
     0
176
     1
 90
       50
176
     1
 90
       50
176
     1
 90
       50
176
     1
290
     0
176
     1
 90
       50
176
     1
 62
   256
176
     0
 40
1.0
176
     0
 90
        2
176
     1
  1
strokes_ogs.tif
176
     1
290
     0
176
     1
 40
1.0
176
     1
 40
1.0
176
     1
  0
VISUALSTYLE
  5
405
102
{ACAD_REACTORS
330
395
102
}
330
395
100
AcDbVisualStyle
  2
OverhangOff
 70
    21
177
     3
291
     1
 70
    58
 90
        2
176
     0
 90
        2
176
     0
 90
        0
176
     0
 90
        0
176
     0
 40
0.6
176
     0
 40
30.0
176
     0
 62
     7
420
 16777215
176
     0
 90
        1
176
     0
 90
        4
176
     0
 62
     7
176
     0
 62
   257
176
     0
 90
        1
176
     0
 90
        1
176
     0
 40
1.0
176
     0
 90
        9
176
     2
 62
     7
176
     0
 40
1.0
176
     0
 90
        1
176
     0
 90
        6
176
     0
 90
        2
176
     0
 62
     7
176
     0
 90
        5
176
     0
 90
        0
176
     0
 90
        0
176
     0
290
     0
176
     0
 90
        1
176
     0
 40
0.0
176
     0
 90
        0
176
     0
290
     0
176
     0
290
     1
176
     0
290
     1
176
     0
290
     0
176
     0
290
     0
176
     0
290
     0
176
     0
290
     0
176
     0
290
     0
176
     0
290
     0
176
     0
 90
       50
176
     0
 40
0.0
176
     0
 40
1.0
176
     0
 90
        0
176
     0
 62
    18
420
        0
176
     0
 90
       50
176
     0
 90
        3
176
     0
 62
     5
420
      255
176
     0
290
     0
176
     0
 90
       50
176
     0
 90
       50
176
     0
 90
       50
176
     0
290
     0
176
     0
 90
       50
176
     0
 62
   256
176
     0
 40
1.0
176
     0
 90
        2
176
     0
  1
strokes_ogs.tif
176
     0
290
     0
176
     0
 40
1.0
176
     0
 40
1.0
176
     0
  0
VISUALSTYLE
  5
39E
102
{ACAD_REACTORS
330
395
102
}
330
395
100
AcDbVisualStyle
  2
Realistic
 70
     8
177
     3
291
     0
 70
    58
 90
        2
176
     1
 90
        2
176
     1
 90
        0
176
     1
 90
        0
176
     1
 40
-0.6
176
     1
 40
-30.0
176
     1
 62
     7
176
     1
 90
        1
176
     1
 90
        0
176
     1
 62
     7
176
     1
 62
   257
176
     1
 90
        1
176
     1
 90
        1
176
     1
 40
1.0
176
     1
 90
        8
176
     1
 62
     8
176
     1
 40
1.0
176
     1
 90
        1
176
     1
 90
        6
176
     1
 90
        2
176
     1
 62
     7
176
     1
 90
        5
176
     1
 90
        0
176
     1
 90
        0
176
     1
290
     0
176
     1
 90
       13
176
     1
 40
0.0
176
     1
 90
        0
176
     1
290
     0
176
     1
290
     1
176
     1
290
     1
176
     1
290
     0
176
     1
290
     0
176
     1
290
     0
176
     1
290
     0
176
     1
290
     0
176
     1
290
     0
176
     1
 90
       50
176
     1
 40
0.0
176
     1
 40
1.0
176
     1
 90
        0
176
     1
 62
    18
420
        0
176
     1
 90
       50
176
     1
 90
        3
176
     1
 62
     5
420
      255
176
     1
290
     0
176
     1
 90
       50
176
     1
 90
       50
176
     1
 90
       50
176
     1
290
     0
176
     1
 90
       50
176
     1
 62
   256
176
     0
 40
1.0
176
     0
 90
        2
176
     1
  1
strokes_ogs.tif
176
     1
290
     0
176
     1
 40
1.0
176
     1
 40
1.0
176
     1
  0
VISUALSTYLE
  5
40B
102
{ACAD_REACTORS
330
395
102
}
330
395
100
AcDbVisualStyle
  2
Shaded
 70
    27
177
     3
291
     0
 70
    58
 90
        2
176
     1
 90
        2
176
     1
 90
        1
176
     1
 90
        2
176
     1
 40
0.6
176
     1
 40
30.0
176
     1
 62
     7
420
 16777215
176
     1
 90
        0
176
     1
 90
        4
176
     1
 62
     7
176
     1
 62
   257
176
     1
 90
        1
176
     1
 90
        1
176
     1
 40
1.0
176
     1
 90
        8
176
     1
 62
   257
176
     1
 40
1.0
176
     1
 90
        1
176
     1
 90
        6
176
     1
 90
        2
176
     1
 62
     8
420
  7895160
176
     1
 90
        3
176
     1
 90
        0
176
     1
 90
        0
176
     1
290
     0
176
     1
 90
        5
176
     1
 40
0.0
176
     1
 90
        0
176
     1
290
     0
176
     1
290
     1
176
     1
290
     1
176
     1
290
     0
176
     1
290
     0
176
     1
290
     0
176
     1
290
     0
176
     1
290
     0
176
     1
290
     0
176
     1
 90
       50
176
     1
 40
0.0
176
     1
 40
1.0
176
     1
 90
        0
176
     1
 62
    18
420
        0
176
     1
 90
       50
176
     1
 90
        3
176
     1
 62
     5
420
      255
176
     1
290
     0
176
     1
 90
       50
176
     1
 90
       50
176
     1
 90
       50
176
     1
290
     0
176
     1
 90
       50
176
     1
 62
   256
176
     0
 40
1.0
176
     0
 90
        2
176
     1
  1
strokes_ogs.tif
176
     1
290
     0
176
     1
 40
1.0
176
     1
 40
1.0
176
     1
  0
VISUALSTYLE
  5
40A
102
{ACAD_REACTORS
330
395
102
}
330
395
100
AcDbVisualStyle
  2
Shaded with edges
 70
    26
177
     3
291
     0
 70
    58
 90
        2
176
     1
 90
        2
176
     1
 90
        1
176
     1
 90
        2
176
     1
 40
0.6
176
     1
 40
30.0
176
     1
 62
     7
420
 16777215
176
     1
 90
        1
176
     1
 90
       10
176
     1
 62
     7
176
     1
 62
   257
176
     1
 90
        2
176
     1
 90
        1
176
     1
 40
1.0
176
     1
 90
        8
176
     1
 62
   257
176
     1
 40
1.0
176
     1
 90
        1
176
     1
 90
        6
176
     1
 90
        2
176
     1
 62
     7
176
     1
 90
        3
176
     1
 90
        0
176
     1
 90
        0
176
     1
290
     0
176
     1
 90
        5
176
     1
 40
0.0
176
     1
 90
        0
176
     1
290
     0
176
     1
290
     1
176
     1
290
     1
176
     1
290
     0
176
     1
290
     0
176
     1
290
     0
176
     1
290
     0
176
     1
290
     0
176
     1
290
     0
176
     1
 90
       50
176
     1
 40
0.0
176
     1
 40
1.0
176
     1
 90
        0
176
     1
 62
    18
420
        0
176
     1
 90
       50
176
     1
 90
        3
176
     1
 62
     5
420
      255
176
     1
290
     0
176
     1
 90
       50
176
     1
 90
       50
176
     1
 90
       50
176
     1
290
     0
176
     1
 90
       50
176
     1
 62
   256
176
     0
 40
1.0
176
     0
 90
        2
176
     1
  1
strokes_ogs.tif
176
     1
290
     0
176
     1
 40
1.0
176
     1
 40
1.0
176
     1
  0
VISUALSTYLE
  5
407
102
{ACAD_REACTORS
330
395
102
}
330
395
100
AcDbVisualStyle
  2
Shades of Gray
 70
    23
177
     3
291
     0
 70
    58
 90
        2
176
     1
 90
        2
176
     1
 90
        3
176
     1
 90
        0
176
     1
 40
0.6
176
     1
 40
30.0
176
     1
 62
     7
420
 16777215
176
     1
 90
        2
176
     1
 90
        2
176
     1
 62
     7
176
     1
 62
     7
176
     1
 90
        1
176
     1
 90
        1
176
     1
 40
40.0
176
     1
 90
        8
176
     1
 62
     7
176
     1
 40
1.0
176
     1
 90
        1
176
     1
 90
        6
176
     1
 90
        2
176
     1
 62
     7
176
     1
 90
        3
176
     1
 90
        0
176
     1
 90
        0
176
     1
290
     0
176
     1
 90
        1
176
     1
 40
0.0
176
     1
 90
        0
176
     1
290
     0
176
     1
290
     1
176
     1
290
     1
176
     1
290
     0
176
     1
290
     0
176
     1
290
     0
176
     1
290
     0
176
     1
290
     0
176
     1
290
     0
176
     1
 90
       50
176
     1
 40
0.0
176
     1
 40
1.0
176
     1
 90
        0
176
     1
 62
    18
420
        0
176
     1
 90
       50
176
     1
 90
        3
176
     1
 62
     5
420
      255
176
     1
290
     0
176
     1
 90
       50
176
     1
 90
       50
176
     1
 90
       50
176
     1
290
     0
176
     1
 90
       50
176
     1
 62
   256
176
     0
 40
1.0
176
     0
 90
        2
176
     1
  1
strokes_ogs.tif
176
     1
290
     0
176
     1
 40
1.0
176
     1
 40
1.0
176
     1
  0
VISUALSTYLE
  5
408
102
{ACAD_REACTORS
330
395
102
}
330
395
100
AcDbVisualStyle
  2
Sketchy
 70
    24
177
     3
291
     0
 70
    58
 90
        1
176
     1
 90
        2
176
     1
 90
        2
176
     1
 90
        0
176
     1
 40
0.6
176
     1
 40
30.0
176
     1
 62
     7
420
 16777215
176
     1
 90
        2
176
     1
 90
        2
176
     1
 62
     7
176
     1
 62
     7
176
     1
 90
        1
176
     1
 90
        1
176
     1
 40
40.0
176
     1
 90
       11
176
     1
 62
     7
176
     1
 40
1.0
176
     1
 90
        1
176
     1
 90
        6
176
     1
 90
        2
176
     1
 62
     7
176
     1
 90
        6
176
     1
 90
        0
176
     1
 90
        0
176
     1
290
     0
176
     1
 90
        1
176
     1
 40
0.0
176
     1
 90
        0
176
     1
290
     0
176
     1
290
     1
176
     1
290
     1
176
     1
290
     0
176
     1
290
     0
176
     1
290
     0
176
     1
290
     0
176
     1
290
     0
176
     1
290
     0
176
     1
 90
       50
176
     1
 40
0.0
176
     1
 40
1.0
176
     1
 90
        0
176
     1
 62
    18
420
        0
176
     1
 90
       50
176
     1
 90
        3
176
     1
 62
     5
420
      255
176
     1
290
     0
176
     1
 90
       50
176
     1
 90
       50
176
     1
 90
       50
176
     1
290
     0
176
     1
 90
       50
176
     1
 62
   256
176
     0
 40
1.0
176
     0
 90
        2
176
     1
  1
strokes_ogs.tif
176
     1
290
     0
176
     1
 40
1.0
176
     1
 40
1.0
176
     1
  0
VISUALSTYLE
  5
3A2
102
{ACAD_REACTORS
330
395
102
}
330
395
100
AcDbVisualStyle
  2
Thicken
 70
    13
177
     3
291
     1
 70
    58
 90
        2
176
     1
 90
        2
176
     1
 90
        0
176
     1
 90
        0
176
     1
 40
-0.6
176
     1
 40
-30.0
176
     1
 62
     7
176
     1
 90
        1
176
     1
 90
        4
176
     1
 62
     7
176
     1
 62
   257
176
     1
 90
        1
176
     1
 90
        1
176
     1
 40
1.0
176
     1
 90
       12
176
     1
 62
     7
176
     1
 40
1.0
176
     1
 90
        1
176
     1
 90
        6
176
     1
 90
        2
176
     1
 62
     7
176
     1
 90
        5
176
     1
 90
        0
176
     1
 90
        0
176
     1
290
     0
176
     1
 90
        1
176
     1
 40
0.0
176
     1
 90
        0
176
     1
290
     0
176
     1
290
     1
176
     1
290
     1
176
     1
290
     0
176
     1
290
     0
176
     1
290
     0
176
     1
290
     0
176
     1
290
     0
176
     1
290
     0
176
     1
 90
       50
176
     1
 40
0.0
176
     1
 40
1.0
176
     1
 90
        0
176
     1
 62
    18
420
        0
176
     1
 90
       50
176
     1
 90
        3
176
     1
 62
     5
420
      255
176
     1
290
     0
176
     1
 90
       50
176
     1
 90
       50
176
     1
 90
       50
176
     1
290
     0
176
     1
 90
       50
176
     1
 62
   256
176
     0
 40
1.0
176
     0
 90
        2
176
     1
  1
strokes_ogs.tif
176
     1
290
     0
176
     1
 40
1.0
176
     1
 40
1.0
176
     1
  0
VISUALSTYLE
  5
402
102
{ACAD_REACTORS
330
395
102
}
330
395
100
AcDbVisualStyle
  2
Wireframe
 70
     5
177
     3
291
     0
 70
    58
 90
        0
176
     1
 90
        2
176
     1
 90
        0
176
     1
 90
        0
176
     1
 40
0.6
176
     1
 40
30.0
176
     1
 62
     7
420
 16777215
176
     1
 90
        1
176
     1
 90
        4
176
     1
 62
     7
176
     1
 62
   257
176
     1
 90
        1
176
     1
 90
        1
176
     1
 40
1.0
176
     1
 90
        0
176
     1
 62
   257
176
     1
 40
1.0
176
     1
 90
        1
176
     1
 90
        6
176
     1
 90
        2
176
     1
 62
     7
176
     1
 90
        3
176
     1
 90
        0
176
     1
 90
        0
176
     1
290
     0
176
     1
 90
        1
176
     1
 40
0.0
176
     1
 90
        0
176
     1
290
     0
176
     1
290
     1
176
     1
290
     1
176
     1
290
     0
176
     1
290
     0
176
     1
290
     0
176
     1
290
     0
176
     1
290
     0
176
     1
290
     0
176
     1
 90
       50
176
     1
 40
0.0
176
     1
 40
1.0
176
     1
 90
        0
176
     1
 62
    18
420
        0
176
     1
 90
       50
176
     1
 90
        3
176
     1
 62
     5
420
      255
176
     1
290
     0
176
     1
 90
       50
176
     1
 90
       50
176
     1
 90
       50
176
     1
290
     0
176
     1
 90
       50
176
     1
 62
   256
176
     0
 40
1.0
176
     0
 90
        2
176
     1
  1
strokes_ogs.tif
176
     1
290
     0
176
     1
 40
1.0
176
     1
 40
1.0
176
     1
  0
VISUALSTYLE
  5
409
102
{ACAD_REACTORS
330
395
102
}
330
395
100
AcDbVisualStyle
  2
X-Ray
 70
    25
177
     3
291
     0
 70
    58
 90
        2
176
     1
 90
        2
176
     1
 90
        1
176
     1
 90
        1
176
     1
 40
0.5
176
     1
 40
30.0
176
     1
 62
     7
420
 16777215
176
     1
 90
        1
176
     1
 90
        0
176
     1
 62
     7
176
     1
 62
   257
176
     1
 90
        1
176
     1
 90
        1
176
     1
 40
1.0
176
     1
 90
        8
176
     1
 62
     7
176
     1
 40
1.0
176
     1
 90
        1
176
     1
 90
        6
176
     1
 90
        2
176
     1
 62
     7
176
     1
 90
        3
176
     1
 90
        0
176
     1
 90
        0
176
     1
290
     0
176
     1
 90
       13
176
     1
 40
0.0
176
     1
 90
        0
176
     1
290
     0
176
     1
290
     1
176
     1
290
     1
176
     1
290
     0
176
     1
290
     0
176
     1
290
     0
176
     1
290
     0
176
     1
290
     0
176
     1
290
     0
176
     1
 90
       50
176
     1
 40
0.0
176
     1
 40
1.0
176
     1
 90
        0
176
     1
 62
    18
420
        0
176
     1
 90
       50
176
     1
 90
        3
176
     1
 62
     5
420
      255
176
     1
290
     0
176
     1
 90
       50
176
     1
 90
       50
176
     1
 90
       50
176
     1
290
     0
176
     1
 90
       50
176
     1
 62
   256
176
     0
 40
1.0
176
     0
 90
        2
176
     1
  1
strokes_ogs.tif
176
     1
290
     0
176
     1
 40
1.0
176
     1
 40
1.0
176
     1
  0
DICTIONARYVAR
  5
417
102
{ACAD_REACTORS
330
3BB
102
}
330
3BB
100
DictionaryVariables
280
     0
  1
1:1
  0
DICTIONARYVAR
  5
419
102
{ACAD_REACTORS
330
3BB
102
}
330
3BB
100
DictionaryVariables
280
     0
  1
Standard
  0
DICTIONARYVAR
  5
418
102
{ACAD_REACTORS
330
3BB
102
}
330
3BB
100
DictionaryVariables
280
     0
  1
Standard
  0
DICTIONARYVAR
  5
3BF
102
{ACAD_REACTORS
330
3BB
102
}
330
3BB
100
DictionaryVariables
280
     0
  1
2
  0
DICTIONARYVAR
  5
3C0
102
{ACAD_REACTORS
330
3BB
102
}
330
3BB
100
DictionaryVariables
280
     0
  1
1
  0
DICTIONARYVAR
  5
3BE
102
{ACAD_REACTORS
330
3BB
102
}
330
3BB
100
DictionaryVariables
280
     0
  1
0
  0
DICTIONARY
  5
472
330
40D
100
AcDbDictionary
280
     1
281
     1
  3
ACAD_ROUNDTRIP_2008_TABLESTYLE_CELLSTYLEMAP
360
473
  0
CELLSTYLEMAP
  5
473
102
{ACAD_REACTORS
330
472
102
}
330
472
100
AcDbCellStyleMap
 90
        3
300
CELLSTYLE
  1
TABLEFORMAT_BEGIN
 90
        5
170
     1
 91
        0
 92
    32768
 62
   257
 93
        1
300
CONTENTFORMAT
  1
CONTENTFORMAT_BEGIN
 90
        0
 91
        0
 92
        4
 93
        0
300

 40
0.0
140
1.0
 94
        5
 62
     0
340
11
144
6.0
309
CONTENTFORMAT_END
171
     1
301
MARGIN
  1
CELLMARGIN_BEGIN
 40
1.5
 40
1.5
 40
1.5
 40
1.5
 40
1.5
 40
1.5
309
CELLMARGIN_END
 94
        6
 95
        1
302
GRIDFORMAT
  1
GRIDFORMAT_BEGIN
 90
        0
 91
        1
 62
     0
 92
       -2
340
14
 93
        0
 40
0.045
309
GRIDFORMAT_END
 95
        2
302
GRIDFORMAT
  1
GRIDFORMAT_BEGIN
 90
        0
 91
        1
 62
     0
 92
       -2
340
14
 93
        0
 40
0.045
309
GRIDFORMAT_END
 95
        4
302
GRIDFORMAT
  1
GRIDFORMAT_BEGIN
 90
        0
 91
        1
 62
     0
 92
       -2
340
14
 93
        0
 40
0.045
309
GRIDFORMAT_END
 95
        8
302
GRIDFORMAT
  1
GRIDFORMAT_BEGIN
 90
        0
 91
        1
 62
     0
 92
       -2
340
14
 93
        0
 40
0.045
309
GRIDFORMAT_END
 95
       16
302
GRIDFORMAT
  1
GRIDFORMAT_BEGIN
 90
        0
 91
        1
 62
     0
 92
       -2
340
14
 93
        0
 40
0.045
309
GRIDFORMAT_END
 95
       32
302
GRIDFORMAT
  1
GRIDFORMAT_BEGIN
 90
        0
 91
        1
 62
     0
 92
       -2
340
14
 93
        0
 40
0.045
309
GRIDFORMAT_END
309
TABLEFORMAT_END
  1
CELLSTYLE_BEGIN
 90
        1
 91
        1
300
_TITLE
309
CELLSTYLE_END
300
CELLSTYLE
  1
TABLEFORMAT_BEGIN
 90
        5
170
     1
 91
        0
 92
        0
 62
   257
 93
        1
300
CONTENTFORMAT
  1
CONTENTFORMAT_BEGIN
 90
        0
 91
        0
 92
        4
 93
        0
300

 40
0.0
140
1.0
 94
        5
 62
     0
340
11
144
4.5
309
CONTENTFORMAT_END
171
     1
301
MARGIN
  1
CELLMARGIN_BEGIN
 40
1.5
 40
1.5
 40
1.5
 40
1.5
 40
1.5
 40
1.5
309
CELLMARGIN_END
 94
        6
 95
        1
302
GRIDFORMAT
  1
GRIDFORMAT_BEGIN
 90
        0
 91
        1
 62
     0
 92
       -2
340
14
 93
        0
 40
0.045
309
GRIDFORMAT_END
 95
        2
302
GRIDFORMAT
  1
GRIDFORMAT_BEGIN
 90
        0
 91
        1
 62
     0
 92
       -2
340
14
 93
        0
 40
0.045
309
GRIDFORMAT_END
 95
        4
302
GRIDFORMAT
  1
GRIDFORMAT_BEGIN
 90
        0
 91
        1
 62
     0
 92
       -2
340
14
 93
        0
 40
0.045
309
GRIDFORMAT_END
 95
        8
302
GRIDFORMAT
  1
GRIDFORMAT_BEGIN
 90
        0
 91
        1
 62
     0
 92
       -2
340
14
 93
        0
 40
0.045
309
GRIDFORMAT_END
 95
       16
302
GRIDFORMAT
  1
GRIDFORMAT_BEGIN
 90
        0
 91
        1
 62
     0
 92
       -2
340
14
 93
        0
 40
0.045
309
GRIDFORMAT_END
 95
       32
302
GRIDFORMAT
  1
GRIDFORMAT_BEGIN
 90
        0
 91
        1
 62
     0
 92
       -2
340
14
 93
        0
 40
0.045
309
GRIDFORMAT_END
309
TABLEFORMAT_END
  1
CELLSTYLE_BEGIN
 90
        2
 91
        1
300
_HEADER
309
CELLSTYLE_END
300
CELLSTYLE
  1
TABLEFORMAT_BEGIN
 90
        5
170
     1
 91
        0
 92
        0
 62
   257
 93
        1
300
CONTENTFORMAT
  1
CONTENTFORMAT_BEGIN
 90
        0
 91
        0
 92
        4
 93
        0
300

 40
0.0
140
1.0
 94
        2
 62
     0
340
11
144
4.5
309
CONTENTFORMAT_END
171
     1
301
MARGIN
  1
CELLMARGIN_BEGIN
 40
1.5
 40
1.5
 40
1.5
 40
1.5
 40
1.5
 40
1.5
309
CELLMARGIN_END
 94
        6
 95
        1
302
GRIDFORMAT
  1
GRIDFORMAT_BEGIN
 90
        0
 91
        1
 62
     0
 92
       -2
340
14
 93
        0
 40
0.045
309
GRIDFORMAT_END
 95
        2
302
GRIDFORMAT
  1
GRIDFORMAT_BEGIN
 90
        0
 91
        1
 62
     0
 92
       -2
340
14
 93
        0
 40
0.045
309
GRIDFORMAT_END
 95
        4
302
GRIDFORMAT
  1
GRIDFORMAT_BEGIN
 90
        0
 91
        1
 62
     0
 92
       -2
340
14
 93
        0
 40
0.045
309
GRIDFORMAT_END
 95
        8
302
GRIDFORMAT
  1
GRIDFORMAT_BEGIN
 90
        0
 91
        1
 62
     0
 92
       -2
340
14
 93
        0
 40
0.045
309
GRIDFORMAT_END
 95
       16
302
GRIDFORMAT
  1
GRIDFORMAT_BEGIN
 90
        0
 91
        1
 62
     0
 92
       -2
340
14
 93
        0
 40
0.045
309
GRIDFORMAT_END
 95
       32
302
GRIDFORMAT
  1
GRIDFORMAT_BEGIN
 90
        0
 91
        1
 62
     0
 92
       -2
340
14
 93
        0
 40
0.045
309
GRIDFORMAT_END
309
TABLEFORMAT_END
  1
CELLSTYLE_BEGIN
 90
        3
 91
        2
300
_DATA
309
CELLSTYLE_END
  0
ENDSEC
  0
EOF
