  0
SECTION
  2
HEADER
  9
$ACADVER
  1
AC1027
  9
$ACADMAINTVER
 70
   105
  9
$DWGCODEPAGE
  3
ANSI_1252
  9
$REQUIREDVERSIONS
160
                 0
  9
$LASTSAVEDBY
  1
matthias.ochs
  9
$INSBASE
 10
0.0
 20
0.0
 30
0.0
  9
$EXTMIN
 10
-42.18713235094748
 20
-80.10776870787384
 30
0.0
  9
$EXTMAX
 10
100.4372578929549
 20
77.97028007261395
 30
0.0
  9
$LIMMIN
 10
0.0
 20
0.0
  9
$LIMMAX
 10
210.0
 20
297.0
  9
$ORTHOMODE
 70
     0
  9
$REGENMODE
 70
     1
  9
$FILLMODE
 70
     1
  9
$QTEXTMODE
 70
     0
  9
$MIRRTEXT
 70
     1
  9
$LTSCALE
 40
1.0
  9
$ATTMODE
 70
     1
  9
$TEXTSIZE
 40
3.5
  9
$TRACEWID
 40
1.0
  9
$TEXTSTYLE
  7
STANDARD
  9
$CLAYER
  8
1
  9
$CELTYPE
  6
BYLAYER
  9
$CECOLOR
 62
   256
  9
$CELTSCALE
 40
1.0
  9
$DISPSILH
 70
     0
  9
$DIMSCALE
 40
1.0
  9
$DIMASZ
 40
3.5
  9
$DIMEXO
 40
0.0
  9
$DIMDLI
 40
3.75
  9
$DIMRND
 40
0.0
  9
$DIMDLE
 40
0.0
  9
$DIMEXE
 40
1.0
  9
$DIMTP
 40
0.0
  9
$DIMTM
 40
0.0
  9
$DIMTXT
 40
3.5
  9
$DIMCEN
 40
2.5
  9
$DIMTSZ
 40
0.0
  9
$DIMTOL
 70
     0
  9
$DIMLIM
 70
     0
  9
$DIMTIH
 70
     1
  9
$DIMTOH
 70
     1
  9
$DIMSE1
 70
     0
  9
$DIMSE2
 70
     0
  9
$DIMTAD
 70
     1
  9
$DIMZIN
 70
     0
  9
$DIMBLK
  1

  9
$DIMASO
 70
     1
  9
$DIMSHO
 70
     1
  9
$DIMPOST
  1

  9
$DIMAPOST
  1

  9
$DIMALT
 70
     0
  9
$DIMALTD
 70
     3
  9
$DIMALTF
 40
0.0393700787
  9
$DIMLFAC
 40
1.0
  9
$DIMTOFL
 70
     1
  9
$DIMTVP
 40
0.0
  9
$DIMTIX
 70
     0
  9
$DIMSOXD
 70
     0
  9
$DIMSAH
 70
     0
  9
$DIMBLK1
  1

  9
$DIMBLK2
  1

  9
$DIMSTYLE
  2
ISO-25
  9
$DIMCLRD
 70
     0
  9
$DIMCLRE
 70
     0
  9
$DIMCLRT
 70
     0
  9
$DIMTFAC
 40
1.0
  9
$DIMGAP
 40
1.5
  9
$DIMJUST
 70
     0
  9
$DIMSD1
 70
     0
  9
$DIMSD2
 70
     0
  9
$DIMTOLJ
 70
     0
  9
$DIMTZIN
 70
     0
  9
$DIMALTZ
 70
     0
  9
$DIMALTTZ
 70
     0
  9
$DIMUPT
 70
     0
  9
$DIMDEC
 70
     2
  9
$DIMTDEC
 70
     3
  9
$DIMALTU
 70
     2
  9
$DIMALTTD
 70
     3
  9
$DIMTXSTY
  7
STANDARD
  9
$DIMAUNIT
 70
     0
  9
$DIMADEC
 70
     0
  9
$DIMALTRND
 40
0.0
  9
$DIMAZIN
 70
     0
  9
$DIMDSEP
 70
    46
  9
$DIMATFIT
 70
     3
  9
$DIMFRAC
 70
     0
  9
$DIMLDRBLK
  1

  9
$DIMLUNIT
 70
     2
  9
$DIMLWD
 70
    -2
  9
$DIMLWE
 70
    -2
  9
$DIMTMOVE
 70
     2
  9
$DIMFXL
 40
1.0
  9
$DIMFXLON
 70
     0
  9
$DIMJOGANG
 40
0.7853981633974483
  9
$DIMTFILL
 70
     0
  9
$DIMTFILLCLR
 70
     0
  9
$DIMARCSYM
 70
     0
  9
$DIMLTYPE
  6

  9
$DIMLTEX1
  6

  9
$DIMLTEX2
  6

  9
$DIMTXTDIRECTION
 70
     0
  9
$LUNITS
 70
     2
  9
$LUPREC
 70
     2
  9
$SKETCHINC
 40
1.0
  9
$FILLETRAD
 40
10.0
  9
$AUNITS
 70
     0
  9
$AUPREC
 70
     2
  9
$MENU
  1
.
  9
$ELEVATION
 40
0.0
  9
$PELEVATION
 40
0.0
  9
$THICKNESS
 40
0.0
  9
$LIMCHECK
 70
     0
  9
$CHAMFERA
 40
0.0
  9
$CHAMFERB
 40
0.0
  9
$CHAMFERC
 40
0.0
  9
$CHAMFERD
 40
0.0
  9
$SKPOLY
 70
     0
  9
$TDCREATE
 40
2456972.628516134
  9
$TDUCREATE
 40
2456972.545182801
  9
$TDUPDATE
 40
2458677.474444444
  9
$TDUUPDATE
 40
2458677.391111111
  9
$TDINDWG
 40
0.0057327083
  9
$TDUSRTIMER
 40
0.0019918634
  9
$USRTIMER
 70
     1
  9
$ANGBASE
 50
0.0
  9
$ANGDIR
 70
     0
  9
$PDMODE
 70
     0
  9
$PDSIZE
 40
-1.0
  9
$PLINEWID
 40
0.0
  9
$SPLFRAME
 70
     0
  9
$SPLINETYPE
 70
     6
  9
$SPLINESEGS
 70
     8
  9
$HANDSEED
  5
464
  9
$SURFTAB1
 70
     6
  9
$SURFTAB2
 70
     6
  9
$SURFTYPE
 70
     6
  9
$SURFU
 70
     6
  9
$SURFV
 70
     6
  9
$UCSBASE
  2

  9
$UCSNAME
  2

  9
$UCSORG
 10
0.0
 20
0.0
 30
0.0
  9
$UCSXDIR
 10
1.0
 20
0.0
 30
0.0
  9
$UCSYDIR
 10
0.0
 20
1.0
 30
0.0
  9
$UCSORTHOREF
  2

  9
$UCSORTHOVIEW
 70
     0
  9
$UCSORGTOP
 10
0.0
 20
0.0
 30
0.0
  9
$UCSORGBOTTOM
 10
0.0
 20
0.0
 30
0.0
  9
$UCSORGLEFT
 10
0.0
 20
0.0
 30
0.0
  9
$UCSORGRIGHT
 10
0.0
 20
0.0
 30
0.0
  9
$UCSORGFRONT
 10
0.0
 20
0.0
 30
0.0
  9
$UCSORGBACK
 10
0.0
 20
0.0
 30
0.0
  9
$PUCSBASE
  2

  9
$PUCSNAME
  2

  9
$PUCSORG
 10
0.0
 20
0.0
 30
0.0
  9
$PUCSXDIR
 10
1.0
 20
0.0
 30
0.0
  9
$PUCSYDIR
 10
0.0
 20
1.0
 30
0.0
  9
$PUCSORTHOREF
  2

  9
$PUCSORTHOVIEW
 70
     0
  9
$PUCSORGTOP
 10
0.0
 20
0.0
 30
0.0
  9
$PUCSORGBOTTOM
 10
0.0
 20
0.0
 30
0.0
  9
$PUCSORGLEFT
 10
0.0
 20
0.0
 30
0.0
  9
$PUCSORGRIGHT
 10
0.0
 20
0.0
 30
0.0
  9
$PUCSORGFRONT
 10
0.0
 20
0.0
 30
0.0
  9
$PUCSORGBACK
 10
0.0
 20
0.0
 30
0.0
  9
$USERI1
 70
     0
  9
$USERI2
 70
     0
  9
$USERI3
 70
     0
  9
$USERI4
 70
     0
  9
$USERI5
 70
     0
  9
$USERR1
 40
0.0
  9
$USERR2
 40
0.0
  9
$USERR3
 40
0.0
  9
$USERR4
 40
0.0
  9
$USERR5
 40
0.0
  9
$WORLDVIEW
 70
     1
  9
$SHADEDGE
 70
     3
  9
$SHADEDIF
 70
    70
  9
$TILEMODE
 70
     1
  9
$MAXACTVP
 70
    64
  9
$PINSBASE
 10
0.0
 20
0.0
 30
0.0
  9
$PLIMCHECK
 70
     0
  9
$PEXTMIN
 10
1.000000000000000E+20
 20
1.000000000000000E+20
 30
1.000000000000000E+20
  9
$PEXTMAX
 10
-1.000000000000000E+20
 20
-1.000000000000000E+20
 30
-1.000000000000000E+20
  9
$PLIMMIN
 10
0.0
 20
0.0
  9
$PLIMMAX
 10
0.0
 20
0.0
  9
$UNITMODE
 70
     0
  9
$VISRETAIN
 70
     1
  9
$PLINEGEN
 70
     0
  9
$PSLTSCALE
 70
     1
  9
$TREEDEPTH
 70
  3020
  9
$CMLSTYLE
  2
STANDARD
  9
$CMLJUST
 70
     0
  9
$CMLSCALE
 40
20.0
  9
$PROXYGRAPHICS
 70
     1
  9
$MEASUREMENT
 70
     1
  9
$CELWEIGHT
370
    -1
  9
$ENDCAPS
280
     0
  9
$JOINSTYLE
280
     0
  9
$LWDISPLAY
290
     0
  9
$INSUNITS
 70
     0
  9
$HYPERLINKBASE
  1

  9
$STYLESHEET
  1

  9
$XEDIT
290
     1
  9
$CEPSNTYPE
380
     0
  9
$PSTYLEMODE
290
     1
  9
$FINGERPRINTGUID
  2
{3B63381B-68DA-4516-A2CC-2C6D3555D6AA}
  9
$VERSIONGUID
  2
{FAEB1C32-E019-11D5-929B-00C0DF256EC4}
  9
$EXTNAMES
290
     1
  9
$PSVPSCALE
 40
0.0
  9
$OLESTARTUP
290
     0
  9
$SORTENTS
280
   127
  9
$INDEXCTL
280
     0
  9
$HIDETEXT
280
     1
  9
$XCLIPFRAME
280
     2
  9
$HALOGAP
280
     0
  9
$OBSCOLOR
 70
   257
  9
$OBSLTYPE
280
     0
  9
$INTERSECTIONDISPLAY
280
     0
  9
$INTERSECTIONCOLOR
 70
   257
  9
$DIMASSOC
280
     2
  9
$PROJECTNAME
  1

  9
$CAMERADISPLAY
290
     0
  9
$LENSLENGTH
 40
50.0
  9
$CAMERAHEIGHT
 40
0.0
  9
$STEPSPERSEC
 40
2.0
  9
$STEPSIZE
 40
6.0
  9
$3DDWFPREC
 40
2.0
  9
$PSOLWIDTH
 40
0.25
  9
$PSOLHEIGHT
 40
4.0
  9
$LOFTANG1
 40
1.570796326794897
  9
$LOFTANG2
 40
1.570796326794897
  9
$LOFTMAG1
 40
0.0
  9
$LOFTMAG2
 40
0.0
  9
$LOFTPARAM
 70
     7
  9
$LOFTNORMALS
280
     1
  9
$LATITUDE
 40
37.795
  9
$LONGITUDE
 40
-122.394
  9
$NORTHDIRECTION
 40
0.0
  9
$TIMEZONE
 70
 -8000
  9
$LIGHTGLYPHDISPLAY
280
     1
  9
$TILEMODELIGHTSYNCH
280
     1
  9
$SOLIDHIST
280
     0
  9
$SHOWHIST
280
     1
  9
$DWFFRAME
280
     2
  9
$DGNFRAME
280
     2
  9
$REALWORLDSCALE
290
     1
  9
$INTERFERECOLOR
 62
   256
  9
$CSHADOW
280
     0
  9
$SHADOWPLANELOCATION
 40
0.0
  0
ENDSEC
  0
SECTION
  2
CLASSES
  0
CLASS
  1
ACDBDICTIONARYWDFLT
  2
AcDbDictionaryWithDefault
  3
ObjectDBX Classes
 90
        0
 91
       14
280
     0
281
     0
  0
CLASS
  1
VISUALSTYLE
  2
AcDbVisualStyle
  3
ObjectDBX Classes
 90
     4095
 91
       14
280
     0
281
     0
  0
CLASS
  1
MATERIAL
  2
AcDbMaterial
  3
ObjectDBX Classes
 90
     1153
 91
       14
280
     0
281
     0
  0
CLASS
  1
SCALE
  2
AcDbScale
  3
ObjectDBX Classes
 90
     1153
 91
       14
280
     0
281
     0
  0
CLASS
  1
SUN
  2
AcDbSun
  3
SCENEOE
 90
     1153
 91
       14
280
     0
281
     0
  0
CLASS
  1
XRECORD
  2
AcDbXrecord
  3
ObjectDBX Classes
 90
        0
 91
        1
280
     0
281
     0
  0
CLASS
  1
LWPOLYLINE
  2
AcDbPolyline
  3
ObjectDBX Classes
 90
        0
 91
        1
280
     0
281
     1
  0
CLASS
  1
HATCH
  2
AcDbHatch
  3
ObjectDBX Classes
 90
        0
 91
        1
280
     0
281
     1
  0
CLASS
  1
DICTIONARYVAR
  2
AcDbDictionaryVar
  3
ObjectDBX Classes
 90
        0
 91
       12
280
     0
281
     0
  0
CLASS
  1
ACDBPLACEHOLDER
  2
AcDbPlaceHolder
  3
ObjectDBX Classes
 90
        0
 91
        1
280
     0
281
     0
  0
CLASS
  1
LAYOUT
  2
AcDbLayout
  3
ObjectDBX Classes
 90
        0
 91
        1
280
     0
281
     0
  0
CLASS
  1
TABLESTYLE
  2
AcDbTableStyle
  3
ObjectDBX Classes
 90
     4095
 91
       14
280
     0
281
     0
  0
CLASS
  1
MLEADERSTYLE
  2
AcDbMLeaderStyle
  3
ACDB_MLEADERSTYLE_CLASS
 90
     4095
 91
       14
280
     0
281
     0
  0
CLASS
  1
CELLSTYLEMAP
  2
AcDbCellStyleMap
  3
ObjectDBX Classes
 90
     1152
 91
        9
280
     0
281
     0
  0
ENDSEC
  0
SECTION
  2
TABLES
  0
TABLE
  2
VPORT
  5
8
330
0
100
AcDbSymbolTable
 70
     1
  0
VPORT
  5
29
330
8
100
AcDbSymbolTableRecord
100
AcDbViewportTableRecord
  2
*ACTIVE
 70
     0
 10
0.0
 20
0.0
 11
1.0
 21
1.0
 12
17.46926568482321
 22
-13.03153807133226
 13
0.0
 23
0.0
 14
10.0
 24
10.0
 15
10.0
 25
10.0
 16
0.0
 26
0.0
 36
1.0
 17
0.0
 27
0.0
 37
0.0
 40
425.8463228330551
 41
1.831002331002331
 42
50.0
 43
0.0
 44
0.0
 50
0.0
 51
0.0
 71
    16
 72
  2000
 73
     1
 74
     3
 75
     0
 76
     0
 77
     0
 78
     0
281
     0
 65
     1
110
0.0
120
0.0
130
0.0
111
1.0
121
0.0
131
0.0
112
0.0
122
1.0
132
0.0
 79
     0
146
0.0
348
386
 60
     3
 61
     5
292
     1
282
     1
141
0.0
142
0.0
 63
   256
361
41F
  0
ENDTAB
  0
TABLE
  2
LTYPE
  5
5
330
0
100
AcDbSymbolTable
 70
     9
  0
LTYPE
  5
14
330
5
100
AcDbSymbolTableRecord
100
AcDbLinetypeTableRecord
  2
BYBLOCK
 70
     0
  3

 72
    65
 73
     0
 40
0.0
  0
LTYPE
  5
15
330
5
100
AcDbSymbolTableRecord
100
AcDbLinetypeTableRecord
  2
BYLAYER
 70
     0
  3

 72
    65
 73
     0
 40
0.0
  0
LTYPE
  5
16
330
5
100
AcDbSymbolTableRecord
100
AcDbLinetypeTableRecord
  2
CONTINUOUS
 70
     0
  3
Solid line
 72
    65
 73
     0
 40
0.0
  0
LTYPE
  5
6A
330
5
100
AcDbSymbolTableRecord
100
AcDbLinetypeTableRecord
  2
HIDDEN
 70
     0
  3
Hidden __ __ __ __ __ __ __ __ __ __ __ __ __ __
 72
    65
 73
     2
 40
1.905
 49
1.27
 74
     0
 49
-0.635
 74
     0
  0
LTYPE
  5
6B
330
5
100
AcDbSymbolTableRecord
100
AcDbLinetypeTableRecord
  2
PHANTOM
 70
     0
  3
Phantom ______  __  __  ______  __  __  ______
 72
    65
 73
     6
 40
12.7
 49
6.35
 74
     0
 49
-1.27
 74
     0
 49
1.27
 74
     0
 49
-1.27
 74
     0
 49
1.27
 74
     0
 49
-1.27
 74
     0
  0
LTYPE
  5
6C
330
5
100
AcDbSymbolTableRecord
100
AcDbLinetypeTableRecord
  2
CENTER
 70
     0
  3
Center ____ _ ____ _ ____ _ ____ _ ____ _ ____
 72
    65
 73
     4
 40
10.16
 49
6.35
 74
     0
 49
-1.27
 74
     0
 49
1.27
 74
     0
 49
-1.27
 74
     0
  0
LTYPE
  5
6D
330
5
100
AcDbSymbolTableRecord
100
AcDbLinetypeTableRecord
  2
CENTERX2
 70
     0
  3
Center (2x) ________  __  ________  __  _____
 72
    65
 73
     4
 40
20.32
 49
12.7
 74
     0
 49
-2.54
 74
     0
 49
2.54
 74
     0
 49
-2.54
 74
     0
  0
LTYPE
  5
6E
330
5
100
AcDbSymbolTableRecord
100
AcDbLinetypeTableRecord
  2
DOT2
 70
     0
  3
Dot (.5x) ........................................
 72
    65
 73
     2
 40
0.635
 49
0.0
 74
     0
 49
-0.635
 74
     0
  0
LTYPE
  5
3DA
330
5
100
AcDbSymbolTableRecord
100
AcDbLinetypeTableRecord
  2
DASH
 70
     0
  3
DASH _ _ _ _ _
 72
    65
 73
     2
 40
0.75
 49
0.4
 74
     0
 49
-0.35
 74
     0
  0
LTYPE
  5
3DB
330
5
100
AcDbSymbolTableRecord
100
AcDbLinetypeTableRecord
  2
LONGDASH_DASH
 70
     0
  3
LONGDASH_DASH __ . __ . __
 72
    65
 73
     4
 40
0.85
 49
0.4
 74
     0
 49
-0.2
 74
     0
 49
0.05
 74
     0
 49
-0.2
 74
     0
  0
LTYPE
  5
3DC
330
5
100
AcDbSymbolTableRecord
100
AcDbLinetypeTableRecord
  2
LONGDASH_DASH_DASH
 70
     0
  3
LONGDASH_DASH_DASH __ . . __ . . __
 72
    65
 73
     6
 40
1.1
 49
0.4
 74
     0
 49
-0.2
 74
     0
 49
0.05
 74
     0
 49
-0.2
 74
     0
 49
0.05
 74
     0
 49
-0.2
 74
     0
  0
ENDTAB
  0
TABLE
  2
LAYER
  5
2
102
{ACAD_XDICTIONARY
360
3FC
102
}
330
0
100
AcDbSymbolTable
 70
    16
  0
LAYER
  5
397
330
2
100
AcDbSymbolTableRecord
100
AcDbLayerTableRecord
  2
200
 70
     0
 62
     2
  6
CONTINUOUS
370
    50
390
3ED
347
395
348
0
  0
LAYER
  5
39A
330
2
100
AcDbSymbolTableRecord
100
AcDbLayerTableRecord
  2
Defpoints
 70
     0
 62
     7
  6
CONTINUOUS
290
     0
370
    -3
390
3ED
347
395
348
0
  0
LAYER
  5
3DD
330
2
100
AcDbSymbolTableRecord
100
AcDbLayerTableRecord
  2
0
 70
     0
 62
     1
  6
CONTINUOUS
370
    -3
390
3ED
347
395
348
0
  0
LAYER
  5
3DE
330
2
100
AcDbSymbolTableRecord
100
AcDbLayerTableRecord
  2
1
 70
     0
 62
     4
  6
CONTINUOUS
370
    50
390
3ED
347
395
348
0
  0
LAYER
  5
3DF
330
2
100
AcDbSymbolTableRecord
100
AcDbLayerTableRecord
  2
2
 70
     0
 62
     7
  6
CONTINUOUS
370
    25
390
3ED
347
395
348
0
  0
LAYER
  5
3E0
330
2
100
AcDbSymbolTableRecord
100
AcDbLayerTableRecord
  2
3
 70
     0
 62
     1
  6
DASH
370
    35
390
3ED
347
395
348
0
  0
LAYER
  5
3E1
330
2
100
AcDbSymbolTableRecord
100
AcDbLayerTableRecord
  2
4
 70
     0
 62
     2
  6
LONGDASH_DASH
370
    25
390
3ED
347
395
348
0
  0
LAYER
  5
3E2
330
2
100
AcDbSymbolTableRecord
100
AcDbLayerTableRecord
  2
6
 70
     0
 62
     5
  6
CONTINUOUS
370
    -3
390
3ED
347
395
348
0
  0
LAYER
  5
3E3
330
2
100
AcDbSymbolTableRecord
100
AcDbLayerTableRecord
  2
CUT
 70
     0
 62
     1
  6
CONTINUOUS
370
    25
390
3ED
347
395
348
0
  0
LAYER
  5
3E4
330
2
100
AcDbSymbolTableRecord
100
AcDbLayerTableRecord
  2
NOCUT
 70
     0
 62
     7
  6
CONTINUOUS
370
    25
390
3ED
347
395
348
0
  0
LAYER
  5
3E5
330
2
100
AcDbSymbolTableRecord
100
AcDbLayerTableRecord
  2
SK1
 70
     0
 62
     4
  6
CONTINUOUS
370
    50
390
3ED
347
395
348
0
  0
LAYER
  5
3E6
330
2
100
AcDbSymbolTableRecord
100
AcDbLayerTableRecord
  2
SK2
 70
     0
 62
     7
  6
CONTINUOUS
370
    25
390
3ED
347
395
348
0
  0
LAYER
  5
3E7
330
2
100
AcDbSymbolTableRecord
100
AcDbLayerTableRecord
  2
SK3
 70
     0
 62
     1
  6
DASH
370
    35
390
3ED
347
395
348
0
  0
LAYER
  5
3E8
330
2
100
AcDbSymbolTableRecord
100
AcDbLayerTableRecord
  2
SK4
 70
     0
 62
     2
  6
LONGDASH_DASH
370
    25
390
3ED
347
395
348
0
  0
LAYER
  5
3E9
330
2
100
AcDbSymbolTableRecord
100
AcDbLayerTableRecord
  2
SK6
 70
     0
 62
     5
  6
CONTINUOUS
370
    -3
390
3ED
347
395
348
0
  0
LAYER
  5
3EA
330
2
100
AcDbSymbolTableRecord
100
AcDbLayerTableRecord
  2
INFTOTAL
 70
     0
 62
     9
  6
CONTINUOUS
370
    18
390
3ED
347
395
348
0
  0
ENDTAB
  0
TABLE
  2
STYLE
  5
3
330
0
100
AcDbSymbolTable
 70
     3
  0
STYLE
  5
11
330
3
100
AcDbSymbolTableRecord
100
AcDbTextStyleTableRecord
  2
STANDARD
 70
     0
 40
0.0
 41
1.0
 50
0.0
 71
     0
 42
3.5
  3
txt
  4

  0
STYLE
  5
33A
330
3
100
AcDbSymbolTableRecord
100
AcDbTextStyleTableRecord
  2
SLDTEXTSTYLE0
 70
     0
 40
0.0
 41
0.605
 50
0.0
 71
     0
 42
3.5
  3
TXT
  4

  0
STYLE
  5
396
330
3
100
AcDbSymbolTableRecord
100
AcDbTextStyleTableRecord
  2
BMG_Text
 70
     0
 40
3.5
 41
1.0
 50
0.0
 71
     0
 42
3.5
  3
monos.ttf
  4

1001
ACAD
1000
Monospac821 BT
1071
       49
  0
ENDTAB
  0
TABLE
  2
VIEW
  5
6
330
0
100
AcDbSymbolTable
 70
     0
  0
ENDTAB
  0
TABLE
  2
UCS
  5
7
330
0
100
AcDbSymbolTable
 70
     0
  0
ENDTAB
  0
TABLE
  2
APPID
  5
9
330
0
100
AcDbSymbolTable
 70
     4
  0
APPID
  5
12
330
9
100
AcDbSymbolTableRecord
100
AcDbRegAppTableRecord
  2
ACAD
 70
     0
  0
APPID
  5
3AD
330
9
100
AcDbSymbolTableRecord
100
AcDbRegAppTableRecord
  2
ACAD_DSTYLE_DIM_LINETYPE
 70
     0
  0
APPID
  5
3AE
330
9
100
AcDbSymbolTableRecord
100
AcDbRegAppTableRecord
  2
ACAD_DSTYLE_DIM_EXT1_LINETYPE
 70
     0
  0
APPID
  5
3AF
330
9
100
AcDbSymbolTableRecord
100
AcDbRegAppTableRecord
  2
ACAD_DSTYLE_DIM_EXT2_LINETYPE
 70
     0
  0
ENDTAB
  0
TABLE
  2
DIMSTYLE
  5
A
330
0
100
AcDbSymbolTable
 70
     3
100
AcDbDimStyleTable
  0
DIMSTYLE
105
27
330
A
100
AcDbSymbolTableRecord
100
AcDbDimStyleTableRecord
  2
ISO-25
 70
     0
 41
2.5
 42
0.625
 43
3.75
 44
1.25
 73
     0
 74
     0
 77
     1
 78
     8
140
2.5
141
2.5
143
0.0393700787
147
0.625
171
     3
172
     1
178
     0
271
     2
272
     2
274
     3
283
     0
284
     8
340
11
  0
DIMSTYLE
105
33B
102
{ACAD_REACTORS
330
339
330
347
102
}
330
A
100
AcDbSymbolTableRecord
100
AcDbDimStyleTableRecord
  2
SLDDIMSTYLE0
 70
     0
 41
3.5
 44
0.0
 45
0.000000001
 73
     0
 74
     0
 77
     1
 78
    12
140
3.5
147
0.875
173
     1
178
     0
271
     2
272
     3
284
    12
340
33A
  0
DIMSTYLE
105
353
102
{ACAD_REACTORS
330
352
102
}
330
A
100
AcDbSymbolTableRecord
100
AcDbDimStyleTableRecord
  2
SLDDIMSTYLE1
 70
     0
 41
3.5
 44
0.0
 45
0.000000001
 73
     0
 74
     0
 77
     1
 78
    12
140
3.5
147
0.875
173
     1
178
     0
271
     2
272
     3
284
    12
340
33A
  0
ENDTAB
  0
TABLE
  2
BLOCK_RECORD
  5
1
330
0
100
AcDbSymbolTable
 70
     3
  0
BLOCK_RECORD
  5
1F
330
1
100
AcDbSymbolTableRecord
100
AcDbBlockTableRecord
  2
*MODEL_SPACE
340
37F
 70
     0
280
     1
281
     0
  0
BLOCK_RECORD
  5
1B
330
1
100
AcDbSymbolTableRecord
100
AcDbBlockTableRecord
  2
*PAPER_SPACE
340
380
 70
     0
280
     1
281
     0
  0
BLOCK_RECORD
  5
33C
330
1
100
AcDbSymbolTableRecord
100
AcDbBlockTableRecord
  2
_D
340
0
 70
     0
280
     1
281
     0
  0
BLOCK_RECORD
  5
348
330
1
100
AcDbSymbolTableRecord
100
AcDbBlockTableRecord
  2
_D_1
340
0
 70
     0
280
     1
281
     0
  0
BLOCK_RECORD
  5
354
330
1
100
AcDbSymbolTableRecord
100
AcDbBlockTableRecord
  2
_D_2
340
0
 70
     0
280
     1
281
     0
  0
ENDTAB
  0
ENDSEC
  0
SECTION
  2
BLOCKS
  0
BLOCK
  5
20
330
1F
100
AcDbEntity
  8
0
100
AcDbBlockBegin
  2
*MODEL_SPACE
 70
     0
 10
0.0
 20
0.0
 30
0.0
  3
*MODEL_SPACE
  1

  0
ENDBLK
  5
21
330
1F
100
AcDbEntity
  8
0
100
AcDbBlockEnd
  0
BLOCK
  5
1C
330
1B
100
AcDbEntity
 67
     1
  8
0
100
AcDbBlockBegin
  2
*PAPER_SPACE
 70
     0
 10
0.0
 20
0.0
 30
0.0
  3
*PAPER_SPACE
  1

  0
ENDBLK
  5
1D
330
1B
100
AcDbEntity
 67
     1
  8
0
100
AcDbBlockEnd
  0
BLOCK
  5
33D
330
33C
100
AcDbEntity
  8
0
100
AcDbBlockBegin
  2
_D
 70
     0
 10
0.0
 20
0.0
 30
0.0
  3
_D
  1
_D
  0
LINE
  5
33F
330
33C
100
AcDbEntity
  8
SK2
  6
ByBlock
370
    -2
100
AcDbLine
 10
55.2916444838
 20
33.9992280896
 30
0.0
 11
66.3771757967
 21
33.99922808960001
 31
0.0
  0
LINE
  5
340
330
33C
100
AcDbEntity
  8
SK2
  6
ByBlock
370
    -2
100
AcDbLine
 10
55.4000864808
 20
-34.0010820282
 30
0.0
 11
66.3771757967
 21
-34.0010820282
 31
0.0
  0
LINE
  5
341
330
33C
100
AcDbEntity
  8
SK2
  6
ByBlock
370
    -2
100
AcDbLine
 10
66.3771757967
 20
30.49922808960001
 30
0.0
 11
66.3771757967
 21
-30.5010820282
 31
0.0
  0
SOLID
  5
342
330
33C
100
AcDbEntity
  8
SK2
100
AcDbTrace
 10
66.96050913003333
 20
30.49922808960001
 30
0.0
 11
65.79384246336667
 21
30.49922808960001
 31
0.0
 12
66.3771757967
 22
33.99922808960001
 32
0.0
 13
66.3771757967
 23
33.99922808960001
 33
0.0
  0
SOLID
  5
343
330
33C
100
AcDbEntity
  8
SK2
100
AcDbTrace
 10
65.79384246336667
 20
-30.5010820282
 30
0.0
 11
66.96050913003333
 21
-30.5010820282
 31
0.0
 12
66.3771757967
 22
-34.0010820282
 32
0.0
 13
66.3771757967
 23
-34.0010820282
 33
0.0
  0
MTEXT
  5
344
330
33C
100
AcDbEntity
  8
SK2
100
AcDbMText
 10
63.6401757967
 20
-0.0009269693
 30
0.0
 40
3.5
 41
0.0
 46
0.0
 71
     5
 72
     1
  1
\A1;%%c68 - 90
  7
BMG_Text
 11
0.0
 21
1.0
 31
0.0
 73
     1
 44
1.0
  0
POINT
  5
345
330
33C
100
AcDbEntity
  8
Defpoints
 62
     0
100
AcDbPoint
 10
55.2291444838
 20
33.9992280896
 30
0.0
  0
POINT
  5
346
330
33C
100
AcDbEntity
  8
Defpoints
 62
     0
100
AcDbPoint
 10
55.3375864808
 20
-34.0010820282
 30
0.0
  0
POINT
  5
39B
330
33C
100
AcDbEntity
  8
Defpoints
 62
     0
100
AcDbPoint
 10
66.3771757967
 20
-34.0010820282
 30
0.0
  0
ENDBLK
  5
33E
330
33C
100
AcDbEntity
  8
0
100
AcDbBlockEnd
  0
BLOCK
  5
349
330
348
100
AcDbEntity
  8
0
100
AcDbBlockBegin
  2
_D_1
 70
     0
 10
0.0
 20
0.0
 30
0.0
  3
_D_1
  1
_D_1
  0
LINE
  5
34B
330
348
100
AcDbEntity
  8
SK2
  6
ByBlock
370
    -2
100
AcDbLine
 10
42.5624988969
 20
38.5000157939
 30
0.0
 11
76.3797613546
 21
38.50001579389999
 31
0.0
  0
LINE
  5
34C
330
348
100
AcDbEntity
  8
SK2
  6
ByBlock
370
    -2
100
AcDbLine
 10
42.5624988973
 20
-38.4999986901
 30
0.0
 11
76.3797613546
 21
-38.49999869010001
 31
0.0
  0
LINE
  5
34D
330
348
100
AcDbEntity
  8
SK2
  6
ByBlock
370
    -2
100
AcDbLine
 10
76.3797613546
 20
35.00001579389999
 30
0.0
 11
76.3797613546
 21
-34.99999869010001
 31
0.0
  0
SOLID
  5
34E
330
348
100
AcDbEntity
  8
SK2
100
AcDbTrace
 10
76.96309468793334
 20
35.00001579389999
 30
0.0
 11
75.79642802126668
 21
35.00001579389999
 31
0.0
 12
76.3797613546
 22
38.50001579389999
 32
0.0
 13
76.3797613546
 23
38.50001579389999
 33
0.0
  0
SOLID
  5
34F
330
348
100
AcDbEntity
  8
SK2
100
AcDbTrace
 10
75.79642802126668
 20
-34.99999869010001
 30
0.0
 11
76.96309468793334
 21
-34.99999869010001
 31
0.0
 12
76.3797613546
 22
-38.49999869010001
 32
0.0
 13
76.3797613546
 23
-38.49999869010001
 33
0.0
  0
MTEXT
  5
350
330
348
100
AcDbEntity
  8
SK2
100
AcDbMText
 10
73.64276135460001
 20
0.0000085519
 30
0.0
 40
3.5
 41
0.0
 46
0.0
 71
     5
 72
     1
  1
\A1;%%c79 - 101
  7
BMG_Text
 11
0.0
 21
1.0
 31
0.0
 73
     1
 44
1.0
  0
POINT
  5
351
330
348
100
AcDbEntity
  8
Defpoints
 62
     0
100
AcDbPoint
 10
42.4999988969
 20
38.5000157939
 30
0.0
  0
POINT
  5
39C
330
348
100
AcDbEntity
  8
Defpoints
 62
     0
100
AcDbPoint
 10
42.4999988973
 20
-38.4999986901
 30
0.0
  0
POINT
  5
39D
330
348
100
AcDbEntity
  8
Defpoints
 62
     0
100
AcDbPoint
 10
76.3797613546
 20
-38.4999986901
 30
0.0
  0
ENDBLK
  5
34A
330
348
100
AcDbEntity
  8
0
100
AcDbBlockEnd
  0
BLOCK
  5
355
330
354
100
AcDbEntity
  8
0
100
AcDbBlockBegin
  2
_D_2
 70
     0
 10
0.0
 20
0.0
 30
0.0
  3
_D_2
  1
_D_2
  0
LINE
  5
357
330
354
100
AcDbEntity
  8
2
  6
ByBlock
370
    -2
100
AcDbLine
 10
55.50000150229444
 20
33.8671628671
 30
0.0
 11
55.50000255444144
 21
48.49838987664374
 31
0.0
  0
LINE
  5
358
330
354
100
AcDbEntity
  8
2
  6
ByBlock
370
    -2
100
AcDbLine
 10
-4.550000219605558
 20
31.3902777283
 30
0.0
 11
-4.549998989342836
 21
48.49839419490276
 31
0.0
  0
LINE
  5
359
330
354
100
AcDbEntity
  8
2
  6
ByBlock
370
    -2
100
AcDbLine
 10
52.00000255444145
 20
48.49839012833244
 30
0.0
 11
-1.049998989342844
 21
48.49839394321406
 31
0.0
  0
SOLID
  5
35A
330
354
100
AcDbEntity
  8
2
100
AcDbTrace
 10
52.00000251249334
 20
47.91505679499911
 30
0.0
 11
52.00000259638956
 21
49.08172346166577
 31
0.0
 12
55.50000255444144
 22
48.49838987664374
 32
0.0
 13
55.50000255444144
 23
48.49838987664374
 33
0.0
  0
SOLID
  5
39E
330
354
100
AcDbEntity
  8
2
100
AcDbTrace
 10
-1.049998947394728
 20
49.08172727654739
 30
0.0
 11
-1.04999903129096
 21
47.91506060988073
 31
0.0
 12
-4.549998989342836
 22
48.49839419490276
 32
0.0
 13
-4.549998989342836
 23
48.49839419490276
 33
0.0
  0
MTEXT
  5
39F
330
354
100
AcDbEntity
  8
2
100
AcDbMText
 10
8.998721173471074
 20
51.18464322059999
 30
0.0
 40
3.5
 41
0.0
 46
0.0
 71
     5
 72
     1
  1
\A1;95
  7
BMG_Text
 11
0.9999999999999976
 21
-7.191105587227067E-8
 31
0.0
 73
     1
 44
1.0
  0
POINT
  5
3A0
330
354
100
AcDbEntity
  8
Defpoints
 62
     0
100
AcDbPoint
 10
55.5000014978
 20
33.8046628671
 30
0.0
  0
POINT
  5
3A1
330
354
100
AcDbEntity
  8
Defpoints
 62
     0
100
AcDbPoint
 10
-4.5500002241
 20
31.3277777283
 30
0.0
  0
POINT
  5
3A2
330
354
100
AcDbEntity
  8
Defpoints
 62
     0
100
AcDbPoint
 10
-4.54999898934284
 20
48.49839419490276
 30
0.0
  0
ENDBLK
  5
356
330
354
100
AcDbEntity
  8
0
100
AcDbBlockEnd
  0
ENDSEC
  0
SECTION
  2
ENTITIES
  0
LINE
  5
75
330
1F
100
AcDbEntity
  8
1
100
AcDbLine
 10
10.0832491517
 20
-37.1102791434
 30
0.0
 11
10.4631319046
 21
-37.4324720508
 31
0.0
  0
LINE
  5
76
330
1F
100
AcDbEntity
  8
1
100
AcDbLine
 10
15.0368682444
 20
-37.4324720508
 30
0.0
 11
15.4167509973
 21
-37.1102791434
 31
0.0
  0
LINE
  5
77
330
1F
100
AcDbEntity
  8
1
100
AcDbLine
 10
-0.9520255625
 20
4.0500012072
 30
0.0
 11
-0.9519249797
 21
4.0500012072
 31
0.0
  0
LINE
  5
78
330
1F
100
AcDbEntity
  8
1
100
AcDbLine
 10
-0.9520255625
 20
3.9500009114
 30
0.0
 11
-0.9520255625
 21
4.0500012072
 31
0.0
  0
LINE
  5
79
330
1F
100
AcDbEntity
  8
1
100
AcDbLine
 10
-0.9520255625
 20
3.9500009114
 30
0.0
 11
-0.9519249797
 21
3.9500009114
 31
0.0
  0
LINE
  5
7A
330
1F
100
AcDbEntity
  8
1
100
AcDbLine
 10
-0.9519249797
 20
3.0500010433
 30
0.0
 11
-0.9519249797
 21
3.9500009114
 31
0.0
  0
LINE
  5
7B
330
1F
100
AcDbEntity
  8
1
100
AcDbLine
 10
-0.9520255625
 20
3.0500010433
 30
0.0
 11
-0.9519249797
 21
3.0500010433
 31
0.0
  0
LINE
  5
7C
330
1F
100
AcDbEntity
  8
1
100
AcDbLine
 10
-0.9520255625
 20
2.9500012131
 30
0.0
 11
-0.9520255625
 21
3.0500010433
 31
0.0
  0
LINE
  5
7D
330
1F
100
AcDbEntity
  8
1
100
AcDbLine
 10
-0.9520255625
 20
2.9500012131
 30
0.0
 11
-0.9519249797
 21
2.9500012131
 31
0.0
  0
LINE
  5
7E
330
1F
100
AcDbEntity
  8
1
100
AcDbLine
 10
-0.9519249797
 20
2.0500011122
 30
0.0
 11
-0.9519249797
 21
2.9500012131
 31
0.0
  0
LINE
  5
7F
330
1F
100
AcDbEntity
  8
1
100
AcDbLine
 10
-0.9520255625
 20
2.0500011122
 30
0.0
 11
-0.9519249797
 21
2.0500011122
 31
0.0
  0
LINE
  5
80
330
1F
100
AcDbEntity
  8
1
100
AcDbLine
 10
-0.9520255625
 20
1.9500011656
 30
0.0
 11
-0.9520255625
 21
2.0500011122
 31
0.0
  0
LINE
  5
81
330
1F
100
AcDbEntity
  8
1
100
AcDbLine
 10
-0.9520255625
 20
1.9500011656
 30
0.0
 11
-0.9519249797
 21
1.9500011656
 31
0.0
  0
LINE
  5
82
330
1F
100
AcDbEntity
  8
1
100
AcDbLine
 10
-0.9519249797
 20
1.0500010647
 30
0.0
 11
-0.9519249797
 21
1.9500011656
 31
0.0
  0
LINE
  5
83
330
1F
100
AcDbEntity
  8
1
100
AcDbLine
 10
-0.9520255625
 20
1.0500010647
 30
0.0
 11
-0.9519249797
 21
1.0500010647
 31
0.0
  0
LINE
  5
84
330
1F
100
AcDbEntity
  8
1
100
AcDbLine
 10
-0.9520255625
 20
0.9500011181
 30
0.0
 11
-0.9520255625
 21
1.0500010647
 31
0.0
  0
LINE
  5
85
330
1F
100
AcDbEntity
  8
1
100
AcDbLine
 10
-0.9520255625
 20
0.9500011181
 30
0.0
 11
-0.9519249797
 21
0.9500011181
 31
0.0
  0
LINE
  5
86
330
1F
100
AcDbEntity
  8
1
100
AcDbLine
 10
-0.9519249797
 20
0.0500011227
 30
0.0
 11
-0.9519249797
 21
0.9500011181
 31
0.0
  0
LINE
  5
87
330
1F
100
AcDbEntity
  8
1
100
AcDbLine
 10
-0.9520255625
 20
0.0500011227
 30
0.0
 11
-0.9519249797
 21
0.0500011227
 31
0.0
  0
LINE
  5
88
330
1F
100
AcDbEntity
  8
1
100
AcDbLine
 10
-0.9520255625
 20
-0.0499988784
 30
0.0
 11
-0.9520255625
 21
0.0500011227
 31
0.0
  0
LINE
  5
89
330
1F
100
AcDbEntity
  8
1
100
AcDbLine
 10
-0.9520255625
 20
-0.0499988784
 30
0.0
 11
-0.9519249797
 21
-0.0499988784
 31
0.0
  0
LINE
  5
8A
330
1F
100
AcDbEntity
  8
1
100
AcDbLine
 10
-0.9519249797
 20
-0.9499988557
 30
0.0
 11
-0.9519249797
 21
-0.0499988784
 31
0.0
  0
LINE
  5
8B
330
1F
100
AcDbEntity
  8
1
100
AcDbLine
 10
-0.9520255625
 20
-0.9499988557
 30
0.0
 11
-0.9519249797
 21
-0.9499988557
 31
0.0
  0
LINE
  5
8C
330
1F
100
AcDbEntity
  8
1
100
AcDbLine
 10
-0.9520255625
 20
-1.0499988604
 30
0.0
 11
-0.9520255625
 21
-0.9499988557
 31
0.0
  0
LINE
  5
8D
330
1F
100
AcDbEntity
  8
1
100
AcDbLine
 10
-0.9520255625
 20
-1.0499988604
 30
0.0
 11
-0.9519249797
 21
-1.0499988604
 31
0.0
  0
LINE
  5
8E
330
1F
100
AcDbEntity
  8
1
100
AcDbLine
 10
-0.9519249797
 20
-1.949998845
 30
0.0
 11
-0.9519249797
 21
-1.0499988604
 31
0.0
  0
LINE
  5
8F
330
1F
100
AcDbEntity
  8
1
100
AcDbLine
 10
-0.9520255625
 20
-1.949998845
 30
0.0
 11
-0.9519249797
 21
-1.949998845
 31
0.0
  0
LINE
  5
90
330
1F
100
AcDbEntity
  8
1
100
AcDbLine
 10
-0.9520255625
 20
-2.0499989079
 30
0.0
 11
-0.9520255625
 21
-1.949998845
 31
0.0
  0
LINE
  5
91
330
1F
100
AcDbEntity
  8
1
100
AcDbLine
 10
-0.9520255625
 20
-2.0499989079
 30
0.0
 11
-0.9519249797
 21
-2.0499989079
 31
0.0
  0
LINE
  5
92
330
1F
100
AcDbEntity
  8
1
100
AcDbLine
 10
-0.9519249797
 20
-2.9499987761
 30
0.0
 11
-0.9519249797
 21
-2.0499989079
 31
0.0
  0
LINE
  5
93
330
1F
100
AcDbEntity
  8
1
100
AcDbLine
 10
-0.9520255625
 20
-2.9499987761
 30
0.0
 11
-0.9519249797
 21
-2.9499987761
 31
0.0
  0
LINE
  5
94
330
1F
100
AcDbEntity
  8
1
100
AcDbLine
 10
-0.9520255625
 20
-3.049998839
 30
0.0
 11
-0.9520255625
 21
-2.9499987761
 31
0.0
  0
LINE
  5
95
330
1F
100
AcDbEntity
  8
1
100
AcDbLine
 10
-0.9520255625
 20
-3.049998839
 30
0.0
 11
-0.9519249797
 21
-3.049998839
 31
0.0
  0
LINE
  5
96
330
1F
100
AcDbEntity
  8
1
100
AcDbLine
 10
-0.9519249797
 20
-3.9499987071
 30
0.0
 11
-0.9519249797
 21
-3.049998839
 31
0.0
  0
LINE
  5
97
330
1F
100
AcDbEntity
  8
1
100
AcDbLine
 10
-0.9520255625
 20
-3.9499987071
 30
0.0
 11
-0.9519249797
 21
-3.9499987071
 31
0.0
  0
LINE
  5
98
330
1F
100
AcDbEntity
  8
1
100
AcDbLine
 10
-0.9520255625
 20
-4.0499990029
 30
0.0
 11
-0.9520255625
 21
-3.9499987071
 31
0.0
  0
LINE
  5
99
330
1F
100
AcDbEntity
  8
1
100
AcDbLine
 10
-0.9520255625
 20
-4.0499990029
 30
0.0
 11
-0.9519249797
 21
-4.0499990029
 31
0.0
  0
LINE
  5
9A
330
1F
100
AcDbEntity
  8
1
100
AcDbLine
 10
-0.9519249797
 20
-4.9499988711
 30
0.0
 11
-0.9519249797
 21
-4.0499990029
 31
0.0
  0
LINE
  5
9B
330
1F
100
AcDbEntity
  8
1
100
AcDbLine
 10
-0.9520255625
 20
-4.9499988711
 30
0.0
 11
-0.9519249797
 21
-4.9499988711
 31
0.0
  0
LINE
  5
9C
330
1F
100
AcDbEntity
  8
1
100
AcDbLine
 10
-0.9520255625
 20
-5.0499987012
 30
0.0
 11
-0.9520255625
 21
-4.9499988711
 31
0.0
  0
LINE
  5
9D
330
1F
100
AcDbEntity
  8
1
100
AcDbLine
 10
-0.9520255625
 20
-5.0499987012
 30
0.0
 11
-0.9519249797
 21
-5.0499987012
 31
0.0
  0
LINE
  5
9E
330
1F
100
AcDbEntity
  8
1
100
AcDbLine
 10
-0.9519249797
 20
-10.3953106483
 30
0.0
 11
-0.9519249797
 21
-5.0499987012
 31
0.0
  0
LINE
  5
9F
330
1F
100
AcDbEntity
  8
1
100
AcDbLine
 10
-0.9519249797
 20
6.0500010693
 30
0.0
 11
-0.9519249797
 21
10.3953232567
 31
0.0
  0
LINE
  5
A0
330
1F
100
AcDbEntity
  8
1
100
AcDbLine
 10
-0.9520255625
 20
6.0500010693
 30
0.0
 11
-0.9519249797
 21
6.0500010693
 31
0.0
  0
LINE
  5
A1
330
1F
100
AcDbEntity
  8
1
100
AcDbLine
 10
-0.9520255625
 20
5.9500012392
 30
0.0
 11
-0.9520255625
 21
6.0500010693
 31
0.0
  0
LINE
  5
A2
330
1F
100
AcDbEntity
  8
1
100
AcDbLine
 10
-0.9520255625
 20
5.9500012392
 30
0.0
 11
-0.9519249797
 21
5.9500012392
 31
0.0
  0
LINE
  5
A3
330
1F
100
AcDbEntity
  8
1
100
AcDbLine
 10
-0.9519249797
 20
5.0500009054
 30
0.0
 11
-0.9519249797
 21
5.9500012392
 31
0.0
  0
LINE
  5
A4
330
1F
100
AcDbEntity
  8
1
100
AcDbLine
 10
-0.9520255625
 20
5.0500009054
 30
0.0
 11
-0.9519249797
 21
5.0500009054
 31
0.0
  0
LINE
  5
A5
330
1F
100
AcDbEntity
  8
1
100
AcDbLine
 10
-0.9520255625
 20
4.9500010753
 30
0.0
 11
-0.9520255625
 21
5.0500009054
 31
0.0
  0
LINE
  5
A6
330
1F
100
AcDbEntity
  8
1
100
AcDbLine
 10
-0.9520255625
 20
4.9500010753
 30
0.0
 11
-0.9519249797
 21
4.9500010753
 31
0.0
  0
LINE
  5
A7
330
1F
100
AcDbEntity
  8
1
100
AcDbLine
 10
-0.9519249797
 20
4.0500012072
 30
0.0
 11
-0.9519249797
 21
4.9500010753
 31
0.0
  0
LINE
  5
A8
330
1F
100
AcDbEntity
  8
1
100
AcDbLine
 10
-1.2019254863
 20
-25.8512374168
 30
0.0
 11
-1.128351003
 21
-25.8881159281
 31
0.0
  0
LINE
  5
A9
330
1F
100
AcDbEntity
  8
1
100
AcDbLine
 10
-1.128351003
 20
-25.8881159281
 30
0.0
 11
-1.0308713317
 21
-25.9669412082
 31
0.0
  0
LINE
  5
AA
330
1F
100
AcDbEntity
  8
1
100
AcDbLine
 10
-1.0308713317
 20
-25.9669412082
 30
0.0
 11
-0.9654552341
 21
-26.0746933674
 31
0.0
  0
LINE
  5
AB
330
1F
100
AcDbEntity
  8
1
100
AcDbLine
 10
-0.9654552341
 20
-26.0746933674
 30
0.0
 11
-0.957498014
 21
-26.205676437
 31
0.0
  0
LINE
  5
AC
330
1F
100
AcDbEntity
  8
1
100
AcDbLine
 10
-0.957498014
 20
-26.205676437
 30
0.0
 11
-1.0305956602
 21
-26.3378441488
 31
0.0
  0
LINE
  5
AD
330
1F
100
AcDbEntity
  8
1
100
AcDbLine
 10
-1.0305956602
 20
-26.3378441488
 30
0.0
 11
-1.144302696
 21
-26.4215290701
 31
0.0
  0
LINE
  5
AE
330
1F
100
AcDbEntity
  8
1
100
AcDbLine
 10
-1.144302696
 20
-26.4215290701
 30
0.0
 11
-1.2019242715
 21
-26.4473703401
 31
0.0
  0
LINE
  5
AF
330
1F
100
AcDbEntity
  8
1
100
AcDbLine
 10
4.699989449
 20
-10.3953106483
 30
0.0
 11
-0.9519249797
 21
-10.3953106483
 31
0.0
  0
LINE
  5
B0
330
1F
100
AcDbEntity
  8
1
100
AcDbLine
 10
4.699989449
 20
-31.7498383857
 30
0.0
 11
-0.9620279462
 21
-31.7498383857
 31
0.0
  0
LINE
  5
B1
330
1F
100
AcDbEntity
  8
1
100
AcDbLine
 10
-4.4500002369
 20
-31.534642964
 30
0.0
 11
-4.4500020727
 21
-31.6659773137
 31
0.0
  0
LINE
  5
B2
330
1F
100
AcDbEntity
  8
1
100
AcDbLine
 10
-1.2019219715
 20
-31.0914585917
 30
0.0
 11
-1.0723971427
 21
-31.113506124
 31
0.0
  0
LINE
  5
B3
330
1F
100
AcDbEntity
  8
1
100
AcDbLine
 10
-1.0723971427
 20
-31.113506124
 30
0.0
 11
-0.986294508
 21
-31.142302618
 31
0.0
  0
LINE
  5
B4
330
1F
100
AcDbEntity
  8
1
100
AcDbLine
 10
-0.986294508
 20
-31.142302618
 30
0.0
 11
-0.9522043765
 21
-31.1746996051
 31
0.0
  0
LINE
  5
B5
330
1F
100
AcDbEntity
  8
1
100
AcDbLine
 10
-0.9522043765
 20
-31.1746996051
 30
0.0
 11
-0.9757780135
 21
-31.2068935638
 31
0.0
  0
LINE
  5
B6
330
1F
100
AcDbEntity
  8
1
100
AcDbLine
 10
-0.9757780135
 20
-31.2068935638
 30
0.0
 11
-1.0552794337
 21
-31.2349617636
 31
0.0
  0
LINE
  5
B7
330
1F
100
AcDbEntity
  8
1
100
AcDbLine
 10
-1.0552794337
 20
-31.2349617636
 30
0.0
 11
-1.1805050671
 21
-31.2558029002
 31
0.0
  0
LINE
  5
B8
330
1F
100
AcDbEntity
  8
1
100
AcDbLine
 10
-1.1805050671
 20
-31.2558029002
 30
0.0
 11
-1.2019207567
 21
-31.2581358742
 31
0.0
  0
LINE
  5
B9
330
1F
100
AcDbEntity
  8
1
100
AcDbLine
 10
-1.1956520975
 20
-29.2159922576
 30
0.0
 11
-1.0765582919
 21
-29.2579222625
 31
0.0
  0
LINE
  5
BA
330
1F
100
AcDbEntity
  8
1
100
AcDbLine
 10
-1.0765582919
 20
-29.2579222625
 30
0.0
 11
-0.9906456471
 21
-29.3154370194
 31
0.0
  0
LINE
  5
BB
330
1F
100
AcDbEntity
  8
1
100
AcDbLine
 10
-0.9906456471
 20
-29.3154370194
 30
0.0
 11
-0.9525769055
 21
-29.3844908631
 31
0.0
  0
LINE
  5
BC
330
1F
100
AcDbEntity
  8
1
100
AcDbLine
 10
-0.9525769055
 20
-29.3844908631
 30
0.0
 11
-0.9759270251
 21
-29.4569589352
 31
0.0
  0
LINE
  5
BD
330
1F
100
AcDbEntity
  8
1
100
AcDbLine
 10
-0.9759270251
 20
-29.4569589352
 30
0.0
 11
-1.0631882251
 21
-29.5213580286
 31
0.0
  0
LINE
  5
BE
330
1F
100
AcDbEntity
  8
1
100
AcDbLine
 10
-1.0631882251
 20
-29.5213580286
 30
0.0
 11
-1.1993140578
 21
-29.5674156552
 31
0.0
  0
LINE
  5
BF
330
1F
100
AcDbEntity
  8
1
100
AcDbLine
 10
-1.1993140578
 20
-29.5674156552
 30
0.0
 11
-1.2019242715
 21
-29.568010391
 31
0.0
  0
LINE
  5
C0
330
1F
100
AcDbEntity
  8
1
100
AcDbLine
 10
-4.450000344
 20
23.7499991071
 30
0.0
 11
-4.4500021798
 21
23.1847411124
 31
0.0
  0
LINE
  5
C1
330
1F
100
AcDbEntity
  8
1
100
AcDbLine
 10
13.1500012576
 20
23.7499991071
 30
0.0
 11
-4.450000344
 21
23.7499991071
 31
0.0
  0
LINE
  5
C2
330
1F
100
AcDbEntity
  8
1
100
AcDbLine
 10
13.6499976971
 20
23.250000805
 30
0.0
 11
13.1500012576
 21
23.7499991071
 31
0.0
  0
LINE
  5
C3
330
1F
100
AcDbEntity
  8
1
100
AcDbLine
 10
13.7899109108
 20
10.3953232567
 30
0.0
 11
13.6499976971
 21
23.250000805
 31
0.0
  0
LINE
  5
C4
330
1F
100
AcDbEntity
  8
1
100
AcDbLine
 10
13.7899109108
 20
10.3953232567
 30
0.0
 11
-0.9519249797
 21
10.3953232567
 31
0.0
  0
LINE
  5
C6
330
1F
100
AcDbEntity
  8
1
100
AcDbLine
 10
4.699989449
 20
-10.3953106483
 30
0.0
 11
4.7993491853
 21
-10.4142118738
 31
0.0
  0
LINE
  5
C7
330
1F
100
AcDbEntity
  8
1
100
AcDbLine
 10
4.7993491853
 20
-10.4142118738
 30
0.0
 11
4.9082612035
 21
-10.4792588279
 31
0.0
  0
LINE
  5
C8
330
1F
100
AcDbEntity
  8
1
100
AcDbLine
 10
4.9082612035
 20
-10.4792588279
 30
0.0
 11
5.0550708018
 21
-10.6464634083
 31
0.0
  0
LINE
  5
C9
330
1F
100
AcDbEntity
  8
1
100
AcDbLine
 10
5.0550708018
 20
-10.6464634083
 30
0.0
 11
5.312842054
 21
-11.2379375116
 31
0.0
  0
LINE
  5
CA
330
1F
100
AcDbEntity
  8
1
100
AcDbLine
 10
5.312842054
 20
-11.2379375116
 30
0.0
 11
5.4559750894
 21
-11.9265412615
 31
0.0
  0
LINE
  5
CB
330
1F
100
AcDbEntity
  8
1
100
AcDbLine
 10
5.4559750894
 20
-11.9265412615
 30
0.0
 11
5.4999968306
 21
-12.6294288071
 31
0.0
  0
LINE
  5
CC
330
1F
100
AcDbEntity
  8
1
100
AcDbLine
 10
28.3551219089
 20
-7.7748799538
 30
0.0
 11
14.8197787574
 21
8.3559154671
 31
0.0
  0
LINE
  5
CD
330
1F
100
AcDbEntity
  8
1
100
AcDbLine
 10
12.7499982118
 20
-26.7740141755
 30
0.0
 11
13.3066236377
 21
-26.7233874803
 31
0.0
  0
LINE
  5
CE
330
1F
100
AcDbEntity
  8
1
100
AcDbLine
 10
13.3066236377
 20
-26.7233874803
 30
0.0
 11
13.8414300382
 21
-26.5806380814
 31
0.0
  0
LINE
  5
CF
330
1F
100
AcDbEntity
  8
1
100
AcDbLine
 10
13.8414300382
 20
-26.5806380814
 30
0.0
 11
14.3321886062
 21
-26.3619318759
 31
0.0
  0
LINE
  5
D0
330
1F
100
AcDbEntity
  8
1
100
AcDbLine
 10
14.3321886062
 20
-26.3619318759
 30
0.0
 11
14.7813505828
 21
-26.0825593179
 31
0.0
  0
LINE
  5
D1
330
1F
100
AcDbEntity
  8
1
100
AcDbLine
 10
14.7813505828
 20
-26.0825593179
 30
0.0
 11
15.4334738254
 21
-25.5194891399
 31
0.0
  0
LINE
  5
D2
330
1F
100
AcDbEntity
  8
1
100
AcDbLine
 10
15.4334738254
 20
-25.5194891399
 30
0.0
 11
15.9783385098
 21
-24.8642366534
 31
0.0
  0
LINE
  5
D3
330
1F
100
AcDbEntity
  8
1
100
AcDbLine
 10
15.9783385098
 20
-24.8642366534
 30
0.0
 11
16.5872334838
 21
-23.8150328552
 31
0.0
  0
LINE
  5
D4
330
1F
100
AcDbEntity
  8
1
100
AcDbLine
 10
16.5872334838
 20
-23.8150328552
 30
0.0
 11
17.0035421252
 21
-22.6668816214
 31
0.0
  0
LINE
  5
D5
330
1F
100
AcDbEntity
  8
1
100
AcDbLine
 10
17.0035421252
 20
-22.6668816214
 30
0.0
 11
17.2226338982
 21
-21.4330691999
 31
0.0
  0
LINE
  5
D6
330
1F
100
AcDbEntity
  8
1
100
AcDbLine
 10
17.2226338982
 20
-21.4330691999
 30
0.0
 11
17.2174296677
 21
-20.1615214502
 31
0.0
  0
LINE
  5
D7
330
1F
100
AcDbEntity
  8
1
100
AcDbLine
 10
17.2174296677
 20
-20.1615214502
 30
0.0
 11
17.051199764
 21
-19.2221801883
 31
0.0
  0
LINE
  5
D8
330
1F
100
AcDbEntity
  8
1
100
AcDbLine
 10
17.051199764
 20
-19.2221801883
 30
0.0
 11
16.7346134186
 21
-18.3127846723
 31
0.0
  0
LINE
  5
D9
330
1F
100
AcDbEntity
  8
1
100
AcDbLine
 10
16.7346134186
 20
-18.3127846723
 30
0.0
 11
16.3425191641
 21
-17.5936043417
 31
0.0
  0
LINE
  5
DA
330
1F
100
AcDbEntity
  8
1
100
AcDbLine
 10
16.3425191641
 20
-17.5936043417
 30
0.0
 11
15.837105304
 21
-16.9442936933
 31
0.0
  0
LINE
  5
DB
330
1F
100
AcDbEntity
  8
1
100
AcDbLine
 10
15.837105304
 20
-16.9442936933
 30
0.0
 11
15.2182191014
 21
-16.3896948254
 31
0.0
  0
LINE
  5
DC
330
1F
100
AcDbEntity
  8
1
100
AcDbLine
 10
15.2182191014
 20
-16.3896948254
 30
0.0
 11
14.5058132112
 21
-15.9594927138
 31
0.0
  0
LINE
  5
DD
330
1F
100
AcDbEntity
  8
1
100
AcDbLine
 10
14.5058132112
 20
-15.9594927138
 30
0.0
 11
13.8130097985
 21
-15.7030865705
 31
0.0
  0
LINE
  5
DE
330
1F
100
AcDbEntity
  8
1
100
AcDbLine
 10
13.8130097985
 20
-15.7030865705
 30
0.0
 11
13.0854568779
 21
-15.5741328528
 31
0.0
  0
LINE
  5
DF
330
1F
100
AcDbEntity
  8
1
100
AcDbLine
 10
13.0854568779
 20
-15.5741328528
 30
0.0
 11
12.3974181115
 21
-15.5760849049
 31
0.0
  0
LINE
  5
E0
330
1F
100
AcDbEntity
  8
1
100
AcDbLine
 10
12.3974181115
 20
-15.5760849049
 30
0.0
 11
11.7195493877
 21
-15.6937286412
 31
0.0
  0
LINE
  5
E1
330
1F
100
AcDbEntity
  8
1
100
AcDbLine
 10
11.7195493877
 20
-15.6937286412
 30
0.0
 11
11.0802262425
 21
-15.9201815879
 31
0.0
  0
LINE
  5
E2
330
1F
100
AcDbEntity
  8
1
100
AcDbLine
 10
11.0802262425
 20
-15.9201815879
 30
0.0
 11
10.4857965708
 21
-16.2460383182
 31
0.0
  0
LINE
  5
E3
330
1F
100
AcDbEntity
  8
1
100
AcDbLine
 10
10.4857965708
 20
-16.2460383182
 30
0.0
 11
9.935023576
 21
-16.6749216771
 31
0.0
  0
LINE
  5
E4
330
1F
100
AcDbEntity
  8
1
100
AcDbLine
 10
9.935023576
 20
-16.6749216771
 30
0.0
 11
9.4568900168
 21
-17.1816617405
 31
0.0
  0
LINE
  5
E5
330
1F
100
AcDbEntity
  8
1
100
AcDbLine
 10
9.4568900168
 20
-17.1816617405
 30
0.0
 11
9.0308956206
 21
-17.797755838
 31
0.0
  0
LINE
  5
E6
330
1F
100
AcDbEntity
  8
1
100
AcDbLine
 10
9.0308956206
 20
-17.797755838
 30
0.0
 11
8.6996726095
 21
-18.4656370586
 31
0.0
  0
LINE
  5
E7
330
1F
100
AcDbEntity
  8
1
100
AcDbLine
 10
8.6996726095
 20
-18.4656370586
 30
0.0
 11
8.438380748
 21
-19.2624561643
 31
0.0
  0
LINE
  5
E8
330
1F
100
AcDbEntity
  8
1
100
AcDbLine
 10
8.438380748
 20
-19.2624561643
 30
0.0
 11
8.2911200225
 21
-20.0808037227
 31
0.0
  0
LINE
  5
E9
330
1F
100
AcDbEntity
  8
1
100
AcDbLine
 10
8.2911200225
 20
-20.0808037227
 30
0.0
 11
8.2540049553
 21
-21.0526555931
 31
0.0
  0
LINE
  5
EA
330
1F
100
AcDbEntity
  8
1
100
AcDbLine
 10
8.2540049553
 20
-21.0526555931
 30
0.0
 11
8.3518348038
 21
-22.0089301622
 31
0.0
  0
LINE
  5
EB
330
1F
100
AcDbEntity
  8
1
100
AcDbLine
 10
8.3518348038
 20
-22.0089301622
 30
0.0
 11
8.6323491633
 21
-23.1140077269
 31
0.0
  0
LINE
  5
EC
330
1F
100
AcDbEntity
  8
1
100
AcDbLine
 10
8.6323491633
 20
-23.1140077269
 30
0.0
 11
9.0800321996
 21
-24.1502270257
 31
0.0
  0
LINE
  5
ED
330
1F
100
AcDbEntity
  8
1
100
AcDbLine
 10
9.0800321996
 20
-24.1502270257
 30
0.0
 11
9.6050857901
 21
-24.9787409013
 31
0.0
  0
LINE
  5
EE
330
1F
100
AcDbEntity
  8
1
100
AcDbLine
 10
9.6050857901
 20
-24.9787409013
 30
0.0
 11
10.2638065219
 21
-25.7116191244
 31
0.0
  0
LINE
  5
EF
330
1F
100
AcDbEntity
  8
1
100
AcDbLine
 10
10.2638065219
 20
-25.7116191244
 30
0.0
 11
10.7396602034
 21
-26.0974269515
 31
0.0
  0
LINE
  5
F0
330
1F
100
AcDbEntity
  8
1
100
AcDbLine
 10
10.7396602034
 20
-26.0974269515
 30
0.0
 11
11.2735650837
 21
-26.4165315932
 31
0.0
  0
LINE
  5
F1
330
1F
100
AcDbEntity
  8
1
100
AcDbLine
 10
11.2735650837
 20
-26.4165315932
 30
0.0
 11
11.7322526276
 21
-26.6058117306
 31
0.0
  0
LINE
  5
F2
330
1F
100
AcDbEntity
  8
1
100
AcDbLine
 10
11.7322526276
 20
-26.6058117306
 30
0.0
 11
12.2200495899
 21
-26.7288282668
 31
0.0
  0
LINE
  5
F3
330
1F
100
AcDbEntity
  8
1
100
AcDbLine
 10
12.2200495899
 20
-26.7288282668
 30
0.0
 11
12.7499982118
 21
-26.7740141755
 31
0.0
  0
LINE
  5
F4
330
1F
100
AcDbEntity
  8
1
100
AcDbLine
 10
42.4999988973
 20
-38.4999986901
 30
0.0
 11
42.4999988973
 21
-24.6320896005
 31
0.0
  0
LINE
  5
F5
330
1F
100
AcDbEntity
  8
1
100
AcDbLine
 10
5.4999968306
 20
-38.4999986901
 30
0.0
 11
42.4999988973
 21
-38.4999986901
 31
0.0
  0
LINE
  5
F6
330
1F
100
AcDbEntity
  8
1
100
AcDbLine
 10
5.4999968306
 20
-7.7748799538
 30
0.0
 11
5.4999968306
 21
-38.4999986901
 31
0.0
  0
LINE
  5
F7
330
1F
100
AcDbEntity
  8
1
100
AcDbLine
 10
15.0918982327
 20
-36.6795946067
 30
0.0
 11
15.4351576566
 21
-36.8347156948
 31
0.0
  0
LINE
  5
F8
330
1F
100
AcDbEntity
  8
1
100
AcDbLine
 10
15.4351576566
 20
-36.8347156948
 30
0.0
 11
15.7034269869
 21
-37.0007146305
 31
0.0
  0
LINE
  5
F9
330
1F
100
AcDbEntity
  8
1
100
AcDbLine
 10
15.7034269869
 20
-37.0007146305
 30
0.0
 11
15.8880672753
 21
-37.1705431646
 31
0.0
  0
LINE
  5
FA
330
1F
100
AcDbEntity
  8
1
100
AcDbLine
 10
15.8880672753
 20
-37.1705431646
 30
0.0
 11
15.9852377474
 21
-37.3376596874
 31
0.0
  0
LINE
  5
FB
330
1F
100
AcDbEntity
  8
1
100
AcDbLine
 10
15.9852377474
 20
-37.3376596874
 30
0.0
 11
15.9913434982
 21
-37.4959398216
 31
0.0
  0
LINE
  5
FC
330
1F
100
AcDbEntity
  8
1
100
AcDbLine
 10
15.9913434982
 20
-37.4959398216
 30
0.0
 11
15.9081205129
 21
-37.6413602537
 31
0.0
  0
LINE
  5
FD
330
1F
100
AcDbEntity
  8
1
100
AcDbLine
 10
15.9081205129
 20
-37.6413602537
 30
0.0
 11
15.7354495823
 21
-37.7713691598
 31
0.0
  0
LINE
  5
FE
330
1F
100
AcDbEntity
  8
1
100
AcDbLine
 10
15.7354495823
 20
-37.7713691598
 30
0.0
 11
15.4798872173
 21
-37.8832135504
 31
0.0
  0
LINE
  5
FF
330
1F
100
AcDbEntity
  8
1
100
AcDbLine
 10
15.4798872173
 20
-37.8832135504
 30
0.0
 11
15.1426739394
 21
-37.9769046014
 31
0.0
  0
LINE
  5
100
330
1F
100
AcDbEntity
  8
1
100
AcDbLine
 10
15.1426739394
 20
-37.9769046014
 30
0.0
 11
14.7367588579
 21
-38.051354528
 31
0.0
  0
LINE
  5
101
330
1F
100
AcDbEntity
  8
1
100
AcDbLine
 10
14.7367588579
 20
-38.051354528
 30
0.0
 11
14.2715557813
 21
-38.1071556514
 31
0.0
  0
LINE
  5
102
330
1F
100
AcDbEntity
  8
1
100
AcDbLine
 10
14.2715557813
 20
-38.1071556514
 30
0.0
 11
13.7613213956
 21
-38.1453957563
 31
0.0
  0
LINE
  5
103
330
1F
100
AcDbEntity
  8
1
100
AcDbLine
 10
13.7613213956
 20
-38.1453957563
 30
0.0
 11
13.2298044264
 21
-38.1666634386
 31
0.0
  0
LINE
  5
104
330
1F
100
AcDbEntity
  8
1
100
AcDbLine
 10
13.2298044264
 20
-38.1666634386
 30
0.0
 11
12.6842244863
 21
-38.1724897927
 31
0.0
  0
LINE
  5
105
330
1F
100
AcDbEntity
  8
1
100
AcDbLine
 10
12.6842244863
 20
-38.1724897927
 30
0.0
 11
12.1511689722
 21
-38.1633144027
 31
0.0
  0
LINE
  5
106
330
1F
100
AcDbEntity
  8
1
100
AcDbLine
 10
12.1511689722
 20
-38.1633144027
 30
0.0
 11
11.6349592209
 21
-38.1392005986
 31
0.0
  0
LINE
  5
107
330
1F
100
AcDbEntity
  8
1
100
AcDbLine
 10
11.6349592209
 20
-38.1392005986
 30
0.0
 11
11.1500381827
 21
-38.0993772453
 31
0.0
  0
LINE
  5
108
330
1F
100
AcDbEntity
  8
1
100
AcDbLine
 10
11.1500381827
 20
-38.0993772453
 30
0.0
 11
10.7090159654
 21
-38.0430918342
 31
0.0
  0
LINE
  5
109
330
1F
100
AcDbEntity
  8
1
100
AcDbLine
 10
10.7090159654
 20
-38.0430918342
 30
0.0
 11
10.3169515133
 21
-37.9676174527
 31
0.0
  0
LINE
  5
10A
330
1F
100
AcDbEntity
  8
1
100
AcDbLine
 10
10.3169515133
 20
-37.9676174527
 30
0.0
 11
9.9925048053
 21
-37.8734495645
 31
0.0
  0
LINE
  5
10B
330
1F
100
AcDbEntity
  8
1
100
AcDbLine
 10
9.9925048053
 20
-37.8734495645
 30
0.0
 11
9.7416474819
 21
-37.7580661481
 31
0.0
  0
LINE
  5
10C
330
1F
100
AcDbEntity
  8
1
100
AcDbLine
 10
9.7416474819
 20
-37.7580661481
 30
0.0
 11
9.5766990781
 21
-37.6241568631
 31
0.0
  0
LINE
  5
10D
330
1F
100
AcDbEntity
  8
1
100
AcDbLine
 10
9.5766990781
 20
-37.6241568631
 30
0.0
 11
9.5039963126
 21
-37.4736402338
 31
0.0
  0
LINE
  5
10E
330
1F
100
AcDbEntity
  8
1
100
AcDbLine
 10
9.5039963126
 20
-37.4736402338
 30
0.0
 11
9.5246269703
 21
-37.3103197819
 31
0.0
  0
LINE
  5
10F
330
1F
100
AcDbEntity
  8
1
100
AcDbLine
 10
9.5246269703
 20
-37.3103197819
 30
0.0
 11
9.6377901137
 21
-37.1411282724
 31
0.0
  0
LINE
  5
110
330
1F
100
AcDbEntity
  8
1
100
AcDbLine
 10
9.6377901137
 20
-37.1411282724
 30
0.0
 11
9.8389446139
 21
-36.9702939099
 31
0.0
  0
LINE
  5
111
330
1F
100
AcDbEntity
  8
1
100
AcDbLine
 10
9.8389446139
 20
-36.9702939099
 30
0.0
 11
10.1211390793
 21
-36.805896849
 31
0.0
  0
LINE
  5
112
330
1F
100
AcDbEntity
  8
1
100
AcDbLine
 10
10.1211390793
 20
-36.805896849
 30
0.0
 11
10.4766025543
 21
-36.6536256081
 31
0.0
  0
LINE
  5
113
330
1F
100
AcDbEntity
  8
1
100
AcDbLine
 10
10.4766025543
 20
-36.6536256081
 30
0.0
 11
10.8970760703
 21
-36.5204651063
 31
0.0
  0
LINE
  5
114
330
1F
100
AcDbEntity
  8
1
100
AcDbLine
 10
10.8970760703
 20
-36.5204651063
 30
0.0
 11
11.3693311214
 21
-36.4128042167
 31
0.0
  0
LINE
  5
115
330
1F
100
AcDbEntity
  8
1
100
AcDbLine
 10
11.3693311214
 20
-36.4128042167
 30
0.0
 11
11.8827022016
 21
-36.3362755781
 31
0.0
  0
LINE
  5
116
330
1F
100
AcDbEntity
  8
1
100
AcDbLine
 10
11.8827022016
 20
-36.3362755781
 30
0.0
 11
12.4205149114
 21
-36.2947423166
 31
0.0
  0
LINE
  5
117
330
1F
100
AcDbEntity
  8
1
100
AcDbLine
 10
12.4205149114
 20
-36.2947423166
 30
0.0
 11
12.9678904414
 21
-36.291039378
 31
0.0
  0
LINE
  5
118
330
1F
100
AcDbEntity
  8
1
100
AcDbLine
 10
12.9678904414
 20
-36.291039378
 30
0.0
 11
13.5091155171
 21
-36.3247085517
 31
0.0
  0
LINE
  5
119
330
1F
100
AcDbEntity
  8
1
100
AcDbLine
 10
13.5091155171
 20
-36.3247085517
 30
0.0
 11
14.0283725559
 21
-36.394572646
 31
0.0
  0
LINE
  5
11A
330
1F
100
AcDbEntity
  8
1
100
AcDbLine
 10
14.0283725559
 20
-36.394572646
 30
0.0
 11
14.5116432905
 21
-36.4964146322
 31
0.0
  0
LINE
  5
11B
330
1F
100
AcDbEntity
  8
1
100
AcDbLine
 10
14.5116432905
 20
-36.4964146322
 30
0.0
 11
15.0918982327
 21
-36.6795946067
 31
0.0
  0
LINE
  5
11C
330
1F
100
AcDbEntity
  8
1
100
AcDbLine
 10
42.4999988973
 20
-24.6320896005
 30
0.0
 11
41.5250084698
 21
-23.4701436168
 31
0.0
  0
LINE
  5
11D
330
1F
100
AcDbEntity
  8
1
100
AcDbLine
 10
41.5250084698
 20
-23.4701436168
 30
0.0
 11
40.528031379
 21
-22.2819883531
 31
0.0
  0
LINE
  5
11E
330
1F
100
AcDbEntity
  8
1
100
AcDbLine
 10
40.528031379
 20
-22.2819883531
 30
0.0
 11
39.5116827786
 21
-21.0707493281
 31
0.0
  0
LINE
  5
11F
330
1F
100
AcDbEntity
  8
1
100
AcDbLine
 10
39.5116827786
 20
-21.0707493281
 30
0.0
 11
38.4786299765
 21
-19.839606077
 31
0.0
  0
LINE
  5
120
330
1F
100
AcDbEntity
  8
1
100
AcDbLine
 10
38.4786299765
 20
-19.839606077
 30
0.0
 11
37.4315924346
 21
-18.5917996025
 31
0.0
  0
LINE
  5
121
330
1F
100
AcDbEntity
  8
1
100
AcDbLine
 10
37.4315924346
 20
-18.5917996025
 30
0.0
 11
36.3733268678
 21
-17.3306081599
 31
0.0
  0
LINE
  5
122
330
1F
100
AcDbEntity
  8
1
100
AcDbLine
 10
36.3733268678
 20
-17.3306081599
 30
0.0
 11
35.3066123426
 21
-16.0593453949
 31
0.0
  0
LINE
  5
123
330
1F
100
AcDbEntity
  8
1
100
AcDbLine
 10
35.3066123426
 20
-16.0593453949
 30
0.0
 11
34.2342502773
 21
-14.7813566184
 31
0.0
  0
LINE
  5
124
330
1F
100
AcDbEntity
  8
1
100
AcDbLine
 10
34.2342502773
 20
-14.7813566184
 30
0.0
 11
28.3551219089
 21
-7.7748799538
 31
0.0
  0
LINE
  5
125
330
1F
100
AcDbEntity
  8
1
100
AcDbLine
 10
4.699989449
 20
-31.7498383857
 30
0.0
 11
4.9093610938
 21
-31.7777980688
 31
0.0
  0
LINE
  5
126
330
1F
100
AcDbEntity
  8
1
100
AcDbLine
 10
4.9093610938
 20
-31.7777980688
 30
0.0
 11
5.0761088129
 21
-31.8462204757
 31
0.0
  0
LINE
  5
127
330
1F
100
AcDbEntity
  8
1
100
AcDbLine
 10
-4.4999994934
 20
-15.4808636909
 30
0.0
 11
-4.4499980096
 21
-15.5316353883
 31
0.0
  0
LINE
  5
128
330
1F
100
AcDbEntity
  8
1
100
AcDbLine
 10
-4.5291089118
 20
15.4537122542
 30
0.0
 11
-4.5879759491
 21
15.4160244236
 31
0.0
  0
LINE
  5
129
330
1F
100
AcDbEntity
  8
1
100
AcDbLine
 10
-4.5879759491
 20
15.4160244236
 30
0.0
 11
-4.6292521656
 21
15.4077114383
 31
0.0
  0
LINE
  5
12A
330
1F
100
AcDbEntity
  8
1
100
AcDbLine
 10
-4.6292521656
 20
15.4077114383
 30
0.0
 11
-4.664996326
 21
15.4183983648
 31
0.0
  0
LINE
  5
12B
330
1F
100
AcDbEntity
  8
1
100
AcDbLine
 10
-4.664996326
 20
15.4183983648
 30
0.0
 11
-4.7004871667
 21
15.4562063361
 31
0.0
  0
LINE
  5
12C
330
1F
100
AcDbEntity
  8
1
100
AcDbLine
 10
-4.7004871667
 20
15.4562063361
 30
0.0
 11
-4.7345810235
 21
15.5526019478
 31
0.0
  0
LINE
  5
12D
330
1F
100
AcDbEntity
  8
1
100
AcDbLine
 10
-4.7345810235
 20
15.5526019478
 30
0.0
 11
-4.75
 21
15.7365474695
 31
0.0
  0
LINE
  5
12F
330
1F
100
AcDbEntity
  8
1
100
AcDbLine
 10
-4.75
 20
16.5063768471
 30
0.0
 11
-4.7156379223
 21
16.8624736214
 31
0.0
  0
LINE
  5
130
330
1F
100
AcDbEntity
  8
1
100
AcDbLine
 10
-4.7156379223
 20
16.8624736214
 30
0.0
 11
-4.4999994934
 21
17.6421135509
 31
0.0
  0
LINE
  5
131
330
1F
100
AcDbEntity
  8
1
100
AcDbLine
 10
-4.75
 20
-16.5063746428
 30
0.0
 11
-4.75
 21
23.4500013137
 31
0.0
  0
LINE
  5
132
330
1F
100
AcDbEntity
  8
1
100
AcDbLine
 10
-4.75
 20
-15.7365452653
 30
0.0
 11
-4.7388688326
 21
-15.5760849049
 31
0.0
  0
LINE
  5
133
330
1F
100
AcDbEntity
  8
1
100
AcDbLine
 10
-4.7388688326
 20
-15.5760849049
 30
0.0
 11
-4.7180034816
 21
-15.4931292092
 31
0.0
  0
LINE
  5
134
330
1F
100
AcDbEntity
  8
1
100
AcDbLine
 10
-4.7180034816
 20
-15.4931292092
 30
0.0
 11
-4.6780907214
 21
-15.4282663172
 31
0.0
  0
LINE
  5
135
330
1F
100
AcDbEntity
  8
1
100
AcDbLine
 10
-4.6780907214
 20
-15.4282663172
 30
0.0
 11
-4.6437733472
 21
-15.4096184453
 31
0.0
  0
LINE
  5
136
330
1F
100
AcDbEntity
  8
1
100
AcDbLine
 10
-4.6437733472
 20
-15.4096184453
 30
0.0
 11
-4.6014764011
 21
-15.4113516366
 31
0.0
  0
LINE
  5
137
330
1F
100
AcDbEntity
  8
1
100
AcDbLine
 10
-4.6014764011
 20
-15.4113516366
 30
0.0
 11
-4.5599468649
 21
-15.430765987
 31
0.0
  0
LINE
  5
138
330
1F
100
AcDbEntity
  8
1
100
AcDbLine
 10
-4.5599468649
 20
-15.430765987
 30
0.0
 11
-4.4999994934
 21
-15.4808636909
 31
0.0
  0
LINE
  5
139
330
1F
100
AcDbEntity
  8
1
100
AcDbLine
 10
-4.4499998454
 20
-17.7745992243
 30
0.0
 11
-4.4999994934
 21
-17.6421113465
 31
0.0
  0
LINE
  5
13B
330
1F
100
AcDbEntity
  8
1
100
AcDbLine
 10
-4.4999994934
 20
-23.1432754701
 30
0.0
 11
-4.4499957921
 21
-23.1847421812
 31
0.0
  0
LINE
  5
13C
330
1F
100
AcDbEntity
  8
1
100
AcDbLine
 10
-4.4500021798
 20
23.1847411124
 30
0.0
 11
-4.4999994934
 21
23.1432776743
 31
0.0
  0
LINE
  5
13D
330
1F
100
AcDbEntity
  8
1
100
AcDbLine
 10
-4.75
 20
23.4500013137
 30
0.0
 11
-4.450000344
 21
23.7499991071
 31
0.0
  0
LINE
  5
13E
330
1F
100
AcDbEntity
  8
1
100
AcDbLine
 10
-4.4999994934
 20
23.1432776743
 30
0.0
 11
-4.5569852591
 21
23.101118564
 31
0.0
  0
LINE
  5
13F
330
1F
100
AcDbEntity
  8
1
100
AcDbLine
 10
-4.5569852591
 20
23.101118564
 30
0.0
 11
-4.636918813
 21
23.064595818
 31
0.0
  0
LINE
  5
140
330
1F
100
AcDbEntity
  8
1
100
AcDbLine
 10
-4.636918813
 20
23.064595818
 30
0.0
 11
-4.6935022474
 21
23.0672370488
 31
0.0
  0
LINE
  5
141
330
1F
100
AcDbEntity
  8
1
100
AcDbLine
 10
-4.6935022474
 20
23.0672370488
 30
0.0
 11
-4.725822866
 21
23.0948656643
 31
0.0
  0
LINE
  5
142
330
1F
100
AcDbEntity
  8
1
100
AcDbLine
 10
-4.725822866
 20
23.0948656643
 30
0.0
 11
-4.7485136092
 21
23.1700960392
 31
0.0
  0
LINE
  5
143
330
1F
100
AcDbEntity
  8
1
100
AcDbLine
 10
-4.7485136092
 20
23.1700960392
 30
0.0
 11
-4.75
 21
23.203381508
 31
0.0
  0
LINE
  5
145
330
1F
100
AcDbEntity
  8
1
100
AcDbLine
 10
-4.75
 20
-23.6157242371
 30
0.0
 11
-4.75
 21
-16.5063746428
 31
0.0
  0
LINE
  5
146
330
1F
100
AcDbEntity
  8
1
100
AcDbLine
 10
-4.75
 20
-23.2033793035
 30
0.0
 11
-4.7423557043
 21
-23.1337890184
 31
0.0
  0
LINE
  5
147
330
1F
100
AcDbEntity
  8
1
100
AcDbLine
 10
-4.7423557043
 20
-23.1337890184
 30
0.0
 11
-4.7146805227
 21
-23.0813350683
 31
0.0
  0
LINE
  5
148
330
1F
100
AcDbEntity
  8
1
100
AcDbLine
 10
-4.7146805227
 20
-23.0813350683
 30
0.0
 11
-4.6736464501
 21
-23.0620678669
 31
0.0
  0
LINE
  5
149
330
1F
100
AcDbEntity
  8
1
100
AcDbLine
 10
-4.6736464501
 20
-23.0620678669
 30
0.0
 11
-4.6173312366
 21
-23.0703529125
 31
0.0
  0
LINE
  5
14A
330
1F
100
AcDbEntity
  8
1
100
AcDbLine
 10
-4.6173312366
 20
-23.0703529125
 30
0.0
 11
-4.5561656952
 21
-23.101645351
 31
0.0
  0
LINE
  5
14B
330
1F
100
AcDbEntity
  8
1
100
AcDbLine
 10
-4.5561656952
 20
-23.101645351
 30
0.0
 11
-4.4999994934
 21
-23.1432754701
 31
0.0
  0
LINE
  5
14C
330
1F
100
AcDbEntity
  8
1
100
AcDbLine
 10
-4.4499976279
 20
-24.4056524068
 30
0.0
 11
-4.4999878097
 21
-24.3164725013
 31
0.0
  0
LINE
  5
14F
330
1F
100
AcDbEntity
  8
1
100
AcDbLine
 10
-4.4999878097
 20
-27.5602210431
 30
0.0
 11
-4.4499995781
 21
-27.6013164679
 31
0.0
  0
LINE
  5
150
330
1F
100
AcDbEntity
  8
1
100
AcDbLine
 10
-4.75
 20
-27.765887619
 30
0.0
 11
-4.75
 21
-23.6157242371
 31
0.0
  0
LINE
  5
151
330
1F
100
AcDbEntity
  8
1
100
AcDbLine
 10
-4.75
 20
-27.5164440427
 30
0.0
 11
-4.74486655
 21
-27.4826463467
 31
0.0
  0
LINE
  5
152
330
1F
100
AcDbEntity
  8
1
100
AcDbLine
 10
-4.74486655
 20
-27.4826463467
 30
0.0
 11
-4.7107466161
 21
-27.4530954814
 31
0.0
  0
LINE
  5
153
330
1F
100
AcDbEntity
  8
1
100
AcDbLine
 10
-4.7107466161
 20
-27.4530954814
 30
0.0
 11
-4.6546586454
 21
-27.4614084667
 31
0.0
  0
LINE
  5
154
330
1F
100
AcDbEntity
  8
1
100
AcDbLine
 10
-4.6546586454
 20
-27.4614084667
 30
0.0
 11
-4.5882851482
 21
-27.4954967355
 31
0.0
  0
LINE
  5
155
330
1F
100
AcDbEntity
  8
1
100
AcDbLine
 10
-4.5882851482
 20
-27.4954967355
 30
0.0
 11
-4.4999878097
 21
-27.5602210431
 31
0.0
  0
LINE
  5
157
330
1F
100
AcDbEntity
  8
1
100
AcDbLine
 10
15.8564879894
 20
-37.1397908932
 30
0.0
 11
15.8409349024
 21
-37.1582236296
 31
0.0
  0
LINE
  5
158
330
1F
100
AcDbEntity
  8
1
100
AcDbLine
 10
15.8409349024
 20
-37.1582236296
 30
0.0
 11
15.645770669
 21
-37.3347241586
 31
0.0
  0
LINE
  5
159
330
1F
100
AcDbEntity
  8
1
100
AcDbLine
 10
15.645770669
 20
-37.3347241586
 30
0.0
 11
15.3793043792
 21
-37.4976162022
 31
0.0
  0
LINE
  5
15A
330
1F
100
AcDbEntity
  8
1
100
AcDbLine
 10
15.3793043792
 20
-37.4976162022
 30
0.0
 11
15.0480962693
 21
-37.6428838974
 31
0.0
  0
LINE
  5
15B
330
1F
100
AcDbEntity
  8
1
100
AcDbLine
 10
15.0480962693
 20
-37.6428838974
 30
0.0
 11
14.6603009999
 21
-37.7669584161
 31
0.0
  0
LINE
  5
15C
330
1F
100
AcDbEntity
  8
1
100
AcDbLine
 10
14.6603009999
 20
-37.7669584161
 30
0.0
 11
14.2254702151
 21
-37.8667775696
 31
0.0
  0
LINE
  5
15D
330
1F
100
AcDbEntity
  8
1
100
AcDbLine
 10
14.2254702151
 20
-37.8667775696
 30
0.0
 11
13.7543029487
 21
-37.9398863917
 31
0.0
  0
LINE
  5
15E
330
1F
100
AcDbEntity
  8
1
100
AcDbLine
 10
13.7543029487
 20
-37.9398863917
 30
0.0
 11
13.2584109306
 21
-37.9844855672
 31
0.0
  0
LINE
  5
15F
330
1F
100
AcDbEntity
  8
1
100
AcDbLine
 10
13.2584109306
 20
-37.9844855672
 30
0.0
 11
12.7499982118
 21
-37.9994761353
 31
0.0
  0
LINE
  5
160
330
1F
100
AcDbEntity
  8
1
100
AcDbLine
 10
12.7499982118
 20
-37.9994761353
 30
0.0
 11
12.2415892184
 21
-37.9844855672
 31
0.0
  0
LINE
  5
161
330
1F
100
AcDbEntity
  8
1
100
AcDbLine
 10
12.2415892184
 20
-37.9844855672
 30
0.0
 11
11.745693475
 21
-37.9398863917
 31
0.0
  0
LINE
  5
162
330
1F
100
AcDbEntity
  8
1
100
AcDbLine
 10
11.745693475
 20
-37.9398863917
 30
0.0
 11
11.2745299339
 21
-37.8667775696
 31
0.0
  0
LINE
  5
163
330
1F
100
AcDbEntity
  8
1
100
AcDbLine
 10
11.2745299339
 20
-37.8667775696
 30
0.0
 11
10.8396991491
 21
-37.7669584161
 31
0.0
  0
LINE
  5
164
330
1F
100
AcDbEntity
  8
1
100
AcDbLine
 10
10.8396991491
 20
-37.7669584161
 30
0.0
 11
10.4519038796
 21
-37.6428838974
 31
0.0
  0
LINE
  5
165
330
1F
100
AcDbEntity
  8
1
100
AcDbLine
 10
10.4519038796
 20
-37.6428838974
 30
0.0
 11
10.1206957698
 21
-37.4976162022
 31
0.0
  0
LINE
  5
166
330
1F
100
AcDbEntity
  8
1
100
AcDbLine
 10
10.1206957698
 20
-37.4976162022
 30
0.0
 11
9.85422948
 21
-37.3347241586
 31
0.0
  0
LINE
  5
167
330
1F
100
AcDbEntity
  8
1
100
AcDbLine
 10
9.85422948
 20
-37.3347241586
 30
0.0
 11
9.6590652466
 21
-37.1582236296
 31
0.0
  0
LINE
  5
168
330
1F
100
AcDbEntity
  8
1
100
AcDbLine
 10
9.6590652466
 20
-37.1582236296
 30
0.0
 11
9.6337891519
 21
-37.1277246779
 31
0.0
  0
LINE
  5
169
330
1F
100
AcDbEntity
  8
1
100
AcDbLine
 10
-4.4999994934
 20
-30.1913794285
 30
0.0
 11
-4.4499988976
 21
-30.23463542
 31
0.0
  0
LINE
  5
16A
330
1F
100
AcDbEntity
  8
1
100
AcDbLine
 10
-4.4500007334
 20
-30.6436737719
 30
0.0
 11
-4.5000004509
 21
-30.5840092812
 31
0.0
  0
LINE
  5
16C
330
1F
100
AcDbEntity
  8
1
100
AcDbLine
 10
-4.75
 20
-30.065140516
 30
0.0
 11
-4.7446057797
 21
-30.0482053464
 31
0.0
  0
LINE
  5
16D
330
1F
100
AcDbEntity
  8
1
100
AcDbLine
 10
-4.7446057797
 20
-30.0482053464
 30
0.0
 11
-4.7122963369
 21
-30.0455194121
 31
0.0
  0
LINE
  5
16E
330
1F
100
AcDbEntity
  8
1
100
AcDbLine
 10
-4.7122963369
 20
-30.0455194121
 30
0.0
 11
-4.6582162976
 21
-30.0712704813
 31
0.0
  0
LINE
  5
16F
330
1F
100
AcDbEntity
  8
1
100
AcDbLine
 10
-4.6582162976
 20
-30.0712704813
 30
0.0
 11
-4.5650393367
 21
-30.1374018347
 31
0.0
  0
LINE
  5
170
330
1F
100
AcDbEntity
  8
1
100
AcDbLine
 10
-4.5650393367
 20
-30.1374018347
 30
0.0
 11
-4.4999994934
 21
-30.1913794285
 31
0.0
  0
LINE
  5
172
330
1F
100
AcDbEntity
  8
1
100
AcDbLine
 10
-4.5000004509
 20
-31.4876713727
 30
0.0
 11
-4.4500002369
 21
-31.534642964
 31
0.0
  0
LINE
  5
173
330
1F
100
AcDbEntity
  8
1
100
AcDbLine
 10
-4.75
 20
-31.3277606075
 30
0.0
 11
-4.75
 21
-27.765887619
 31
0.0
  0
LINE
  5
174
330
1F
100
AcDbEntity
  8
1
100
AcDbLine
 10
-4.4500020727
 20
-31.6659773137
 30
0.0
 11
-4.4999994934
 21
-31.6137250666
 31
0.0
  0
LINE
  5
176
330
1F
100
AcDbEntity
  8
CUT
100
AcDbLine
 10
43.2999975383
 20
-33.5292842394
 30
0.0
 11
55.1618284881
 21
-33.5292842394
 31
0.0
  0
LINE
  5
177
330
1F
100
AcDbEntity
  8
CUT
100
AcDbLine
 10
43.2999975383
 20
-31.2700409504
 30
0.0
 11
55.166998863
 21
-31.2700409504
 31
0.0
  0
LINE
  5
178
330
1F
100
AcDbEntity
  8
CUT
100
AcDbLine
 10
55.4999995172
 20
-33.8046465224
 30
0.0
 11
55.4999996419
 21
-31.2046457277
 31
0.0
  0
LINE
  5
179
330
1F
100
AcDbEntity
  8
CUT
100
AcDbLine
 10
55.4512631996
 20
-33.9354864644
 30
0.0
 11
55.1618284881
 21
-33.5292842394
 31
0.0
  0
LINE
  5
17A
330
1F
100
AcDbEntity
  8
CUT
100
AcDbLine
 10
55.166998863
 20
-31.2700409504
 30
0.0
 11
55.4342710614
 21
-31.0564189893
 31
0.0
  0
LINE
  5
17B
330
1F
100
AcDbEntity
  8
CUT
100
AcDbLine
 10
55.2291444838
 20
-33.9992109841
 30
0.0
 11
55.3375864808
 21
-34.0010820282
 31
0.0
  0
LINE
  5
17C
330
1F
100
AcDbEntity
  8
CUT
100
AcDbLine
 10
54.5000008642
 20
-33.935419113
 30
0.0
 11
55.2291444838
 21
-33.9992109841
 31
0.0
  0
LINE
  5
17D
330
1F
100
AcDbEntity
  8
CUT
100
AcDbLine
 10
43.2999995172
 20
-33.9354187644
 30
0.0
 11
54.5000008642
 21
-33.935419113
 31
0.0
  0
LINE
  5
17E
330
1F
100
AcDbEntity
  8
CUT
100
AcDbLine
 10
55.2746526241
 20
-31.0060984851
 30
0.0
 11
54.5000008642
 21
-31.073872691
 31
0.0
  0
LINE
  5
17F
330
1F
100
AcDbEntity
  8
CUT
100
AcDbLine
 10
55.3200490169
 20
-31.0056533128
 30
0.0
 11
55.2746526241
 21
-31.0060984851
 31
0.0
  0
LINE
  5
180
330
1F
100
AcDbEntity
  8
CUT
100
AcDbLine
 10
54.5000008642
 20
-31.073872691
 30
0.0
 11
43.2999995172
 21
-31.073872691
 31
0.0
  0
LINE
  5
181
330
1F
100
AcDbEntity
  8
CUT
100
AcDbLine
 10
43.2999975383
 20
33.9354362185
 30
0.0
 11
54.5000008642
 21
33.9354362185
 31
0.0
  0
LINE
  5
182
330
1F
100
AcDbEntity
  8
CUT
100
AcDbLine
 10
54.5000008642
 20
31.0738897964
 30
0.0
 11
43.2999975383
 21
31.0738897964
 31
0.0
  0
LINE
  5
183
330
1F
100
AcDbEntity
  8
CUT
100
AcDbLine
 10
53.4999988377
 20
33.9354362185
 30
0.0
 11
53.4999988377
 21
31.0738897964
 31
0.0
  0
LINE
  5
186
330
1F
100
AcDbEntity
  8
CUT
100
AcDbLine
 10
55.2746526241
 20
31.0061155905
 30
0.0
 11
54.5000008642
 21
31.0738897964
 31
0.0
  0
LINE
  5
187
330
1F
100
AcDbEntity
  8
CUT
100
AcDbLine
 10
54.5000008642
 20
33.9354362185
 30
0.0
 11
55.2291444838
 21
33.9992280896
 31
0.0
  0
LINE
  5
188
330
1F
100
AcDbEntity
  8
CUT
100
AcDbLine
 10
55.2291444838
 20
33.9992280896
 30
0.0
 11
55.3375876844
 21
34.0010981853
 31
0.0
  0
LINE
  5
189
330
1F
100
AcDbEntity
  8
CUT
100
AcDbLine
 10
55.3200490169
 20
31.0056704182
 30
0.0
 11
55.2746526241
 21
31.0061155905
 31
0.0
  0
LINE
  5
18A
330
1F
100
AcDbEntity
  8
CUT
100
AcDbLine
 10
55.5000014978
 20
33.8046628671
 30
0.0
 11
55.5000013109
 21
31.2046649028
 31
0.0
  0
LINE
  5
191
330
1F
100
AcDbEntity
  8
1
100
AcDbLine
 10
33.6339718997
 20
-33.9999970203
 30
0.0
 11
35.3660232723
 21
-33.9999970203
 31
0.0
  0
LINE
  5
192
330
1F
100
AcDbEntity
  8
1
100
AcDbLine
 10
33.6339718997
 20
-30.9999983912
 30
0.0
 11
32.7679462135
 21
-32.4999977058
 31
0.0
  0
LINE
  5
193
330
1F
100
AcDbEntity
  8
1
100
AcDbLine
 10
32.7679462135
 20
-32.4999977058
 30
0.0
 11
33.6339718997
 21
-33.9999970203
 31
0.0
  0
LINE
  5
194
330
1F
100
AcDbEntity
  8
1
100
AcDbLine
 10
35.3660232723
 20
-30.9999983912
 30
0.0
 11
33.6339718997
 21
-30.9999983912
 31
0.0
  0
LINE
  5
195
330
1F
100
AcDbEntity
  8
1
100
AcDbLine
 10
35.3660232723
 20
-33.9999970203
 30
0.0
 11
36.2320489585
 21
-32.4999977058
 31
0.0
  0
LINE
  5
196
330
1F
100
AcDbEntity
  8
1
100
AcDbLine
 10
36.2320489585
 20
-32.4999977058
 30
0.0
 11
35.3660232723
 21
-30.9999983912
 31
0.0
  0
LINE
  5
197
330
1F
100
AcDbEntity
  8
1
100
AcDbLine
 10
21.3660247028
 20
-33.9999970203
 30
0.0
 11
22.232050389
 21
-32.4999977058
 31
0.0
  0
LINE
  5
198
330
1F
100
AcDbEntity
  8
1
100
AcDbLine
 10
22.232050389
 20
-32.4999977058
 30
0.0
 11
21.3660247028
 21
-30.9999983912
 31
0.0
  0
LINE
  5
199
330
1F
100
AcDbEntity
  8
1
100
AcDbLine
 10
21.3660247028
 20
-30.9999983912
 30
0.0
 11
19.6339733302
 21
-30.9999983912
 31
0.0
  0
LINE
  5
19A
330
1F
100
AcDbEntity
  8
1
100
AcDbLine
 10
19.6339733302
 20
-30.9999983912
 30
0.0
 11
18.767947644
 21
-32.4999977058
 31
0.0
  0
LINE
  5
19B
330
1F
100
AcDbEntity
  8
1
100
AcDbLine
 10
18.767947644
 20
-32.4999977058
 30
0.0
 11
19.6339733302
 21
-33.9999970203
 31
0.0
  0
LINE
  5
19C
330
1F
100
AcDbEntity
  8
1
100
AcDbLine
 10
19.6339733302
 20
-33.9999970203
 30
0.0
 11
21.3660247028
 21
-33.9999970203
 31
0.0
  0
LINE
  5
19D
330
1F
100
AcDbEntity
  8
1
100
AcDbLine
 10
10.5412661433
 20
-36.6153892284
 30
0.0
 11
10.4975759387
 21
-36.6477545505
 31
0.0
  0
LINE
  5
19E
330
1F
100
AcDbEntity
  8
1
100
AcDbLine
 10
10.4975759387
 20
-36.6477545505
 30
0.0
 11
10.3400930166
 21
-36.8049469
 31
0.0
  0
LINE
  5
19F
330
1F
100
AcDbEntity
  8
1
100
AcDbLine
 10
10.3400930166
 20
-36.8049469
 30
0.0
 11
10.2600626051
 21
-36.9701448983
 31
0.0
  0
LINE
  5
1A0
330
1F
100
AcDbEntity
  8
1
100
AcDbLine
 10
10.2600626051
 20
-36.9701448983
 30
0.0
 11
10.2600626051
 21
-37.138043732
 31
0.0
  0
LINE
  5
1A1
330
1F
100
AcDbEntity
  8
1
100
AcDbLine
 10
10.2600626051
 20
-37.138043732
 30
0.0
 11
10.3400930166
 21
-37.3032417303
 31
0.0
  0
LINE
  5
1A2
330
1F
100
AcDbEntity
  8
1
100
AcDbLine
 10
10.3400930166
 20
-37.3032417303
 30
0.0
 11
10.4975759387
 21
-37.4604340797
 31
0.0
  0
LINE
  5
1A3
330
1F
100
AcDbEntity
  8
1
100
AcDbLine
 10
10.4975759387
 20
-37.4604340797
 30
0.0
 11
10.7274561524
 21
-37.6045655614
 31
0.0
  0
LINE
  5
1A4
330
1F
100
AcDbEntity
  8
1
100
AcDbLine
 10
10.7274561524
 20
-37.6045655614
 30
0.0
 11
11.0223426819
 21
-37.7310056394
 31
0.0
  0
LINE
  5
1A5
330
1F
100
AcDbEntity
  8
1
100
AcDbLine
 10
11.0223426819
 20
-37.7310056394
 30
0.0
 11
11.3727583885
 21
-37.8356862968
 31
0.0
  0
LINE
  5
1A6
330
1F
100
AcDbEntity
  8
1
100
AcDbLine
 10
11.3727583885
 20
-37.8356862968
 30
0.0
 11
11.7674379945
 21
-37.9152473217
 31
0.0
  0
LINE
  5
1A7
330
1F
100
AcDbEntity
  8
1
100
AcDbLine
 10
11.7674379945
 20
-37.9152473217
 30
0.0
 11
12.1936968863
 21
-37.9671294397
 31
0.0
  0
LINE
  5
1A8
330
1F
100
AcDbEntity
  8
1
100
AcDbLine
 10
12.1936968863
 20
-37.9671294397
 30
0.0
 11
12.6378371715
 21
-37.989667446
 31
0.0
  0
LINE
  5
1A9
330
1F
100
AcDbEntity
  8
1
100
AcDbLine
 10
12.6378371715
 20
-37.989667446
 30
0.0
 11
13.0855835378
 21
-37.982134909
 31
0.0
  0
LINE
  5
1AA
330
1F
100
AcDbEntity
  8
1
100
AcDbLine
 10
13.0855835378
 20
-37.982134909
 30
0.0
 11
13.5225414634
 21
-37.9447739726
 31
0.0
  0
LINE
  5
1AB
330
1F
100
AcDbEntity
  8
1
100
AcDbLine
 10
13.5225414634
 20
-37.9447739726
 30
0.0
 11
13.9346703291
 21
-37.8787879055
 31
0.0
  0
LINE
  5
1AC
330
1F
100
AcDbEntity
  8
1
100
AcDbLine
 10
13.9346703291
 20
-37.8787879055
 30
0.0
 11
14.3087230027
 21
-37.7862926727
 31
0.0
  0
LINE
  5
1AD
330
1F
100
AcDbEntity
  8
1
100
AcDbLine
 10
14.3087230027
 20
-37.7862926727
 30
0.0
 11
14.6326779723
 21
-37.6702647811
 31
0.0
  0
LINE
  5
1AE
330
1F
100
AcDbEntity
  8
1
100
AcDbLine
 10
14.6326779723
 20
-37.6702647811
 30
0.0
 11
14.8961230516
 21
-37.5344332462
 31
0.0
  0
LINE
  5
1AF
330
1F
100
AcDbEntity
  8
1
100
AcDbLine
 10
14.8961230516
 20
-37.5344332462
 30
0.0
 11
15.0905869305
 21
-37.3831641084
 31
0.0
  0
LINE
  5
1B0
330
1F
100
AcDbEntity
  8
1
100
AcDbLine
 10
15.0905869305
 20
-37.3831641084
 30
0.0
 11
15.2098222971
 21
-37.2213151461
 31
0.0
  0
LINE
  5
1B1
330
1F
100
AcDbEntity
  8
1
100
AcDbLine
 10
15.2098222971
 20
-37.2213151461
 30
0.0
 11
15.249999553
 21
-37.0540943151
 31
0.0
  0
LINE
  5
1B2
330
1F
100
AcDbEntity
  8
1
100
AcDbLine
 10
11.8839725256
 20
-37.6160059279
 30
0.0
 11
11.0179505646
 21
-37.0540943151
 31
0.0
  0
LINE
  5
1B3
330
1F
100
AcDbEntity
  8
1
100
AcDbLine
 10
13.6160238981
 20
-37.6160059279
 30
0.0
 11
11.8839725256
 21
-37.6160059279
 31
0.0
  0
LINE
  5
1B4
330
1F
100
AcDbEntity
  8
1
100
AcDbLine
 10
14.4820495844
 20
-37.0540943151
 30
0.0
 11
13.6160238981
 21
-37.6160059279
 31
0.0
  0
LINE
  5
1B5
330
1F
100
AcDbEntity
  8
1
100
AcDbLine
 10
13.6160238981
 20
-36.4921864277
 30
0.0
 11
14.4820495844
 21
-37.0540943151
 31
0.0
  0
LINE
  5
1B6
330
1F
100
AcDbEntity
  8
1
100
AcDbLine
 10
11.8839725256
 20
-36.4921864277
 30
0.0
 11
13.6160238981
 21
-36.4921864277
 31
0.0
  0
LINE
  5
1B7
330
1F
100
AcDbEntity
  8
1
100
AcDbLine
 10
11.0179505646
 20
-37.0540943151
 30
0.0
 11
11.8839725256
 21
-36.4921864277
 31
0.0
  0
LINE
  5
1B8
330
1F
100
AcDbEntity
  8
1
100
AcDbLine
 10
13.6160238981
 20
-36.4921864277
 30
0.0
 11
13.6160238981
 21
-37.6160059279
 31
0.0
  0
LINE
  5
1B9
330
1F
100
AcDbEntity
  8
1
100
AcDbLine
 10
11.8839725256
 20
-36.4921864277
 30
0.0
 11
11.8839725256
 21
-37.6160059279
 31
0.0
  0
LINE
  5
1BA
330
1F
100
AcDbEntity
  8
1
100
AcDbLine
 10
9.9787175059
 20
-25.3675419992
 30
0.0
 11
10.271264553
 21
-25.760506109
 31
0.0
  0
LINE
  5
1BB
330
1F
100
AcDbEntity
  8
1
100
AcDbLine
 10
10.271264553
 20
-25.760506109
 30
0.0
 11
10.2867580354
 21
-25.777964682
 31
0.0
  0
LINE
  5
1BC
330
1F
100
AcDbEntity
  8
1
100
AcDbLine
 10
15.308400929
 20
-25.6662134236
 30
0.0
 11
15.5212826431
 21
-25.3675419992
 31
0.0
  0
LINE
  5
1BD
330
1F
100
AcDbEntity
  8
1
100
AcDbLine
 10
15.5212826431
 20
-25.3675419992
 30
0.0
 11
15.7420507967
 21
-24.9361552453
 31
0.0
  0
LINE
  5
1BE
330
1F
100
AcDbEntity
  8
1
100
AcDbLine
 10
15.7420507967
 20
-24.9361552453
 30
0.0
 11
15.8853291869
 21
-24.4775217181
 31
0.0
  0
LINE
  5
1BF
330
1F
100
AcDbEntity
  8
1
100
AcDbLine
 10
15.8853291869
 20
-24.4775217181
 30
0.0
 11
15.9474036991
 21
-24.0035157805
 31
0.0
  0
LINE
  5
1C0
330
1F
100
AcDbEntity
  8
1
100
AcDbLine
 10
15.9474036991
 20
-24.0035157805
 30
0.0
 11
15.9266687333
 21
-23.5264159894
 31
0.0
  0
LINE
  5
1C1
330
1F
100
AcDbEntity
  8
1
100
AcDbLine
 10
15.9266687333
 20
-23.5264159894
 30
0.0
 11
15.823657006
 21
-23.0585791325
 31
0.0
  0
LINE
  5
1C2
330
1F
100
AcDbEntity
  8
1
100
AcDbLine
 10
15.823657006
 20
-23.0585791325
 30
0.0
 11
15.6410395503
 21
-22.6121217167
 31
0.0
  0
LINE
  5
1C3
330
1F
100
AcDbEntity
  8
1
100
AcDbLine
 10
15.6410395503
 20
-22.6121217167
 30
0.0
 11
15.3835474849
 21
-22.1986051804
 31
0.0
  0
LINE
  5
1C4
330
1F
100
AcDbEntity
  8
1
100
AcDbLine
 10
15.3835474849
 20
-22.1986051804
 30
0.0
 11
15.0578490793
 21
-21.8287415957
 31
0.0
  0
LINE
  5
1C5
330
1F
100
AcDbEntity
  8
1
100
AcDbLine
 10
15.0578490793
 20
-21.8287415957
 30
0.0
 11
14.6723746657
 21
-21.5121105468
 31
0.0
  0
LINE
  5
1C6
330
1F
100
AcDbEntity
  8
1
100
AcDbLine
 10
14.6723746657
 20
-21.5121105468
 30
0.0
 11
14.2371154725
 21
-21.2569095349
 31
0.0
  0
LINE
  5
1C7
330
1F
100
AcDbEntity
  8
1
100
AcDbLine
 10
14.2371154725
 20
-21.2569095349
 30
0.0
 11
13.7633367777
 21
-21.0697509503
 31
0.0
  0
LINE
  5
1C8
330
1F
100
AcDbEntity
  8
1
100
AcDbLine
 10
13.7633367777
 20
-21.0697509503
 30
0.0
 11
13.2633171379
 21
-20.9554813957
 31
0.0
  0
LINE
  5
1C9
330
1F
100
AcDbEntity
  8
1
100
AcDbLine
 10
13.2633171379
 20
-20.9554813957
 30
0.0
 11
12.7499982118
 21
-20.9170587516
 31
0.0
  0
LINE
  5
1CA
330
1F
100
AcDbEntity
  8
1
100
AcDbLine
 10
12.7499982118
 20
-20.9170587516
 30
0.0
 11
12.236683011
 21
-20.9554813957
 31
0.0
  0
LINE
  5
1CB
330
1F
100
AcDbEntity
  8
1
100
AcDbLine
 10
12.236683011
 20
-20.9554813957
 30
0.0
 11
11.7366633713
 21
-21.0697509503
 31
0.0
  0
LINE
  5
1CC
330
1F
100
AcDbEntity
  8
1
100
AcDbLine
 10
11.7366633713
 20
-21.0697509503
 30
0.0
 11
11.2628846764
 21
-21.2569095349
 31
0.0
  0
LINE
  5
1CD
330
1F
100
AcDbEntity
  8
1
100
AcDbLine
 10
11.2628846764
 20
-21.2569095349
 30
0.0
 11
10.8276254833
 21
-21.5121105468
 31
0.0
  0
LINE
  5
1CE
330
1F
100
AcDbEntity
  8
1
100
AcDbLine
 10
10.8276254833
 20
-21.5121105468
 30
0.0
 11
10.4421510696
 21
-21.8287415957
 31
0.0
  0
LINE
  5
1CF
330
1F
100
AcDbEntity
  8
1
100
AcDbLine
 10
10.4421510696
 20
-21.8287415957
 30
0.0
 11
10.1164526641
 21
-22.1986051804
 31
0.0
  0
LINE
  5
1D0
330
1F
100
AcDbEntity
  8
1
100
AcDbLine
 10
10.1164526641
 20
-22.1986051804
 30
0.0
 11
9.8589568734
 21
-22.6121217167
 31
0.0
  0
LINE
  5
1D1
330
1F
100
AcDbEntity
  8
1
100
AcDbLine
 10
9.8589568734
 20
-22.6121217167
 30
0.0
 11
9.676343143
 21
-23.0585791325
 31
0.0
  0
LINE
  5
1D2
330
1F
100
AcDbEntity
  8
1
100
AcDbLine
 10
9.676343143
 20
-23.0585791325
 30
0.0
 11
9.5733314156
 21
-23.5264159894
 31
0.0
  0
LINE
  5
1D3
330
1F
100
AcDbEntity
  8
1
100
AcDbLine
 10
9.5733314156
 20
-23.5264159894
 30
0.0
 11
9.5525964498
 21
-24.0035157805
 31
0.0
  0
LINE
  5
1D4
330
1F
100
AcDbEntity
  8
1
100
AcDbLine
 10
9.5525964498
 20
-24.0035157805
 30
0.0
 11
9.6146709621
 21
-24.4775217181
 31
0.0
  0
LINE
  5
1D5
330
1F
100
AcDbEntity
  8
1
100
AcDbLine
 10
9.6146709621
 20
-24.4775217181
 30
0.0
 11
9.7579493522
 21
-24.9361552453
 31
0.0
  0
LINE
  5
1D6
330
1F
100
AcDbEntity
  8
1
100
AcDbLine
 10
9.7579493522
 20
-24.9361552453
 30
0.0
 11
9.9787175059
 21
-25.3675419992
 31
0.0
  0
LINE
  5
1D7
330
1F
100
AcDbEntity
  8
1
100
AcDbLine
 10
11.0199994743
 20
-24.8101323998
 30
0.0
 11
11.2564734518
 21
-25.1140639341
 31
0.0
  0
LINE
  5
1D8
330
1F
100
AcDbEntity
  8
1
100
AcDbLine
 10
11.2564734518
 20
-25.1140639341
 30
0.0
 11
11.5540906191
 21
-25.3676388567
 31
0.0
  0
LINE
  5
1D9
330
1F
100
AcDbEntity
  8
1
100
AcDbLine
 10
11.5540906191
 20
-25.3676388567
 30
0.0
 11
11.9006692767
 21
-25.5604747837
 31
0.0
  0
LINE
  5
1DA
330
1F
100
AcDbEntity
  8
1
100
AcDbLine
 10
11.9006692767
 20
-25.5604747837
 30
0.0
 11
12.282019794
 21
-25.6846778249
 31
0.0
  0
LINE
  5
1DB
330
1F
100
AcDbEntity
  8
1
100
AcDbLine
 10
12.282019794
 20
-25.6846778249
 30
0.0
 11
12.6825294792
 21
-25.7351629591
 31
0.0
  0
LINE
  5
1DC
330
1F
100
AcDbEntity
  8
1
100
AcDbLine
 10
12.6825294792
 20
-25.7351629591
 30
0.0
 11
13.0858033299
 21
-25.70986265
 31
0.0
  0
LINE
  5
1DD
330
1F
100
AcDbEntity
  8
1
100
AcDbLine
 10
13.0858033299
 20
-25.70986265
 30
0.0
 11
13.4753271341
 21
-25.6098125285
 31
0.0
  0
LINE
  5
1DE
330
1F
100
AcDbEntity
  8
1
100
AcDbLine
 10
13.4753271341
 20
-25.6098125285
 30
0.0
 11
13.8351566493
 21
-25.4391104138
 31
0.0
  0
LINE
  5
1DF
330
1F
100
AcDbEntity
  8
1
100
AcDbLine
 10
13.8351566493
 20
-25.4391104138
 30
0.0
 11
14.1505583524
 21
-25.2047449505
 31
0.0
  0
LINE
  5
1E0
330
1F
100
AcDbEntity
  8
1
100
AcDbLine
 10
14.1505583524
 20
-25.2047449505
 30
0.0
 11
14.4086241126
 21
-24.9163087612
 31
0.0
  0
LINE
  5
1E1
330
1F
100
AcDbEntity
  8
1
100
AcDbLine
 10
14.4086241126
 20
-24.9163087612
 30
0.0
 11
14.5987815559
 21
-24.5856110161
 31
0.0
  0
LINE
  5
1E2
330
1F
100
AcDbEntity
  8
1
100
AcDbLine
 10
14.5987815559
 20
-24.5856110161
 30
0.0
 11
14.7132522762
 21
-24.2261912828
 31
0.0
  0
LINE
  5
1E3
330
1F
100
AcDbEntity
  8
1
100
AcDbLine
 10
14.7132522762
 20
-24.2261912828
 30
0.0
 11
14.747346133
 21
-23.852764458
 31
0.0
  0
LINE
  5
1E4
330
1F
100
AcDbEntity
  8
1
100
AcDbLine
 10
14.747346133
 20
-23.852764458
 30
0.0
 11
14.6996698677
 21
-23.4806191331
 31
0.0
  0
LINE
  5
1E5
330
1F
100
AcDbEntity
  8
1
100
AcDbLine
 10
14.6996698677
 20
-23.4806191331
 30
0.0
 11
14.5721718073
 21
-23.1249898827
 31
0.0
  0
LINE
  5
1E6
330
1F
100
AcDbEntity
  8
1
100
AcDbLine
 10
14.5721718073
 20
-23.1249898827
 30
0.0
 11
14.3700748086
 21
-22.8004351413
 31
0.0
  0
LINE
  5
1E7
330
1F
100
AcDbEntity
  8
1
100
AcDbLine
 10
14.3700748086
 20
-22.8004351413
 30
0.0
 11
14.1016527414
 21
-22.5202448821
 31
0.0
  0
LINE
  5
1E8
330
1F
100
AcDbEntity
  8
1
100
AcDbLine
 10
14.1016527414
 20
-22.5202448821
 30
0.0
 11
13.7778914869
 21
-22.2958892738
 31
0.0
  0
LINE
  5
1E9
330
1F
100
AcDbEntity
  8
1
100
AcDbLine
 10
13.7778914869
 20
-22.2958892738
 30
0.0
 11
13.4120493531
 21
-22.1365530198
 31
0.0
  0
LINE
  5
1EA
330
1F
100
AcDbEntity
  8
1
100
AcDbLine
 10
13.4120493531
 20
-22.1365530198
 30
0.0
 11
13.0191020071
 21
-22.0487572407
 31
0.0
  0
LINE
  5
1EB
330
1F
100
AcDbEntity
  8
1
100
AcDbLine
 10
13.0191020071
 20
-22.0487572407
 30
0.0
 11
12.6151389777
 21
-22.036100567
 31
0.0
  0
LINE
  5
1EC
330
1F
100
AcDbEntity
  8
1
100
AcDbLine
 10
12.6151389777
 20
-22.036100567
 30
0.0
 11
12.2166968286
 21
-22.0990989512
 31
0.0
  0
LINE
  5
1ED
330
1F
100
AcDbEntity
  8
1
100
AcDbLine
 10
12.2166968286
 20
-22.0990989512
 30
0.0
 11
11.8400886059
 21
-22.2351726299
 31
0.0
  0
LINE
  5
1EE
330
1F
100
AcDbEntity
  8
1
100
AcDbLine
 10
11.8400886059
 20
-22.2351726299
 30
0.0
 11
11.5007332861
 21
-22.4387522942
 31
0.0
  0
LINE
  5
1EF
330
1F
100
AcDbEntity
  8
1
100
AcDbLine
 10
11.5007332861
 20
-22.4387522942
 30
0.0
 11
11.2125187516
 21
-22.7015007442
 31
0.0
  0
LINE
  5
1F0
330
1F
100
AcDbEntity
  8
1
100
AcDbLine
 10
11.2125187516
 20
-22.7015007442
 30
0.0
 11
10.9872541725
 21
-23.0126649296
 31
0.0
  0
LINE
  5
1F1
330
1F
100
AcDbEntity
  8
1
100
AcDbLine
 10
10.9872541725
 20
-23.0126649296
 30
0.0
 11
10.8341521919
 21
-23.3595024949
 31
0.0
  0
LINE
  5
1F2
330
1F
100
AcDbEntity
  8
1
100
AcDbLine
 10
10.8341521919
 20
-23.3595024949
 30
0.0
 11
10.7594861984
 21
-23.7278144961
 31
0.0
  0
LINE
  5
1F3
330
1F
100
AcDbEntity
  8
1
100
AcDbLine
 10
10.7594861984
 20
-23.7278144961
 30
0.0
 11
10.7663146555
 21
-24.1025228208
 31
0.0
  0
LINE
  5
1F4
330
1F
100
AcDbEntity
  8
1
100
AcDbLine
 10
10.7663146555
 20
-24.1025228208
 30
0.0
 11
10.8543507159
 21
-24.4682885861
 31
0.0
  0
LINE
  5
1F5
330
1F
100
AcDbEntity
  8
1
100
AcDbLine
 10
10.8543507159
 20
-24.4682885861
 30
0.0
 11
11.0199994743
 21
-24.8101323998
 31
0.0
  0
LINE
  5
1F6
330
1F
100
AcDbEntity
  8
1
100
AcDbLine
 10
11.8839725256
 20
-24.179001168
 30
0.0
 11
11.8839725256
 21
-22.6655908083
 31
0.0
  0
LINE
  5
1F7
330
1F
100
AcDbEntity
  8
1
100
AcDbLine
 10
11.8839725256
 20
-24.179001168
 30
0.0
 11
11.4509596824
 21
-24.8743899321
 31
0.0
  0
LINE
  5
1F8
330
1F
100
AcDbEntity
  8
1
100
AcDbLine
 10
13.6160238981
 20
-24.179001168
 30
0.0
 11
13.6160238981
 21
-22.6655908083
 31
0.0
  0
LINE
  5
1F9
330
1F
100
AcDbEntity
  8
1
100
AcDbLine
 10
13.6160238981
 20
-24.179001168
 30
0.0
 11
14.0490367412
 21
-24.8743899321
 31
0.0
  0
LINE
  5
1FB
330
1F
100
AcDbEntity
  8
1
100
AcDbLine
 10
11.8839725256
 20
-24.179001168
 30
0.0
 11
13.6160238981
 21
-24.179001168
 31
0.0
  0
LINE
  5
1FC
330
1F
100
AcDbEntity
  8
1
100
AcDbLine
 10
15.5459440648
 20
33.3044912511
 30
0.0
 11
15.7585426569
 21
33.7367851132
 31
0.0
  0
LINE
  5
1FD
330
1F
100
AcDbEntity
  8
1
100
AcDbLine
 10
15.7585426569
 20
33.7367851132
 30
0.0
 11
15.8939979374
 21
34.1950032705
 31
0.0
  0
LINE
  5
1FE
330
1F
100
AcDbEntity
  8
1
100
AcDbLine
 10
15.8939979374
 20
34.1950032705
 30
0.0
 11
15.94882676
 21
34.6673924321
 31
0.0
  0
LINE
  5
1FF
330
1F
100
AcDbEntity
  8
1
100
AcDbLine
 10
15.94882676
 20
34.6673924321
 30
0.0
 11
15.9216321409
 21
35.1418416792
 31
0.0
  0
LINE
  5
200
330
1F
100
AcDbEntity
  8
1
100
AcDbLine
 10
15.9216321409
 20
35.1418416792
 30
0.0
 11
15.8131069839
 21
35.6061804885
 31
0.0
  0
LINE
  5
201
330
1F
100
AcDbEntity
  8
1
100
AcDbLine
 10
15.8131069839
 20
35.6061804885
 30
0.0
 11
15.6260303557
 21
36.0485028321
 31
0.0
  0
LINE
  5
202
330
1F
100
AcDbEntity
  8
1
100
AcDbLine
 10
15.6260303557
 20
36.0485028321
 30
0.0
 11
15.3652078807
 21
36.4574689263
 31
0.0
  0
LINE
  5
203
330
1F
100
AcDbEntity
  8
1
100
AcDbLine
 10
15.3652078807
 20
36.4574689263
 30
0.0
 11
15.0373227298
 21
36.8225920791
 31
0.0
  0
LINE
  5
204
330
1F
100
AcDbEntity
  8
1
100
AcDbLine
 10
15.0373227298
 20
36.8225920791
 30
0.0
 11
14.6507828831
 21
37.1345069105
 31
0.0
  0
LINE
  5
205
330
1F
100
AcDbEntity
  8
1
100
AcDbLine
 10
14.6507828831
 20
37.1345069105
 30
0.0
 11
14.2155013382
 21
37.385211497
 31
0.0
  0
LINE
  5
206
330
1F
100
AcDbEntity
  8
1
100
AcDbLine
 10
14.2155013382
 20
37.385211497
 30
0.0
 11
13.7426390648
 21
37.5682871634
 31
0.0
  0
LINE
  5
207
330
1F
100
AcDbEntity
  8
1
100
AcDbLine
 10
13.7426390648
 20
37.5682871634
 30
0.0
 11
13.244325608
 21
37.6790288681
 31
0.0
  0
LINE
  5
208
330
1F
100
AcDbEntity
  8
1
100
AcDbLine
 10
13.244325608
 20
37.6790288681
 30
0.0
 11
12.733331263
 21
37.7146053905
 31
0.0
  0
LINE
  5
209
330
1F
100
AcDbEntity
  8
1
100
AcDbLine
 10
12.733331263
 20
37.7146053905
 30
0.0
 11
12.2227690518
 21
37.6740965838
 31
0.0
  0
LINE
  5
20A
330
1F
100
AcDbEntity
  8
1
100
AcDbLine
 10
12.2227690518
 20
37.6740965838
 30
0.0
 11
11.7257221937
 21
37.5585455293
 31
0.0
  0
LINE
  5
20B
330
1F
100
AcDbEntity
  8
1
100
AcDbLine
 10
11.7257221937
 20
37.5585455293
 30
0.0
 11
11.2549460828
 21
37.3709175581
 31
0.0
  0
LINE
  5
20C
330
1F
100
AcDbEntity
  8
1
100
AcDbLine
 10
11.2549460828
 20
37.3709175581
 30
0.0
 11
10.8225032091
 21
37.1160182947
 31
0.0
  0
LINE
  5
20D
330
1F
100
AcDbEntity
  8
1
100
AcDbLine
 10
10.8225032091
 20
37.1160182947
 30
0.0
 11
10.4394874871
 21
36.8003856236
 31
0.0
  0
LINE
  5
20E
330
1F
100
AcDbEntity
  8
1
100
AcDbLine
 10
10.4394874871
 20
36.8003856236
 30
0.0
 11
10.1157225072
 21
36.4321183259
 31
0.0
  0
LINE
  5
20F
330
1F
100
AcDbEntity
  8
1
100
AcDbLine
 10
10.1157225072
 20
36.4321183259
 30
0.0
 11
9.8595082164
 21
36.0206562871
 31
0.0
  0
LINE
  5
210
330
1F
100
AcDbEntity
  8
1
100
AcDbLine
 10
9.8595082164
 20
36.0206562871
 30
0.0
 11
9.6774123013
 21
35.5765495295
 31
0.0
  0
LINE
  5
211
330
1F
100
AcDbEntity
  8
1
100
AcDbLine
 10
9.6774123013
 20
35.5765495295
 30
0.0
 11
9.5741100013
 21
35.1111862654
 31
0.0
  0
LINE
  5
212
330
1F
100
AcDbEntity
  8
1
100
AcDbLine
 10
9.5741100013
 20
35.1111862654
 30
0.0
 11
9.5522462725
 21
34.636502325
 31
0.0
  0
LINE
  5
213
330
1F
100
AcDbEntity
  8
1
100
AcDbLine
 10
9.5522462725
 20
34.636502325
 30
0.0
 11
9.6123799085
 21
34.1646682316
 31
0.0
  0
LINE
  5
214
330
1F
100
AcDbEntity
  8
1
100
AcDbLine
 10
9.6123799085
 20
34.1646682316
 30
0.0
 11
9.7529760897
 21
33.7077837283
 31
0.0
  0
LINE
  5
215
330
1F
100
AcDbEntity
  8
1
100
AcDbLine
 10
9.7529760897
 20
33.7077837283
 30
0.0
 11
9.9704212844
 21
33.2775648529
 31
0.0
  0
LINE
  5
216
330
1F
100
AcDbEntity
  8
1
100
AcDbLine
 10
9.9704212844
 20
33.2775648529
 30
0.0
 11
10.2591461837
 21
32.88504219
 31
0.0
  0
LINE
  5
217
330
1F
100
AcDbEntity
  8
1
100
AcDbLine
 10
10.2591461837
 20
32.88504219
 30
0.0
 11
10.6117411852
 21
32.5402851993
 31
0.0
  0
LINE
  5
218
330
1F
100
AcDbEntity
  8
1
100
AcDbLine
 10
10.6117411852
 20
32.5402851993
 30
0.0
 11
11.0191687345
 21
32.2521302694
 31
0.0
  0
LINE
  5
219
330
1F
100
AcDbEntity
  8
1
100
AcDbLine
 10
11.0191687345
 20
32.2521302694
 30
0.0
 11
11.4709831178
 21
32.0279683763
 31
0.0
  0
LINE
  5
21A
330
1F
100
AcDbEntity
  8
1
100
AcDbLine
 10
11.4709831178
 20
32.0279683763
 30
0.0
 11
11.9555912316
 21
31.8735476429
 31
0.0
  0
LINE
  5
21B
330
1F
100
AcDbEntity
  8
1
100
AcDbLine
 10
11.9555912316
 20
31.8735476429
 30
0.0
 11
12.460572958
 21
31.7928280527
 31
0.0
  0
LINE
  5
21C
330
1F
100
AcDbEntity
  8
1
100
AcDbLine
 10
12.460572958
 20
31.7928280527
 30
0.0
 11
12.9729754627
 21
31.7878771419
 31
0.0
  0
LINE
  5
21D
330
1F
100
AcDbEntity
  8
1
100
AcDbLine
 10
12.9729754627
 20
31.7878771419
 30
0.0
 11
13.4796596467
 21
31.8588252956
 31
0.0
  0
LINE
  5
21E
330
1F
100
AcDbEntity
  8
1
100
AcDbLine
 10
13.4796596467
 20
31.8588252956
 30
0.0
 11
13.9676316976
 21
32.0038545722
 31
0.0
  0
LINE
  5
21F
330
1F
100
AcDbEntity
  8
1
100
AcDbLine
 10
13.9676316976
 20
32.0038545722
 30
0.0
 11
14.4243820905
 21
32.2192396814
 31
0.0
  0
LINE
  5
220
330
1F
100
AcDbEntity
  8
1
100
AcDbLine
 10
14.4243820905
 20
32.2192396814
 30
0.0
 11
14.8381947875
 21
32.4994634682
 31
0.0
  0
LINE
  5
221
330
1F
100
AcDbEntity
  8
1
100
AcDbLine
 10
14.8381947875
 20
32.4994634682
 30
0.0
 11
15.198463887
 21
32.8373361224
 31
0.0
  0
LINE
  5
222
330
1F
100
AcDbEntity
  8
1
100
AcDbLine
 10
15.198463887
 20
32.8373361224
 30
0.0
 11
15.4959432184
 21
33.2241926188
 31
0.0
  0
LINE
  5
223
330
1F
100
AcDbEntity
  8
1
100
AcDbLine
 10
15.4959432184
 20
33.2241926188
 30
0.0
 11
15.5046045184
 21
33.2158107156
 31
0.0
  0
LINE
  5
224
330
1F
100
AcDbEntity
  8
1
100
AcDbLine
 10
15.5546053648
 20
33.296109348
 30
0.0
 11
15.5459440648
 21
33.3044912511
 31
0.0
  0
LINE
  5
225
330
1F
100
AcDbEntity
  8
1
100
AcDbLine
 10
14.4544563591
 20
33.7817121142
 30
0.0
 11
15.4959432184
 21
33.2241926188
 31
0.0
  0
LINE
  5
226
330
1F
100
AcDbEntity
  8
1
100
AcDbLine
 10
15.5459440648
 20
33.3044912511
 30
0.0
 11
14.5044572055
 21
33.8620070213
 31
0.0
  0
LINE
  5
227
330
1F
100
AcDbEntity
  8
1
100
AcDbLine
 10
14.4544563591
 20
33.7817121142
 30
0.0
 11
14.2120554447
 21
33.4855515355
 31
0.0
  0
LINE
  5
228
330
1F
100
AcDbEntity
  8
1
100
AcDbLine
 10
14.2120554447
 20
33.4855515355
 30
0.0
 11
13.9107390642
 21
33.2402448947
 31
0.0
  0
LINE
  5
229
330
1F
100
AcDbEntity
  8
1
100
AcDbLine
 10
13.9107390642
 20
33.2402448947
 30
0.0
 11
13.5626591146
 21
33.0556716615
 31
0.0
  0
LINE
  5
22A
330
1F
100
AcDbEntity
  8
1
100
AcDbLine
 10
13.5626591146
 20
33.0556716615
 30
0.0
 11
13.1818301379
 21
32.9392786914
 31
0.0
  0
LINE
  5
22B
330
1F
100
AcDbEntity
  8
1
100
AcDbLine
 10
13.1818301379
 20
32.9392786914
 30
0.0
 11
12.7836040556
 21
32.895744949
 31
0.0
  0
LINE
  5
22C
330
1F
100
AcDbEntity
  8
1
100
AcDbLine
 10
12.7836040556
 20
32.895744949
 30
0.0
 11
12.3840256929
 21
32.9268324966
 31
0.0
  0
LINE
  5
22D
330
1F
100
AcDbEntity
  8
1
100
AcDbLine
 10
12.3840256929
 20
32.9268324966
 30
0.0
 11
11.9991883039
 21
33.0312821859
 31
0.0
  0
LINE
  5
22E
330
1F
100
AcDbEntity
  8
1
100
AcDbLine
 10
11.9991883039
 20
33.0312821859
 30
0.0
 11
11.6446077227
 21
33.2048918897
 31
0.0
  0
LINE
  5
22F
330
1F
100
AcDbEntity
  8
1
100
AcDbLine
 10
11.6446077227
 20
33.2048918897
 30
0.0
 11
11.3345629871
 21
33.4406617874
 31
0.0
  0
LINE
  5
230
330
1F
100
AcDbEntity
  8
1
100
AcDbLine
 10
11.3345629871
 20
33.4406617874
 30
0.0
 11
11.0815524459
 21
33.7290961141
 31
0.0
  0
LINE
  5
231
330
1F
100
AcDbEntity
  8
1
100
AcDbLine
 10
11.0815524459
 20
33.7290961141
 30
0.0
 11
10.8957647681
 21
34.0585682386
 31
0.0
  0
LINE
  5
232
330
1F
100
AcDbEntity
  8
1
100
AcDbLine
 10
10.8957647681
 20
34.0585682386
 30
0.0
 11
10.7846915126
 21
34.4158049518
 31
0.0
  0
LINE
  5
233
330
1F
100
AcDbEntity
  8
1
100
AcDbLine
 10
10.7846915126
 20
34.4158049518
 30
0.0
 11
10.7528067529
 21
34.7864154572
 31
0.0
  0
LINE
  5
234
330
1F
100
AcDbEntity
  8
1
100
AcDbLine
 10
10.7528067529
 20
34.7864154572
 30
0.0
 11
10.8013882637
 21
35.1554613406
 31
0.0
  0
LINE
  5
235
330
1F
100
AcDbEntity
  8
1
100
AcDbLine
 10
10.8013882637
 20
35.1554613406
 30
0.0
 11
10.9284877181
 21
35.5080786938
 31
0.0
  0
LINE
  5
236
330
1F
100
AcDbEntity
  8
1
100
AcDbLine
 10
10.9284877181
 20
35.5080786938
 30
0.0
 11
11.1289791167
 21
35.830051809
 31
0.0
  0
LINE
  5
237
330
1F
100
AcDbEntity
  8
1
100
AcDbLine
 10
11.1289791167
 20
35.830051809
 30
0.0
 11
11.3947897553
 21
36.108416676
 31
0.0
  0
LINE
  5
238
330
1F
100
AcDbEntity
  8
1
100
AcDbLine
 10
11.3947897553
 20
36.108416676
 30
0.0
 11
11.7151982486
 21
36.3319527203
 31
0.0
  0
LINE
  5
239
330
1F
100
AcDbEntity
  8
1
100
AcDbLine
 10
11.7151982486
 20
36.3319527203
 30
0.0
 11
12.0773076415
 21
36.4916521901
 31
0.0
  0
LINE
  5
23A
330
1F
100
AcDbEntity
  8
1
100
AcDbLine
 10
12.0773076415
 20
36.4916521901
 30
0.0
 11
12.4665185213
 21
36.581081509
 31
0.0
  0
LINE
  5
23B
330
1F
100
AcDbEntity
  8
1
100
AcDbLine
 10
12.4665185213
 20
36.581081509
 30
0.0
 11
12.8671511411
 21
36.5966383213
 31
0.0
  0
LINE
  5
23C
330
1F
100
AcDbEntity
  8
1
100
AcDbLine
 10
12.8671511411
 20
36.5966383213
 30
0.0
 11
13.2630638182
 21
36.5376967782
 31
0.0
  0
LINE
  5
23D
330
1F
100
AcDbEntity
  8
1
100
AcDbLine
 10
13.2630638182
 20
36.5376967782
 30
0.0
 11
13.6383048594
 21
36.4066261643
 31
0.0
  0
LINE
  5
23E
330
1F
100
AcDbEntity
  8
1
100
AcDbLine
 10
13.6383048594
 20
36.4066261643
 30
0.0
 11
13.9777533114
 21
36.208716392
 31
0.0
  0
LINE
  5
23F
330
1F
100
AcDbEntity
  8
1
100
AcDbLine
 10
13.9777533114
 20
36.208716392
 30
0.0
 11
14.2677299082
 21
35.9519321317
 31
0.0
  0
LINE
  5
240
330
1F
100
AcDbEntity
  8
1
100
AcDbLine
 10
14.2677299082
 20
35.9519321317
 30
0.0
 11
14.4965558648
 21
35.6466259653
 31
0.0
  0
LINE
  5
241
330
1F
100
AcDbEntity
  8
1
100
AcDbLine
 10
14.4965558648
 20
35.6466259653
 30
0.0
 11
14.6550110876
 21
35.3050988013
 31
0.0
  0
LINE
  5
242
330
1F
100
AcDbEntity
  8
1
100
AcDbLine
 10
14.6550110876
 20
35.3050988013
 30
0.0
 11
14.7367067039
 21
34.9411118621
 31
0.0
  0
LINE
  5
243
330
1F
100
AcDbEntity
  8
1
100
AcDbLine
 10
14.7367067039
 20
34.9411118621
 30
0.0
 11
14.7383495569
 21
34.5693278903
 31
0.0
  0
LINE
  5
244
330
1F
100
AcDbEntity
  8
1
100
AcDbLine
 10
14.7383495569
 20
34.5693278903
 30
0.0
 11
14.6598800421
 21
34.2047300035
 31
0.0
  0
LINE
  5
245
330
1F
100
AcDbEntity
  8
1
100
AcDbLine
 10
14.6598800421
 20
34.2047300035
 30
0.0
 11
14.5044572055
 21
33.8620070213
 31
0.0
  0
LINE
  5
246
330
1F
100
AcDbEntity
  8
1
100
AcDbLine
 10
14.4494570195
 20
33.780642956
 30
0.0
 11
14.4544563591
 21
33.7817121142
 31
0.0
  0
LINE
  5
247
330
1F
100
AcDbEntity
  8
1
100
AcDbLine
 10
14.5044572055
 20
33.8620070213
 30
0.0
 11
14.4994541406
 21
33.8609378631
 31
0.0
  0
LINE
  5
248
330
1F
100
AcDbEntity
  8
1
100
AcDbLine
 10
15.5546053648
 20
33.296109348
 30
0.0
 11
14.4994541406
 21
33.8609378631
 31
0.0
  0
LINE
  5
249
330
1F
100
AcDbEntity
  8
1
100
AcDbLine
 10
13.6160238981
 20
34.4527002269
 30
0.0
 11
13.6160238981
 21
35.9661105866
 31
0.0
  0
LINE
  5
24A
330
1F
100
AcDbEntity
  8
1
100
AcDbLine
 10
13.6160238981
 20
34.4527002269
 30
0.0
 11
14.0490367412
 21
33.7573151881
 31
0.0
  0
LINE
  5
24B
330
1F
100
AcDbEntity
  8
1
100
AcDbLine
 10
11.8839725256
 20
34.4527002269
 30
0.0
 11
11.8839725256
 21
35.9661105866
 31
0.0
  0
LINE
  5
24C
330
1F
100
AcDbEntity
  8
1
100
AcDbLine
 10
11.4509596824
 20
33.7573151881
 30
0.0
 11
11.8839725256
 21
34.4527002269
 31
0.0
  0
LINE
  5
24E
330
1F
100
AcDbEntity
  8
1
100
AcDbLine
 10
13.6160238981
 20
34.4527002269
 30
0.0
 11
11.8839725256
 21
34.4527002269
 31
0.0
  0
LINE
  5
24F
330
1F
100
AcDbEntity
  8
1
100
AcDbLine
 10
19.1331080496
 20
32.3616426283
 30
0.0
 11
19.1042221486
 21
32.2229873234
 31
0.0
  0
LINE
  5
250
330
1F
100
AcDbEntity
  8
1
100
AcDbLine
 10
19.1042221486
 20
32.2229873234
 30
0.0
 11
19.0172366202
 21
32.1070749158
 31
0.0
  0
LINE
  5
251
330
1F
100
AcDbEntity
  8
1
100
AcDbLine
 10
19.0172366202
 20
32.1070749158
 30
0.0
 11
18.7519251704
 21
31.9695148462
 31
0.0
  0
LINE
  5
252
330
1F
100
AcDbEntity
  8
1
100
AcDbLine
 10
18.7519251704
 20
31.9695148462
 30
0.0
 11
18.4525198638
 21
31.9115195269
 31
0.0
  0
LINE
  5
253
330
1F
100
AcDbEntity
  8
1
100
AcDbLine
 10
18.4525198638
 20
31.9115195269
 30
0.0
 11
18.1467294097
 21
31.8965662116
 31
0.0
  0
LINE
  5
254
330
1F
100
AcDbEntity
  8
1
100
AcDbLine
 10
18.1467294097
 20
32.8237499887
 30
0.0
 11
18.4520355761
 21
32.8092846865
 31
0.0
  0
LINE
  5
255
330
1F
100
AcDbEntity
  8
1
100
AcDbLine
 10
18.4520355761
 20
32.8092846865
 30
0.0
 11
18.7510199249
 21
32.7517252261
 31
0.0
  0
LINE
  5
256
330
1F
100
AcDbEntity
  8
1
100
AcDbLine
 10
18.7510199249
 20
32.7517252261
 30
0.0
 11
19.0163537264
 21
32.6151635343
 31
0.0
  0
LINE
  5
257
330
1F
100
AcDbEntity
  8
1
100
AcDbLine
 10
19.0163537264
 20
32.6151635343
 30
0.0
 11
19.1037117839
 21
32.4999030525
 31
0.0
  0
LINE
  5
258
330
1F
100
AcDbEntity
  8
1
100
AcDbLine
 10
19.1037117839
 20
32.4999030525
 30
0.0
 11
19.1331080496
 21
32.3616426283
 31
0.0
  0
LINE
  5
259
330
1F
100
AcDbEntity
  8
1
100
AcDbLine
 10
17.1587488949
 20
32.3616426283
 30
0.0
 11
17.1881824136
 21
32.5000669653
 31
0.0
  0
LINE
  5
25A
330
1F
100
AcDbEntity
  8
1
100
AcDbLine
 10
17.1881824136
 20
32.5000669653
 30
0.0
 11
17.275924176
 21
32.6153460735
 31
0.0
  0
LINE
  5
25B
330
1F
100
AcDbEntity
  8
1
100
AcDbLine
 10
17.275924176
 20
32.6153460735
 30
0.0
 11
17.5417199135
 21
32.7517699296
 31
0.0
  0
LINE
  5
25C
330
1F
100
AcDbEntity
  8
1
100
AcDbLine
 10
17.5417199135
 20
32.7517699296
 30
0.0
 11
18.1467294097
 21
32.8237499887
 31
0.0
  0
LINE
  5
25D
330
1F
100
AcDbEntity
  8
1
100
AcDbLine
 10
18.1467294097
 20
31.8965662116
 30
0.0
 11
17.8406744599
 21
31.9115120763
 31
0.0
  0
LINE
  5
25E
330
1F
100
AcDbEntity
  8
1
100
AcDbLine
 10
17.8406744599
 20
31.9115120763
 30
0.0
 11
17.5410121083
 21
31.9695111209
 31
0.0
  0
LINE
  5
25F
330
1F
100
AcDbEntity
  8
1
100
AcDbLine
 10
17.5410121083
 20
31.9695111209
 30
0.0
 11
17.2754175365
 21
32.1072537297
 31
0.0
  0
LINE
  5
260
330
1F
100
AcDbEntity
  8
1
100
AcDbLine
 10
17.2754175365
 20
32.1072537297
 30
0.0
 11
17.1879775226
 21
32.222968697
 31
0.0
  0
LINE
  5
261
330
1F
100
AcDbEntity
  8
1
100
AcDbLine
 10
17.1879775226
 20
32.222968697
 30
0.0
 11
17.1587488949
 21
32.3616426283
 31
0.0
  0
LINE
  5
262
330
1F
100
AcDbEntity
  8
1
100
AcDbLine
 10
16.2496435152
 20
34.794015444
 30
0.0
 11
16.2022466468
 21
35.2818869121
 31
0.0
  0
LINE
  5
263
330
1F
100
AcDbEntity
  8
1
100
AcDbLine
 10
16.2022466468
 20
35.2818869121
 30
0.0
 11
16.0761902736
 21
35.7575841315
 31
0.0
  0
LINE
  5
264
330
1F
100
AcDbEntity
  8
1
100
AcDbLine
 10
16.0761902736
 20
35.7575841315
 30
0.0
 11
15.8743465947
 21
36.2102702327
 31
0.0
  0
LINE
  5
265
330
1F
100
AcDbEntity
  8
1
100
AcDbLine
 10
15.8743465947
 20
36.2102702327
 30
0.0
 11
15.6013163434
 21
36.6296298869
 31
0.0
  0
LINE
  5
266
330
1F
100
AcDbEntity
  8
1
100
AcDbLine
 10
15.6013163434
 20
36.6296298869
 30
0.0
 11
15.2633170294
 21
37.0061114497
 31
0.0
  0
LINE
  5
267
330
1F
100
AcDbEntity
  8
1
100
AcDbLine
 10
15.2633170294
 20
37.0061114497
 30
0.0
 11
14.8680525528
 21
37.3311318524
 31
0.0
  0
LINE
  5
268
330
1F
100
AcDbEntity
  8
1
100
AcDbLine
 10
14.8680525528
 20
37.3311318524
 30
0.0
 11
14.4245306658
 21
37.5972889431
 31
0.0
  0
LINE
  5
269
330
1F
100
AcDbEntity
  8
1
100
AcDbLine
 10
14.4245306658
 20
37.5972889431
 30
0.0
 11
13.9428506302
 21
37.7985142238
 31
0.0
  0
LINE
  5
26A
330
1F
100
AcDbEntity
  8
1
100
AcDbLine
 10
13.9428506302
 20
37.7985142238
 30
0.0
 11
13.4339908766
 21
37.9302293129
 31
0.0
  0
LINE
  5
26B
330
1F
100
AcDbEntity
  8
1
100
AcDbLine
 10
13.4339908766
 20
37.9302293129
 30
0.0
 11
12.9095482336
 21
37.9894241758
 31
0.0
  0
LINE
  5
26C
330
1F
100
AcDbEntity
  8
1
100
AcDbLine
 10
12.9095482336
 20
37.9894241758
 30
0.0
 11
12.3814697074
 21
37.9747614332
 31
0.0
  0
LINE
  5
26D
330
1F
100
AcDbEntity
  8
1
100
AcDbLine
 10
12.3814697074
 20
37.9747614332
 30
0.0
 11
11.8617879854
 21
37.8865651853
 31
0.0
  0
LINE
  5
26E
330
1F
100
AcDbEntity
  8
1
100
AcDbLine
 10
11.8617879854
 20
37.8865651853
 30
0.0
 11
11.3623457657
 21
37.7268508144
 31
0.0
  0
LINE
  5
26F
330
1F
100
AcDbEntity
  8
1
100
AcDbLine
 10
11.3623457657
 20
37.7268508144
 30
0.0
 11
10.8945200847
 21
37.4992542036
 31
0.0
  0
LINE
  5
270
330
1F
100
AcDbEntity
  8
1
100
AcDbLine
 10
10.8945200847
 20
37.4992542036
 30
0.0
 11
10.4689727234
 21
37.2089609571
 31
0.0
  0
LINE
  5
271
330
1F
100
AcDbEntity
  8
1
100
AcDbLine
 10
10.4689727234
 20
37.2089609571
 30
0.0
 11
10.0953968869
 21
36.8625871904
 31
0.0
  0
LINE
  5
272
330
1F
100
AcDbEntity
  8
1
100
AcDbLine
 10
10.0953968869
 20
36.8625871904
 30
0.0
 11
9.7823048638
 21
36.4680267937
 31
0.0
  0
LINE
  5
273
330
1F
100
AcDbEntity
  8
1
100
AcDbLine
 10
9.7823048638
 20
36.4680267937
 30
0.0
 11
9.5368343102
 21
36.0342651673
 31
0.0
  0
LINE
  5
274
330
1F
100
AcDbEntity
  8
1
100
AcDbLine
 10
9.5368343102
 20
36.0342651673
 30
0.0
 11
9.3645768868
 21
35.5711892314
 31
0.0
  0
LINE
  5
275
330
1F
100
AcDbEntity
  8
1
100
AcDbLine
 10
9.3645768868
 20
35.5711892314
 30
0.0
 11
9.2694553243
 21
35.0893490084
 31
0.0
  0
LINE
  5
276
330
1F
100
AcDbEntity
  8
1
100
AcDbLine
 10
9.2694553243
 20
35.0893490084
 30
0.0
 11
9.2536377417
 21
34.5997229286
 31
0.0
  0
LINE
  5
277
330
1F
100
AcDbEntity
  8
1
100
AcDbLine
 10
9.2536377417
 20
34.5997229286
 30
0.0
 11
9.3174854921
 21
34.1134682365
 31
0.0
  0
LINE
  5
278
330
1F
100
AcDbEntity
  8
1
100
AcDbLine
 10
9.3174854921
 20
34.1134682365
 30
0.0
 11
9.4595419871
 21
33.6416639455
 31
0.0
  0
LINE
  5
279
330
1F
100
AcDbEntity
  8
1
100
AcDbLine
 10
9.4595419871
 20
33.6416639455
 30
0.0
 11
9.6765736746
 21
33.195057518
 31
0.0
  0
LINE
  5
27A
330
1F
100
AcDbEntity
  8
1
100
AcDbLine
 10
9.6765736746
 20
33.195057518
 30
0.0
 11
9.9636333691
 21
32.7838301726
 31
0.0
  0
LINE
  5
27B
330
1F
100
AcDbEntity
  8
1
100
AcDbLine
 10
9.9636333691
 20
32.7838301726
 30
0.0
 11
10.3141794609
 21
32.4173472889
 31
0.0
  0
LINE
  5
27C
330
1F
100
AcDbEntity
  8
1
100
AcDbLine
 10
10.3141794609
 20
32.4173472889
 30
0.0
 11
10.7202249275
 21
32.1039609678
 31
0.0
  0
LINE
  5
27D
330
1F
100
AcDbEntity
  8
1
100
AcDbLine
 10
10.7202249275
 20
32.1039609678
 30
0.0
 11
11.1725198733
 21
31.8508088656
 31
0.0
  0
LINE
  5
27E
330
1F
100
AcDbEntity
  8
1
100
AcDbLine
 10
11.1725198733
 20
31.8508088656
 30
0.0
 11
11.6607564198
 21
31.6636651821
 31
0.0
  0
LINE
  5
27F
330
1F
100
AcDbEntity
  8
1
100
AcDbLine
 10
11.6607564198
 20
31.6636651821
 30
0.0
 11
12.1738145756
 21
31.5467879243
 31
0.0
  0
LINE
  5
280
330
1F
100
AcDbEntity
  8
1
100
AcDbLine
 10
12.1738145756
 20
31.5467879243
 30
0.0
 11
12.7000006543
 21
31.5028444
 31
0.0
  0
LINE
  5
283
330
1F
100
AcDbEntity
  8
1
100
AcDbLine
 10
5.4999979841
 20
38.5000157939
 30
0.0
 11
42.4999988969
 21
38.5000157939
 31
0.0
  0
LINE
  5
286
330
1F
100
AcDbEntity
  8
1
100
AcDbLine
 10
15.755778055
 20
33.0851018496
 30
0.0
 11
16.6221129404
 21
32.6213441856
 31
0.0
  0
LINE
  5
287
330
1F
100
AcDbEntity
  8
1
100
AcDbLine
 10
16.6221129404
 20
32.6213441856
 30
0.0
 11
16.6721137868
 21
32.7016390927
 31
0.0
  0
LINE
  5
288
330
1F
100
AcDbEntity
  8
1
100
AcDbLine
 10
16.6721137868
 20
32.7016390927
 30
0.0
 11
15.8057789015
 21
33.1653967567
 31
0.0
  0
LINE
  5
289
330
1F
100
AcDbEntity
  8
1
100
AcDbLine
 10
16.2496435152
 20
34.7012966938
 30
0.0
 11
17.2499994444
 21
34.7012966938
 31
0.0
  0
LINE
  5
28A
330
1F
100
AcDbEntity
  8
1
100
AcDbLine
 10
17.2499994444
 20
34.7012966938
 30
0.0
 11
17.2499994444
 21
34.794015444
 31
0.0
  0
LINE
  5
28B
330
1F
100
AcDbEntity
  8
1
100
AcDbLine
 10
17.2499994444
 20
34.794015444
 30
0.0
 11
16.2496435152
 21
34.794015444
 31
0.0
  0
LINE
  5
28C
330
1F
100
AcDbEntity
  8
1
100
AcDbLine
 10
19.3499981761
 20
34.8171938056
 30
0.0
 11
18.8250004649
 21
34.8171938056
 31
0.0
  0
LINE
  5
28E
330
1F
100
AcDbEntity
  8
1
100
AcDbLine
 10
18.8250004649
 20
35.303966313
 30
0.0
 11
18.6749979257
 21
35.303966313
 31
0.0
  0
LINE
  5
290
330
1F
100
AcDbEntity
  8
1
100
AcDbLine
 10
18.6749979257
 20
34.8171938056
 30
0.0
 11
18.1500002146
 21
34.8171938056
 31
0.0
  0
LINE
  5
291
330
1F
100
AcDbEntity
  8
1
100
AcDbLine
 10
18.1500002146
 20
34.8171938056
 30
0.0
 11
18.1500002146
 21
34.6781175429
 31
0.0
  0
LINE
  5
292
330
1F
100
AcDbEntity
  8
1
100
AcDbLine
 10
18.1500002146
 20
34.6781175429
 30
0.0
 11
18.6749979257
 21
34.6781175429
 31
0.0
  0
LINE
  5
293
330
1F
100
AcDbEntity
  8
1
100
AcDbLine
 10
18.6749979257
 20
34.6781175429
 30
0.0
 11
18.6749979257
 21
34.1913450355
 31
0.0
  0
LINE
  5
294
330
1F
100
AcDbEntity
  8
1
100
AcDbLine
 10
18.6749979257
 20
34.1913450355
 30
0.0
 11
18.8250004649
 21
34.1913450355
 31
0.0
  0
LINE
  5
295
330
1F
100
AcDbEntity
  8
1
100
AcDbLine
 10
18.8250004649
 20
34.1913450355
 30
0.0
 11
18.8250004649
 21
34.6781175429
 31
0.0
  0
LINE
  5
296
330
1F
100
AcDbEntity
  8
1
100
AcDbLine
 10
18.8250004649
 20
34.6781175429
 30
0.0
 11
19.3499981761
 21
34.6781175429
 31
0.0
  0
LINE
  5
297
330
1F
100
AcDbEntity
  8
1
100
AcDbLine
 10
19.3499981761
 20
34.6781175429
 30
0.0
 11
19.3499981761
 21
34.8171938056
 31
0.0
  0
LINE
  5
298
330
1F
100
AcDbEntity
  8
1
100
AcDbLine
 10
12.7000006543
 20
31.5028444
 30
0.0
 11
12.7000006543
 21
30.4912120171
 31
0.0
  0
LINE
  5
299
330
1F
100
AcDbEntity
  8
1
100
AcDbLine
 10
12.6750006676
 20
29.7912109489
 30
0.0
 11
12.6750006676
 21
28.5912111247
 31
0.0
  0
LINE
  5
29A
330
1F
100
AcDbEntity
  8
1
100
AcDbLine
 10
12.6750006676
 20
28.5912111247
 30
0.0
 11
12.8249994814
 21
28.5912111247
 31
0.0
  0
LINE
  5
29B
330
1F
100
AcDbEntity
  8
1
100
AcDbLine
 10
12.8249994814
 20
28.5912111247
 30
0.0
 11
12.8249994814
 21
29.7912109489
 31
0.0
  0
LINE
  5
29C
330
1F
100
AcDbEntity
  8
1
100
AcDbLine
 10
12.8249994814
 20
29.7912109489
 30
0.0
 11
12.6750006676
 21
29.7912109489
 31
0.0
  0
LINE
  5
29F
330
1F
100
AcDbEntity
  8
1
100
AcDbLine
 10
12.7999986218
 20
30.4912120171
 30
0.0
 11
12.7999986218
 21
31.5028444
 31
0.0
  0
LINE
  5
2A0
330
1F
100
AcDbEntity
  8
1
100
AcDbLine
 10
12.7000006543
 20
30.4912120171
 30
0.0
 11
12.7999986218
 21
30.4912120171
 31
0.0
  0
LINE
  5
2A1
330
1F
100
AcDbEntity
  8
1
100
AcDbLine
 10
42.4999988969
 20
26.5000160851
 30
0.0
 11
5.4999979841
 21
26.5000160851
 31
0.0
  0
LINE
  5
2A2
330
1F
100
AcDbEntity
  8
1
100
AcDbLine
 10
5.4999979841
 20
26.5000160851
 30
0.0
 11
5.4999979841
 21
38.5000157939
 31
0.0
  0
LINE
  5
2A4
330
1F
100
AcDbEntity
  8
1
100
AcDbLine
 10
12.7000010907
 20
31.1892676944
 30
0.0
 11
12.7999990582
 21
31.1892676944
 31
0.0
  0
LINE
  5
2A5
330
1F
100
AcDbEntity
  8
1
100
AcDbLine
 10
15.8057789015
 20
33.1653967567
 30
0.0
 11
15.8057789015
 21
33.1616528399
 31
0.0
  0
LINE
  5
2A6
330
1F
100
AcDbEntity
  8
1
100
AcDbLine
 10
16.2496435152
 20
34.794015444
 30
0.0
 11
16.2496435152
 21
34.790267802
 31
0.0
  0
LINE
  5
2A7
330
1F
100
AcDbEntity
  8
1
100
AcDbLine
 10
18.1467294097
 20
32.8200023467
 30
0.0
 11
18.4520355761
 21
32.8055370444
 31
0.0
  0
LINE
  5
2A8
330
1F
100
AcDbEntity
  8
1
100
AcDbLine
 10
18.4520355761
 20
32.8055370444
 30
0.0
 11
18.7510199249
 21
32.747977584
 31
0.0
  0
LINE
  5
2A9
330
1F
100
AcDbEntity
  8
1
100
AcDbLine
 10
18.7510199249
 20
32.747977584
 30
0.0
 11
19.0163537264
 21
32.6114196176
 31
0.0
  0
LINE
  5
2AA
330
1F
100
AcDbEntity
  8
1
100
AcDbLine
 10
19.0163537264
 20
32.6114196176
 30
0.0
 11
19.1037117839
 21
32.4961591357
 31
0.0
  0
LINE
  5
2AB
330
1F
100
AcDbEntity
  8
1
100
AcDbLine
 10
19.1037117839
 20
32.4961591357
 30
0.0
 11
19.1331080496
 21
32.3578987116
 31
0.0
  0
LINE
  5
2AC
330
1F
100
AcDbEntity
  8
1
100
AcDbLine
 10
17.1587488949
 20
32.3578987116
 30
0.0
 11
17.1881824136
 21
32.4963230485
 31
0.0
  0
LINE
  5
2AD
330
1F
100
AcDbEntity
  8
1
100
AcDbLine
 10
17.1881824136
 20
32.4963230485
 30
0.0
 11
17.275924176
 21
32.6115984315
 31
0.0
  0
LINE
  5
2AE
330
1F
100
AcDbEntity
  8
1
100
AcDbLine
 10
17.275924176
 20
32.6115984315
 30
0.0
 11
17.5417199135
 21
32.7480222875
 31
0.0
  0
LINE
  5
2AF
330
1F
100
AcDbEntity
  8
1
100
AcDbLine
 10
17.5417199135
 20
32.7480222875
 30
0.0
 11
18.1467294097
 21
32.8200023467
 31
0.0
  0
LINE
  5
2B0
330
1F
100
AcDbEntity
  8
1
100
AcDbLine
 10
17.2356724143
 20
32.355298459
 30
0.0
 11
17.2654076814
 21
32.2310600275
 31
0.0
  0
LINE
  5
2B1
330
1F
100
AcDbEntity
  8
1
100
AcDbLine
 10
17.2654076814
 20
32.2310600275
 30
0.0
 11
17.3518195152
 21
32.1320418114
 31
0.0
  0
LINE
  5
2B2
330
1F
100
AcDbEntity
  8
1
100
AcDbLine
 10
17.3518195152
 20
32.1320418114
 30
0.0
 11
17.5989999771
 21
32.0208269948
 31
0.0
  0
LINE
  5
2B3
330
1F
100
AcDbEntity
  8
1
100
AcDbLine
 10
17.5989999771
 20
32.0208269948
 30
0.0
 11
18.1471280157
 21
31.9641392523
 31
0.0
  0
LINE
  5
2B4
330
1F
100
AcDbEntity
  8
1
100
AcDbLine
 10
18.1471280157
 20
31.9641392523
 30
0.0
 11
18.6942949295
 21
32.0206817085
 31
0.0
  0
LINE
  5
2B5
330
1F
100
AcDbEntity
  8
1
100
AcDbLine
 10
18.6942949295
 20
32.0206817085
 30
0.0
 11
18.940789938
 21
32.1321312183
 31
0.0
  0
LINE
  5
2B6
330
1F
100
AcDbEntity
  8
1
100
AcDbLine
 10
18.940789938
 20
32.1321312183
 30
0.0
 11
19.0266131758
 21
32.231309622
 31
0.0
  0
LINE
  5
2B7
330
1F
100
AcDbEntity
  8
1
100
AcDbLine
 10
19.0266131758
 20
32.231309622
 30
0.0
 11
19.0561845302
 21
32.355298459
 31
0.0
  0
LINE
  5
2B8
330
1F
100
AcDbEntity
  8
1
100
AcDbLine
 10
17.2356724143
 20
32.3590423757
 30
0.0
 11
17.2654076814
 21
32.2348076696
 31
0.0
  0
LINE
  5
2B9
330
1F
100
AcDbEntity
  8
1
100
AcDbLine
 10
17.2654076814
 20
32.2348076696
 30
0.0
 11
17.3518195152
 21
32.1357857281
 31
0.0
  0
LINE
  5
2BA
330
1F
100
AcDbEntity
  8
1
100
AcDbLine
 10
17.3518195152
 20
32.1357857281
 30
0.0
 11
17.5989999771
 21
32.0245746368
 31
0.0
  0
LINE
  5
2BB
330
1F
100
AcDbEntity
  8
1
100
AcDbLine
 10
17.5989999771
 20
32.0245746368
 30
0.0
 11
18.1471280157
 21
31.9678868944
 31
0.0
  0
LINE
  5
2BC
330
1F
100
AcDbEntity
  8
1
100
AcDbLine
 10
18.1471280157
 20
32.7524255807
 30
0.0
 11
17.5985678434
 21
32.6948251421
 31
0.0
  0
LINE
  5
2BD
330
1F
100
AcDbEntity
  8
1
100
AcDbLine
 10
17.5985678434
 20
32.6948251421
 30
0.0
 11
17.351495415
 21
32.5828391904
 31
0.0
  0
LINE
  5
2BE
330
1F
100
AcDbEntity
  8
1
100
AcDbLine
 10
17.351495415
 20
32.5828391904
 30
0.0
 11
17.2654598355
 21
32.48338139
 31
0.0
  0
LINE
  5
2BF
330
1F
100
AcDbEntity
  8
1
100
AcDbLine
 10
17.2654598355
 20
32.48338139
 30
0.0
 11
17.2356724143
 21
32.3590423757
 31
0.0
  0
LINE
  5
2C0
330
1F
100
AcDbEntity
  8
1
100
AcDbLine
 10
19.0561845302
 20
32.3590423757
 30
0.0
 11
19.0268664956
 21
32.4832696313
 31
0.0
  0
LINE
  5
2C1
330
1F
100
AcDbEntity
  8
1
100
AcDbLine
 10
19.0268664956
 20
32.4832696313
 30
0.0
 11
18.9411289394
 21
32.5827162558
 31
0.0
  0
LINE
  5
2C2
330
1F
100
AcDbEntity
  8
1
100
AcDbLine
 10
18.9411289394
 20
32.5827162558
 30
0.0
 11
18.694801569
 21
32.6950598353
 31
0.0
  0
LINE
  5
2C3
330
1F
100
AcDbEntity
  8
1
100
AcDbLine
 10
18.694801569
 20
32.6950598353
 30
0.0
 11
18.1471280157
 21
32.7524255807
 31
0.0
  0
LINE
  5
2C4
330
1F
100
AcDbEntity
  8
1
100
AcDbLine
 10
18.1471280157
 20
31.9678868944
 30
0.0
 11
18.6942949295
 21
32.0244256252
 31
0.0
  0
LINE
  5
2C5
330
1F
100
AcDbEntity
  8
1
100
AcDbLine
 10
18.6942949295
 20
32.0244256252
 30
0.0
 11
18.940789938
 21
32.1358788604
 31
0.0
  0
LINE
  5
2C6
330
1F
100
AcDbEntity
  8
1
100
AcDbLine
 10
18.940789938
 20
32.1358788604
 30
0.0
 11
19.0266131758
 21
32.235057264
 31
0.0
  0
LINE
  5
2C7
330
1F
100
AcDbEntity
  8
1
100
AcDbLine
 10
19.0266131758
 20
32.235057264
 30
0.0
 11
19.0561845302
 21
32.3590423757
 31
0.0
  0
LINE
  5
2C8
330
1F
100
AcDbEntity
  8
1
100
AcDbLine
 10
18.1471280157
 20
31.9641392523
 30
0.0
 11
18.1471280157
 21
31.9678868944
 31
0.0
  0
LINE
  5
2C9
330
1F
100
AcDbEntity
  8
1
100
AcDbLine
 10
17.2356724143
 20
32.355298459
 30
0.0
 11
17.2356724143
 21
32.3590423757
 31
0.0
  0
LINE
  5
2CA
330
1F
100
AcDbEntity
  8
1
100
AcDbLine
 10
19.0561845302
 20
32.355298459
 30
0.0
 11
19.0561845302
 21
32.3590423757
 31
0.0
  0
LINE
  5
2CB
330
1F
100
AcDbEntity
  8
1
100
AcDbLine
 10
18.1467294097
 20
32.8200023467
 30
0.0
 11
18.1467294097
 21
32.8237499887
 31
0.0
  0
LINE
  5
2CC
330
1F
100
AcDbEntity
  8
1
100
AcDbLine
 10
16.6703629004
 20
32.6988302238
 30
0.0
 11
15.8057789015
 21
33.1616528399
 31
0.0
  0
LINE
  5
2CD
330
1F
100
AcDbEntity
  8
1
100
AcDbLine
 10
18.6749979257
 20
34.8134498889
 30
0.0
 11
18.1500002146
 21
34.8134498889
 31
0.0
  0
LINE
  5
2CE
330
1F
100
AcDbEntity
  8
1
100
AcDbLine
 10
18.8250004649
 20
35.300218671
 30
0.0
 11
18.6749979257
 21
35.300218671
 31
0.0
  0
LINE
  5
2CF
330
1F
100
AcDbEntity
  8
1
100
AcDbLine
 10
19.3499981761
 20
34.8134498889
 30
0.0
 11
18.8250004649
 21
34.8134498889
 31
0.0
  0
LINE
  5
2D0
330
1F
100
AcDbEntity
  8
1
100
AcDbLine
 10
17.2499994444
 20
34.790267802
 30
0.0
 11
16.2496435152
 21
34.790267802
 31
0.0
  0
LINE
  5
2D1
330
1F
100
AcDbEntity
  8
1
100
AcDbLine
 10
18.8250004649
 20
34.8134498889
 30
0.0
 11
18.8250004649
 21
35.303966313
 31
0.0
  0
LINE
  5
2D2
330
1F
100
AcDbEntity
  8
1
100
AcDbLine
 10
18.6749979257
 20
34.8134498889
 30
0.0
 11
18.6749979257
 21
35.303966313
 31
0.0
  0
LINE
  5
2D3
330
1F
100
AcDbEntity
  8
1
100
AcDbLine
 10
4.7026213981
 20
25.7026376678
 30
0.0
 11
4.8560703801
 21
25.8560884811
 31
0.0
  0
LINE
  5
2D4
330
1F
100
AcDbEntity
  8
1
100
AcDbLine
 10
4.8560703801
 20
25.8560884811
 30
0.0
 11
5.0061474251
 21
26.0061636634
 31
0.0
  0
LINE
  5
2D5
330
1F
100
AcDbEntity
  8
1
100
AcDbLine
 10
5.0061474251
 20
26.0061636634
 30
0.0
 11
5.4846274363
 21
26.4846436746
 31
0.0
  0
LINE
  5
2DA
330
1F
100
AcDbEntity
  8
1
100
AcDbLine
 10
5.4846274363
 20
26.4846436746
 30
0.0
 11
5.4999979841
 21
26.5000160851
 31
0.0
  0
LINE
  5
2DC
330
1F
100
AcDbEntity
  8
1
100
AcDbLine
 10
21.8312128778
 20
0.0000089474
 30
0.0
 11
42.4999988969
 21
24.6321071006
 31
0.0
  0
LINE
  5
2DD
330
1F
100
AcDbEntity
  8
1
100
AcDbLine
 10
4.7026213981
 20
31.7498572238
 30
0.0
 11
-0.7620250179
 21
31.7498572238
 31
0.0
  0
LINE
  5
2DE
330
1F
100
AcDbEntity
  8
1
100
AcDbLine
 10
42.4999988969
 20
24.6321071006
 30
0.0
 11
42.4999988969
 21
38.5000157939
 31
0.0
  0
LINE
  5
2DF
330
1F
100
AcDbEntity
  8
1
100
AcDbLine
 10
-4.2499993857
 20
31.6659963241
 30
0.0
 11
-4.3000002695
 21
31.613741638
 31
0.0
  0
LINE
  5
2E0
330
1F
100
AcDbEntity
  8
1
100
AcDbLine
 10
-4.5500007762
 20
23.6500013687
 30
0.0
 11
-4.5500002241
 21
31.3277777283
 31
0.0
  0
LINE
  5
2E1
330
1F
100
AcDbEntity
  8
1
100
AcDbLine
 10
4.699989449
 20
-31.7498383857
 30
0.0
 11
4.699989449
 21
-10.3953106483
 31
0.0
  0
LINE
  5
2E2
330
1F
100
AcDbEntity
  8
1
100
AcDbLine
 10
5.4999968306
 20
-7.7748799538
 30
0.0
 11
28.3551219089
 21
-7.7748799538
 31
0.0
  0
LINE
  5
2E3
330
1F
100
AcDbEntity
  8
1
100
AcDbLine
 10
-1.2019219715
 20
-31.0914585917
 30
0.0
 11
-1.2019207567
 21
-31.2581358742
 31
0.0
  0
LINE
  5
2E4
330
1F
100
AcDbEntity
  8
CUT
100
AcDbLine
 10
43.2999975383
 20
-33.5292842394
 30
0.0
 11
43.2999995172
 21
-33.9354187644
 31
0.0
  0
LINE
  5
2E5
330
1F
100
AcDbEntity
  8
CUT
100
AcDbLine
 10
43.2999995172
 20
-31.073872691
 30
0.0
 11
43.2999975383
 21
-31.2700409504
 31
0.0
  0
LINE
  5
2E6
330
1F
100
AcDbEntity
  8
CUT
100
AcDbLine
 10
54.4871039092
 20
33.9354362185
 30
0.0
 11
54.4871039092
 21
31.0738897964
 31
0.0
  0
LINE
  5
2E7
330
1F
100
AcDbEntity
  8
CUT
100
AcDbLine
 10
53.6949507296
 20
33.9354362185
 30
0.0
 11
53.6949507296
 21
31.0738897964
 31
0.0
  0
LINE
  5
2E8
330
1F
100
AcDbEntity
  8
1
100
AcDbLine
 10
4.7026213981
 20
25.7026376678
 30
0.0
 11
4.7026213981
 21
31.7498572238
 31
0.0
  0
LINE
  5
2E9
330
1F
100
AcDbEntity
  8
1
100
AcDbLine
 10
42.4999988969
 20
25.7026376678
 30
0.0
 11
4.7026213981
 21
25.7026376678
 31
0.0
  0
LINE
  5
2EA
330
1F
100
AcDbEntity
  8
1
100
AcDbLine
 10
-1.0019262625
 20
23.7500011988
 30
0.0
 11
-1.0019262625
 21
31.747063256
 31
0.0
  0
LINE
  5
2EB
330
1F
100
AcDbEntity
  8
SK4
100
AcDbLine
 10
27.0444642687
 20
0.0
 30
0.0
 11
-6.5347926425
 21
0.0
 31
0.0
  0
ARC
  5
2EC
330
1F
100
AcDbEntity
  8
1
100
AcDbCircle
 10
4.6999995172
 20
-32.5499988773
 30
0.0
 40
0.8000000000000194
100
AcDbArc
 50
0.0
 51
61.88590464810001
  0
ARC
  5
2ED
330
1F
100
AcDbEntity
  8
1
100
AcDbCircle
 10
-3.0382231893
 20
-10.564908017
 30
0.0
 40
2.093180232759912
100
AcDbArc
 50
331.314914775
 51
4.6474148929
  0
ARC
  5
2EE
330
1F
100
AcDbEntity
  8
1
100
AcDbCircle
 10
-3.0282355751
 20
10.5670362255
 30
0.0
 40
2.08339891334992
100
AcDbArc
 50
355.2723401850999
 51
28.7655807335
  0
ARC
  5
2EF
330
1F
100
AcDbEntity
  8
1
100
AcDbCircle
 10
-1.5558834457
 20
-20.7755830309
 30
0.0
 40
0.6127853439763837
100
AcDbArc
 50
331.4286251429
 51
54.7163666759
  0
ARC
  5
2F0
330
1F
100
AcDbEntity
  8
1
100
AcDbCircle
 10
-1.4582425677
 20
-64.0556307996
 30
0.0
 40
32.30960309947213
100
AcDbArc
 50
89.1200101946
 51
89.5479676524
  0
ARC
  5
2F1
330
1F
100
AcDbEntity
  8
1
100
AcDbCircle
 10
-1.5590442951
 20
20.7755805412
 30
0.0
 40
0.614615217106753
100
AcDbArc
 50
305.5242801175
 51
54.475860808
  0
ARC
  5
2F2
330
1F
100
AcDbEntity
  8
1
100
AcDbCircle
 10
18.6500007043
 20
11.5698525809
 30
0.0
 40
4.999999193335353
100
AcDbArc
 50
193.5860761294
 51
219.9999937746
  0
CIRCLE
  5
2F3
330
1F
100
AcDbEntity
  8
1
100
AcDbCircle
 10
34.4973216285
 20
-32.5007154369
 30
0.0
 40
3.250717968302304
  0
CIRCLE
  5
2F4
330
1F
100
AcDbEntity
  8
1
100
AcDbCircle
 10
20.497323059
 20
-32.5007154369
 30
0.0
 40
3.2507179683023
  0
ARC
  5
2F5
330
1F
100
AcDbEntity
  8
1
100
AcDbCircle
 10
12.7501233107
 20
-24.2801170185
 30
0.0
 40
4.599566270834337
100
AcDbArc
 50
21.503386617
 51
158.5732288396
  0
ARC
  5
2F6
330
1F
100
AcDbEntity
  8
1
100
AcDbCircle
 10
-1.2489219403
 20
-16.3310943766
 30
0.0
 40
3.50546298682406
100
AcDbArc
 50
182.8661004515
 51
201.9620587001
  0
ARC
  5
2F7
330
1F
100
AcDbEntity
  8
1
100
AcDbCircle
 10
12.750207756
 20
-24.0067382997
 30
0.0
 40
3.462455642524956
100
AcDbArc
 50
349.5902107078001
 51
190.5074236078
  0
ARC
  5
2F8
330
1F
100
AcDbEntity
  8
1
100
AcDbCircle
 10
-3.2396233309
 20
-23.4718273888
 30
0.0
 40
1.517215866460762
100
AcDbArc
 50
185.4422662727
 51
213.8283884209
  0
ARC
  5
2F9
330
1F
100
AcDbEntity
  8
1
100
AcDbCircle
 10
-3.6840078166
 20
-27.5548762748
 30
0.0
 40
1.08667618102003
100
AcDbArc
 50
191.1968557434
 51
221.3310795455
  0
ARC
  5
2FA
330
1F
100
AcDbEntity
  8
1
100
AcDbCircle
 10
-3.9318486674
 20
-29.939089302
 30
0.0
 40
0.8594871893807262
100
AcDbArc
 50
197.8417528107
 51
228.6210849236
  0
ARC
  5
2FB
330
1F
100
AcDbEntity
  8
1
100
AcDbCircle
 10
-3.4017504854
 20
-30.4013339463
 30
0.0
 40
1.635861581008468
100
AcDbArc
 50
214.4942397912
 51
227.8280256404
  0
ARC
  5
2FC
330
1F
100
AcDbEntity
  8
1
100
AcDbCircle
 10
-5.3219586398
 20
-32.2399796173
 30
0.0
 40
1.114263415501054
100
AcDbArc
 50
42.4667267056
 51
59.11567471719999
  0
ARC
  5
2FD
330
1F
100
AcDbEntity
  8
CUT
100
AcDbCircle
 10
43.3151211256
 20
-34.3448655595
 30
0.0
 40
0.8157215288273004
100
AcDbArc
 50
91.06233235580001
 51
182.1964210643
  0
ARC
  5
2FE
330
1F
100
AcDbEntity
  8
CUT
100
AcDbCircle
 10
43.313089804
 20
-30.4569143632
 30
0.0
 40
0.8132319805399032
100
AcDbArc
 50
178.9327654788
 51
269.0775522926
  0
ARC
  5
2FF
330
1F
100
AcDbEntity
  8
CUT
100
AcDbCircle
 10
55.2999997217
 20
-31.2046457595
 30
0.0
 40
0.1999999201915725
100
AcDbArc
 50
0.0000091274
 51
84.2466338579
  0
ARC
  5
301
330
1F
100
AcDbEntity
  8
CUT
100
AcDbCircle
 10
43.2999995172
 20
-34.7354187644
 30
0.0
 40
0.8000000000000256
100
AcDbArc
 50
90.0
 51
180.0
  0
ARC
  5
302
330
1F
100
AcDbEntity
  8
CUT
100
AcDbCircle
 10
55.2999995172
 20
-33.8046457277
 30
0.0
 40
0.2000000000000367
100
AcDbArc
 50
280.8322870219
 51
359.9997723391
  0
ARC
  5
303
330
1F
100
AcDbEntity
  8
CUT
100
AcDbCircle
 10
43.2999995172
 20
-30.273872691
 30
0.0
 40
0.8000000000000114
100
AcDbArc
 50
180.0
 51
270.0
  0
ARC
  5
305
330
1F
100
AcDbEntity
  8
CUT
100
AcDbCircle
 10
43.2999972031
 20
34.7354345243
 30
0.0
 40
0.7999983058453984
100
AcDbArc
 50
179.9999759953
 51
270.0000240047
  0
ARC
  5
306
330
1F
100
AcDbEntity
  8
CUT
100
AcDbCircle
 10
43.3000020511
 20
30.2738866426
 30
0.0
 40
0.8000031537945613
100
AcDbArc
 50
90.00032320550001
 51
179.999810201
  0
ARC
  5
307
330
1F
100
AcDbEntity
  8
CUT
100
AcDbCircle
 10
55.3000004325
 20
33.8046608553
 30
0.0
 40
0.20000106532234
100
AcDbArc
 50
0.0005763363
 51
79.167687305
  0
ARC
  5
308
330
1F
100
AcDbEntity
  8
CUT
100
AcDbCircle
 10
55.2999993072
 20
31.2046649172
 30
0.0
 40
0.2000020036373376
100
AcDbArc
 50
275.7534253458
 51
359.9999958798001
  0
CIRCLE
  5
309
330
1F
100
AcDbEntity
  8
1
100
AcDbCircle
 10
34.4999995172
 20
-32.4999988773
 30
0.0
 40
2.300000000000011
  0
CIRCLE
  5
30A
330
1F
100
AcDbEntity
  8
1
100
AcDbCircle
 10
20.4999995172
 20
-32.4999988773
 30
0.0
 40
2.299999999999997
  0
ARC
  5
30B
330
1F
100
AcDbEntity
  8
1
100
AcDbCircle
 10
14.6748790977
 20
-37.1222443473
 30
0.0
 40
0.579144165953013
100
AcDbArc
 50
6.757863668499998
 51
58.92582589140001
  0
ARC
  5
30C
330
1F
100
AcDbEntity
  8
1
100
AcDbCircle
 10
12.7499982118
 20
-20.1798806953
 30
0.0
 40
2.63225288589706
100
AcDbArc
 50
250.7915752729
 51
289.2084247281
  0
ARC
  5
30D
330
1F
100
AcDbEntity
  8
1
100
AcDbCircle
 10
7.6761206921
 20
-21.0104233657
 30
0.0
 40
4.521680695886999
100
AcDbArc
 50
317.6520907231
 51
338.5276994650001
  0
ARC
  5
30E
330
1F
100
AcDbEntity
  8
1
100
AcDbCircle
 10
15.0142630298
 20
-22.5329224596
 30
0.0
 40
4.276844044887375
100
AcDbArc
 50
200.8674687031
 51
222.9527411088
  0
ARC
  5
30F
330
1F
100
AcDbEntity
  8
1
100
AcDbCircle
 10
12.7499982118
 20
-22.9614704699
 30
0.0
 40
2.632216582854492
100
AcDbArc
 50
250.7912999616
 51
289.20870004
  0
ARC
  5
310
330
1F
100
AcDbEntity
  8
1
100
AcDbCircle
 10
10.6988887876
 20
-22.665642037
 30
0.0
 40
4.030684814494887
100
AcDbArc
 50
316.3634574279001
 51
339.8161115789
  0
ARC
  5
311
330
1F
100
AcDbEntity
  8
1
100
AcDbCircle
 10
17.6122982302
 20
-21.1421621542
 30
0.0
 40
4.276802941669181
100
AcDbArc
 50
200.8674583936
 51
222.9529726006
  0
ARC
  5
312
330
1F
100
AcDbEntity
  8
1
100
AcDbCircle
 10
12.7500451525
 20
-26.1975282089
 30
0.0
 40
1.571559591206138
100
AcDbArc
 50
42.97852123300001
 51
137.1807378954
  0
ARC
  5
313
330
1F
100
AcDbEntity
  8
1
100
AcDbCircle
 10
12.7217127213
 20
34.3803157565
 30
0.0
 40
3.541458735467874
100
AcDbArc
 50
5.040456612
 51
147.9839247743
  0
ARC
  5
314
330
1F
100
AcDbEntity
  8
1
100
AcDbCircle
 10
12.3134423668
 20
34.6287936428
 30
0.0
 40
3.063559638988331
100
AcDbArc
 50
147.8761390887
 51
178.8278114441
  0
ARC
  5
315
330
1F
100
AcDbEntity
  8
1
100
AcDbCircle
 10
13.0333493786
 20
34.8103438027
 30
0.0
 40
2.94102664588089
100
AcDbArc
 50
327.1685945164
 51
329.0115052117
  0
ARC
  5
316
330
1F
100
AcDbEntity
  8
1
100
AcDbCircle
 10
7.7628893147
 20
37.5672520913
 30
0.0
 40
4.421196777927682
100
AcDbArc
 50
317.4120858391
 51
338.7676354854
  0
ARC
  5
317
330
1F
100
AcDbEntity
  8
1
100
AcDbCircle
 10
14.8011058365
 20
35.9660462413
 30
0.0
 40
4.030674460587606
100
AcDbArc
 50
200.1837156652
 51
223.6364252829
  0
ARC
  5
318
330
1F
100
AcDbEntity
  8
1
100
AcDbCircle
 10
12.7499982118
 20
35.6703061438
 30
0.0
 40
2.632287613969917
100
AcDbArc
 50
250.7918386324
 51
289.2081613677
  0
ARC
  5
319
330
1F
100
AcDbEntity
  8
1
100
AcDbCircle
 10
10.3609787839
 20
36.1764712653
 30
0.0
 40
4.421182666492194
100
AcDbArc
 50
317.4119757955
 51
338.7676620758
  0
ARC
  5
31A
330
1F
100
AcDbEntity
  8
1
100
AcDbCircle
 10
17.8238504141
 20
37.6212752948
 30
0.0
 40
4.521656134645959
100
AcDbArc
 50
201.4723857222
 51
222.3481141292
  0
ARC
  5
31B
330
1F
100
AcDbEntity
  8
1
100
AcDbCircle
 10
12.7499982118
 20
38.4518440854
 30
0.0
 40
2.632274969740181
100
AcDbArc
 50
250.7917427464
 51
289.2082572548
  0
ARC
  5
31C
330
1F
100
AcDbEntity
  8
1
100
AcDbCircle
 10
12.9309094181
 20
34.7819082085
 30
0.0
 40
1.818933457752287
100
AcDbArc
 50
326.6008520919
 51
329.5806931743999
  0
ARC
  5
31D
330
1F
100
AcDbEntity
  8
1
100
AcDbCircle
 10
12.7500225681
 20
32.4387322046
 30
0.0
 40
1.568480253986052
100
AcDbArc
 50
42.8774572086
 51
137.2238518823
  0
ARC
  5
31E
330
1F
100
AcDbEntity
  8
1
100
AcDbCircle
 10
12.7301418512
 20
32.9287437282
 30
0.0
 40
1.524085852260781
100
AcDbArc
 50
89.253508031
 51
147.0674445191
  0
ARC
  5
31F
330
1F
100
AcDbEntity
  8
1
100
AcDbCircle
 10
12.7698626663
 20
32.9287588482
 30
0.0
 40
1.524070838995275
100
AcDbArc
 50
32.9322438205
 51
90.7468036272
  0
ARC
  5
320
330
1F
100
AcDbEntity
  8
1
100
AcDbCircle
 10
12.7971344397
 20
35.0601360653
 30
0.0
 40
3.557292818368897
100
AcDbArc
 50
270.0461321493
 51
326.2750197697
  0
ARC
  5
321
330
1F
100
AcDbEntity
  8
1
100
AcDbCircle
 10
13.1843034499
 20
34.7550721879
 30
0.0
 40
3.065811722830334
100
AcDbArc
 50
328.7671741769
 51
358.9949588738
  0
ARC
  5
322
330
1F
100
AcDbEntity
  8
1
100
AcDbCircle
 10
12.7500000745
 20
35.2974643167
 30
0.0
 40
3.798697014524957
100
AcDbArc
 50
269.2458431248999
 51
270.7541568751
  0
ARC
  5
323
330
1F
100
AcDbEntity
  8
1
100
AcDbCircle
 10
13.2061914473
 20
34.7439084269
 30
0.0
 40
3.043805131950954
100
AcDbArc
 50
359.127309691
 51
0.8726903087
  0
ARC
  5
324
330
1F
100
AcDbEntity
  8
1
100
AcDbCircle
 10
13.0760554346
 20
34.8056971072
 30
0.0
 40
3.186576808827121
100
AcDbArc
 50
327.2396051556
 51
328.9404945933001
  0
ARC
  5
325
330
1F
100
AcDbEntity
  8
1
100
AcDbCircle
 10
4.7026213981
 20
32.5472479959
 30
0.0
 40
0.79739077216894
100
AcDbArc
 50
270.0
 51
359.6582280481
  0
ARC
  5
326
330
1F
100
AcDbEntity
  8
1
100
AcDbCircle
 10
-1.2583868131
 20
64.0686291951
 30
0.0
 40
32.32258338633936
100
AcDbArc
 50
270.4546128373
 51
270.8798973006001
  0
ARC
  5
327
330
1F
100
AcDbEntity
  8
1
100
AcDbCircle
 10
-3.2017507993
 20
30.4013509362
 30
0.0
 40
1.635861581074107
100
AcDbArc
 50
132.1719961992
 51
145.5057546485
  0
POINT
  5
338
330
1F
100
AcDbEntity
  8
1
100
AcDbPoint
 10
0.0
 20
0.0
 30
0.0
  0
DIMENSION
  5
339
330
1F
100
AcDbEntity
  8
SK2
100
AcDbDimension
280
     0
  2
_D
 10
66.3771757967
 20
-34.0010820282
 30
0.0
 11
66.3771757967
 21
-0.0009269693
 31
0.0
 70
   160
  1
%%c<> - 90
 71
     5
 42
68.00031011780001
 73
     0
 74
     0
 75
     0
  3
SLDDIMSTYLE0
100
AcDbAlignedDimension
 13
55.2291444838
 23
33.9992280896
 33
0.0
 14
55.3375864808
 24
-34.0010820282
 34
0.0
 50
90.0
100
AcDbRotatedDimension
1001
ACAD
1000
DSTYLE
1002
{
1070
   140
1040
3.5
1070
   340
1005
396
1070
   177
1070
   256
1070
   176
1070
   256
1070
   178
1070
   256
1070
   347
1005
14
1070
   346
1005
14
1070
   345
1005
14
1002
}
  0
DIMENSION
  5
347
330
1F
100
AcDbEntity
  8
SK2
100
AcDbDimension
280
     0
  2
_D_1
 10
76.3797613546
 20
-38.49999869010001
 30
0.0
 11
76.3797613546
 21
0.0000085519
 31
0.0
 70
   160
  1
%%c79 - 101
 71
     5
 42
77.00001448399999
 73
     0
 74
     0
 75
     0
  3
SLDDIMSTYLE0
100
AcDbAlignedDimension
 13
42.4999988969
 23
38.5000157939
 33
0.0
 14
42.4999988973
 24
-38.4999986901
 34
0.0
 50
90.0
100
AcDbRotatedDimension
1001
ACAD
1000
DSTYLE
1002
{
1070
   140
1040
3.5
1070
   340
1005
396
1070
   177
1070
   256
1070
   176
1070
   256
1070
   178
1070
   256
1070
   347
1005
14
1070
   346
1005
14
1070
   345
1005
14
1002
}
  0
DIMENSION
  5
352
330
1F
100
AcDbEntity
  8
2
100
AcDbDimension
280
     0
  2
_D_2
 10
-4.549998989342836
 20
48.49839419490276
 30
0.0
 11
8.9987209803
 21
48.4983932206
 31
0.0
 70
   160
  1
95
 71
     5
 42
60.05000154378442
 73
     0
 74
     0
 75
     0
  3
SLDDIMSTYLE1
100
AcDbAlignedDimension
 13
55.5000014978
 23
33.8046628671
 33
0.0
 14
-4.5500002241
 24
31.3277777283
 34
0.0
 50
-0.0000041202
100
AcDbRotatedDimension
1001
ACAD
1000
DSTYLE
1002
{
1070
   140
1040
3.5
1070
   340
1005
396
1070
   177
1070
   256
1070
   176
1070
   256
1070
   178
1070
   256
1070
   347
1005
14
1070
   346
1005
14
1070
   345
1005
14
1002
}
  0
MTEXT
  5
35B
330
1F
100
AcDbEntity
  8
SK6
100
AcDbMText
 10
12.62017116943829
 20
-55.90447026576473
 30
0.0
 40
3.5
 41
0.0
 46
0.0
 71
     1
 72
     1
  1
639.663
  7
BMG_Text
 73
     1
 44
1.0
  0
LINE
  5
403
330
1F
100
AcDbEntity
  8
NOCUT
100
AcDbLine
 10
0.0
 20
0.0
 30
0.0
 11
0.0000000000000019
 21
31.7498572238
 31
0.0
  0
LINE
  5
404
330
1F
100
AcDbEntity
  8
NOCUT
100
AcDbLine
 10
0.0000000000000019
 20
31.7498572238
 30
0.0
 11
4.7026213981
 21
31.74985722373106
 31
0.0
  0
ARC
  5
405
330
1F
100
AcDbEntity
  8
NOCUT
100
AcDbCircle
 10
4.702621398218242
 20
32.54724799585041
 30
0.0
 40
0.7973907720504044
100
AcDbArc
 50
269.9999999915037
 51
359.6582280516131
  0
LINE
  5
406
330
1F
100
AcDbEntity
  8
NOCUT
100
AcDbLine
 10
5.499997984022674
 20
32.54249155158959
 30
0.0
 11
5.4999979841
 21
38.5000157939
 31
0.0
  0
LINE
  5
407
330
1F
100
AcDbEntity
  8
NOCUT
100
AcDbLine
 10
5.4999979841
 20
38.5000157939
 30
0.0
 11
42.5624988969
 21
38.5000157939
 31
0.0
  0
LINE
  5
408
330
1F
100
AcDbEntity
  8
NOCUT
100
AcDbLine
 10
42.4999988969
 20
38.5000157939
 30
0.0
 11
42.49999889725467
 21
34.73543485946813
 31
0.0
  0
ARC
  5
409
330
1F
100
AcDbEntity
  8
NOCUT
100
AcDbCircle
 10
43.29999720310001
 20
34.7354345243
 30
0.0
 40
0.7999983058454054
100
AcDbArc
 50
179.9999759953005
 51
270.0000240046995
  0
LINE
  5
40A
330
1F
100
AcDbEntity
  8
NOCUT
100
AcDbLine
 10
43.29999753826813
 20
33.93543621845467
 30
0.0
 11
54.5000008642
 21
33.9354362185
 31
0.0
  0
LINE
  5
40B
330
1F
100
AcDbEntity
  8
NOCUT
100
AcDbLine
 10
54.5000008642
 20
33.9354362185
 30
0.0
 11
55.2291444838
 21
33.9992280896
 31
0.0
  0
LINE
  5
40E
330
1F
100
AcDbEntity
  8
NOCUT
100
AcDbLine
 10
55.2291444838
 20
33.9992280896
 30
0.0
 11
55.33758768438
 21
34.00109818532202
 31
0.0
  0
ARC
  5
40F
330
1F
100
AcDbEntity
  8
NOCUT
100
AcDbCircle
 10
55.30000043251444
 20
33.80466085532438
 30
0.0
 40
0.2000010652956798
100
AcDbArc
 50
0.0005763281921939
 51
79.16768730774943
  0
LINE
  5
410
330
1F
100
AcDbEntity
  8
NOCUT
100
AcDbLine
 10
55.5000014978
 20
33.8046628671
 30
0.0
 11
55.5000014978
 21
31.20761468189679
 31
0.0
  0
ARC
  5
411
330
1F
100
AcDbEntity
  8
NOCUT
100
AcDbCircle
 10
55.2997730654565
 20
31.20478217461095
 30
0.0
 40
0.2002484662020198
100
AcDbArc
 50
262.7934667187893
 51
0.8104737496276943
  0
LINE
  5
412
330
1F
100
AcDbEntity
  8
NOCUT
100
AcDbLine
 10
55.2746526241
 20
31.0061155905
 30
0.0
 11
54.4871039092
 21
31.0738897964
 31
0.0
  0
LINE
  5
413
330
1F
100
AcDbEntity
  8
NOCUT
100
AcDbLine
 10
54.4871039092
 20
31.0738897964
 30
0.0
 11
43.2999975383
 21
31.0738897964
 31
0.0
  0
ARC
  5
414
330
1F
100
AcDbEntity
  8
NOCUT
100
AcDbCircle
 10
43.30000205110001
 20
30.2738866426
 30
0.0
 40
0.8000031537945668
100
AcDbArc
 50
90.00032320550076
 51
179.9998102009998
  0
LINE
  5
415
330
1F
100
AcDbEntity
  8
NOCUT
100
AcDbLine
 10
42.49999889730983
 20
30.27388929270442
 30
0.0
 11
42.4999988969
 21
24.6321071006
 31
0.0
  0
LINE
  5
416
330
1F
100
AcDbEntity
  8
NOCUT
100
AcDbLine
 10
42.4999988969
 20
24.6321071006
 30
0.0
 11
21.8312128778
 21
0.0000089474
 31
0.0
  0
LINE
  5
417
330
1F
100
AcDbEntity
  8
NOCUT
100
AcDbLine
 10
21.8312128778
 20
0.0000089474
 30
0.0
 11
0.0043730037045862
 21
0.0000089474000027
 31
0.0
  0
LWPOLYLINE
  5
419
330
1F
100
AcDbEntity
  8
INFTOTAL
100
AcDbPolyline
 90
        4
 70
     1
 43
0.0
 10
-42.18713235094748
 20
77.97028007261395
 10
-42.18713235094748
 20
-80.10776870787384
 10
100.4372578929549
 20
-80.10776870787384
 10
100.4372578929549
 20
77.97028007261395
  0
LINE
  5
44F
330
1F
100
AcDbEntity
  8
4
100
AcDbLine
 10
27.0444642687
 20
0.0
 30
0.0
 11
0.0
 21
0.0
 31
0.0
  0
LWPOLYLINE
  5
451
330
1F
100
AcDbEntity
  8
1
100
AcDbPolyline
 90
        6
 70
     0
 43
0.0
 10
-4.449999578089617
 20
-27.60131646790915
 10
-3.789417802784739
 20
-27.38097851762572
 10
-3.134193814584503
 20
-27.15537100876909
 10
-2.484453713476205
 20
-26.92453736023799
 10
-1.840322544055206
 20
-26.68852199671874
 10
-1.201924271459752
 20
-26.44737034013557
  0
LWPOLYLINE
  5
452
330
1F
100
AcDbEntity
  8
1
100
AcDbPolyline
 90
        6
 70
     0
 43
0.0
 10
-4.449997627911381
 20
-24.40565240688287
 10
-3.815470341088847
 20
-24.70589647375197
 10
-3.173255715649892
 20
-25.00064198624992
 10
-2.523496683136347
 20
-25.2898233456985
 10
-1.866337854176295
 20
-25.57337619177962
 10
-1.20192548629943
 20
-25.85123741685937
  0
LWPOLYLINE
  5
453
330
1F
100
AcDbEntity
  8
1
100
AcDbPolyline
 90
        7
 70
     0
 43
0.0
 10
-4.449995792139228
 20
-23.18474218056414
 10
-3.856570104935272
 20
-22.84434846080076
 10
-3.271526977368908
 20
-22.49893715260488
 10
-2.694994909733782
 20
-22.1485841229553
 10
-2.127100532933628
 20
-21.79336632424243
 10
-1.567968580668824
 20
-21.43336177736645
 10
-1.017721862039525
 20
-21.0686495546005
  0
LWPOLYLINE
  5
454
330
1F
100
AcDbEntity
  8
1
100
AcDbPolyline
 90
        7
 70
     0
 43
0.0
 10
-4.449999845372779
 20
-17.77459922540904
 10
-3.938525492669743
 20
-18.20403375925132
 10
-3.414911136990924
 20
-18.62856333220994
 10
-2.879297862878813
 20
-19.048073557504
 10
-2.331829987907784
 20
-19.4624514007838
 10
-1.772655023798699
 20
-19.87158521058712
 10
-1.201923636672765
 20
-20.2753647484231
  0
LWPOLYLINE
  5
455
330
1F
100
AcDbEntity
  8
1
100
AcDbPolyline
 90
        9
 70
     0
 43
0.0
 10
-4.449998009568485
 20
-15.5316353896054
 10
-3.992552023117134
 20
-15.05107357262169
 10
-3.549549356201193
 20
-14.5660222170916
 10
-3.121122150716815
 20
-14.07662600748464
 10
-2.70739820089079
 20
-13.5830309242834
 10
-2.308500915161276
 20
-13.08538420043948
 10
-1.924549279366571
 20
-12.58383427745587
 10
-1.555657821253292
 20
-12.07853076110874
 10
-1.201936576314208
 20
-11.56962437682203
  0
LWPOLYLINE
  5
456
330
1F
100
AcDbEntity
  8
1
100
AcDbPolyline
 90
        5
 70
     0
 43
0.0
 10
-4.450002072722183
 20
-31.66597731242067
 10
-3.639203125319705
 20
-31.69662566831216
 10
-2.827708360409031
 20
-31.72035430713984
 10
-2.015694936089949
 20
-31.73715804868474
 10
-1.203340123691215
 20
-31.74703322450801
  0
LWPOLYLINE
  5
457
330
1F
100
AcDbEntity
  8
1
100
AcDbPolyline
 90
        5
 70
     0
 43
0.0
 10
-4.450000236871904
 20
-31.53464296388679
 10
-3.635389710060843
 20
-31.47602218814543
 10
-2.822385576122667
 20
-31.41038740409293
 10
-2.011169002090326
 20
-31.33775323755785
 10
-1.201920756663106
 20
-31.25813587408697
  0
LWPOLYLINE
  5
458
330
1F
100
AcDbEntity
  8
1
100
AcDbPolyline
 90
        5
 70
     0
 43
0.0
 10
-4.450000733401975
 20
-30.64367376986074
 10
-3.64249092900558
 20
-30.76628512661063
 10
-2.831849834816247
 20
-30.88180386247556
 10
-2.018264329741239
 20
-30.99020334666261
 10
-1.201921971469458
 20
-31.09145858959586
  0
LWPOLYLINE
  5
459
330
1F
100
AcDbEntity
  8
1
100
AcDbPolyline
 90
        6
 70
     0
 43
0.0
 10
-4.44999889753723
 20
-30.23463542005739
 10
-3.794694664205724
 20
-30.11073750433625
 10
-3.142132711594948
 20
-29.98210544924985
 10
-2.492415638291615
 20
-29.84875947888113
 10
-1.84564559559833
 20
-29.71072055845499
 10
-1.201924271472907
 20
-29.56801039104208
  0
LWPOLYLINE
  5
45A
330
1F
100
AcDbEntity
  8
1
100
AcDbPolyline
 90
        6
 70
     0
 43
0.0
 10
-4.499999493468811
 20
-28.27252709833131
 10
-3.847992194453948
 20
-28.47305390373484
 10
-3.191417013400645
 20
-28.66770362517541
 10
-2.530410285019956
 20
-28.85643584456486
 10
-1.865109264212653
 20
-29.03921137255623
 10
-1.195652097568882
 20
-29.21599225668112
  0
LWPOLYLINE
  5
45B
330
1F
100
AcDbEntity
  8
1
100
AcDbPolyline
 90
        7
 70
     0
 43
0.0
 10
-1.201923414049754
 20
20.27536404805738
 10
-1.772654618705757
 20
19.87158470853769
 10
-2.331829408100266
 20
19.46245110133354
 10
-2.879297116258842
 20
19.04807346480829
 10
-3.414910231603179
 20
18.62856345029454
 10
-3.938524436697154
 20
18.20403409201046
 10
-4.449998647132205
 20
17.77459977660339
  0
LWPOLYLINE
  5
45C
330
1F
100
AcDbEntity
  8
1
100
AcDbPolyline
 90
        7
 70
     0
 43
0.0
 10
-1.201924644388767
 20
21.27579791308871
 10
-1.723733393933185
 20
21.60483040996146
 10
-2.253498144467914
 20
21.92959742073723
 10
-2.791114303443387
 20
22.25003482599388
 10
-3.336475728190235
 20
22.56607936111225
 10
-3.88947474687529
 20
22.87766862876659
 10
-4.450002179759375
 20
23.18474111124382
  0
LWPOLYLINE
  5
45D
330
1F
100
AcDbEntity
  8
1
100
AcDbPolyline
 90
        9
 70
     0
 43
0.0
 10
-1.201936576311857
 20
11.56962437583132
 10
-1.55565806167021
 20
12.07853099874329
 10
-1.924549780318562
 20
12.58383474952011
 10
-2.308501696540007
 20
13.08538490246736
 10
-2.707399282351883
 20
13.58303185154114
 10
-3.12112355166802
 20
14.07662715497379
 10
-3.549551095790771
 20
14.56602357955205
 10
-3.992554120222237
 20
15.05107514453497
 10
-4.450000482783802
 20
15.53163716519803
  0
LWPOLYLINE
  5
45E
330
1F
100
AcDbEntity
  8
CUT
100
AcDbPolyline
 90
       14
 70
     0
 43
0.0
 10
55.16699886305511
 20
-31.27004095042038
 10
55.16258222484642
 20
-31.43888852851805
 10
55.15882055378837
 20
-31.60979585301262
 10
55.15572115174948
 20
-31.78243117165969
 10
55.15329003505227
 20
-31.95645937796461
 10
55.15153192279477
 20
-32.13154266166558
 10
55.15045022769024
 20
-32.30734116446516
 10
55.15004704944256
 20
-32.4835136397372
 10
55.15032317067056
 20
-32.65971811492879
 10
55.15127805538881
 20
-32.83561255537117
 10
55.15290985004803
 20
-33.01085552821139
 10
55.15521538713305
 20
-33.18510686517566
 10
55.1581901913114
 20
-33.35802832287798
 10
55.16182848812041
 20
-33.5292842393924
  0
LWPOLYLINE
  5
45F
330
1F
100
AcDbEntity
  8
CUT
100
AcDbPolyline
 90
       20
 70
     0
 43
0.0
 10
46.01408393931477
 20
33.93543621845466
 10
45.91280233484962
 20
33.79064677491564
 10
45.82235060673323
 20
33.64394403969957
 10
45.74286284485378
 20
33.49554549182832
 10
45.67445688560113
 20
33.34567112427606
 10
45.61723413718072
 20
33.19454311784133
 10
45.57127942928122
 20
33.04238551177581
 10
45.53666088731903
 20
32.88942387165801
 10
45.51342983144597
 20
32.73588495500427
 10
45.50162070046989
 20
32.58199637511273
 10
45.50125100080096
 20
32.42798626363879
 10
45.5123212804993
 20
32.27408293240194
 10
45.53481512846259
 20
32.12051453492563
 10
45.56869919875459
 20
31.96750872821177
 10
45.61392326003877
 20
31.81529233525136
 10
45.67042027004357
 20
31.66409100877134
 10
45.73810647494901
 20
31.51412889671646
 10
45.81688153354731
 20
31.36562830996186
 10
45.90662866599338
 20
31.21880939274891
 10
46.00721482692477
 20
31.07388979633313
  0
LWPOLYLINE
  5
460
330
1F
100
AcDbEntity
  8
1
100
AcDbPolyline
 90
        5
 70
     0
 43
0.0
 10
-1.001926262499956
 20
31.74706325805538
 10
-1.814634196515606
 20
31.73719435706611
 10
-2.62700067778307
 20
31.72039086796576
 10
-3.438848203849346
 20
31.69665646232451
 10
-4.249999385653377
 20
31.66599632612099
  0
ENDSEC
  0
SECTION
  2
OBJECTS
  0
DICTIONARY
  5
C
330
0
100
AcDbDictionary
281
     1
  3
ACAD_DETAILVIEWSTYLE
350
41D
  3
ACAD_GROUP
350
D
  3
ACAD_LAYOUT
350
37E
  3
ACAD_MATERIAL
350
392
  3
ACAD_MLEADERSTYLE
350
3A9
  3
ACAD_MLINESTYLE
350
17
  3
ACAD_PLOTSETTINGS
350
3EB
  3
ACAD_PLOTSTYLENAME
350
3EC
  3
ACAD_SCALELIST
350
35C
  3
ACAD_SECTIONVIEWSTYLE
350
41E
  3
ACAD_TABLESTYLE
350
3F8
  3
ACAD_VISUALSTYLE
350
381
  3
ACDB_RECOMPOSE_DATA
350
463
  3
AcDbVariableDictionary
350
3A7
  3
APPDATA
350
3FB
  0
SUN
  5
41F
330
29
100
AcDbSun
 90
        1
290
     0
 63
     7
421
 16777215
 40
1.0
291
     1
 91
  2455826
 92
 54000000
292
     0
 70
     2
 71
   256
280
     1
  0
DICTIONARY
  5
3FC
330
2
100
AcDbDictionary
280
     1
281
     1
  3
ACAD_LAYERSTATES
360
3FD
  0
DICTIONARY
  5
41D
102
{ACAD_REACTORS
330
C
102
}
330
C
100
AcDbDictionary
281
     1
  0
DICTIONARY
  5
D
102
{ACAD_REACTORS
330
C
102
}
330
C
100
AcDbDictionary
281
     1
  0
DICTIONARY
  5
37E
102
{ACAD_REACTORS
330
C
102
}
330
C
100
AcDbDictionary
281
     1
  3
Layout1
350
380
  3
Model
350
37F
  0
DICTIONARY
  5
392
102
{ACAD_REACTORS
330
C
102
}
330
C
100
AcDbDictionary
281
     1
  3
ByBlock
350
394
  3
ByLayer
350
393
  3
Global
350
395
  0
DICTIONARY
  5
3A9
102
{ACAD_REACTORS
330
C
102
}
330
C
100
AcDbDictionary
281
     1
  3
Standard
350
3FA
  0
DICTIONARY
  5
17
102
{ACAD_REACTORS
330
C
102
}
330
C
100
AcDbDictionary
281
     1
  3
STANDARD
350
18
  0
DICTIONARY
  5
3EB
102
{ACAD_REACTORS
330
C
102
}
330
C
100
AcDbDictionary
281
     1
  0
ACDBDICTIONARYWDFLT
  5
3EC
102
{ACAD_REACTORS
330
C
102
}
330
C
100
AcDbDictionary
281
     1
  3
Normal
350
3ED
100
AcDbDictionaryWithDefault
340
3ED
  0
DICTIONARY
  5
35C
102
{ACAD_REACTORS
330
C
102
}
330
C
100
AcDbDictionary
281
     1
  3
A0
350
35D
  3
A1
350
35E
  3
A2
350
35F
  3
A3
350
360
  3
A4
350
361
  3
A5
350
362
  3
A6
350
363
  3
A7
350
364
  3
A8
350
365
  3
A9
350
366
  3
B0
350
367
  3
B1
350
368
  3
B2
350
369
  3
B3
350
36A
  3
B4
350
36B
  3
B5
350
36C
  3
B6
350
36D
  3
B7
350
36E
  3
B8
350
36F
  3
B9
350
370
  3
C0
350
371
  3
C1
350
372
  3
C2
350
373
  3
C3
350
374
  3
C4
350
375
  3
C5
350
376
  3
C6
350
377
  3
C7
350
378
  3
C8
350
379
  3
C9
350
37A
  3
D0
350
37B
  3
D1
350
37C
  3
D2
350
37D
  0
DICTIONARY
  5
41E
102
{ACAD_REACTORS
330
C
102
}
330
C
100
AcDbDictionary
281
     1
  0
DICTIONARY
  5
3F8
102
{ACAD_REACTORS
330
C
102
}
330
C
100
AcDbDictionary
281
     1
  3
Standard
350
3F9
  0
DICTIONARY
  5
381
102
{ACAD_REACTORS
330
C
102
}
330
C
100
AcDbDictionary
281
     1
  3
2dWireframe
350
386
  3
3D Hidden
350
388
  3
3dWireframe
350
387
  3
Basic
350
389
  3
Brighten
350
38D
  3
ColorChange
350
391
  3
Conceptual
350
38B
  3
Dim
350
38C
  3
EdgeColorOff
350
3F2
  3
Facepattern
350
390
  3
Flat
350
382
  3
FlatWithEdges
350
383
  3
Gouraud
350
384
  3
GouraudWithEdges
350
385
  3
Hidden
350
3EF
  3
JitterOff
350
3F0
  3
Linepattern
350
38F
  3
OverhangOff
350
3F1
  3
Realistic
350
38A
  3
Shaded
350
3F7
  3
Shaded with edges
350
3F6
  3
Shades of Gray
350
3F3
  3
Sketchy
350
3F4
  3
Thicken
350
38E
  3
Wireframe
350
3EE
  3
X-Ray
350
3F5
  0
XRECORD
  5
463
102
{ACAD_REACTORS
330
C
102
}
330
C
100
AcDbXrecord
280
     1
 90
        1
330
3F9
  0
DICTIONARY
  5
3A7
102
{ACAD_REACTORS
330
C
102
}
330
C
100
AcDbDictionary
281
     1
  3
CANNOSCALE
350
41A
  3
CMLEADERSTYLE
350
41C
  3
CTABLESTYLE
350
41B
  3
DIMASSOC
350
3AB
  3
HIDETEXT
350
3AC
  3
MSLTSCALE
350
3AA
  0
DICTIONARY
  5
3FB
102
{ACAD_REACTORS
330
C
102
}
330
C
100
AcDbDictionary
281
     1
  0
DICTIONARY
  5
3FD
102
{ACAD_REACTORS
330
3FC
102
}
330
3FC
100
AcDbDictionary
281
     1
  0
LAYOUT
  5
380
102
{ACAD_REACTORS
330
37E
102
}
330
37E
100
AcDbPlotSettings
  1

  2
none_device
  4

  6

 40
0.0
 41
0.0
 42
0.0
 43
0.0
 44
0.0
 45
0.0
 46
0.0
 47
0.0
 48
0.0
 49
0.0
140
0.0
141
0.0
142
1.0
143
1.0
 70
   688
 72
     0
 73
     0
 74
     5
  7

 75
    16
 76
     0
 77
     2
 78
   300
147
1.0
148
0.0
149
0.0
100
AcDbLayout
  1
Layout1
 70
     1
 71
     1
 10
0.0
 20
0.0
 11
420.0
 21
297.0
 12
0.0
 22
0.0
 32
0.0
 14
1.000000000000000E+20
 24
1.000000000000000E+20
 34
1.000000000000000E+20
 15
-1.000000000000000E+20
 25
-1.000000000000000E+20
 35
-1.000000000000000E+20
146
0.0
 13
0.0
 23
0.0
 33
0.0
 16
1.0
 26
0.0
 36
0.0
 17
0.0
 27
1.0
 37
0.0
 76
     0
330
1B
  0
LAYOUT
  5
37F
102
{ACAD_REACTORS
330
37E
102
}
330
37E
100
AcDbPlotSettings
  1

  2
none_device
  4

  6

 40
0.0
 41
0.0
 42
0.0
 43
0.0
 44
0.0
 45
0.0
 46
0.0
 47
0.0
 48
0.0
 49
0.0
140
0.0
141
0.0
142
1.0
143
1.0
 70
  1712
 72
     0
 73
     0
 74
     0
  7

 75
     0
 76
     0
 77
     2
 78
   300
147
1.0
148
0.0000001104899866
149
0.0
100
AcDbLayout
  1
Model
 70
     1
 71
     0
 10
0.0
 20
0.0
 11
210.0
 21
297.0
 12
0.0
 22
0.0
 32
0.0
 14
-42.18713235094748
 24
-80.10776870787384
 34
0.0
 15
100.4372578929549
 25
77.97028007261395
 35
0.0
146
0.0
 13
0.0
 23
0.0
 33
0.0
 16
1.0
 26
0.0
 36
0.0
 17
0.0
 27
1.0
 37
0.0
 76
     0
330
1F
331
29
  0
MATERIAL
  5
394
102
{ACAD_REACTORS
330
392
102
}
330
392
100
AcDbMaterial
  1
ByBlock
 72
     1
 94
      127
  0
MATERIAL
  5
393
102
{ACAD_REACTORS
330
392
102
}
330
392
100
AcDbMaterial
  1
ByLayer
 72
     1
 94
      127
  0
MATERIAL
  5
395
102
{ACAD_REACTORS
330
392
102
}
330
392
100
AcDbMaterial
  1
Global
 72
     1
 94
      127
  0
MLEADERSTYLE
  5
3FA
102
{ACAD_REACTORS
330
3A9
102
}
330
3A9
100
AcDbMLeaderStyle
179
     2
170
     2
171
     1
172
     0
 90
        2
 40
0.0
 41
0.0
173
     1
 91
-1056964608
340
14
 92
       -2
290
     1
 42
2.0
291
     1
 43
8.0
  3
Standard
341
0
 44
4.0
300

342
11
174
     1
178
     1
175
     1
176
     0
 93
-1056964608
 45
4.0
292
     0
297
     0
 46
4.0
343
0
 94
-1056964608
 47
1.0
 49
1.0
140
1.0
293
     1
141
0.0
294
     1
177
     0
142
1.0
295
     0
296
     0
143
3.75
271
     0
272
     9
273
     9
298
     0
  0
MLINESTYLE
  5
18
102
{ACAD_REACTORS
330
17
102
}
330
17
100
AcDbMlineStyle
  2
Standard
 70
     0
  3

 62
   256
 51
90.0
 52
90.0
 71
     2
 49
0.5
 62
   256
  6
BYLAYER
 49
-0.5
 62
   256
  6
BYLAYER
  0
ACDBPLACEHOLDER
  5
3ED
102
{ACAD_REACTORS
330
3EC
102
}
330
3EC
  0
SCALE
  5
35D
102
{ACAD_REACTORS
330
35C
102
}
330
35C
100
AcDbScale
 70
     0
300
1:1
140
1.0
141
1.0
290
     1
  0
SCALE
  5
35E
102
{ACAD_REACTORS
330
35C
102
}
330
35C
100
AcDbScale
 70
     0
300
1:2
140
1.0
141
2.0
290
     0
  0
SCALE
  5
35F
102
{ACAD_REACTORS
330
35C
102
}
330
35C
100
AcDbScale
 70
     0
300
1:4
140
1.0
141
4.0
290
     0
  0
SCALE
  5
360
102
{ACAD_REACTORS
330
35C
102
}
330
35C
100
AcDbScale
 70
     0
300
1:5
140
1.0
141
5.0
290
     0
  0
SCALE
  5
361
102
{ACAD_REACTORS
330
35C
102
}
330
35C
100
AcDbScale
 70
     0
300
1:8
140
1.0
141
8.0
290
     0
  0
SCALE
  5
362
102
{ACAD_REACTORS
330
35C
102
}
330
35C
100
AcDbScale
 70
     0
300
1:10
140
1.0
141
10.0
290
     0
  0
SCALE
  5
363
102
{ACAD_REACTORS
330
35C
102
}
330
35C
100
AcDbScale
 70
     0
300
1:16
140
1.0
141
16.0
290
     0
  0
SCALE
  5
364
102
{ACAD_REACTORS
330
35C
102
}
330
35C
100
AcDbScale
 70
     0
300
1:20
140
1.0
141
20.0
290
     0
  0
SCALE
  5
365
102
{ACAD_REACTORS
330
35C
102
}
330
35C
100
AcDbScale
 70
     0
300
1:30
140
1.0
141
30.0
290
     0
  0
SCALE
  5
366
102
{ACAD_REACTORS
330
35C
102
}
330
35C
100
AcDbScale
 70
     0
300
1:40
140
1.0
141
40.0
290
     0
  0
SCALE
  5
367
102
{ACAD_REACTORS
330
35C
102
}
330
35C
100
AcDbScale
 70
     0
300
1:50
140
1.0
141
50.0
290
     0
  0
SCALE
  5
368
102
{ACAD_REACTORS
330
35C
102
}
330
35C
100
AcDbScale
 70
     0
300
1:100
140
1.0
141
100.0
290
     0
  0
SCALE
  5
369
102
{ACAD_REACTORS
330
35C
102
}
330
35C
100
AcDbScale
 70
     0
300
2:1
140
2.0
141
1.0
290
     0
  0
SCALE
  5
36A
102
{ACAD_REACTORS
330
35C
102
}
330
35C
100
AcDbScale
 70
     0
300
4:1
140
4.0
141
1.0
290
     0
  0
SCALE
  5
36B
102
{ACAD_REACTORS
330
35C
102
}
330
35C
100
AcDbScale
 70
     0
300
8:1
140
8.0
141
1.0
290
     0
  0
SCALE
  5
36C
102
{ACAD_REACTORS
330
35C
102
}
330
35C
100
AcDbScale
 70
     0
300
10:1
140
10.0
141
1.0
290
     0
  0
SCALE
  5
36D
102
{ACAD_REACTORS
330
35C
102
}
330
35C
100
AcDbScale
 70
     0
300
100:1
140
100.0
141
1.0
290
     0
  0
SCALE
  5
36E
102
{ACAD_REACTORS
330
35C
102
}
330
35C
100
AcDbScale
 70
     0
300
1/128" = 1'-0"
140
0.0078125
141
12.0
290
     0
  0
SCALE
  5
36F
102
{ACAD_REACTORS
330
35C
102
}
330
35C
100
AcDbScale
 70
     0
300
1/64" = 1'-0"
140
0.015625
141
12.0
290
     0
  0
SCALE
  5
370
102
{ACAD_REACTORS
330
35C
102
}
330
35C
100
AcDbScale
 70
     0
300
1/32" = 1'-0"
140
0.03125
141
12.0
290
     0
  0
SCALE
  5
371
102
{ACAD_REACTORS
330
35C
102
}
330
35C
100
AcDbScale
 70
     0
300
1/16" = 1'-0"
140
0.0625
141
12.0
290
     0
  0
SCALE
  5
372
102
{ACAD_REACTORS
330
35C
102
}
330
35C
100
AcDbScale
 70
     0
300
3/32" = 1'-0"
140
0.09375
141
12.0
290
     0
  0
SCALE
  5
373
102
{ACAD_REACTORS
330
35C
102
}
330
35C
100
AcDbScale
 70
     0
300
1/8" = 1'-0"
140
0.125
141
12.0
290
     0
  0
SCALE
  5
374
102
{ACAD_REACTORS
330
35C
102
}
330
35C
100
AcDbScale
 70
     0
300
3/16" = 1'-0"
140
0.1875
141
12.0
290
     0
  0
SCALE
  5
375
102
{ACAD_REACTORS
330
35C
102
}
330
35C
100
AcDbScale
 70
     0
300
1/4" = 1'-0"
140
0.25
141
12.0
290
     0
  0
SCALE
  5
376
102
{ACAD_REACTORS
330
35C
102
}
330
35C
100
AcDbScale
 70
     0
300
3/8" = 1'-0"
140
0.375
141
12.0
290
     0
  0
SCALE
  5
377
102
{ACAD_REACTORS
330
35C
102
}
330
35C
100
AcDbScale
 70
     0
300
1/2" = 1'-0"
140
0.5
141
12.0
290
     0
  0
SCALE
  5
378
102
{ACAD_REACTORS
330
35C
102
}
330
35C
100
AcDbScale
 70
     0
300
3/4" = 1'-0"
140
0.75
141
12.0
290
     0
  0
SCALE
  5
379
102
{ACAD_REACTORS
330
35C
102
}
330
35C
100
AcDbScale
 70
     0
300
1" = 1'-0"
140
1.0
141
12.0
290
     0
  0
SCALE
  5
37A
102
{ACAD_REACTORS
330
35C
102
}
330
35C
100
AcDbScale
 70
     0
300
1-1/2" = 1'-0"
140
1.5
141
12.0
290
     0
  0
SCALE
  5
37B
102
{ACAD_REACTORS
330
35C
102
}
330
35C
100
AcDbScale
 70
     0
300
3" = 1'-0"
140
3.0
141
12.0
290
     0
  0
SCALE
  5
37C
102
{ACAD_REACTORS
330
35C
102
}
330
35C
100
AcDbScale
 70
     0
300
6" = 1'-0"
140
6.0
141
12.0
290
     0
  0
SCALE
  5
37D
102
{ACAD_REACTORS
330
35C
102
}
330
35C
100
AcDbScale
 70
     0
300
1'-0" = 1'-0"
140
12.0
141
12.0
290
     0
  0
TABLESTYLE
  5
3F9
102
{ACAD_REACTORS
330
3F8
102
}
102
{ACAD_XDICTIONARY
360
461
102
}
330
3F8
100
AcDbTableStyle
  3
Standard
 70
     0
 71
     0
 40
1.5
 41
1.5
280
     0
281
     0
  7
STANDARD
140
4.5
170
     2
 62
     0
 63
   257
283
     0
 90
        4
 91
        0
  1

274
    -2
284
     1
 64
     0
275
    -2
285
     1
 65
     0
276
    -2
286
     1
 66
     0
277
    -2
287
     1
 67
     0
278
    -2
288
     1
 68
     0
279
    -2
289
     1
 69
     0
  7
STANDARD
140
6.0
170
     5
 62
     0
 63
   257
283
     0
 90
        4
 91
        0
  1

274
    -2
284
     1
 64
     0
275
    -2
285
     1
 65
     0
276
    -2
286
     1
 66
     0
277
    -2
287
     1
 67
     0
278
    -2
288
     1
 68
     0
279
    -2
289
     1
 69
     0
  7
STANDARD
140
4.5
170
     5
 62
     0
 63
   257
283
     0
 90
        4
 91
        0
  1

274
    -2
284
     1
 64
     0
275
    -2
285
     1
 65
     0
276
    -2
286
     1
 66
     0
277
    -2
287
     1
 67
     0
278
    -2
288
     1
 68
     0
279
    -2
289
     1
 69
     0
  0
VISUALSTYLE
  5
386
102
{ACAD_REACTORS
330
381
102
}
330
381
100
AcDbVisualStyle
  2
2dWireframe
 70
     4
177
     3
291
     0
 70
    58
 90
        0
176
     1
 90
        2
176
     1
 90
        0
176
     1
 90
        0
176
     1
 40
-0.6
176
     1
 40
-30.0
176
     1
 62
     7
176
     1
 90
        1
176
     1
 90
        4
176
     1
 62
     7
176
     1
 62
   257
176
     1
 90
        1
176
     1
 90
        1
176
     1
 40
1.0
176
     1
 90
        0
176
     1
 62
   257
176
     1
 40
1.0
176
     1
 90
        1
176
     1
 90
        6
176
     1
 90
        2
176
     1
 62
     7
176
     1
 90
        5
176
     1
 90
        0
176
     1
 90
        0
176
     1
290
     0
176
     1
 90
        1
176
     1
 40
0.0
176
     1
 90
        0
176
     1
290
     1
176
     1
290
     1
176
     1
290
     0
176
     1
290
     0
176
     1
290
     0
176
     1
290
     0
176
     1
290
     0
176
     1
290
     0
176
     1
290
     0
176
     1
 90
       50
176
     1
 40
0.0
176
     1
 40
1.0
176
     1
 90
        0
176
     1
 62
    18
420
        0
176
     1
 90
       50
176
     1
 90
        3
176
     1
 62
     5
420
      255
176
     1
290
     0
176
     1
 90
       50
176
     1
 90
       50
176
     1
 90
       50
176
     1
290
     0
176
     1
 90
       50
176
     1
 62
   256
176
     0
 40
1.0
176
     0
 90
        2
176
     1
  1
strokes_ogs.tif
176
     1
290
     0
176
     1
 40
1.0
176
     1
 40
1.0
176
     1
  0
VISUALSTYLE
  5
388
102
{ACAD_REACTORS
330
381
102
}
330
381
100
AcDbVisualStyle
  2
3D Hidden
 70
     6
177
     3
291
     0
 70
    58
 90
        1
176
     1
 90
        2
176
     1
 90
        2
176
     1
 90
        0
176
     1
 40
-0.6
176
     1
 40
-30.0
176
     1
 62
     7
176
     1
 90
        2
176
     1
 90
        2
176
     1
 62
     7
176
     1
 62
   257
176
     1
 90
        2
176
     1
 90
        1
176
     1
 40
40.0
176
     1
 90
        0
176
     1
 62
   257
176
     1
 40
1.0
176
     1
 90
        1
176
     1
 90
        6
176
     1
 90
        2
176
     1
 62
     7
176
     1
 90
        3
176
     1
 90
        0
176
     1
 90
        0
176
     1
290
     0
176
     1
 90
        1
176
     1
 40
0.0
176
     1
 90
        0
176
     1
290
     0
176
     1
290
     1
176
     1
290
     1
176
     1
290
     0
176
     1
290
     0
176
     1
290
     0
176
     1
290
     0
176
     1
290
     0
176
     1
290
     0
176
     1
 90
       50
176
     1
 40
0.0
176
     1
 40
1.0
176
     1
 90
        0
176
     1
 62
    18
420
        0
176
     1
 90
       50
176
     1
 90
        3
176
     1
 62
     5
420
      255
176
     1
290
     0
176
     1
 90
       50
176
     1
 90
       50
176
     1
 90
       50
176
     1
290
     0
176
     1
 90
       50
176
     1
 62
   256
176
     0
 40
1.0
176
     0
 90
        2
176
     1
  1
strokes_ogs.tif
176
     1
290
     0
176
     1
 40
1.0
176
     1
 40
1.0
176
     1
  0
VISUALSTYLE
  5
387
102
{ACAD_REACTORS
330
381
102
}
330
381
100
AcDbVisualStyle
  2
3dWireframe
 70
     5
177
     3
291
     0
 70
    58
 90
        0
176
     1
 90
        2
176
     1
 90
        0
176
     1
 90
        0
176
     1
 40
-0.6
176
     1
 40
-30.0
176
     1
 62
     7
176
     1
 90
        1
176
     1
 90
        4
176
     1
 62
     7
176
     1
 62
   257
176
     1
 90
        1
176
     1
 90
        1
176
     1
 40
1.0
176
     1
 90
        0
176
     1
 62
   257
176
     1
 40
1.0
176
     1
 90
        1
176
     1
 90
        6
176
     1
 90
        2
176
     1
 62
     7
176
     1
 90
        5
176
     1
 90
        0
176
     1
 90
        0
176
     1
290
     0
176
     1
 90
        1
176
     1
 40
0.0
176
     1
 90
        0
176
     1
290
     0
176
     1
290
     1
176
     1
290
     1
176
     1
290
     0
176
     1
290
     0
176
     1
290
     0
176
     1
290
     0
176
     1
290
     0
176
     1
290
     0
176
     1
 90
       50
176
     1
 40
0.0
176
     1
 40
1.0
176
     1
 90
        0
176
     1
 62
    18
420
        0
176
     1
 90
       50
176
     1
 90
        3
176
     1
 62
     5
420
      255
176
     1
290
     0
176
     1
 90
       50
176
     1
 90
       50
176
     1
 90
       50
176
     1
290
     0
176
     1
 90
       50
176
     1
 62
   256
176
     0
 40
1.0
176
     0
 90
        2
176
     1
  1
strokes_ogs.tif
176
     1
290
     0
176
     1
 40
1.0
176
     1
 40
1.0
176
     1
  0
VISUALSTYLE
  5
389
102
{ACAD_REACTORS
330
381
102
}
330
381
100
AcDbVisualStyle
  2
Basic
 70
     7
177
     3
291
     1
 70
    58
 90
        1
176
     1
 90
        0
176
     1
 90
        1
176
     1
 90
        0
176
     1
 40
-0.6
176
     1
 40
-30.0
176
     1
 62
     7
176
     1
 90
        0
176
     1
 90
        4
176
     1
 62
     7
176
     1
 62
   257
176
     1
 90
        1
176
     1
 90
        1
176
     1
 40
1.0
176
     1
 90
        8
176
     1
 62
     7
176
     1
 40
1.0
176
     1
 90
        1
176
     1
 90
        6
176
     1
 90
        2
176
     1
 62
     7
176
     1
 90
        5
176
     1
 90
        0
176
     1
 90
        0
176
     1
290
     0
176
     1
 90
        1
176
     1
 40
0.0
176
     1
 90
        0
176
     1
290
     0
176
     1
290
     1
176
     1
290
     1
176
     1
290
     0
176
     1
290
     0
176
     1
290
     0
176
     1
290
     0
176
     1
290
     0
176
     1
290
     0
176
     1
 90
       50
176
     1
 40
0.0
176
     1
 40
1.0
176
     1
 90
        0
176
     1
 62
    18
420
        0
176
     1
 90
       50
176
     1
 90
        3
176
     1
 62
     5
420
      255
176
     1
290
     0
176
     1
 90
       50
176
     1
 90
       50
176
     1
 90
       50
176
     1
290
     0
176
     1
 90
       50
176
     1
 62
   256
176
     0
 40
1.0
176
     0
 90
        2
176
     1
  1
strokes_ogs.tif
176
     1
290
     0
176
     1
 40
1.0
176
     1
 40
1.0
176
     1
  0
VISUALSTYLE
  5
38D
102
{ACAD_REACTORS
330
381
102
}
330
381
100
AcDbVisualStyle
  2
Brighten
 70
    12
177
     3
291
     1
 70
    58
 90
        2
176
     1
 90
        2
176
     1
 90
        0
176
     1
 90
        0
176
     1
 40
-0.6
176
     1
 40
-30.0
176
     1
 62
     7
176
     1
 90
        1
176
     1
 90
        4
176
     1
 62
     7
176
     1
 62
   257
176
     1
 90
        1
176
     1
 90
        1
176
     1
 40
1.0
176
     1
 90
        8
176
     1
 62
     7
176
     1
 40
1.0
176
     1
 90
        1
176
     1
 90
        6
176
     1
 90
        2
176
     1
 62
     7
176
     1
 90
        5
176
     1
 90
        0
176
     1
 90
        0
176
     1
290
     0
176
     1
 90
        1
176
     1
 40
50.0
176
     1
 90
        0
176
     1
290
     0
176
     1
290
     1
176
     1
290
     1
176
     1
290
     0
176
     1
290
     0
176
     1
290
     0
176
     1
290
     0
176
     1
290
     0
176
     1
290
     0
176
     1
 90
       50
176
     1
 40
0.0
176
     1
 40
1.0
176
     1
 90
        0
176
     1
 62
    18
420
        0
176
     1
 90
       50
176
     1
 90
        3
176
     1
 62
     5
420
      255
176
     1
290
     0
176
     1
 90
       50
176
     1
 90
       50
176
     1
 90
       50
176
     1
290
     0
176
     1
 90
       50
176
     1
 62
   256
176
     0
 40
1.0
176
     0
 90
        2
176
     1
  1
strokes_ogs.tif
176
     1
290
     0
176
     1
 40
1.0
176
     1
 40
1.0
176
     1
  0
VISUALSTYLE
  5
391
102
{ACAD_REACTORS
330
381
102
}
330
381
100
AcDbVisualStyle
  2
ColorChange
 70
    16
177
     3
291
     1
 70
    58
 90
        2
176
     1
 90
        2
176
     1
 90
        3
176
     1
 90
        0
176
     1
 40
-0.6
176
     1
 40
-30.0
176
     1
 62
     8
176
     1
 90
        1
176
     1
 90
        4
176
     1
 62
     7
176
     1
 62
   257
176
     1
 90
        1
176
     1
 90
        1
176
     1
 40
1.0
176
     1
 90
        8
176
     1
 62
     8
176
     1
 40
1.0
176
     1
 90
        1
176
     1
 90
        6
176
     1
 90
        2
176
     1
 62
     7
176
     1
 90
        5
176
     1
 90
        0
176
     1
 90
        0
176
     1
290
     0
176
     1
 90
        1
176
     1
 40
0.0
176
     1
 90
        0
176
     1
290
     0
176
     1
290
     1
176
     1
290
     1
176
     1
290
     0
176
     1
290
     0
176
     1
290
     0
176
     1
290
     0
176
     1
290
     0
176
     1
290
     0
176
     1
 90
       50
176
     1
 40
0.0
176
     1
 40
1.0
176
     1
 90
        0
176
     1
 62
    18
420
        0
176
     1
 90
       50
176
     1
 90
        3
176
     1
 62
     5
420
      255
176
     1
290
     0
176
     1
 90
       50
176
     1
 90
       50
176
     1
 90
       50
176
     1
290
     0
176
     1
 90
       50
176
     1
 62
   256
176
     0
 40
1.0
176
     0
 90
        2
176
     1
  1
strokes_ogs.tif
176
     1
290
     0
176
     1
 40
1.0
176
     1
 40
1.0
176
     1
  0
VISUALSTYLE
  5
38B
102
{ACAD_REACTORS
330
381
102
}
330
381
100
AcDbVisualStyle
  2
Conceptual
 70
     9
177
     3
291
     0
 70
    58
 90
        3
176
     1
 90
        2
176
     1
 90
        0
176
     1
 90
        0
176
     1
 40
-0.6
176
     1
 40
-30.0
176
     1
 62
     7
176
     1
 90
        2
176
     1
 90
        2
176
     1
 62
     7
176
     1
 62
   257
176
     1
 90
        1
176
     1
 90
        1
176
     1
 40
40.0
176
     1
 90
        8
176
     1
 62
     7
176
     1
 40
1.0
176
     1
 90
        1
176
     1
 90
        6
176
     1
 90
        2
176
     1
 62
     7
176
     1
 90
        3
176
     1
 90
        0
176
     1
 90
        0
176
     1
290
     0
176
     1
 90
        1
176
     1
 40
0.0
176
     1
 90
        0
176
     1
290
     0
176
     1
290
     1
176
     1
290
     1
176
     1
290
     0
176
     1
290
     0
176
     1
290
     0
176
     1
290
     0
176
     1
290
     0
176
     1
290
     0
176
     1
 90
       50
176
     1
 40
0.0
176
     1
 40
1.0
176
     1
 90
        0
176
     1
 62
    18
420
        0
176
     1
 90
       50
176
     1
 90
        3
176
     1
 62
     5
420
      255
176
     1
290
     0
176
     1
 90
       50
176
     1
 90
       50
176
     1
 90
       50
176
     1
290
     0
176
     1
 90
       50
176
     1
 62
   256
176
     0
 40
1.0
176
     0
 90
        2
176
     1
  1
strokes_ogs.tif
176
     1
290
     0
176
     1
 40
1.0
176
     1
 40
1.0
176
     1
  0
VISUALSTYLE
  5
38C
102
{ACAD_REACTORS
330
381
102
}
330
381
100
AcDbVisualStyle
  2
Dim
 70
    11
177
     3
291
     1
 70
    58
 90
        2
176
     1
 90
        2
176
     1
 90
        0
176
     1
 90
        0
176
     1
 40
-0.6
176
     1
 40
-30.0
176
     1
 62
     7
176
     1
 90
        1
176
     1
 90
        4
176
     1
 62
     7
176
     1
 62
   257
176
     1
 90
        1
176
     1
 90
        1
176
     1
 40
1.0
176
     1
 90
        8
176
     1
 62
     7
176
     1
 40
1.0
176
     1
 90
        1
176
     1
 90
        6
176
     1
 90
        2
176
     1
 62
     7
176
     1
 90
        5
176
     1
 90
        0
176
     1
 90
        0
176
     1
290
     0
176
     1
 90
        1
176
     1
 40
-50.0
176
     1
 90
        0
176
     1
290
     0
176
     1
290
     1
176
     1
290
     1
176
     1
290
     0
176
     1
290
     0
176
     1
290
     0
176
     1
290
     0
176
     1
290
     0
176
     1
290
     0
176
     1
 90
       50
176
     1
 40
0.0
176
     1
 40
1.0
176
     1
 90
        0
176
     1
 62
    18
420
        0
176
     1
 90
       50
176
     1
 90
        3
176
     1
 62
     5
420
      255
176
     1
290
     0
176
     1
 90
       50
176
     1
 90
       50
176
     1
 90
       50
176
     1
290
     0
176
     1
 90
       50
176
     1
 62
   256
176
     0
 40
1.0
176
     0
 90
        2
176
     1
  1
strokes_ogs.tif
176
     1
290
     0
176
     1
 40
1.0
176
     1
 40
1.0
176
     1
  0
VISUALSTYLE
  5
3F2
102
{ACAD_REACTORS
330
381
102
}
330
381
100
AcDbVisualStyle
  2
EdgeColorOff
 70
    22
177
     3
291
     1
 70
    58
 90
        2
176
     0
 90
        2
176
     0
 90
        0
176
     0
 90
        0
176
     0
 40
0.6
176
     0
 40
30.0
176
     0
 62
     7
420
 16777215
176
     0
 90
        1
176
     0
 90
        4
176
     0
 62
     7
176
     0
 62
   257
176
     0
 90
        1
176
     0
 90
        1
176
     0
 40
1.0
176
     0
 90
        8
176
     2
 62
     7
176
     0
 40
1.0
176
     0
 90
        1
176
     0
 90
        6
176
     0
 90
        2
176
     0
 62
     7
176
     0
 90
        5
176
     0
 90
        0
176
     0
 90
        0
176
     0
290
     0
176
     0
 90
        1
176
     0
 40
0.0
176
     0
 90
        0
176
     0
290
     0
176
     0
290
     1
176
     0
290
     1
176
     0
290
     0
176
     0
290
     0
176
     0
290
     0
176
     0
290
     0
176
     0
290
     0
176
     0
290
     0
176
     0
 90
       50
176
     0
 40
0.0
176
     0
 40
1.0
176
     0
 90
        0
176
     0
 62
    18
420
        0
176
     0
 90
       50
176
     0
 90
        3
176
     0
 62
     5
420
      255
176
     0
290
     0
176
     0
 90
       50
176
     0
 90
       50
176
     0
 90
       50
176
     0
290
     0
176
     0
 90
       50
176
     0
 62
   256
176
     0
 40
1.0
176
     0
 90
        2
176
     0
  1
strokes_ogs.tif
176
     0
290
     0
176
     0
 40
1.0
176
     0
 40
1.0
176
     0
  0
VISUALSTYLE
  5
390
102
{ACAD_REACTORS
330
381
102
}
330
381
100
AcDbVisualStyle
  2
Facepattern
 70
    15
177
     3
291
     1
 70
    58
 90
        2
176
     1
 90
        2
176
     1
 90
        0
176
     1
 90
        0
176
     1
 40
-0.6
176
     1
 40
-30.0
176
     1
 62
     7
176
     1
 90
        1
176
     1
 90
        4
176
     1
 62
     7
176
     1
 62
   257
176
     1
 90
        1
176
     1
 90
        1
176
     1
 40
1.0
176
     1
 90
        8
176
     1
 62
     7
176
     1
 40
1.0
176
     1
 90
        1
176
     1
 90
        6
176
     1
 90
        2
176
     1
 62
     7
176
     1
 90
        5
176
     1
 90
        0
176
     1
 90
        0
176
     1
290
     0
176
     1
 90
        1
176
     1
 40
0.0
176
     1
 90
        0
176
     1
290
     0
176
     1
290
     1
176
     1
290
     1
176
     1
290
     0
176
     1
290
     0
176
     1
290
     0
176
     1
290
     0
176
     1
290
     0
176
     1
290
     0
176
     1
 90
       50
176
     1
 40
0.0
176
     1
 40
1.0
176
     1
 90
        0
176
     1
 62
    18
420
        0
176
     1
 90
       50
176
     1
 90
        3
176
     1
 62
     5
420
      255
176
     1
290
     0
176
     1
 90
       50
176
     1
 90
       50
176
     1
 90
       50
176
     1
290
     0
176
     1
 90
       50
176
     1
 62
   256
176
     0
 40
1.0
176
     0
 90
        2
176
     1
  1
strokes_ogs.tif
176
     1
290
     0
176
     1
 40
1.0
176
     1
 40
1.0
176
     1
  0
VISUALSTYLE
  5
382
102
{ACAD_REACTORS
330
381
102
}
330
381
100
AcDbVisualStyle
  2
Flat
 70
     0
177
     3
291
     1
 70
    58
 90
        2
176
     1
 90
        1
176
     1
 90
        1
176
     1
 90
        2
176
     1
 40
-0.6
176
     1
 40
30.0
176
     1
 62
     7
176
     1
 90
        0
176
     1
 90
        4
176
     1
 62
     7
176
     1
 62
   257
176
     1
 90
        1
176
     1
 90
        1
176
     1
 40
1.0
176
     1
 90
        8
176
     1
 62
     7
176
     1
 40
1.0
176
     1
 90
        1
176
     1
 90
        6
176
     1
 90
        2
176
     1
 62
     7
176
     1
 90
        5
176
     1
 90
        0
176
     1
 90
        0
176
     1
290
     0
176
     1
 90
       13
176
     1
 40
0.0
176
     1
 90
        0
176
     1
290
     0
176
     1
290
     1
176
     1
290
     1
176
     1
290
     0
176
     1
290
     0
176
     1
290
     0
176
     1
290
     0
176
     1
290
     0
176
     1
290
     0
176
     1
 90
       50
176
     1
 40
0.0
176
     1
 40
1.0
176
     1
 90
        0
176
     1
 62
    18
420
        0
176
     1
 90
       50
176
     1
 90
        3
176
     1
 62
     5
420
      255
176
     1
290
     0
176
     1
 90
       50
176
     1
 90
       50
176
     1
 90
       50
176
     1
290
     0
176
     1
 90
       50
176
     1
 62
   256
176
     0
 40
1.0
176
     0
 90
        2
176
     1
  1
strokes_ogs.tif
176
     1
290
     0
176
     1
 40
1.0
176
     1
 40
1.0
176
     1
  0
VISUALSTYLE
  5
383
102
{ACAD_REACTORS
330
381
102
}
330
381
100
AcDbVisualStyle
  2
FlatWithEdges
 70
     1
177
     3
291
     1
 70
    58
 90
        2
176
     1
 90
        1
176
     1
 90
        1
176
     1
 90
        2
176
     1
 40
-0.6
176
     1
 40
30.0
176
     1
 62
     7
176
     1
 90
        1
176
     1
 90
        4
176
     1
 62
     7
176
     1
 62
   257
176
     1
 90
        1
176
     1
 90
        1
176
     1
 40
1.0
176
     1
 90
        0
176
     1
 62
   257
176
     1
 40
1.0
176
     1
 90
        1
176
     1
 90
        6
176
     1
 90
        2
176
     1
 62
     7
176
     1
 90
        5
176
     1
 90
        0
176
     1
 90
        0
176
     1
290
     0
176
     1
 90
       13
176
     1
 40
0.0
176
     1
 90
        0
176
     1
290
     0
176
     1
290
     1
176
     1
290
     1
176
     1
290
     0
176
     1
290
     0
176
     1
290
     0
176
     1
290
     0
176
     1
290
     0
176
     1
290
     0
176
     1
 90
       50
176
     1
 40
0.0
176
     1
 40
1.0
176
     1
 90
        0
176
     1
 62
    18
420
        0
176
     1
 90
       50
176
     1
 90
        3
176
     1
 62
     5
420
      255
176
     1
290
     0
176
     1
 90
       50
176
     1
 90
       50
176
     1
 90
       50
176
     1
290
     0
176
     1
 90
       50
176
     1
 62
   256
176
     0
 40
1.0
176
     0
 90
        2
176
     1
  1
strokes_ogs.tif
176
     1
290
     0
176
     1
 40
1.0
176
     1
 40
1.0
176
     1
  0
VISUALSTYLE
  5
384
102
{ACAD_REACTORS
330
381
102
}
330
381
100
AcDbVisualStyle
  2
Gouraud
 70
     2
177
     3
291
     1
 70
    58
 90
        2
176
     1
 90
        2
176
     1
 90
        1
176
     1
 90
        2
176
     1
 40
-0.6
176
     1
 40
30.0
176
     1
 62
     7
176
     1
 90
        0
176
     1
 90
        4
176
     1
 62
     7
176
     1
 62
   257
176
     1
 90
        1
176
     1
 90
        1
176
     1
 40
1.0
176
     1
 90
        0
176
     1
 62
     7
176
     1
 40
1.0
176
     1
 90
        1
176
     1
 90
        6
176
     1
 90
        2
176
     1
 62
     7
176
     1
 90
        5
176
     1
 90
        0
176
     1
 90
        0
176
     1
290
     0
176
     1
 90
       13
176
     1
 40
0.0
176
     1
 90
        0
176
     1
290
     0
176
     1
290
     1
176
     1
290
     1
176
     1
290
     0
176
     1
290
     0
176
     1
290
     0
176
     1
290
     0
176
     1
290
     0
176
     1
290
     0
176
     1
 90
       50
176
     1
 40
0.0
176
     1
 40
1.0
176
     1
 90
        0
176
     1
 62
    18
420
        0
176
     1
 90
       50
176
     1
 90
        3
176
     1
 62
     5
420
      255
176
     1
290
     0
176
     1
 90
       50
176
     1
 90
       50
176
     1
 90
       50
176
     1
290
     0
176
     1
 90
       50
176
     1
 62
   256
176
     0
 40
1.0
176
     0
 90
        2
176
     1
  1
strokes_ogs.tif
176
     1
290
     0
176
     1
 40
1.0
176
     1
 40
1.0
176
     1
  0
VISUALSTYLE
  5
385
102
{ACAD_REACTORS
330
381
102
}
330
381
100
AcDbVisualStyle
  2
GouraudWithEdges
 70
     3
177
     3
291
     1
 70
    58
 90
        2
176
     1
 90
        2
176
     1
 90
        1
176
     1
 90
        2
176
     1
 40
-0.6
176
     1
 40
30.0
176
     1
 62
     7
176
     1
 90
        1
176
     1
 90
        4
176
     1
 62
     7
176
     1
 62
   257
176
     1
 90
        1
176
     1
 90
        1
176
     1
 40
1.0
176
     1
 90
        0
176
     1
 62
   257
176
     1
 40
1.0
176
     1
 90
        1
176
     1
 90
        6
176
     1
 90
        2
176
     1
 62
     7
176
     1
 90
        5
176
     1
 90
        0
176
     1
 90
        0
176
     1
290
     0
176
     1
 90
       13
176
     1
 40
0.0
176
     1
 90
        0
176
     1
290
     0
176
     1
290
     1
176
     1
290
     1
176
     1
290
     0
176
     1
290
     0
176
     1
290
     0
176
     1
290
     0
176
     1
290
     0
176
     1
290
     0
176
     1
 90
       50
176
     1
 40
0.0
176
     1
 40
1.0
176
     1
 90
        0
176
     1
 62
    18
420
        0
176
     1
 90
       50
176
     1
 90
        3
176
     1
 62
     5
420
      255
176
     1
290
     0
176
     1
 90
       50
176
     1
 90
       50
176
     1
 90
       50
176
     1
290
     0
176
     1
 90
       50
176
     1
 62
   256
176
     0
 40
1.0
176
     0
 90
        2
176
     1
  1
strokes_ogs.tif
176
     1
290
     0
176
     1
 40
1.0
176
     1
 40
1.0
176
     1
  0
VISUALSTYLE
  5
3EF
102
{ACAD_REACTORS
330
381
102
}
330
381
100
AcDbVisualStyle
  2
Hidden
 70
     6
177
     3
291
     0
 70
    58
 90
        1
176
     1
 90
        2
176
     1
 90
        2
176
     1
 90
        0
176
     1
 40
0.6
176
     1
 40
30.0
176
     1
 62
     7
420
 16777215
176
     1
 90
        2
176
     1
 90
        2
176
     1
 62
     7
176
     1
 62
   257
176
     1
 90
        2
176
     1
 90
        1
176
     1
 40
40.0
176
     1
 90
        0
176
     1
 62
   257
176
     1
 40
1.0
176
     1
 90
        1
176
     1
 90
        6
176
     1
 90
        2
176
     1
 62
     7
176
     1
 90
        3
176
     1
 90
        0
176
     1
 90
        0
176
     1
290
     0
176
     1
 90
        1
176
     1
 40
0.0
176
     1
 90
        0
176
     1
290
     0
176
     1
290
     1
176
     1
290
     1
176
     1
290
     0
176
     1
290
     0
176
     1
290
     0
176
     1
290
     0
176
     1
290
     0
176
     1
290
     0
176
     1
 90
       50
176
     1
 40
0.0
176
     1
 40
1.0
176
     1
 90
        0
176
     1
 62
    18
420
        0
176
     1
 90
       50
176
     1
 90
        3
176
     1
 62
     5
420
      255
176
     1
290
     0
176
     1
 90
       50
176
     1
 90
       50
176
     1
 90
       50
176
     1
290
     0
176
     1
 90
       50
176
     1
 62
   256
176
     0
 40
1.0
176
     0
 90
        2
176
     1
  1
strokes_ogs.tif
176
     1
290
     0
176
     1
 40
1.0
176
     1
 40
1.0
176
     1
  0
VISUALSTYLE
  5
3F0
102
{ACAD_REACTORS
330
381
102
}
330
381
100
AcDbVisualStyle
  2
JitterOff
 70
    20
177
     3
291
     1
 70
    58
 90
        2
176
     0
 90
        2
176
     0
 90
        0
176
     0
 90
        0
176
     0
 40
0.6
176
     0
 40
30.0
176
     0
 62
     7
420
 16777215
176
     0
 90
        1
176
     0
 90
        4
176
     0
 62
     7
176
     0
 62
   257
176
     0
 90
        1
176
     0
 90
        1
176
     0
 40
1.0
176
     0
 90
       10
176
     2
 62
     7
176
     0
 40
1.0
176
     0
 90
        1
176
     0
 90
        6
176
     0
 90
        2
176
     0
 62
     7
176
     0
 90
        5
176
     0
 90
        0
176
     0
 90
        0
176
     0
290
     0
176
     0
 90
        1
176
     0
 40
0.0
176
     0
 90
        0
176
     0
290
     0
176
     0
290
     1
176
     0
290
     1
176
     0
290
     0
176
     0
290
     0
176
     0
290
     0
176
     0
290
     0
176
     0
290
     0
176
     0
290
     0
176
     0
 90
       50
176
     0
 40
0.0
176
     0
 40
1.0
176
     0
 90
        0
176
     0
 62
    18
420
        0
176
     0
 90
       50
176
     0
 90
        3
176
     0
 62
     5
420
      255
176
     0
290
     0
176
     0
 90
       50
176
     0
 90
       50
176
     0
 90
       50
176
     0
290
     0
176
     0
 90
       50
176
     0
 62
   256
176
     0
 40
1.0
176
     0
 90
        2
176
     0
  1
strokes_ogs.tif
176
     0
290
     0
176
     0
 40
1.0
176
     0
 40
1.0
176
     0
  0
VISUALSTYLE
  5
38F
102
{ACAD_REACTORS
330
381
102
}
330
381
100
AcDbVisualStyle
  2
Linepattern
 70
    14
177
     3
291
     1
 70
    58
 90
        2
176
     1
 90
        2
176
     1
 90
        0
176
     1
 90
        0
176
     1
 40
-0.6
176
     1
 40
-30.0
176
     1
 62
     7
176
     1
 90
        1
176
     1
 90
        4
176
     1
 62
     7
176
     1
 62
   257
176
     1
 90
        7
176
     1
 90
        7
176
     1
 40
1.0
176
     1
 90
        8
176
     1
 62
     7
176
     1
 40
1.0
176
     1
 90
        1
176
     1
 90
        6
176
     1
 90
        2
176
     1
 62
     7
176
     1
 90
        5
176
     1
 90
        0
176
     1
 90
        0
176
     1
290
     0
176
     1
 90
        1
176
     1
 40
0.0
176
     1
 90
        0
176
     1
290
     0
176
     1
290
     1
176
     1
290
     1
176
     1
290
     0
176
     1
290
     0
176
     1
290
     0
176
     1
290
     0
176
     1
290
     0
176
     1
290
     0
176
     1
 90
       50
176
     1
 40
0.0
176
     1
 40
1.0
176
     1
 90
        0
176
     1
 62
    18
420
        0
176
     1
 90
       50
176
     1
 90
        3
176
     1
 62
     5
420
      255
176
     1
290
     0
176
     1
 90
       50
176
     1
 90
       50
176
     1
 90
       50
176
     1
290
     0
176
     1
 90
       50
176
     1
 62
   256
176
     0
 40
1.0
176
     0
 90
        2
176
     1
  1
strokes_ogs.tif
176
     1
290
     0
176
     1
 40
1.0
176
     1
 40
1.0
176
     1
  0
VISUALSTYLE
  5
3F1
102
{ACAD_REACTORS
330
381
102
}
330
381
100
AcDbVisualStyle
  2
OverhangOff
 70
    21
177
     3
291
     1
 70
    58
 90
        2
176
     0
 90
        2
176
     0
 90
        0
176
     0
 90
        0
176
     0
 40
0.6
176
     0
 40
30.0
176
     0
 62
     7
420
 16777215
176
     0
 90
        1
176
     0
 90
        4
176
     0
 62
     7
176
     0
 62
   257
176
     0
 90
        1
176
     0
 90
        1
176
     0
 40
1.0
176
     0
 90
        9
176
     2
 62
     7
176
     0
 40
1.0
176
     0
 90
        1
176
     0
 90
        6
176
     0
 90
        2
176
     0
 62
     7
176
     0
 90
        5
176
     0
 90
        0
176
     0
 90
        0
176
     0
290
     0
176
     0
 90
        1
176
     0
 40
0.0
176
     0
 90
        0
176
     0
290
     0
176
     0
290
     1
176
     0
290
     1
176
     0
290
     0
176
     0
290
     0
176
     0
290
     0
176
     0
290
     0
176
     0
290
     0
176
     0
290
     0
176
     0
 90
       50
176
     0
 40
0.0
176
     0
 40
1.0
176
     0
 90
        0
176
     0
 62
    18
420
        0
176
     0
 90
       50
176
     0
 90
        3
176
     0
 62
     5
420
      255
176
     0
290
     0
176
     0
 90
       50
176
     0
 90
       50
176
     0
 90
       50
176
     0
290
     0
176
     0
 90
       50
176
     0
 62
   256
176
     0
 40
1.0
176
     0
 90
        2
176
     0
  1
strokes_ogs.tif
176
     0
290
     0
176
     0
 40
1.0
176
     0
 40
1.0
176
     0
  0
VISUALSTYLE
  5
38A
102
{ACAD_REACTORS
330
381
102
}
330
381
100
AcDbVisualStyle
  2
Realistic
 70
     8
177
     3
291
     0
 70
    58
 90
        2
176
     1
 90
        2
176
     1
 90
        0
176
     1
 90
        0
176
     1
 40
-0.6
176
     1
 40
-30.0
176
     1
 62
     7
176
     1
 90
        1
176
     1
 90
        0
176
     1
 62
     7
176
     1
 62
   257
176
     1
 90
        1
176
     1
 90
        1
176
     1
 40
1.0
176
     1
 90
        8
176
     1
 62
     8
176
     1
 40
1.0
176
     1
 90
        1
176
     1
 90
        6
176
     1
 90
        2
176
     1
 62
     7
176
     1
 90
        5
176
     1
 90
        0
176
     1
 90
        0
176
     1
290
     0
176
     1
 90
       13
176
     1
 40
0.0
176
     1
 90
        0
176
     1
290
     0
176
     1
290
     1
176
     1
290
     1
176
     1
290
     0
176
     1
290
     0
176
     1
290
     0
176
     1
290
     0
176
     1
290
     0
176
     1
290
     0
176
     1
 90
       50
176
     1
 40
0.0
176
     1
 40
1.0
176
     1
 90
        0
176
     1
 62
    18
420
        0
176
     1
 90
       50
176
     1
 90
        3
176
     1
 62
     5
420
      255
176
     1
290
     0
176
     1
 90
       50
176
     1
 90
       50
176
     1
 90
       50
176
     1
290
     0
176
     1
 90
       50
176
     1
 62
   256
176
     0
 40
1.0
176
     0
 90
        2
176
     1
  1
strokes_ogs.tif
176
     1
290
     0
176
     1
 40
1.0
176
     1
 40
1.0
176
     1
  0
VISUALSTYLE
  5
3F7
102
{ACAD_REACTORS
330
381
102
}
330
381
100
AcDbVisualStyle
  2
Shaded
 70
    27
177
     3
291
     0
 70
    58
 90
        2
176
     1
 90
        2
176
     1
 90
        1
176
     1
 90
        2
176
     1
 40
0.6
176
     1
 40
30.0
176
     1
 62
     7
420
 16777215
176
     1
 90
        0
176
     1
 90
        4
176
     1
 62
     7
176
     1
 62
   257
176
     1
 90
        1
176
     1
 90
        1
176
     1
 40
1.0
176
     1
 90
        8
176
     1
 62
   257
176
     1
 40
1.0
176
     1
 90
        1
176
     1
 90
        6
176
     1
 90
        2
176
     1
 62
     8
420
  7895160
176
     1
 90
        3
176
     1
 90
        0
176
     1
 90
        0
176
     1
290
     0
176
     1
 90
        5
176
     1
 40
0.0
176
     1
 90
        0
176
     1
290
     0
176
     1
290
     1
176
     1
290
     1
176
     1
290
     0
176
     1
290
     0
176
     1
290
     0
176
     1
290
     0
176
     1
290
     0
176
     1
290
     0
176
     1
 90
       50
176
     1
 40
0.0
176
     1
 40
1.0
176
     1
 90
        0
176
     1
 62
    18
420
        0
176
     1
 90
       50
176
     1
 90
        3
176
     1
 62
     5
420
      255
176
     1
290
     0
176
     1
 90
       50
176
     1
 90
       50
176
     1
 90
       50
176
     1
290
     0
176
     1
 90
       50
176
     1
 62
   256
176
     0
 40
1.0
176
     0
 90
        2
176
     1
  1
strokes_ogs.tif
176
     1
290
     0
176
     1
 40
1.0
176
     1
 40
1.0
176
     1
  0
VISUALSTYLE
  5
3F6
102
{ACAD_REACTORS
330
381
102
}
330
381
100
AcDbVisualStyle
  2
Shaded with edges
 70
    26
177
     3
291
     0
 70
    58
 90
        2
176
     1
 90
        2
176
     1
 90
        1
176
     1
 90
        2
176
     1
 40
0.6
176
     1
 40
30.0
176
     1
 62
     7
420
 16777215
176
     1
 90
        1
176
     1
 90
       10
176
     1
 62
     7
176
     1
 62
   257
176
     1
 90
        2
176
     1
 90
        1
176
     1
 40
1.0
176
     1
 90
        8
176
     1
 62
   257
176
     1
 40
1.0
176
     1
 90
        1
176
     1
 90
        6
176
     1
 90
        2
176
     1
 62
     7
176
     1
 90
        3
176
     1
 90
        0
176
     1
 90
        0
176
     1
290
     0
176
     1
 90
        5
176
     1
 40
0.0
176
     1
 90
        0
176
     1
290
     0
176
     1
290
     1
176
     1
290
     1
176
     1
290
     0
176
     1
290
     0
176
     1
290
     0
176
     1
290
     0
176
     1
290
     0
176
     1
290
     0
176
     1
 90
       50
176
     1
 40
0.0
176
     1
 40
1.0
176
     1
 90
        0
176
     1
 62
    18
420
        0
176
     1
 90
       50
176
     1
 90
        3
176
     1
 62
     5
420
      255
176
     1
290
     0
176
     1
 90
       50
176
     1
 90
       50
176
     1
 90
       50
176
     1
290
     0
176
     1
 90
       50
176
     1
 62
   256
176
     0
 40
1.0
176
     0
 90
        2
176
     1
  1
strokes_ogs.tif
176
     1
290
     0
176
     1
 40
1.0
176
     1
 40
1.0
176
     1
  0
VISUALSTYLE
  5
3F3
102
{ACAD_REACTORS
330
381
102
}
330
381
100
AcDbVisualStyle
  2
Shades of Gray
 70
    23
177
     3
291
     0
 70
    58
 90
        2
176
     1
 90
        2
176
     1
 90
        3
176
     1
 90
        0
176
     1
 40
0.6
176
     1
 40
30.0
176
     1
 62
     7
420
 16777215
176
     1
 90
        2
176
     1
 90
        2
176
     1
 62
     7
176
     1
 62
     7
176
     1
 90
        1
176
     1
 90
        1
176
     1
 40
40.0
176
     1
 90
        8
176
     1
 62
     7
176
     1
 40
1.0
176
     1
 90
        1
176
     1
 90
        6
176
     1
 90
        2
176
     1
 62
     7
176
     1
 90
        3
176
     1
 90
        0
176
     1
 90
        0
176
     1
290
     0
176
     1
 90
        1
176
     1
 40
0.0
176
     1
 90
        0
176
     1
290
     0
176
     1
290
     1
176
     1
290
     1
176
     1
290
     0
176
     1
290
     0
176
     1
290
     0
176
     1
290
     0
176
     1
290
     0
176
     1
290
     0
176
     1
 90
       50
176
     1
 40
0.0
176
     1
 40
1.0
176
     1
 90
        0
176
     1
 62
    18
420
        0
176
     1
 90
       50
176
     1
 90
        3
176
     1
 62
     5
420
      255
176
     1
290
     0
176
     1
 90
       50
176
     1
 90
       50
176
     1
 90
       50
176
     1
290
     0
176
     1
 90
       50
176
     1
 62
   256
176
     0
 40
1.0
176
     0
 90
        2
176
     1
  1
strokes_ogs.tif
176
     1
290
     0
176
     1
 40
1.0
176
     1
 40
1.0
176
     1
  0
VISUALSTYLE
  5
3F4
102
{ACAD_REACTORS
330
381
102
}
330
381
100
AcDbVisualStyle
  2
Sketchy
 70
    24
177
     3
291
     0
 70
    58
 90
        1
176
     1
 90
        2
176
     1
 90
        2
176
     1
 90
        0
176
     1
 40
0.6
176
     1
 40
30.0
176
     1
 62
     7
420
 16777215
176
     1
 90
        2
176
     1
 90
        2
176
     1
 62
     7
176
     1
 62
     7
176
     1
 90
        1
176
     1
 90
        1
176
     1
 40
40.0
176
     1
 90
       11
176
     1
 62
     7
176
     1
 40
1.0
176
     1
 90
        1
176
     1
 90
        6
176
     1
 90
        2
176
     1
 62
     7
176
     1
 90
        6
176
     1
 90
        0
176
     1
 90
        0
176
     1
290
     0
176
     1
 90
        1
176
     1
 40
0.0
176
     1
 90
        0
176
     1
290
     0
176
     1
290
     1
176
     1
290
     1
176
     1
290
     0
176
     1
290
     0
176
     1
290
     0
176
     1
290
     0
176
     1
290
     0
176
     1
290
     0
176
     1
 90
       50
176
     1
 40
0.0
176
     1
 40
1.0
176
     1
 90
        0
176
     1
 62
    18
420
        0
176
     1
 90
       50
176
     1
 90
        3
176
     1
 62
     5
420
      255
176
     1
290
     0
176
     1
 90
       50
176
     1
 90
       50
176
     1
 90
       50
176
     1
290
     0
176
     1
 90
       50
176
     1
 62
   256
176
     0
 40
1.0
176
     0
 90
        2
176
     1
  1
strokes_ogs.tif
176
     1
290
     0
176
     1
 40
1.0
176
     1
 40
1.0
176
     1
  0
VISUALSTYLE
  5
38E
102
{ACAD_REACTORS
330
381
102
}
330
381
100
AcDbVisualStyle
  2
Thicken
 70
    13
177
     3
291
     1
 70
    58
 90
        2
176
     1
 90
        2
176
     1
 90
        0
176
     1
 90
        0
176
     1
 40
-0.6
176
     1
 40
-30.0
176
     1
 62
     7
176
     1
 90
        1
176
     1
 90
        4
176
     1
 62
     7
176
     1
 62
   257
176
     1
 90
        1
176
     1
 90
        1
176
     1
 40
1.0
176
     1
 90
       12
176
     1
 62
     7
176
     1
 40
1.0
176
     1
 90
        1
176
     1
 90
        6
176
     1
 90
        2
176
     1
 62
     7
176
     1
 90
        5
176
     1
 90
        0
176
     1
 90
        0
176
     1
290
     0
176
     1
 90
        1
176
     1
 40
0.0
176
     1
 90
        0
176
     1
290
     0
176
     1
290
     1
176
     1
290
     1
176
     1
290
     0
176
     1
290
     0
176
     1
290
     0
176
     1
290
     0
176
     1
290
     0
176
     1
290
     0
176
     1
 90
       50
176
     1
 40
0.0
176
     1
 40
1.0
176
     1
 90
        0
176
     1
 62
    18
420
        0
176
     1
 90
       50
176
     1
 90
        3
176
     1
 62
     5
420
      255
176
     1
290
     0
176
     1
 90
       50
176
     1
 90
       50
176
     1
 90
       50
176
     1
290
     0
176
     1
 90
       50
176
     1
 62
   256
176
     0
 40
1.0
176
     0
 90
        2
176
     1
  1
strokes_ogs.tif
176
     1
290
     0
176
     1
 40
1.0
176
     1
 40
1.0
176
     1
  0
VISUALSTYLE
  5
3EE
102
{ACAD_REACTORS
330
381
102
}
330
381
100
AcDbVisualStyle
  2
Wireframe
 70
     5
177
     3
291
     0
 70
    58
 90
        0
176
     1
 90
        2
176
     1
 90
        0
176
     1
 90
        0
176
     1
 40
0.6
176
     1
 40
30.0
176
     1
 62
     7
420
 16777215
176
     1
 90
        1
176
     1
 90
        4
176
     1
 62
     7
176
     1
 62
   257
176
     1
 90
        1
176
     1
 90
        1
176
     1
 40
1.0
176
     1
 90
        0
176
     1
 62
   257
176
     1
 40
1.0
176
     1
 90
        1
176
     1
 90
        6
176
     1
 90
        2
176
     1
 62
     7
176
     1
 90
        3
176
     1
 90
        0
176
     1
 90
        0
176
     1
290
     0
176
     1
 90
        1
176
     1
 40
0.0
176
     1
 90
        0
176
     1
290
     0
176
     1
290
     1
176
     1
290
     1
176
     1
290
     0
176
     1
290
     0
176
     1
290
     0
176
     1
290
     0
176
     1
290
     0
176
     1
290
     0
176
     1
 90
       50
176
     1
 40
0.0
176
     1
 40
1.0
176
     1
 90
        0
176
     1
 62
    18
420
        0
176
     1
 90
       50
176
     1
 90
        3
176
     1
 62
     5
420
      255
176
     1
290
     0
176
     1
 90
       50
176
     1
 90
       50
176
     1
 90
       50
176
     1
290
     0
176
     1
 90
       50
176
     1
 62
   256
176
     0
 40
1.0
176
     0
 90
        2
176
     1
  1
strokes_ogs.tif
176
     1
290
     0
176
     1
 40
1.0
176
     1
 40
1.0
176
     1
  0
VISUALSTYLE
  5
3F5
102
{ACAD_REACTORS
330
381
102
}
330
381
100
AcDbVisualStyle
  2
X-Ray
 70
    25
177
     3
291
     0
 70
    58
 90
        2
176
     1
 90
        2
176
     1
 90
        1
176
     1
 90
        1
176
     1
 40
0.5
176
     1
 40
30.0
176
     1
 62
     7
420
 16777215
176
     1
 90
        1
176
     1
 90
        0
176
     1
 62
     7
176
     1
 62
   257
176
     1
 90
        1
176
     1
 90
        1
176
     1
 40
1.0
176
     1
 90
        8
176
     1
 62
     7
176
     1
 40
1.0
176
     1
 90
        1
176
     1
 90
        6
176
     1
 90
        2
176
     1
 62
     7
176
     1
 90
        3
176
     1
 90
        0
176
     1
 90
        0
176
     1
290
     0
176
     1
 90
       13
176
     1
 40
0.0
176
     1
 90
        0
176
     1
290
     0
176
     1
290
     1
176
     1
290
     1
176
     1
290
     0
176
     1
290
     0
176
     1
290
     0
176
     1
290
     0
176
     1
290
     0
176
     1
290
     0
176
     1
 90
       50
176
     1
 40
0.0
176
     1
 40
1.0
176
     1
 90
        0
176
     1
 62
    18
420
        0
176
     1
 90
       50
176
     1
 90
        3
176
     1
 62
     5
420
      255
176
     1
290
     0
176
     1
 90
       50
176
     1
 90
       50
176
     1
 90
       50
176
     1
290
     0
176
     1
 90
       50
176
     1
 62
   256
176
     0
 40
1.0
176
     0
 90
        2
176
     1
  1
strokes_ogs.tif
176
     1
290
     0
176
     1
 40
1.0
176
     1
 40
1.0
176
     1
  0
DICTIONARYVAR
  5
41A
102
{ACAD_REACTORS
330
3A7
102
}
330
3A7
100
DictionaryVariables
280
     0
  1
1:1
  0
DICTIONARYVAR
  5
41C
102
{ACAD_REACTORS
330
3A7
102
}
330
3A7
100
DictionaryVariables
280
     0
  1
Standard
  0
DICTIONARYVAR
  5
41B
102
{ACAD_REACTORS
330
3A7
102
}
330
3A7
100
DictionaryVariables
280
     0
  1
Standard
  0
DICTIONARYVAR
  5
3AB
102
{ACAD_REACTORS
330
3A7
102
}
330
3A7
100
DictionaryVariables
280
     0
  1
2
  0
DICTIONARYVAR
  5
3AC
102
{ACAD_REACTORS
330
3A7
102
}
330
3A7
100
DictionaryVariables
280
     0
  1
1
  0
DICTIONARYVAR
  5
3AA
102
{ACAD_REACTORS
330
3A7
102
}
330
3A7
100
DictionaryVariables
280
     0
  1
0
  0
DICTIONARY
  5
461
330
3F9
100
AcDbDictionary
280
     1
281
     1
  3
ACAD_ROUNDTRIP_2008_TABLESTYLE_CELLSTYLEMAP
360
462
  0
CELLSTYLEMAP
  5
462
102
{ACAD_REACTORS
330
461
102
}
330
461
100
AcDbCellStyleMap
 90
        3
300
CELLSTYLE
  1
TABLEFORMAT_BEGIN
 90
        5
170
     1
 91
        0
 92
    32768
 62
   257
 93
        1
300
CONTENTFORMAT
  1
CONTENTFORMAT_BEGIN
 90
        0
 91
        0
 92
        4
 93
        0
300

 40
0.0
140
1.0
 94
        5
 62
     0
340
11
144
6.0
309
CONTENTFORMAT_END
171
     1
301
MARGIN
  1
CELLMARGIN_BEGIN
 40
1.5
 40
1.5
 40
1.5
 40
1.5
 40
1.5
 40
1.5
309
CELLMARGIN_END
 94
        6
 95
        1
302
GRIDFORMAT
  1
GRIDFORMAT_BEGIN
 90
        0
 91
        1
 62
     0
 92
       -2
340
14
 93
        0
 40
0.045
309
GRIDFORMAT_END
 95
        2
302
GRIDFORMAT
  1
GRIDFORMAT_BEGIN
 90
        0
 91
        1
 62
     0
 92
       -2
340
14
 93
        0
 40
0.045
309
GRIDFORMAT_END
 95
        4
302
GRIDFORMAT
  1
GRIDFORMAT_BEGIN
 90
        0
 91
        1
 62
     0
 92
       -2
340
14
 93
        0
 40
0.045
309
GRIDFORMAT_END
 95
        8
302
GRIDFORMAT
  1
GRIDFORMAT_BEGIN
 90
        0
 91
        1
 62
     0
 92
       -2
340
14
 93
        0
 40
0.045
309
GRIDFORMAT_END
 95
       16
302
GRIDFORMAT
  1
GRIDFORMAT_BEGIN
 90
        0
 91
        1
 62
     0
 92
       -2
340
14
 93
        0
 40
0.045
309
GRIDFORMAT_END
 95
       32
302
GRIDFORMAT
  1
GRIDFORMAT_BEGIN
 90
        0
 91
        1
 62
     0
 92
       -2
340
14
 93
        0
 40
0.045
309
GRIDFORMAT_END
309
TABLEFORMAT_END
  1
CELLSTYLE_BEGIN
 90
        1
 91
        1
300
_TITLE
309
CELLSTYLE_END
300
CELLSTYLE
  1
TABLEFORMAT_BEGIN
 90
        5
170
     1
 91
        0
 92
        0
 62
   257
 93
        1
300
CONTENTFORMAT
  1
CONTENTFORMAT_BEGIN
 90
        0
 91
        0
 92
        4
 93
        0
300

 40
0.0
140
1.0
 94
        5
 62
     0
340
11
144
4.5
309
CONTENTFORMAT_END
171
     1
301
MARGIN
  1
CELLMARGIN_BEGIN
 40
1.5
 40
1.5
 40
1.5
 40
1.5
 40
1.5
 40
1.5
309
CELLMARGIN_END
 94
        6
 95
        1
302
GRIDFORMAT
  1
GRIDFORMAT_BEGIN
 90
        0
 91
        1
 62
     0
 92
       -2
340
14
 93
        0
 40
0.045
309
GRIDFORMAT_END
 95
        2
302
GRIDFORMAT
  1
GRIDFORMAT_BEGIN
 90
        0
 91
        1
 62
     0
 92
       -2
340
14
 93
        0
 40
0.045
309
GRIDFORMAT_END
 95
        4
302
GRIDFORMAT
  1
GRIDFORMAT_BEGIN
 90
        0
 91
        1
 62
     0
 92
       -2
340
14
 93
        0
 40
0.045
309
GRIDFORMAT_END
 95
        8
302
GRIDFORMAT
  1
GRIDFORMAT_BEGIN
 90
        0
 91
        1
 62
     0
 92
       -2
340
14
 93
        0
 40
0.045
309
GRIDFORMAT_END
 95
       16
302
GRIDFORMAT
  1
GRIDFORMAT_BEGIN
 90
        0
 91
        1
 62
     0
 92
       -2
340
14
 93
        0
 40
0.045
309
GRIDFORMAT_END
 95
       32
302
GRIDFORMAT
  1
GRIDFORMAT_BEGIN
 90
        0
 91
        1
 62
     0
 92
       -2
340
14
 93
        0
 40
0.045
309
GRIDFORMAT_END
309
TABLEFORMAT_END
  1
CELLSTYLE_BEGIN
 90
        2
 91
        1
300
_HEADER
309
CELLSTYLE_END
300
CELLSTYLE
  1
TABLEFORMAT_BEGIN
 90
        5
170
     1
 91
        0
 92
        0
 62
   257
 93
        1
300
CONTENTFORMAT
  1
CONTENTFORMAT_BEGIN
 90
        0
 91
        0
 92
        4
 93
        0
300

 40
0.0
140
1.0
 94
        2
 62
     0
340
11
144
4.5
309
CONTENTFORMAT_END
171
     1
301
MARGIN
  1
CELLMARGIN_BEGIN
 40
1.5
 40
1.5
 40
1.5
 40
1.5
 40
1.5
 40
1.5
309
CELLMARGIN_END
 94
        6
 95
        1
302
GRIDFORMAT
  1
GRIDFORMAT_BEGIN
 90
        0
 91
        1
 62
     0
 92
       -2
340
14
 93
        0
 40
0.045
309
GRIDFORMAT_END
 95
        2
302
GRIDFORMAT
  1
GRIDFORMAT_BEGIN
 90
        0
 91
        1
 62
     0
 92
       -2
340
14
 93
        0
 40
0.045
309
GRIDFORMAT_END
 95
        4
302
GRIDFORMAT
  1
GRIDFORMAT_BEGIN
 90
        0
 91
        1
 62
     0
 92
       -2
340
14
 93
        0
 40
0.045
309
GRIDFORMAT_END
 95
        8
302
GRIDFORMAT
  1
GRIDFORMAT_BEGIN
 90
        0
 91
        1
 62
     0
 92
       -2
340
14
 93
        0
 40
0.045
309
GRIDFORMAT_END
 95
       16
302
GRIDFORMAT
  1
GRIDFORMAT_BEGIN
 90
        0
 91
        1
 62
     0
 92
       -2
340
14
 93
        0
 40
0.045
309
GRIDFORMAT_END
 95
       32
302
GRIDFORMAT
  1
GRIDFORMAT_BEGIN
 90
        0
 91
        1
 62
     0
 92
       -2
340
14
 93
        0
 40
0.045
309
GRIDFORMAT_END
309
TABLEFORMAT_END
  1
CELLSTYLE_BEGIN
 90
        3
 91
        2
300
_DATA
309
CELLSTYLE_END
  0
ENDSEC
  0
EOF
