  0
SECTION
  2
HEADER
  9
$ACADVER
  1
AC1027
  9
$ACADMAINTVER
 70
   105
  9
$DWGCODEPAGE
  3
ANSI_1252
  9
$REQUIREDVERSIONS
160
                 0
  9
$LASTSAVEDBY
  1
christoph.stuessi
  9
$INSBASE
 10
0.0
 20
0.0
 30
0.0
  9
$EXTMIN
 10
-88.22823117345843
 20
-64.64097499217877
 30
0.0
  9
$EXTMAX
 10
304.3282905656721
 20
85.49467718173457
 30
0.0
  9
$LIMMIN
 10
0.0
 20
0.0
  9
$LIMMAX
 10
420.0
 20
297.0
  9
$ORTHOMODE
 70
     0
  9
$REGENMODE
 70
     1
  9
$FILLMODE
 70
     1
  9
$QTEXTMODE
 70
     0
  9
$MIRRTEXT
 70
     1
  9
$LTSCALE
 40
1.0
  9
$ATTMODE
 70
     1
  9
$TEXTSIZE
 40
3.5
  9
$TRACEWID
 40
1.0
  9
$TEXTSTYLE
  7
STANDARD
  9
$CLAYER
  8
INFTOTAL
  9
$CELTYPE
  6
BYLAYER
  9
$CECOLOR
 62
   256
  9
$CELTSCALE
 40
1.0
  9
$DISPSILH
 70
     0
  9
$DIMSCALE
 40
1.0
  9
$DIMASZ
 40
3.5
  9
$DIMEXO
 40
0.0
  9
$DIMDLI
 40
3.75
  9
$DIMRND
 40
0.0
  9
$DIMDLE
 40
0.0
  9
$DIMEXE
 40
1.0
  9
$DIMTP
 40
0.0
  9
$DIMTM
 40
0.0
  9
$DIMTXT
 40
3.5
  9
$DIMCEN
 40
2.5
  9
$DIMTSZ
 40
0.0
  9
$DIMTOL
 70
     0
  9
$DIMLIM
 70
     0
  9
$DIMTIH
 70
     1
  9
$DIMTOH
 70
     1
  9
$DIMSE1
 70
     0
  9
$DIMSE2
 70
     0
  9
$DIMTAD
 70
     1
  9
$DIMZIN
 70
     0
  9
$DIMBLK
  1

  9
$DIMASO
 70
     1
  9
$DIMSHO
 70
     1
  9
$DIMPOST
  1

  9
$DIMAPOST
  1

  9
$DIMALT
 70
     0
  9
$DIMALTD
 70
     3
  9
$DIMALTF
 40
0.0393700787
  9
$DIMLFAC
 40
1.0
  9
$DIMTOFL
 70
     1
  9
$DIMTVP
 40
0.0
  9
$DIMTIX
 70
     0
  9
$DIMSOXD
 70
     0
  9
$DIMSAH
 70
     0
  9
$DIMBLK1
  1

  9
$DIMBLK2
  1

  9
$DIMSTYLE
  2
ISO-25
  9
$DIMCLRD
 70
     0
  9
$DIMCLRE
 70
     0
  9
$DIMCLRT
 70
     0
  9
$DIMTFAC
 40
1.0
  9
$DIMGAP
 40
1.5
  9
$DIMJUST
 70
     0
  9
$DIMSD1
 70
     0
  9
$DIMSD2
 70
     0
  9
$DIMTOLJ
 70
     0
  9
$DIMTZIN
 70
     0
  9
$DIMALTZ
 70
     0
  9
$DIMALTTZ
 70
     0
  9
$DIMUPT
 70
     0
  9
$DIMDEC
 70
     2
  9
$DIMTDEC
 70
     3
  9
$DIMALTU
 70
     2
  9
$DIMALTTD
 70
     3
  9
$DIMTXSTY
  7
STANDARD
  9
$DIMAUNIT
 70
     0
  9
$DIMADEC
 70
     0
  9
$DIMALTRND
 40
0.0
  9
$DIMAZIN
 70
     0
  9
$DIMDSEP
 70
    46
  9
$DIMATFIT
 70
     3
  9
$DIMFRAC
 70
     0
  9
$DIMLDRBLK
  1

  9
$DIMLUNIT
 70
     2
  9
$DIMLWD
 70
    -2
  9
$DIMLWE
 70
    -2
  9
$DIMTMOVE
 70
     2
  9
$DIMFXL
 40
1.0
  9
$DIMFXLON
 70
     0
  9
$DIMJOGANG
 40
0.7853981633974483
  9
$DIMTFILL
 70
     0
  9
$DIMTFILLCLR
 70
     0
  9
$DIMARCSYM
 70
     0
  9
$DIMLTYPE
  6

  9
$DIMLTEX1
  6

  9
$DIMLTEX2
  6

  9
$DIMTXTDIRECTION
 70
     0
  9
$LUNITS
 70
     2
  9
$LUPREC
 70
     2
  9
$SKETCHINC
 40
1.0
  9
$FILLETRAD
 40
10.0
  9
$AUNITS
 70
     0
  9
$AUPREC
 70
     2
  9
$MENU
  1
.
  9
$ELEVATION
 40
0.0
  9
$PELEVATION
 40
0.0
  9
$THICKNESS
 40
0.0
  9
$LIMCHECK
 70
     0
  9
$CHAMFERA
 40
0.0
  9
$CHAMFERB
 40
0.0
  9
$CHAMFERC
 40
0.0
  9
$CHAMFERD
 40
0.0
  9
$SKPOLY
 70
     0
  9
$TDCREATE
 40
2457907.690543472
  9
$TDUCREATE
 40
2457907.607210139
  9
$TDUPDATE
 40
2458369.345728796
  9
$TDUUPDATE
 40
2458369.262395463
  9
$TDINDWG
 40
0.0019062963
  9
$TDUSRTIMER
 40
0.0053728125
  9
$USRTIMER
 70
     1
  9
$ANGBASE
 50
0.0
  9
$ANGDIR
 70
     0
  9
$PDMODE
 70
     0
  9
$PDSIZE
 40
-1.0
  9
$PLINEWID
 40
0.0
  9
$SPLFRAME
 70
     0
  9
$SPLINETYPE
 70
     6
  9
$SPLINESEGS
 70
     8
  9
$HANDSEED
  5
590
  9
$SURFTAB1
 70
     6
  9
$SURFTAB2
 70
     6
  9
$SURFTYPE
 70
     6
  9
$SURFU
 70
     6
  9
$SURFV
 70
     6
  9
$UCSBASE
  2

  9
$UCSNAME
  2

  9
$UCSORG
 10
0.0
 20
0.0
 30
0.0
  9
$UCSXDIR
 10
1.0
 20
0.0
 30
0.0
  9
$UCSYDIR
 10
0.0
 20
1.0
 30
0.0
  9
$UCSORTHOREF
  2

  9
$UCSORTHOVIEW
 70
     0
  9
$UCSORGTOP
 10
0.0
 20
0.0
 30
0.0
  9
$UCSORGBOTTOM
 10
0.0
 20
0.0
 30
0.0
  9
$UCSORGLEFT
 10
0.0
 20
0.0
 30
0.0
  9
$UCSORGRIGHT
 10
0.0
 20
0.0
 30
0.0
  9
$UCSORGFRONT
 10
0.0
 20
0.0
 30
0.0
  9
$UCSORGBACK
 10
0.0
 20
0.0
 30
0.0
  9
$PUCSBASE
  2

  9
$PUCSNAME
  2

  9
$PUCSORG
 10
0.0
 20
0.0
 30
0.0
  9
$PUCSXDIR
 10
1.0
 20
0.0
 30
0.0
  9
$PUCSYDIR
 10
0.0
 20
1.0
 30
0.0
  9
$PUCSORTHOREF
  2

  9
$PUCSORTHOVIEW
 70
     0
  9
$PUCSORGTOP
 10
0.0
 20
0.0
 30
0.0
  9
$PUCSORGBOTTOM
 10
0.0
 20
0.0
 30
0.0
  9
$PUCSORGLEFT
 10
0.0
 20
0.0
 30
0.0
  9
$PUCSORGRIGHT
 10
0.0
 20
0.0
 30
0.0
  9
$PUCSORGFRONT
 10
0.0
 20
0.0
 30
0.0
  9
$PUCSORGBACK
 10
0.0
 20
0.0
 30
0.0
  9
$USERI1
 70
     0
  9
$USERI2
 70
     0
  9
$USERI3
 70
     0
  9
$USERI4
 70
     0
  9
$USERI5
 70
     0
  9
$USERR1
 40
0.0
  9
$USERR2
 40
0.0
  9
$USERR3
 40
0.0
  9
$USERR4
 40
0.0
  9
$USERR5
 40
0.0
  9
$WORLDVIEW
 70
     1
  9
$SHADEDGE
 70
     3
  9
$SHADEDIF
 70
    70
  9
$TILEMODE
 70
     1
  9
$MAXACTVP
 70
    64
  9
$PINSBASE
 10
0.0
 20
0.0
 30
0.0
  9
$PLIMCHECK
 70
     0
  9
$PEXTMIN
 10
1.000000000000000E+20
 20
1.000000000000000E+20
 30
1.000000000000000E+20
  9
$PEXTMAX
 10
-1.000000000000000E+20
 20
-1.000000000000000E+20
 30
-1.000000000000000E+20
  9
$PLIMMIN
 10
0.0
 20
0.0
  9
$PLIMMAX
 10
0.0
 20
0.0
  9
$UNITMODE
 70
     0
  9
$VISRETAIN
 70
     1
  9
$PLINEGEN
 70
     0
  9
$PSLTSCALE
 70
     1
  9
$TREEDEPTH
 70
  3020
  9
$CMLSTYLE
  2
STANDARD
  9
$CMLJUST
 70
     0
  9
$CMLSCALE
 40
20.0
  9
$PROXYGRAPHICS
 70
     1
  9
$MEASUREMENT
 70
     1
  9
$CELWEIGHT
370
    -1
  9
$ENDCAPS
280
     0
  9
$JOINSTYLE
280
     0
  9
$LWDISPLAY
290
     0
  9
$INSUNITS
 70
     0
  9
$HYPERLINKBASE
  1

  9
$STYLESHEET
  1

  9
$XEDIT
290
     1
  9
$CEPSNTYPE
380
     0
  9
$PSTYLEMODE
290
     1
  9
$FINGERPRINTGUID
  2
{B7336D43-CE9B-4D38-ACDB-E318AA0A2420}
  9
$VERSIONGUID
  2
{FAEB1C32-E019-11D5-929B-00C0DF256EC4}
  9
$EXTNAMES
290
     1
  9
$PSVPSCALE
 40
0.0
  9
$OLESTARTUP
290
     0
  9
$SORTENTS
280
   127
  9
$INDEXCTL
280
     0
  9
$HIDETEXT
280
     1
  9
$XCLIPFRAME
280
     2
  9
$HALOGAP
280
     0
  9
$OBSCOLOR
 70
   257
  9
$OBSLTYPE
280
     0
  9
$INTERSECTIONDISPLAY
280
     0
  9
$INTERSECTIONCOLOR
 70
   257
  9
$DIMASSOC
280
     2
  9
$PROJECTNAME
  1

  9
$CAMERADISPLAY
290
     0
  9
$LENSLENGTH
 40
50.0
  9
$CAMERAHEIGHT
 40
0.0
  9
$STEPSPERSEC
 40
2.0
  9
$STEPSIZE
 40
6.0
  9
$3DDWFPREC
 40
2.0
  9
$PSOLWIDTH
 40
0.25
  9
$PSOLHEIGHT
 40
4.0
  9
$LOFTANG1
 40
1.570796326794897
  9
$LOFTANG2
 40
1.570796326794897
  9
$LOFTMAG1
 40
0.0
  9
$LOFTMAG2
 40
0.0
  9
$LOFTPARAM
 70
     7
  9
$LOFTNORMALS
280
     1
  9
$LATITUDE
 40
37.795
  9
$LONGITUDE
 40
-122.394
  9
$NORTHDIRECTION
 40
0.0
  9
$TIMEZONE
 70
 -8000
  9
$LIGHTGLYPHDISPLAY
280
     1
  9
$TILEMODELIGHTSYNCH
280
     1
  9
$SOLIDHIST
280
     0
  9
$SHOWHIST
280
     1
  9
$DWFFRAME
280
     2
  9
$DGNFRAME
280
     2
  9
$REALWORLDSCALE
290
     1
  9
$INTERFERECOLOR
 62
   256
  9
$CSHADOW
280
     0
  9
$SHADOWPLANELOCATION
 40
0.0
  0
ENDSEC
  0
SECTION
  2
CLASSES
  0
CLASS
  1
ACDBDICTIONARYWDFLT
  2
AcDbDictionaryWithDefault
  3
ObjectDBX Classes
 90
        0
 91
        4
280
     0
281
     0
  0
CLASS
  1
VISUALSTYLE
  2
AcDbVisualStyle
  3
ObjectDBX Classes
 90
     4095
 91
        4
280
     0
281
     0
  0
CLASS
  1
MATERIAL
  2
AcDbMaterial
  3
ObjectDBX Classes
 90
     1153
 91
        4
280
     0
281
     0
  0
CLASS
  1
SCALE
  2
AcDbScale
  3
ObjectDBX Classes
 90
     1153
 91
        4
280
     0
281
     0
  0
CLASS
  1
TABLESTYLE
  2
AcDbTableStyle
  3
ObjectDBX Classes
 90
     4095
 91
        4
280
     0
281
     0
  0
CLASS
  1
MLEADERSTYLE
  2
AcDbMLeaderStyle
  3
ACDB_MLEADERSTYLE_CLASS
 90
     4095
 91
        4
280
     0
281
     0
  0
CLASS
  1
SUN
  2
AcDbSun
  3
SCENEOE
 90
     1153
 91
        4
280
     0
281
     0
  0
CLASS
  1
XRECORD
  2
AcDbXrecord
  3
ObjectDBX Classes
 90
        0
 91
        1
280
     0
281
     0
  0
CLASS
  1
LWPOLYLINE
  2
AcDbPolyline
  3
ObjectDBX Classes
 90
        0
 91
        1
280
     0
281
     1
  0
CLASS
  1
HATCH
  2
AcDbHatch
  3
ObjectDBX Classes
 90
        0
 91
        1
280
     0
281
     1
  0
CLASS
  1
DICTIONARYVAR
  2
AcDbDictionaryVar
  3
ObjectDBX Classes
 90
        0
 91
        4
280
     0
281
     0
  0
CLASS
  1
ACDBPLACEHOLDER
  2
AcDbPlaceHolder
  3
ObjectDBX Classes
 90
        0
 91
        1
280
     0
281
     0
  0
CLASS
  1
LAYOUT
  2
AcDbLayout
  3
ObjectDBX Classes
 90
        0
 91
        1
280
     0
281
     0
  0
CLASS
  1
CELLSTYLEMAP
  2
AcDbCellStyleMap
  3
ObjectDBX Classes
 90
     1152
 91
        4
280
     0
281
     0
  0
ENDSEC
  0
SECTION
  2
TABLES
  0
TABLE
  2
VPORT
  5
8
330
0
100
AcDbSymbolTable
 70
     1
  0
VPORT
  5
29
330
8
100
AcDbSymbolTableRecord
100
AcDbViewportTableRecord
  2
*ACTIVE
 70
     0
 10
0.0
 20
0.0
 11
1.0
 21
1.0
 12
123.0420731743678
 22
3.789546746951928
 13
0.0
 23
0.0
 14
10.0
 24
10.0
 15
10.0
 25
10.0
 16
0.0
 26
0.0
 36
1.0
 17
0.0
 27
0.0
 37
0.0
 40
237.6000000000001
 41
2.246376811594203
 42
50.0
 43
0.0
 44
0.0
 50
0.0
 51
0.0
 71
    16
 72
  2000
 73
     1
 74
     3
 75
     0
 76
     0
 77
     0
 78
     0
281
     0
 65
     1
110
0.0
120
0.0
130
0.0
111
1.0
121
0.0
131
0.0
112
0.0
122
1.0
132
0.0
 79
     0
146
0.0
348
4C0
 60
     3
 61
     5
292
     1
282
     1
141
0.0
142
0.0
 63
   256
  0
ENDTAB
  0
TABLE
  2
LTYPE
  5
5
330
0
100
AcDbSymbolTable
 70
     9
  0
LTYPE
  5
14
330
5
100
AcDbSymbolTableRecord
100
AcDbLinetypeTableRecord
  2
BYBLOCK
 70
     0
  3

 72
    65
 73
     0
 40
0.0
  0
LTYPE
  5
15
330
5
100
AcDbSymbolTableRecord
100
AcDbLinetypeTableRecord
  2
BYLAYER
 70
     0
  3

 72
    65
 73
     0
 40
0.0
  0
LTYPE
  5
16
330
5
100
AcDbSymbolTableRecord
100
AcDbLinetypeTableRecord
  2
CONTINUOUS
 70
     0
  3
Solid line
 72
    65
 73
     0
 40
0.0
  0
LTYPE
  5
6E
330
5
100
AcDbSymbolTableRecord
100
AcDbLinetypeTableRecord
  2
HIDDEN
 70
     0
  3
Hidden __ __ __ __ __ __ __ __ __ __ __ __ __ __
 72
    65
 73
     2
 40
1.905
 49
1.27
 74
     0
 49
-0.635
 74
     0
  0
LTYPE
  5
6F
330
5
100
AcDbSymbolTableRecord
100
AcDbLinetypeTableRecord
  2
PHANTOM
 70
     0
  3
Phantom ______  __  __  ______  __  __  ______
 72
    65
 73
     6
 40
12.7
 49
6.35
 74
     0
 49
-1.27
 74
     0
 49
1.27
 74
     0
 49
-1.27
 74
     0
 49
1.27
 74
     0
 49
-1.27
 74
     0
  0
LTYPE
  5
70
330
5
100
AcDbSymbolTableRecord
100
AcDbLinetypeTableRecord
  2
CENTER
 70
     0
  3
Center ____ _ ____ _ ____ _ ____ _ ____ _ ____
 72
    65
 73
     4
 40
10.16
 49
6.35
 74
     0
 49
-1.27
 74
     0
 49
1.27
 74
     0
 49
-1.27
 74
     0
  0
LTYPE
  5
71
330
5
100
AcDbSymbolTableRecord
100
AcDbLinetypeTableRecord
  2
CENTERX2
 70
     0
  3
Center (2x) ________  __  ________  __  _____
 72
    65
 73
     4
 40
20.32
 49
12.7
 74
     0
 49
-2.54
 74
     0
 49
2.54
 74
     0
 49
-2.54
 74
     0
  0
LTYPE
  5
72
330
5
100
AcDbSymbolTableRecord
100
AcDbLinetypeTableRecord
  2
DOT2
 70
     0
  3
Dot (.5x) ........................................
 72
    65
 73
     2
 40
0.635
 49
0.0
 74
     0
 49
-0.635
 74
     0
  0
LTYPE
  5
517
330
5
100
AcDbSymbolTableRecord
100
AcDbLinetypeTableRecord
  2
DASH
 70
     0
  3
DASH _ _ _ _ _
 72
    65
 73
     2
 40
0.75
 49
0.4
 74
     0
 49
-0.35
 74
     0
  0
LTYPE
  5
518
330
5
100
AcDbSymbolTableRecord
100
AcDbLinetypeTableRecord
  2
LONGDASH_DASH
 70
     0
  3
LONGDASH_DASH __ . __ . __
 72
    65
 73
     4
 40
0.85
 49
0.4
 74
     0
 49
-0.2
 74
     0
 49
0.05
 74
     0
 49
-0.2
 74
     0
  0
LTYPE
  5
519
330
5
100
AcDbSymbolTableRecord
100
AcDbLinetypeTableRecord
  2
LONGDASH_DASH_DASH
 70
     0
  3
LONGDASH_DASH_DASH __ . . __ . . __
 72
    65
 73
     6
 40
1.1
 49
0.4
 74
     0
 49
-0.2
 74
     0
 49
0.05
 74
     0
 49
-0.2
 74
     0
 49
0.05
 74
     0
 49
-0.2
 74
     0
  0
ENDTAB
  0
TABLE
  2
LAYER
  5
2
102
{ACAD_XDICTIONARY
360
539
102
}
330
0
100
AcDbSymbolTable
 70
    16
  0
LAYER
  5
4D1
330
2
100
AcDbSymbolTableRecord
100
AcDbLayerTableRecord
  2
200
 70
     0
 62
     2
  6
CONTINUOUS
370
    50
390
52A
347
4CF
348
0
  0
LAYER
  5
4D4
330
2
100
AcDbSymbolTableRecord
100
AcDbLayerTableRecord
  2
Defpoints
 70
     0
 62
     7
  6
CONTINUOUS
290
     0
370
    -3
390
52A
347
4CF
348
0
  0
LAYER
  5
51A
330
2
100
AcDbSymbolTableRecord
100
AcDbLayerTableRecord
  2
0
 70
     0
 62
    -1
  6
CONTINUOUS
370
    -3
390
0
347
4CF
348
0
  0
LAYER
  5
51B
330
2
100
AcDbSymbolTableRecord
100
AcDbLayerTableRecord
  2
1
 70
     0
 62
     4
  6
CONTINUOUS
370
    50
390
0
347
4CF
348
0
  0
LAYER
  5
51C
330
2
100
AcDbSymbolTableRecord
100
AcDbLayerTableRecord
  2
2
 70
     0
 62
     7
  6
CONTINUOUS
370
    25
390
0
347
4CF
348
0
  0
LAYER
  5
51D
330
2
100
AcDbSymbolTableRecord
100
AcDbLayerTableRecord
  2
3
 70
     0
 62
     1
  6
DASH
370
    35
390
0
347
4CF
348
0
  0
LAYER
  5
51E
330
2
100
AcDbSymbolTableRecord
100
AcDbLayerTableRecord
  2
4
 70
     0
 62
     2
  6
LONGDASH_DASH
370
    25
390
0
347
4CF
348
0
  0
LAYER
  5
51F
330
2
100
AcDbSymbolTableRecord
100
AcDbLayerTableRecord
  2
6
 70
     0
 62
     5
  6
CONTINUOUS
370
    -3
390
0
347
4CF
348
0
  0
LAYER
  5
520
330
2
100
AcDbSymbolTableRecord
100
AcDbLayerTableRecord
  2
CUT
 70
     0
 62
     1
  6
CONTINUOUS
370
    25
390
0
347
4CF
348
0
  0
LAYER
  5
521
330
2
100
AcDbSymbolTableRecord
100
AcDbLayerTableRecord
  2
NOCUT
 70
     0
 62
     7
  6
CONTINUOUS
370
    25
390
0
347
4CF
348
0
  0
LAYER
  5
522
330
2
100
AcDbSymbolTableRecord
100
AcDbLayerTableRecord
  2
SK1
 70
     0
 62
     4
  6
CONTINUOUS
370
    50
390
0
347
4CF
348
0
  0
LAYER
  5
523
330
2
100
AcDbSymbolTableRecord
100
AcDbLayerTableRecord
  2
SK2
 70
     0
 62
     7
  6
CONTINUOUS
370
    25
390
0
347
4CF
348
0
  0
LAYER
  5
524
330
2
100
AcDbSymbolTableRecord
100
AcDbLayerTableRecord
  2
SK3
 70
     0
 62
     1
  6
DASH
370
    35
390
0
347
4CF
348
0
  0
LAYER
  5
525
330
2
100
AcDbSymbolTableRecord
100
AcDbLayerTableRecord
  2
SK4
 70
     0
 62
     2
  6
LONGDASH_DASH
370
    25
390
0
347
4CF
348
0
  0
LAYER
  5
526
330
2
100
AcDbSymbolTableRecord
100
AcDbLayerTableRecord
  2
SK6
 70
     0
 62
     5
  6
CONTINUOUS
370
    -3
390
0
347
4CF
348
0
  0
LAYER
  5
527
330
2
100
AcDbSymbolTableRecord
100
AcDbLayerTableRecord
  2
INFTOTAL
 70
     0
 62
     9
  6
CONTINUOUS
370
    18
390
0
347
4CF
348
0
  0
ENDTAB
  0
TABLE
  2
STYLE
  5
3
330
0
100
AcDbSymbolTable
 70
     3
  0
STYLE
  5
11
330
3
100
AcDbSymbolTableRecord
100
AcDbTextStyleTableRecord
  2
STANDARD
 70
     0
 40
0.0
 41
1.0
 50
0.0
 71
     0
 42
3.5
  3
txt
  4

  0
STYLE
  5
45D
330
3
100
AcDbSymbolTableRecord
100
AcDbTextStyleTableRecord
  2
SLDTEXTSTYLE0
 70
     0
 40
0.0
 41
0.605
 50
0.0
 71
     0
 42
3.5
  3
TXT
  4

  0
STYLE
  5
4D0
330
3
100
AcDbSymbolTableRecord
100
AcDbTextStyleTableRecord
  2
BMG_Text
 70
     0
 40
3.5
 41
1.0
 50
0.0
 71
     0
 42
3.5
  3
monos.ttf
  4

1001
ACAD
1000
Monospac821 BT
1071
       49
  0
ENDTAB
  0
TABLE
  2
VIEW
  5
6
330
0
100
AcDbSymbolTable
 70
     0
  0
ENDTAB
  0
TABLE
  2
UCS
  5
7
330
0
100
AcDbSymbolTable
 70
     0
  0
ENDTAB
  0
TABLE
  2
APPID
  5
9
330
0
100
AcDbSymbolTable
 70
     4
  0
APPID
  5
12
330
9
100
AcDbSymbolTableRecord
100
AcDbRegAppTableRecord
  2
ACAD
 70
     0
  0
APPID
  5
4EA
330
9
100
AcDbSymbolTableRecord
100
AcDbRegAppTableRecord
  2
ACAD_DSTYLE_DIM_LINETYPE
 70
     0
  0
APPID
  5
4EB
330
9
100
AcDbSymbolTableRecord
100
AcDbRegAppTableRecord
  2
ACAD_DSTYLE_DIM_EXT1_LINETYPE
 70
     0
  0
APPID
  5
4EC
330
9
100
AcDbSymbolTableRecord
100
AcDbRegAppTableRecord
  2
ACAD_DSTYLE_DIM_EXT2_LINETYPE
 70
     0
  0
ENDTAB
  0
TABLE
  2
DIMSTYLE
  5
A
330
0
100
AcDbSymbolTable
 70
     3
100
AcDbDimStyleTable
  0
DIMSTYLE
105
27
330
A
100
AcDbSymbolTableRecord
100
AcDbDimStyleTableRecord
  2
ISO-25
 70
     0
 41
2.5
 42
0.625
 43
3.75
 44
1.25
 73
     0
 74
     0
 77
     1
 78
     8
140
2.5
141
2.5
143
0.0393700787
147
0.625
171
     3
172
     1
178
     0
271
     2
272
     2
274
     3
283
     0
284
     8
340
11
  0
DIMSTYLE
105
45E
102
{ACAD_REACTORS
330
45C
102
}
330
A
100
AcDbSymbolTableRecord
100
AcDbDimStyleTableRecord
  2
SLDDIMSTYLE0
 70
     0
 41
3.5
 44
0.0
 45
0.000000001
 73
     0
 74
     0
 77
     1
 78
    12
140
3.5
147
0.875
173
     1
178
     0
271
     1
272
     3
284
    12
340
45D
  0
DIMSTYLE
105
46B
102
{ACAD_REACTORS
330
46A
330
475
330
47F
330
48A
102
}
330
A
100
AcDbSymbolTableRecord
100
AcDbDimStyleTableRecord
  2
SLDDIMSTYLE1
 70
     0
 41
3.5
 44
0.0
 45
0.000000001
 73
     0
 74
     0
 77
     1
 78
    12
140
3.5
147
0.875
173
     1
178
     0
271
     2
272
     3
284
    12
340
45D
  0
ENDTAB
  0
TABLE
  2
BLOCK_RECORD
  5
1
330
0
100
AcDbSymbolTable
 70
     5
  0
BLOCK_RECORD
  5
1F
330
1
100
AcDbSymbolTableRecord
100
AcDbBlockTableRecord
  2
*MODEL_SPACE
340
4B9
 70
     0
280
     1
281
     0
  0
BLOCK_RECORD
  5
1B
330
1
100
AcDbSymbolTableRecord
100
AcDbBlockTableRecord
  2
*PAPER_SPACE
340
4BA
 70
     0
280
     1
281
     0
  0
BLOCK_RECORD
  5
45F
330
1
100
AcDbSymbolTableRecord
100
AcDbBlockTableRecord
  2
_D
340
0
 70
     0
280
     1
281
     0
  0
BLOCK_RECORD
  5
46C
330
1
100
AcDbSymbolTableRecord
100
AcDbBlockTableRecord
  2
_D_1
340
0
 70
     0
280
     1
281
     0
  0
BLOCK_RECORD
  5
476
330
1
100
AcDbSymbolTableRecord
100
AcDbBlockTableRecord
  2
_D_2
340
0
 70
     0
280
     1
281
     0
  0
BLOCK_RECORD
  5
480
330
1
100
AcDbSymbolTableRecord
100
AcDbBlockTableRecord
  2
_D_3
340
0
 70
     0
280
     1
281
     0
  0
BLOCK_RECORD
  5
48B
330
1
100
AcDbSymbolTableRecord
100
AcDbBlockTableRecord
  2
_D_4
340
0
 70
     0
280
     1
281
     0
  0
ENDTAB
  0
ENDSEC
  0
SECTION
  2
BLOCKS
  0
BLOCK
  5
20
330
1F
100
AcDbEntity
  8
0
100
AcDbBlockBegin
  2
*MODEL_SPACE
 70
     0
 10
0.0
 20
0.0
 30
0.0
  3
*MODEL_SPACE
  1

  0
ENDBLK
  5
21
330
1F
100
AcDbEntity
  8
0
100
AcDbBlockEnd
  0
BLOCK
  5
1C
330
1B
100
AcDbEntity
 67
     1
  8
0
100
AcDbBlockBegin
  2
*PAPER_SPACE
 70
     0
 10
0.0
 20
0.0
 30
0.0
  3
*PAPER_SPACE
  1

  0
ENDBLK
  5
1D
330
1B
100
AcDbEntity
 67
     1
  8
0
100
AcDbBlockEnd
  0
BLOCK
  5
460
330
45F
100
AcDbEntity
  8
0
100
AcDbBlockBegin
  2
_D
 70
     0
 10
0.0
 20
0.0
 30
0.0
  3
_D
  1

  0
LINE
  5
462
330
45F
100
AcDbEntity
  8
2
  6
Continuous
370
    -2
100
AcDbLine
 10
259.1235849314
 20
33.9878467133553
 30
0.0
 11
270.4413374084719
 21
33.98784388035072
 31
0.0
  0
LINE
  5
463
330
45F
100
AcDbEntity
  8
2
  6
Continuous
370
    -2
100
AcDbLine
 10
259.1235679161
 20
-33.98784600174469
 30
0.0
 11
270.4413203931281
 21
-33.98784883474927
 31
0.0
  0
LINE
  5
464
330
45F
100
AcDbEntity
  8
2
  6
Continuous
370
    -2
100
AcDbLine
 10
270.441336532369
 20
30.48784388035083
 30
0.0
 11
270.4413212692311
 21
-30.48784883474938
 31
0.0
  0
SOLID
  5
465
330
45F
100
AcDbEntity
  8
2
100
AcDbTrace
 10
271.0246698657023
 20
30.48784373433367
 30
0.0
 11
269.8580031990356
 21
30.48784402636798
 31
0.0
 12
270.4413374084719
 22
33.98784388035072
 32
0.0
 13
270.4413374084719
 23
33.98784388035072
 33
0.0
  0
SOLID
  5
466
330
45F
100
AcDbEntity
  8
2
100
AcDbTrace
 10
269.8579879358978
 20
-30.48784868873223
 30
0.0
 11
271.0246546025644
 21
-30.48784898076654
 31
0.0
 12
270.4413203931281
 22
-33.98784883474927
 32
0.0
 13
270.4413203931281
 23
-33.98784883474927
 33
0.0
  0
MTEXT
  5
467
330
45F
100
AcDbEntity
  8
2
370
    25
100
AcDbMText
 10
267.7043289008001
 20
-0.0000017920875134
 30
0.0
 40
3.5
 41
0.0
 46
0.0
 71
     5
 72
     1
  1
\A1;%%c68 - 110
  7
BMG_Text
 11
2.503151211608815E-7
 21
0.9999999999999687
 31
0.0
 73
     1
 44
1.0
  0
POINT
  5
468
330
45F
100
AcDbEntity
  8
Defpoints
 62
     0
100
AcDbPoint
 10
259.0610849314
 20
33.987846729
 30
0.0
  0
POINT
  5
469
330
45F
100
AcDbEntity
  8
Defpoints
 62
     0
100
AcDbPoint
 10
259.0610679161
 20
-33.9878459861
 30
0.0
  0
POINT
  5
4D5
330
45F
100
AcDbEntity
  8
Defpoints
 62
     0
100
AcDbPoint
 10
270.4413203931281
 20
-33.98784883474928
 30
0.0
  0
ENDBLK
  5
461
330
45F
100
AcDbEntity
  8
0
100
AcDbBlockEnd
  0
BLOCK
  5
46D
330
46C
100
AcDbEntity
  8
0
100
AcDbBlockBegin
  2
_D_1
 70
     0
 10
0.0
 20
0.0
 30
0.0
  3
_D_1
  1

  0
LINE
  5
46F
330
46C
100
AcDbEntity
  8
2
  6
Continuous
370
    -2
100
AcDbLine
 10
260.0000032074
 20
33.2625002678
 30
0.0
 11
260.0000032074
 21
44.6025980907
 31
0.0
  0
LINE
  5
470
330
46C
100
AcDbEntity
  8
2
  6
Continuous
370
    -2
100
AcDbLine
 10
0.0
 20
31.0624994933
 30
0.0
 11
0.0
 21
44.6025980907
 31
0.0
  0
LINE
  5
471
330
46C
100
AcDbEntity
  8
2
  6
Continuous
370
    -2
100
AcDbLine
 10
256.5000032074
 20
44.6025980907
 30
0.0
 11
3.5
 21
44.6025980907
 31
0.0
  0
SOLID
  5
472
330
46C
100
AcDbEntity
  8
2
100
AcDbTrace
 10
256.5000032074
 20
44.01926475736666
 30
0.0
 11
256.5000032074
 21
45.18593142403333
 31
0.0
 12
260.0000032074
 22
44.6025980907
 32
0.0
 13
260.0000032074
 23
44.6025980907
 33
0.0
  0
SOLID
  5
473
330
46C
100
AcDbEntity
  8
2
100
AcDbTrace
 10
3.5
 20
45.18593142403333
 30
0.0
 11
3.5
 21
44.01926475736666
 31
0.0
 12
0.0
 22
44.6025980907
 32
0.0
 13
0.0
 23
44.6025980907
 33
0.0
  0
MTEXT
  5
474
330
46C
100
AcDbEntity
  8
2
370
    25
100
AcDbMText
 10
130.0000016037
 20
47.2888480907
 30
0.0
 40
3.5
 41
0.0
 46
0.0
 71
     5
 72
     1
  1
\A1;260
  7
BMG_Text
 73
     1
 44
1.0
  0
POINT
  5
4D6
330
46C
100
AcDbEntity
  8
Defpoints
 62
     0
100
AcDbPoint
 10
260.0000032074
 20
33.2000002678
 30
0.0
  0
POINT
  5
4D7
330
46C
100
AcDbEntity
  8
Defpoints
 62
     0
100
AcDbPoint
 10
0.0
 20
30.9999994933
 30
0.0
  0
POINT
  5
4D8
330
46C
100
AcDbEntity
  8
Defpoints
 62
     0
100
AcDbPoint
 10
0.0
 20
44.6025980907
 30
0.0
  0
ENDBLK
  5
46E
330
46C
100
AcDbEntity
  8
0
100
AcDbBlockEnd
  0
BLOCK
  5
477
330
476
100
AcDbEntity
  8
0
100
AcDbBlockBegin
  2
_D_2
 70
     0
 10
0.0
 20
0.0
 30
0.0
  3
_D_2
  1

  0
LINE
  5
479
330
476
100
AcDbEntity
  8
2
  6
Continuous
370
    -2
100
AcDbLine
 10
0.0
 20
-31.0624994934
 30
0.0
 11
0.0
 21
-43.8301646526
 31
0.0
  0
LINE
  5
47A
330
476
100
AcDbEntity
  8
2
  6
Continuous
370
    -2
100
AcDbLine
 10
228.5000013596
 20
-31.8099993483
 30
0.0
 11
228.5000013596
 21
-43.8301646526
 31
0.0
  0
LINE
  5
47B
330
476
100
AcDbEntity
  8
2
  6
Continuous
370
    -2
100
AcDbLine
 10
3.5
 20
-43.8301646526
 30
0.0
 11
225.0000013596
 21
-43.8301646526
 31
0.0
  0
SOLID
  5
47C
330
476
100
AcDbEntity
  8
2
100
AcDbTrace
 10
3.5
 20
-43.24683131926666
 30
0.0
 11
3.5
 21
-44.41349798593333
 31
0.0
 12
0.0
 22
-43.8301646526
 32
0.0
 13
0.0
 23
-43.8301646526
 33
0.0
  0
SOLID
  5
47D
330
476
100
AcDbEntity
  8
2
100
AcDbTrace
 10
225.0000013596
 20
-44.41349798593333
 30
0.0
 11
225.0000013596
 21
-43.24683131926666
 31
0.0
 12
228.5000013596
 22
-43.8301646526
 32
0.0
 13
228.5000013596
 23
-43.8301646526
 33
0.0
  0
MTEXT
  5
47E
330
476
100
AcDbEntity
  8
2
370
    25
100
AcDbMText
 10
114.2500006798
 20
-41.1439146526
 30
0.0
 40
3.5
 41
0.0
 46
0.0
 71
     5
 72
     1
  1
\A1;228.5
  7
BMG_Text
 73
     1
 44
1.0
  0
POINT
  5
4D9
330
476
100
AcDbEntity
  8
Defpoints
 62
     0
100
AcDbPoint
 10
0.0
 20
-30.9999994934
 30
0.0
  0
POINT
  5
4DA
330
476
100
AcDbEntity
  8
Defpoints
 62
     0
100
AcDbPoint
 10
228.5000013596
 20
-31.7474993483
 30
0.0
  0
POINT
  5
4DB
330
476
100
AcDbEntity
  8
Defpoints
 62
     0
100
AcDbPoint
 10
228.5000013596
 20
-43.8301646526
 30
0.0
  0
ENDBLK
  5
478
330
476
100
AcDbEntity
  8
0
100
AcDbBlockEnd
  0
BLOCK
  5
481
330
480
100
AcDbEntity
  8
0
100
AcDbBlockBegin
  2
_D_3
 70
     0
 10
0.0
 20
0.0
 30
0.0
  3
_D_3
  1

  0
LINE
  5
483
330
480
100
AcDbEntity
  8
SK2
  6
ByBlock
370
    -2
100
AcDbLine
 10
-35.0624964237
 20
-17.9999992251
 30
0.0
 11
-45.6193672243
 21
-17.9999992251
 31
0.0
  0
LINE
  5
484
330
480
100
AcDbEntity
  8
SK2
  6
ByBlock
370
    -2
100
AcDbLine
 10
-35.0624964237
 20
17.9999992251
 30
0.0
 11
-45.6193672243
 21
17.9999992251
 31
0.0
  0
LINE
  5
485
330
480
100
AcDbEntity
  8
SK2
  6
ByBlock
370
    -2
100
AcDbLine
 10
-45.6193672243
 20
-14.4999992251
 30
0.0
 11
-45.6193672243
 21
14.4999992251
 31
0.0
  0
SOLID
  5
486
330
480
100
AcDbEntity
  8
SK2
100
AcDbTrace
 10
-46.20270055763334
 20
-14.4999992251
 30
0.0
 11
-45.03603389096666
 21
-14.4999992251
 31
0.0
 12
-45.6193672243
 22
-17.9999992251
 32
0.0
 13
-45.6193672243
 23
-17.9999992251
 33
0.0
  0
SOLID
  5
487
330
480
100
AcDbEntity
  8
SK2
100
AcDbTrace
 10
-45.03603389096666
 20
14.4999992251
 30
0.0
 11
-46.20270055763334
 21
14.4999992251
 31
0.0
 12
-45.6193672243
 22
17.9999992251
 32
0.0
 13
-45.6193672243
 23
17.9999992251
 33
0.0
  0
MTEXT
  5
488
330
480
100
AcDbEntity
  8
SK2
100
AcDbMText
 10
-48.3563672243
 20
0.0
 30
0.0
 40
3.5
 41
0.0
 46
0.0
 71
     5
 72
     1
  1
\A1;%%c36
  7
BMG_Text
 11
0.0
 21
1.0
 31
0.0
 73
     1
 44
1.0
  0
POINT
  5
489
330
480
100
AcDbEntity
  8
Defpoints
 62
     0
100
AcDbPoint
 10
-34.9999964237
 20
-17.9999992251
 30
0.0
  0
POINT
  5
4DC
330
480
100
AcDbEntity
  8
Defpoints
 62
     0
100
AcDbPoint
 10
-34.9999964237
 20
17.9999992251
 30
0.0
  0
POINT
  5
4DD
330
480
100
AcDbEntity
  8
Defpoints
 62
     0
100
AcDbPoint
 10
-45.6193672243
 20
17.9999992251
 30
0.0
  0
ENDBLK
  5
482
330
480
100
AcDbEntity
  8
0
100
AcDbBlockEnd
  0
BLOCK
  5
48C
330
48B
100
AcDbEntity
  8
0
100
AcDbBlockBegin
  2
_D_4
 70
     0
 10
0.0
 20
0.0
 30
0.0
  3
_D_4
  1

  0
LINE
  5
48E
330
48B
100
AcDbEntity
  8
2
  6
Continuous
370
    -2
100
AcDbLine
 10
0.9375020266
 20
32.0000015199
 30
0.0
 11
-54.9813677689
 21
32.0000015199
 31
0.0
  0
LINE
  5
48F
330
48B
100
AcDbEntity
  8
2
  6
Continuous
370
    -2
100
AcDbLine
 10
0.9375020266
 20
-32.0000015199
 30
0.0
 11
-54.9813677689
 21
-32.0000015199
 31
0.0
  0
LINE
  5
490
330
48B
100
AcDbEntity
  8
2
  6
Continuous
370
    -2
100
AcDbLine
 10
-54.9813677689
 20
28.5000015199
 30
0.0
 11
-54.9813677689
 21
-28.5000015199
 31
0.0
  0
SOLID
  5
491
330
48B
100
AcDbEntity
  8
2
100
AcDbTrace
 10
-54.39803443556666
 20
28.5000015199
 30
0.0
 11
-55.56470110223334
 21
28.5000015199
 31
0.0
 12
-54.9813677689
 22
32.0000015199
 32
0.0
 13
-54.9813677689
 23
32.0000015199
 33
0.0
  0
SOLID
  5
492
330
48B
100
AcDbEntity
  8
2
100
AcDbTrace
 10
-55.56470110223334
 20
-28.5000015199
 30
0.0
 11
-54.39803443556666
 21
-28.5000015199
 31
0.0
 12
-54.9813677689
 22
-32.0000015199
 32
0.0
 13
-54.9813677689
 23
-32.0000015199
 33
0.0
  0
MTEXT
  5
493
330
48B
100
AcDbEntity
  8
2
370
    25
100
AcDbMText
 10
-57.7183677689
 20
0.0000000000000003
 30
0.0
 40
3.5
 41
0.0
 46
0.0
 71
     5
 72
     1
  1
\A1;%%c64
  7
BMG_Text
 11
1.110222971893035E-16
 21
1.0
 31
0.0
 73
     1
 44
1.0
  0
POINT
  5
494
330
48B
100
AcDbEntity
  8
Defpoints
 62
     0
100
AcDbPoint
 10
1.0000020266
 20
32.0000015199
 30
0.0
  0
POINT
  5
4DE
330
48B
100
AcDbEntity
  8
Defpoints
 62
     0
100
AcDbPoint
 10
1.0000020266
 20
-32.0000015199
 30
0.0
  0
POINT
  5
4DF
330
48B
100
AcDbEntity
  8
Defpoints
 62
     0
100
AcDbPoint
 10
-54.9813677689
 20
-32.0000015199
 30
0.0
  0
ENDBLK
  5
48D
330
48B
100
AcDbEntity
  8
0
100
AcDbBlockEnd
  0
ENDSEC
  0
SECTION
  2
ENTITIES
  0
LINE
  5
79
330
1F
100
AcDbEntity
  8
SK1
100
AcDbLine
 10
-15.1699036359
 20
17.3929724843
 30
0.0
 11
-13.5533786796
 21
20.670311377
 31
0.0
  0
LINE
  5
7A
330
1F
100
AcDbEntity
  8
SK1
100
AcDbLine
 10
-13.5533786796
 20
20.670311377
 30
0.0
 11
-4.5443743228
 21
20.670311377
 31
0.0
  0
LINE
  5
7B
330
1F
100
AcDbEntity
  8
SK1
100
AcDbLine
 10
-4.5443743228
 20
20.670311377
 30
0.0
 11
-2.9974877834
 21
17.3453241587
 31
0.0
  0
LINE
  5
7C
330
1F
100
AcDbEntity
  8
4
100
AcDbLine
 10
-40.5448604855
 20
0.0000000001
 30
0.0
 11
259.0874615604
 21
0.0000000001
 31
0.0
  0
LINE
  5
7D
330
1F
100
AcDbEntity
  8
SK1
100
AcDbLine
 10
-15.1699036359
 20
-17.3929724842
 30
0.0
 11
-13.5533786796
 21
-20.6703113769
 31
0.0
  0
LINE
  5
7E
330
1F
100
AcDbEntity
  8
SK1
100
AcDbLine
 10
-4.5443743228
 20
-20.6703113769
 30
0.0
 11
-2.9974877834
 21
-17.3453241586
 31
0.0
  0
LINE
  5
7F
330
1F
100
AcDbEntity
  8
SK1
100
AcDbLine
 10
-13.5533786796
 20
-20.6703113769
 30
0.0
 11
-4.5443743228
 21
-20.6703113769
 31
0.0
  0
LINE
  5
80
330
1F
100
AcDbEntity
  8
1
100
AcDbLine
 10
228.5000013596
 20
31.745765905
 30
0.0
 11
228.0000001192
 21
31.7500010132
 31
0.0
  0
LINE
  5
81
330
1F
100
AcDbEntity
  8
1
100
AcDbLine
 10
228.5000013596
 20
31.745765905
 30
0.0
 11
228.5000013596
 21
-31.7474993483
 31
0.0
  0
LINE
  5
82
330
1F
100
AcDbEntity
  8
1
100
AcDbLine
 10
228.5000013596
 20
-31.7474993483
 30
0.0
 11
225.0976023849
 21
-31.7499994986
 31
0.0
  0
LINE
  5
83
330
1F
100
AcDbEntity
  8
1
100
AcDbLine
 10
253.5000033677
 20
17.3000004143
 30
0.0
 11
244.0000027418
 21
17.3000004143
 31
0.0
  0
LINE
  5
84
330
1F
100
AcDbEntity
  8
1
100
AcDbLine
 10
253.1000003219
 20
1.3000000035
 30
0.0
 11
253.5000033677
 21
1.3000000035
 31
0.0
  0
LINE
  5
85
330
1F
100
AcDbEntity
  8
1
  6
Continuous
370
    50
100
AcDbLine
 10
1.0000020266
 20
32.0000015199
 30
0.0
 11
0.0
 21
30.9999994933
 31
0.0
  0
LINE
  5
86
330
1F
100
AcDbEntity
  8
1
  6
Continuous
370
    50
100
AcDbLine
 10
0.0
 20
-30.9999994934
 30
0.0
 11
1.0000020266
 21
-32.0000015199
 31
0.0
  0
LINE
  5
87
330
1F
100
AcDbEntity
  8
1
  6
Continuous
370
    50
100
AcDbLine
 10
1.0000020266
 20
-32.0000015199
 30
0.0
 11
191.9000016715
 21
-32.0000015199
 31
0.0
  0
LINE
  5
88
330
1F
100
AcDbEntity
  8
1
  6
Continuous
370
    50
100
AcDbLine
 10
191.9000016715
 20
32.0000015199
 30
0.0
 11
1.0000020266
 21
32.0000015199
 31
0.0
  0
LINE
  5
89
330
1F
100
AcDbEntity
  8
1
  6
Continuous
370
    50
100
AcDbLine
 10
191.9000016715
 20
-32.0000015199
 30
0.0
 11
192.0000016689
 21
-31.8999998272
 31
0.0
  0
LINE
  5
8A
330
1F
100
AcDbEntity
  8
1
  6
Continuous
370
    50
100
AcDbLine
 10
192.0000016689
 20
31.8999998272
 30
0.0
 11
191.9000016715
 21
32.0000015199
 31
0.0
  0
LINE
  5
8B
330
1F
100
AcDbEntity
  8
SK1
100
AcDbLine
 10
-34.9999964237
 20
-17.9999992251
 30
0.0
 11
-17.0654952526
 21
-17.9999992251
 31
0.0
  0
LINE
  5
8C
330
1F
100
AcDbEntity
  8
SK1
100
AcDbLine
 10
-17.0582979917
 20
17.9999992251
 30
0.0
 11
-34.9999964237
 21
17.9999992251
 31
0.0
  0
LINE
  5
8D
330
1F
100
AcDbEntity
  8
SK1
100
AcDbLine
 10
-0.9963512421
 20
-17.8689491004
 30
0.0
 11
-0.4294078537
 21
-17.7170370868
 31
0.0
  0
LINE
  5
8E
330
1F
100
AcDbEntity
  8
SK1
100
AcDbLine
 10
-0.4294078537
 20
17.7170370869
 30
0.0
 11
-0.9963512421
 21
17.8689491004
 31
0.0
  0
LINE
  5
8F
330
1F
100
AcDbEntity
  8
SK1
100
AcDbLine
 10
-38.8263463974
 20
-17.9848074913
 30
0.0
 11
-37.1771901846
 21
-17.6940150558
 31
0.0
  0
LINE
  5
90
330
1F
100
AcDbEntity
  8
SK1
100
AcDbLine
 10
-37.1771901846
 20
17.694015056
 30
0.0
 11
-38.8263463974
 21
17.9848074914
 31
0.0
  0
LINE
  5
91
330
1F
100
AcDbEntity
  8
SK1
100
AcDbLine
 10
-34.9999964237
 20
17.9999992251
 30
0.0
 11
-37.1771901846
 21
17.694015056
 31
0.0
  0
LINE
  5
92
330
1F
100
AcDbEntity
  8
SK1
100
AcDbLine
 10
-37.1771901846
 20
-17.6940150558
 30
0.0
 11
-34.9999964237
 21
-17.9999992251
 31
0.0
  0
LINE
  5
93
330
1F
100
AcDbEntity
  8
1
  6
Continuous
370
    50
100
AcDbLine
 10
206.1797659844
 20
31.7500010132
 30
0.0
 11
192.2000017348
 21
31.7500010132
 31
0.0
  0
LINE
  5
94
330
1F
100
AcDbEntity
  8
1
  6
Continuous
370
    50
100
AcDbLine
 10
192.2000017348
 20
-31.7499994986
 30
0.0
 11
206.1797660553
 21
-31.7499994986
 31
0.0
  0
LINE
  5
95
330
1F
100
AcDbEntity
  8
1
  6
Continuous
370
    50
100
AcDbLine
 10
192.2000017348
 20
31.7500010132
 30
0.0
 11
192.0000017398
 21
31.550001353
 31
0.0
  0
LINE
  5
96
330
1F
100
AcDbEntity
  8
1
  6
Continuous
370
    50
100
AcDbLine
 10
192.0000017398
 20
-31.5499998384
 30
0.0
 11
192.2000017348
 21
-31.7499994986
 31
0.0
  0
LINE
  5
97
330
1F
100
AcDbEntity
  8
1
100
AcDbLine
 10
244.0000027418
 20
17.7999995649
 30
0.0
 11
243.3000020683
 21
17.7999995649
 31
0.0
  0
LINE
  5
98
330
1F
100
AcDbEntity
  8
1
100
AcDbLine
 10
254.0000006557
 20
9.3000000343
 30
0.0
 11
254.0000016689
 21
1.8
 31
0.0
  0
LINE
  5
99
330
1F
100
AcDbEntity
  8
1
100
AcDbLine
 10
254.0000016689
 20
16.8
 30
0.0
 11
254.0000006557
 21
9.3000000343
 31
0.0
  0
LINE
  5
9A
330
1F
100
AcDbEntity
  8
1
100
AcDbLine
 10
225.2000006582
 20
17.7745979638
 30
0.0
 11
225.2000006582
 21
16.7898919792
 31
0.0
  0
LINE
  5
9B
330
1F
100
AcDbEntity
  8
1
100
AcDbLine
 10
225.2000015645
 20
24.4056517951
 30
0.0
 11
225.200002083
 21
23.184740535
 31
0.0
  0
LINE
  5
9C
330
1F
100
AcDbEntity
  8
1
100
AcDbLine
 10
242.3000000417
 20
25.0000003726
 30
0.0
 11
226.4753242765
 21
25.0000000005
 31
0.0
  0
LINE
  5
9D
330
1F
100
AcDbEntity
  8
1
100
AcDbLine
 10
243.3000020683
 20
24.0000002087
 30
0.0
 11
242.7924834192
 21
24.5075207204
 31
0.0
  0
LINE
  5
9E
330
1F
100
AcDbEntity
  8
1
100
AcDbLine
 10
242.7924834192
 20
24.5075207204
 30
0.0
 11
242.3000000417
 21
25.0000003726
 31
0.0
  0
LINE
  5
9F
330
1F
100
AcDbEntity
  8
1
100
AcDbLine
 10
243.3000020683
 20
13.1710674613
 30
0.0
 11
243.3000020683
 21
24.0000002087
 31
0.0
  0
LINE
  5
A0
330
1F
100
AcDbEntity
  8
1
100
AcDbLine
 10
244.1412545741
 20
10.3953117504
 30
0.0
 11
243.4436567128
 21
11.9811426849
 31
0.0
  0
LINE
  5
A1
330
1F
100
AcDbEntity
  8
1
100
AcDbLine
 10
243.4436567128
 20
11.9811426849
 30
0.0
 11
243.3000020683
 21
13.1710674613
 31
0.0
  0
LINE
  5
A2
330
1F
100
AcDbEntity
  8
1
100
AcDbLine
 10
244.1412545741
 20
10.3953117504
 30
0.0
 11
228.698078543
 21
10.3953117504
 31
0.0
  0
LINE
  5
A3
330
1F
100
AcDbEntity
  8
1
100
AcDbLine
 10
225.2000006582
 20
16.6198119879
 30
0.0
 11
225.2000011767
 21
15.5316353333
 31
0.0
  0
LINE
  5
A4
330
1F
100
AcDbEntity
  8
1
100
AcDbLine
 10
228.698078543
 20
4.9499999731
 30
0.0
 11
228.698078543
 21
4.050000105
 31
0.0
  0
LINE
  5
A5
330
1F
100
AcDbEntity
  8
1
100
AcDbLine
 10
228.698078543
 20
4.050000105
 30
0.0
 11
228.6979779601
 21
4.050000105
 31
0.0
  0
LINE
  5
A6
330
1F
100
AcDbEntity
  8
1
100
AcDbLine
 10
228.6979779601
 20
4.050000105
 30
0.0
 11
228.6979779601
 21
3.9499998092
 31
0.0
  0
LINE
  5
A7
330
1F
100
AcDbEntity
  8
1
100
AcDbLine
 10
228.6979779601
 20
3.9499998092
 30
0.0
 11
228.698078543
 21
3.9499998092
 31
0.0
  0
LINE
  5
A8
330
1F
100
AcDbEntity
  8
1
100
AcDbLine
 10
228.698078543
 20
3.9499998092
 30
0.0
 11
228.698078543
 21
3.0499999412
 31
0.0
  0
LINE
  5
A9
330
1F
100
AcDbEntity
  8
1
100
AcDbLine
 10
228.698078543
 20
3.0499999412
 30
0.0
 11
228.6979779601
 21
3.0499999412
 31
0.0
  0
LINE
  5
AA
330
1F
100
AcDbEntity
  8
1
100
AcDbLine
 10
228.6979779601
 20
3.0499999412
 30
0.0
 11
228.6979779601
 21
2.9500001111
 31
0.0
  0
LINE
  5
AB
330
1F
100
AcDbEntity
  8
1
100
AcDbLine
 10
228.6979779601
 20
2.9500001111
 30
0.0
 11
228.698078543
 21
2.9500001111
 31
0.0
  0
LINE
  5
AC
330
1F
100
AcDbEntity
  8
1
100
AcDbLine
 10
228.698078543
 20
2.9500001111
 30
0.0
 11
228.698078543
 21
2.0500000101
 31
0.0
  0
LINE
  5
AD
330
1F
100
AcDbEntity
  8
1
100
AcDbLine
 10
228.698078543
 20
2.0500000101
 30
0.0
 11
228.6979779601
 21
2.0500000101
 31
0.0
  0
LINE
  5
AE
330
1F
100
AcDbEntity
  8
1
100
AcDbLine
 10
228.6979779601
 20
2.0500000101
 30
0.0
 11
228.6979779601
 21
1.9499999472
 31
0.0
  0
LINE
  5
AF
330
1F
100
AcDbEntity
  8
1
100
AcDbLine
 10
228.6979779601
 20
1.9499999472
 30
0.0
 11
228.698078543
 21
1.9499999472
 31
0.0
  0
LINE
  5
B0
330
1F
100
AcDbEntity
  8
1
100
AcDbLine
 10
228.698078543
 20
1.9499999472
 30
0.0
 11
228.698078543
 21
1.0499999626
 31
0.0
  0
LINE
  5
B1
330
1F
100
AcDbEntity
  8
1
100
AcDbLine
 10
228.698078543
 20
1.0499999626
 30
0.0
 11
228.6979779601
 21
1.0499999626
 31
0.0
  0
LINE
  5
B2
330
1F
100
AcDbEntity
  8
1
100
AcDbLine
 10
228.6979779601
 20
1.0499999626
 30
0.0
 11
228.6979779601
 21
0.9500000161
 31
0.0
  0
LINE
  5
B3
330
1F
100
AcDbEntity
  8
1
100
AcDbLine
 10
228.6979779601
 20
0.9500000161
 30
0.0
 11
228.698078543
 21
0.9500000161
 31
0.0
  0
LINE
  5
B4
330
1F
100
AcDbEntity
  8
1
100
AcDbLine
 10
228.698078543
 20
0.9500000161
 30
0.0
 11
228.698078543
 21
0.0499999987
 31
0.0
  0
LINE
  5
B5
330
1F
100
AcDbEntity
  8
1
100
AcDbLine
 10
228.6980795559
 20
-0.0499993159
 30
0.0
 11
228.6980795559
 21
-0.9499993332
 31
0.0
  0
LINE
  5
B6
330
1F
100
AcDbEntity
  8
1
100
AcDbLine
 10
228.6980795559
 20
-0.9499993332
 30
0.0
 11
228.697978973
 21
-0.9499993332
 31
0.0
  0
LINE
  5
B7
330
1F
100
AcDbEntity
  8
1
100
AcDbLine
 10
228.697978973
 20
-0.9499993332
 30
0.0
 11
228.697978973
 21
-1.0499992797
 31
0.0
  0
LINE
  5
B8
330
1F
100
AcDbEntity
  8
1
100
AcDbLine
 10
228.697978973
 20
-1.0499992797
 30
0.0
 11
228.6980795559
 21
-1.0499992797
 31
0.0
  0
LINE
  5
B9
330
1F
100
AcDbEntity
  8
1
100
AcDbLine
 10
228.6980795559
 20
-1.0499992797
 30
0.0
 11
228.6980795559
 21
-1.9499992642
 31
0.0
  0
LINE
  5
BA
330
1F
100
AcDbEntity
  8
1
100
AcDbLine
 10
228.6980795559
 20
-1.9499992642
 30
0.0
 11
228.697978973
 21
-1.9499992642
 31
0.0
  0
LINE
  5
BB
330
1F
100
AcDbEntity
  8
1
100
AcDbLine
 10
228.697978973
 20
-1.9499992642
 30
0.0
 11
228.697978973
 21
-2.0499993272
 31
0.0
  0
LINE
  5
BC
330
1F
100
AcDbEntity
  8
1
100
AcDbLine
 10
228.697978973
 20
-2.0499993272
 30
0.0
 11
228.6980795559
 21
-2.0499993272
 31
0.0
  0
LINE
  5
BD
330
1F
100
AcDbEntity
  8
1
100
AcDbLine
 10
228.6980795559
 20
-2.0499993272
 30
0.0
 11
228.6980795559
 21
-2.9499994281
 31
0.0
  0
LINE
  5
BE
330
1F
100
AcDbEntity
  8
1
100
AcDbLine
 10
228.6980795559
 20
-2.9499994281
 30
0.0
 11
228.697978973
 21
-2.9499994281
 31
0.0
  0
LINE
  5
BF
330
1F
100
AcDbEntity
  8
1
100
AcDbLine
 10
228.697978973
 20
-2.9499994281
 30
0.0
 11
228.697978973
 21
-3.0499992583
 31
0.0
  0
LINE
  5
C0
330
1F
100
AcDbEntity
  8
1
100
AcDbLine
 10
228.697978973
 20
-3.0499992583
 30
0.0
 11
228.6980795559
 21
-3.0499992583
 31
0.0
  0
LINE
  5
C1
330
1F
100
AcDbEntity
  8
1
100
AcDbLine
 10
228.6980795559
 20
-3.0499992583
 30
0.0
 11
228.6980795559
 21
-3.9499991264
 31
0.0
  0
LINE
  5
C2
330
1F
100
AcDbEntity
  8
1
100
AcDbLine
 10
228.6980795559
 20
-3.9499991264
 30
0.0
 11
228.697978973
 21
-3.9499991264
 31
0.0
  0
LINE
  5
C3
330
1F
100
AcDbEntity
  8
1
100
AcDbLine
 10
228.697978973
 20
-3.9499991264
 30
0.0
 11
228.697978973
 21
-4.0499994222
 31
0.0
  0
LINE
  5
C4
330
1F
100
AcDbEntity
  8
1
100
AcDbLine
 10
228.697978973
 20
-4.0499994222
 30
0.0
 11
228.6980795559
 21
-4.0499994222
 31
0.0
  0
LINE
  5
C5
330
1F
100
AcDbEntity
  8
1
100
AcDbLine
 10
228.6980795559
 20
-4.0499994222
 30
0.0
 11
228.6980795559
 21
-4.9499992903
 31
0.0
  0
LINE
  5
C6
330
1F
100
AcDbEntity
  8
1
100
AcDbLine
 10
228.6980795559
 20
-4.9499992903
 30
0.0
 11
228.697978973
 21
-4.9499992903
 31
0.0
  0
LINE
  5
C7
330
1F
100
AcDbEntity
  8
1
100
AcDbLine
 10
228.697978973
 20
-4.9499992903
 30
0.0
 11
228.697978973
 21
-5.0499991204
 31
0.0
  0
LINE
  5
C8
330
1F
100
AcDbEntity
  8
1
100
AcDbLine
 10
228.697978973
 20
-5.0499991204
 30
0.0
 11
228.6980795559
 21
-5.0499991204
 31
0.0
  0
LINE
  5
C9
330
1F
100
AcDbEntity
  8
1
100
AcDbLine
 10
228.6980795559
 20
-5.0499991204
 30
0.0
 11
228.6980795559
 21
-10.3953110676
 31
0.0
  0
LINE
  5
CA
330
1F
100
AcDbEntity
  8
1
100
AcDbLine
 10
228.698078543
 20
10.3953117504
 30
0.0
 11
228.698078543
 21
6.0499999673
 31
0.0
  0
LINE
  5
CB
330
1F
100
AcDbEntity
  8
1
100
AcDbLine
 10
228.698078543
 20
6.0499999673
 30
0.0
 11
228.6979779601
 21
6.0499999673
 31
0.0
  0
LINE
  5
CC
330
1F
100
AcDbEntity
  8
1
100
AcDbLine
 10
228.6979779601
 20
6.0499999673
 30
0.0
 11
228.6979779601
 21
5.9500001371
 31
0.0
  0
LINE
  5
CD
330
1F
100
AcDbEntity
  8
1
100
AcDbLine
 10
228.6979779601
 20
5.9500001371
 30
0.0
 11
228.698078543
 21
5.9500001371
 31
0.0
  0
LINE
  5
CE
330
1F
100
AcDbEntity
  8
1
100
AcDbLine
 10
228.698078543
 20
5.9500001371
 30
0.0
 11
228.698078543
 21
5.0499998033
 31
0.0
  0
LINE
  5
CF
330
1F
100
AcDbEntity
  8
1
100
AcDbLine
 10
228.698078543
 20
5.0499998033
 30
0.0
 11
228.6979779601
 21
5.0499998033
 31
0.0
  0
LINE
  5
D0
330
1F
100
AcDbEntity
  8
1
100
AcDbLine
 10
228.6979779601
 20
5.0499998033
 30
0.0
 11
228.6979779601
 21
4.9499999731
 31
0.0
  0
LINE
  5
D1
330
1F
100
AcDbEntity
  8
1
100
AcDbLine
 10
228.6979779601
 20
4.9499999731
 30
0.0
 11
228.698078543
 21
4.9499999731
 31
0.0
  0
LINE
  5
D2
330
1F
100
AcDbEntity
  8
1
100
AcDbLine
 10
225.2000015845
 20
-27.6013197564
 30
0.0
 11
225.2000015845
 21
-28.3431722038
 31
0.0
  0
LINE
  5
D3
330
1F
100
AcDbEntity
  8
1
100
AcDbLine
 10
228.448076941
 20
-26.4473737445
 30
0.0
 11
228.4717364157
 21
-26.4377039391
 31
0.0
  0
LINE
  5
D4
330
1F
100
AcDbEntity
  8
1
100
AcDbLine
 10
228.4717364157
 20
-26.4377039391
 30
0.0
 11
228.5789092923
 21
-26.3746310491
 31
0.0
  0
LINE
  5
D5
330
1F
100
AcDbEntity
  8
1
100
AcDbLine
 10
228.5789092923
 20
-26.3746310491
 30
0.0
 11
228.6605043257
 21
-26.2844492216
 31
0.0
  0
LINE
  5
D6
330
1F
100
AcDbEntity
  8
1
100
AcDbLine
 10
228.6605043257
 20
-26.2844492216
 30
0.0
 11
228.6977460528
 21
-26.1671025772
 31
0.0
  0
LINE
  5
D7
330
1F
100
AcDbEntity
  8
1
100
AcDbLine
 10
228.6977460528
 20
-26.1671025772
 30
0.0
 11
228.6659544254
 21
-26.032364415
 31
0.0
  0
LINE
  5
D8
330
1F
100
AcDbEntity
  8
1
100
AcDbLine
 10
228.6659544254
 20
-26.032364415
 30
0.0
 11
228.5516178156
 21
-25.9077050257
 31
0.0
  0
LINE
  5
D9
330
1F
100
AcDbEntity
  8
1
100
AcDbLine
 10
228.5516178156
 20
-25.9077050257
 30
0.0
 11
228.448077097
 21
-25.8512408007
 31
0.0
  0
LINE
  5
DA
330
1F
100
AcDbEntity
  8
1
100
AcDbLine
 10
225.2000021861
 20
-23.1847439713
 30
0.0
 11
225.2000027046
 21
-24.4056549007
 31
0.0
  0
LINE
  5
DB
330
1F
100
AcDbEntity
  8
1
100
AcDbLine
 10
225.2000015783
 20
-15.5316395908
 30
0.0
 11
225.2000020968
 21
-17.7746024057
 31
0.0
  0
LINE
  5
DC
330
1F
100
AcDbEntity
  8
1
100
AcDbLine
 10
228.6980795559
 20
-10.3953110676
 30
0.0
 11
249.7475678917
 21
-10.3953110676
 31
0.0
  0
LINE
  5
DD
330
1F
100
AcDbEntity
  8
1
100
AcDbLine
 10
249.7475678917
 20
-10.3953110676
 30
0.0
 11
249.7475678917
 21
-22.8136640664
 31
0.0
  0
LINE
  5
DE
330
1F
100
AcDbEntity
  8
1
100
AcDbLine
 10
249.7475678916
 20
-25.9760518248
 30
0.0
 11
249.7475678916
 21
-31.3377150025
 31
0.0
  0
LINE
  5
DF
330
1F
100
AcDbEntity
  8
1
100
AcDbLine
 10
244.3595807695
 20
-31.3377150025
 30
0.0
 11
249.7475678916
 21
-31.3377150025
 31
0.0
  0
LINE
  5
E0
330
1F
100
AcDbEntity
  8
1
100
AcDbLine
 10
244.3595807695
 20
-31.7096581487
 30
0.0
 11
244.3595807695
 21
-31.3377150025
 31
0.0
  0
LINE
  5
E1
330
1F
100
AcDbEntity
  8
1
100
AcDbLine
 10
244.1886772663
 20
-31.7498412966
 30
0.0
 11
228.6878472123
 21
-31.7498396031
 31
0.0
  0
LINE
  5
E2
330
1F
100
AcDbEntity
  8
1
100
AcDbLine
 10
225.2000011194
 20
-31.5346452471
 30
0.0
 11
225.2000016379
 21
-31.6659796387
 31
0.0
  0
LINE
  5
E3
330
1F
100
AcDbEntity
  8
1
100
AcDbLine
 10
228.4480777645
 20
-31.2581384862
 30
0.0
 11
228.5773827468
 21
-31.2388494499
 31
0.0
  0
LINE
  5
E4
330
1F
100
AcDbEntity
  8
1
100
AcDbLine
 10
228.5773827468
 20
-31.2388494499
 30
0.0
 11
228.6634891067
 21
-31.212530274
 31
0.0
  0
LINE
  5
E5
330
1F
100
AcDbEntity
  8
1
100
AcDbLine
 10
228.6634891067
 20
-31.212530274
 30
0.0
 11
228.6977506016
 21
-31.1813980229
 31
0.0
  0
LINE
  5
E6
330
1F
100
AcDbEntity
  8
1
100
AcDbLine
 10
228.6977506016
 20
-31.1813980229
 30
0.0
 11
228.6748922203
 21
-31.1485782154
 31
0.0
  0
LINE
  5
E7
330
1F
100
AcDbEntity
  8
1
100
AcDbLine
 10
228.6748922203
 20
-31.1485782154
 30
0.0
 11
228.5960613523
 21
-31.1181444563
 31
0.0
  0
LINE
  5
E8
330
1F
100
AcDbEntity
  8
1
100
AcDbLine
 10
228.5960613523
 20
-31.1181444563
 30
0.0
 11
228.4707686637
 21
-31.0943379887
 31
0.0
  0
LINE
  5
E9
330
1F
100
AcDbEntity
  8
1
100
AcDbLine
 10
228.4707686637
 20
-31.0943379887
 30
0.0
 11
228.4480779205
 21
-31.0914602019
 31
0.0
  0
LINE
  5
EA
330
1F
100
AcDbEntity
  8
1
100
AcDbLine
 10
225.2000013052
 20
-30.2346375755
 30
0.0
 11
225.2000018238
 21
-30.6436757312
 31
0.0
  0
LINE
  5
EB
330
1F
100
AcDbEntity
  8
1
100
AcDbLine
 10
228.448077681
 20
-29.5680122459
 30
0.0
 11
228.4943571184
 21
-29.5561596623
 31
0.0
  0
LINE
  5
EC
330
1F
100
AcDbEntity
  8
1
100
AcDbLine
 10
228.4943571184
 20
-29.5561596623
 30
0.0
 11
228.6049758885
 21
-29.5118939003
 31
0.0
  0
LINE
  5
ED
330
1F
100
AcDbEntity
  8
1
100
AcDbLine
 10
228.6049758885
 20
-29.5118939003
 30
0.0
 11
228.6771124099
 21
-29.4530212751
 31
0.0
  0
LINE
  5
EE
330
1F
100
AcDbEntity
  8
1
100
AcDbLine
 10
228.6771124099
 20
-29.4530212751
 30
0.0
 11
228.6972885821
 21
-29.3834570667
 31
0.0
  0
LINE
  5
EF
330
1F
100
AcDbEntity
  8
1
100
AcDbLine
 10
228.6972885821
 20
-29.3834570667
 30
0.0
 11
228.6548277233
 21
-29.3110765389
 31
0.0
  0
LINE
  5
F0
330
1F
100
AcDbEntity
  8
1
100
AcDbLine
 10
228.6548277233
 20
-29.3110765389
 30
0.0
 11
228.5506052766
 21
-29.2476832738
 31
0.0
  0
LINE
  5
F1
330
1F
100
AcDbEntity
  8
1
100
AcDbLine
 10
228.5506052766
 20
-29.2476832738
 30
0.0
 11
228.448077837
 21
-29.2144276073
 31
0.0
  0
LINE
  5
F2
330
1F
100
AcDbEntity
  8
1
100
AcDbLine
 10
254.4000027683
 20
0.0000003693
 30
0.0
 11
244.7644723561
 21
9.6355345068
 31
0.0
  0
LINE
  5
F3
330
1F
100
AcDbEntity
  8
1
100
AcDbLine
 10
254.4000027683
 20
-3.9999998207
 30
0.0
 11
254.4000027683
 21
0.0000003693
 31
0.0
  0
LINE
  5
F4
330
1F
100
AcDbEntity
  8
1
100
AcDbLine
 10
256.4989237219
 20
-11.652591144
 30
0.0
 11
256.3941935893
 21
-12.421086679
 31
0.0
  0
LINE
  5
F5
330
1F
100
AcDbEntity
  8
1
100
AcDbLine
 10
256.3941935893
 20
-12.421086679
 30
0.0
 11
256.2984759804
 21
-12.7330471452
 31
0.0
  0
LINE
  5
F6
330
1F
100
AcDbEntity
  8
1
100
AcDbLine
 10
256.2984759804
 20
-12.7330471452
 30
0.0
 11
256.117620587
 21
-13.0664382752
 31
0.0
  0
LINE
  5
F7
330
1F
100
AcDbEntity
  8
1
100
AcDbLine
 10
256.117620587
 20
-13.0664382752
 30
0.0
 11
256.0115988251
 21
-13.175121757
 31
0.0
  0
LINE
  5
F8
330
1F
100
AcDbEntity
  8
1
100
AcDbLine
 10
256.0115988251
 20
-13.175121757
 30
0.0
 11
255.8772127029
 21
-13.2487595703
 31
0.0
  0
LINE
  5
F9
330
1F
100
AcDbEntity
  8
1
100
AcDbLine
 10
255.8772127029
 20
-13.2487595703
 30
0.0
 11
255.7691271301
 21
-13.2635918136
 31
0.0
  0
LINE
  5
FA
330
1F
100
AcDbEntity
  8
1
100
AcDbLine
 10
255.7691271301
 20
-13.2635918136
 30
0.0
 11
255.6622112986
 21
-13.2421397295
 31
0.0
  0
LINE
  5
FB
330
1F
100
AcDbEntity
  8
1
100
AcDbLine
 10
255.6622112986
 20
-13.2421397295
 30
0.0
 11
255.6398223039
 21
-13.233145016
 31
0.0
  0
LINE
  5
FC
330
1F
100
AcDbEntity
  8
1
100
AcDbLine
 10
249.7475678917
 20
-10.3953110676
 30
0.0
 11
255.6398223039
 21
-13.233145016
 31
0.0
  0
LINE
  5
FD
330
1F
100
AcDbEntity
  8
1
100
AcDbLine
 10
249.7475678916
 20
-31.3377150025
 30
0.0
 11
251.9814419444
 21
-31.7367271211
 31
0.0
  0
LINE
  5
FE
330
1F
100
AcDbEntity
  8
1
100
AcDbLine
 10
251.9814419444
 20
-31.7367271211
 30
0.0
 11
258.1855664845
 21
-32.8442447509
 31
0.0
  0
LINE
  5
FF
330
1F
100
AcDbEntity
  8
1
100
AcDbLine
 10
256.4989237219
 20
-11.652591144
 30
0.0
 11
256.5218071338
 21
-11.6910406079
 31
0.0
  0
LINE
  5
100
330
1F
100
AcDbEntity
  8
1
100
AcDbLine
 10
259.6500017641
 20
-15.3990132048
 30
0.0
 11
259.649999506
 21
-18.0421722848
 31
0.0
  0
LINE
  5
101
330
1F
100
AcDbEntity
  8
1
100
AcDbLine
 10
259.649999506
 20
-18.0421722848
 30
0.0
 11
259.4923452206
 21
-18.1877994705
 31
0.0
  0
LINE
  5
102
330
1F
100
AcDbEntity
  8
1
100
AcDbLine
 10
259.1244802542
 20
-18.122603165
 30
0.0
 11
259.4923452206
 21
-18.1877994705
 31
0.0
  0
LINE
  5
103
330
1F
100
AcDbEntity
  8
1
100
AcDbLine
 10
259.1244802542
 20
-32.0467231591
 30
0.0
 11
259.1244802542
 21
-18.122603165
 31
0.0
  0
LINE
  5
104
330
1F
100
AcDbEntity
  8
1
100
AcDbLine
 10
259.1244802542
 20
-32.0467231591
 30
0.0
 11
259.1244802542
 21
-32.0482244511
 31
0.0
  0
LINE
  5
105
330
1F
100
AcDbEntity
  8
1
100
AcDbLine
 10
259.1244802542
 20
-32.0482244511
 30
0.0
 11
259.1243610449
 21
-32.0605030079
 31
0.0
  0
LINE
  5
106
330
1F
100
AcDbEntity
  8
1
100
AcDbLine
 10
225.190001979
 20
16.7846300066
 30
0.0
 11
225.190001979
 21
16.614551878
 31
0.0
  0
LINE
  5
107
330
1F
100
AcDbEntity
  8
1
100
AcDbLine
 10
224.9000039505
 20
-15.8364940657
 30
0.0
 11
224.9000039505
 21
-16.5063794925
 31
0.0
  0
LINE
  5
108
330
1F
100
AcDbEntity
  8
1
100
AcDbLine
 10
225.1500007319
 20
-17.6421161963
 30
0.0
 11
225.2000020968
 21
-17.7746024057
 31
0.0
  0
LINE
  5
109
330
1F
100
AcDbEntity
  8
1
100
AcDbLine
 10
224.9000039505
 20
-16.5063794925
 30
0.0
 11
224.9343660283
 21
-16.8624762668
 31
0.0
  0
LINE
  5
10A
330
1F
100
AcDbEntity
  8
1
100
AcDbLine
 10
224.9343660283
 20
-16.8624762668
 30
0.0
 11
225.1500007319
 21
-17.6421161963
 31
0.0
  0
LINE
  5
10B
330
1F
100
AcDbEntity
  8
1
100
AcDbLine
 10
225.2000006582
 20
16.6198119879
 30
0.0
 11
225.190001979
 21
16.614551878
 31
0.0
  0
LINE
  5
10C
330
1F
100
AcDbEntity
  8
1
100
AcDbLine
 10
224.9000030304
 20
16.5063750357
 30
0.0
 11
224.9000030304
 21
15.8364896089
 31
0.0
  0
LINE
  5
10D
330
1F
100
AcDbEntity
  8
1
100
AcDbLine
 10
225.1499998118
 20
17.6421117396
 30
0.0
 11
224.9208572055
 21
16.7750820876
 31
0.0
  0
LINE
  5
10E
330
1F
100
AcDbEntity
  8
1
100
AcDbLine
 10
224.9208572055
 20
16.7750820876
 30
0.0
 11
224.9000030304
 21
16.5063750357
 31
0.0
  0
LINE
  5
10F
330
1F
100
AcDbEntity
  8
1
100
AcDbLine
 10
225.2000006582
 20
17.7745979638
 30
0.0
 11
225.1499998118
 21
17.6421117396
 31
0.0
  0
LINE
  5
110
330
1F
100
AcDbEntity
  8
1
100
AcDbLine
 10
225.190001979
 20
16.7846300066
 30
0.0
 11
225.2000006582
 21
16.7898919792
 31
0.0
  0
LINE
  5
111
330
1F
100
AcDbEntity
  8
1
100
AcDbLine
 10
224.9000045584
 20
-23.3455908305
 30
0.0
 11
224.9000045584
 21
-23.6157283939
 31
0.0
  0
LINE
  5
112
330
1F
100
AcDbEntity
  8
1
100
AcDbLine
 10
225.1500013397
 20
-24.3164592243
 30
0.0
 11
225.2000027046
 21
-24.4056549007
 31
0.0
  0
LINE
  5
113
330
1F
100
AcDbEntity
  8
1
100
AcDbLine
 10
224.9000039368
 20
23.6157244764
 30
0.0
 11
224.9000039368
 21
23.3455869131
 31
0.0
  0
LINE
  5
114
330
1F
100
AcDbEntity
  8
1
100
AcDbLine
 10
225.2000015645
 20
24.4056517951
 30
0.0
 11
225.1500007181
 21
24.3164553069
 31
0.0
  0
LINE
  5
115
330
1F
100
AcDbEntity
  8
1
100
AcDbLine
 10
225.1500007181
 20
24.9499986641
 30
0.0
 11
225.2000015645
 21
24.9999995105
 31
0.0
  0
LINE
  5
116
330
1F
100
AcDbEntity
  8
1
100
AcDbLine
 10
226.4753242765
 20
25.0000000005
 30
0.0
 11
225.2000015645
 21
24.9999995105
 31
0.0
  0
LINE
  5
117
330
1F
100
AcDbEntity
  8
1
100
AcDbLine
 10
224.9000039568
 20
-27.6990713738
 30
0.0
 11
224.9000039568
 21
-27.7658900433
 31
0.0
  0
LINE
  5
118
330
1F
100
AcDbEntity
  8
1
100
AcDbLine
 10
225.1500007381
 20
-28.2725313865
 30
0.0
 11
225.2000015845
 21
-28.3431722038
 31
0.0
  0
LINE
  5
119
330
1F
100
AcDbEntity
  8
1
100
AcDbLine
 10
224.9000039367
 20
24.7000000201
 30
0.0
 11
224.9000039367
 21
23.7499988399
 31
0.0
  0
LINE
  5
11A
330
1F
100
AcDbEntity
  8
1
100
AcDbLine
 10
224.9000039367
 20
24.7000000201
 30
0.0
 11
224.9109264879
 21
24.7109244339
 31
0.0
  0
LINE
  5
11B
330
1F
100
AcDbEntity
  8
1
100
AcDbLine
 10
224.9109264879
 20
24.7109244339
 30
0.0
 11
224.9432284801
 21
24.7432264261
 31
0.0
  0
LINE
  5
11C
330
1F
100
AcDbEntity
  8
1
100
AcDbLine
 10
224.9432284801
 20
24.7432264261
 30
0.0
 11
224.995494303
 21
24.7954903863
 31
0.0
  0
LINE
  5
11D
330
1F
100
AcDbEntity
  8
1
100
AcDbLine
 10
224.995494303
 20
24.7954903863
 30
0.0
 11
225.0654366283
 21
24.8654345743
 31
0.0
  0
LINE
  5
11E
330
1F
100
AcDbEntity
  8
1
100
AcDbLine
 10
225.0654366283
 20
24.8654345743
 30
0.0
 11
225.1500007181
 21
24.9499986641
 31
0.0
  0
LINE
  5
11F
330
1F
100
AcDbEntity
  8
1
100
AcDbLine
 10
225.1500004588
 20
-30.5840120635
 30
0.0
 11
225.2000018238
 21
-30.6436757312
 31
0.0
  0
LINE
  5
120
330
1F
100
AcDbEntity
  8
1
100
AcDbLine
 10
225.150000273
 20
-31.6137257095
 30
0.0
 11
225.2000016379
 21
-31.6659796387
 31
0.0
  0
LINE
  5
121
330
1F
100
AcDbEntity
  8
CUT
100
AcDbLine
 10
259.0610679161
 20
-33.9878459861
 30
0.0
 11
244.7860684869
 21
-31.4707746712
 31
0.0
  0
LINE
  5
122
330
1F
100
AcDbEntity
  8
CUT
100
AcDbLine
 10
247.9628476473
 20
-31.3377126165
 30
0.0
 11
259.1796142754
 21
-33.3155354256
 31
0.0
  0
LINE
  5
123
330
1F
100
AcDbEntity
  8
CUT
100
AcDbLine
 10
259.2203660159
 20
-18.589251027
 30
0.0
 11
259.1244695973
 21
-18.5723437726
 31
0.0
  0
LINE
  5
124
330
1F
100
AcDbEntity
  8
CUT
100
AcDbLine
 10
259.3173025033
 20
-33.2000010582
 30
0.0
 11
259.3173095942
 21
-18.7047866892
 31
0.0
  0
LINE
  5
125
330
1F
100
AcDbEntity
  8
CUT
100
AcDbLine
 10
259.9999909821
 20
-18.7047868632
 30
0.0
 11
259.9999845149
 21
-33.2000017479
 31
0.0
  0
LINE
  5
126
330
1F
100
AcDbEntity
  8
1
100
AcDbLine
 10
244.1250023385
 20
30.6829366327
 30
0.0
 11
244.1249989266
 21
17.3000044615
 31
0.0
  0
LINE
  5
127
330
1F
100
AcDbEntity
  8
CUT
100
AcDbLine
 10
259.0610849314
 20
33.987846729
 30
0.0
 11
244.7860842189
 21
31.4707826928
 31
0.0
  0
LINE
  5
128
330
1F
100
AcDbEntity
  8
CUT
100
AcDbLine
 10
260.0000032074
 20
18.7047853047
 30
0.0
 11
260.0000032074
 21
33.2000002678
 31
0.0
  0
LINE
  5
129
330
1F
100
AcDbEntity
  8
1
100
AcDbLine
 10
253.9701159463
 20
16.9702730956
 30
0.0
 11
259.3389200218
 21
17.9169375296
 31
0.0
  0
LINE
  5
12A
330
1F
100
AcDbEntity
  8
1
100
AcDbLine
 10
228.8879752139
 20
25.0000006204
 30
0.0
 11
228.8879752139
 21
31.7498410737
 31
0.0
  0
LINE
  5
12B
330
1F
100
AcDbEntity
  8
1
100
AcDbLine
 10
244.1888041774
 20
30.99600623
 30
0.0
 11
244.1888041774
 21
31.7498410737
 31
0.0
  0
LINE
  5
12C
330
1F
100
AcDbEntity
  8
1
100
AcDbLine
 10
243.3000020683
 20
18.2959996164
 30
0.0
 11
244.1250011325
 21
19.2791968585
 31
0.0
  0
LINE
  5
12D
330
1F
100
AcDbEntity
  8
1
100
AcDbLine
 10
259.6500031761
 20
18.042173171
 30
0.0
 11
259.6476636938
 21
18.0417578011
 31
0.0
  0
LINE
  5
12E
330
1F
100
AcDbEntity
  8
1
100
AcDbLine
 10
259.6500031761
 20
15.399012649
 30
0.0
 11
259.6500031761
 21
18.042173171
 31
0.0
  0
LINE
  5
12F
330
1F
100
AcDbEntity
  8
1
100
AcDbLine
 10
254.4000027683
 20
0.0000003693
 30
0.0
 11
254.400004461
 21
4.0000003693
 31
0.0
  0
LINE
  5
130
330
1F
100
AcDbEntity
  8
1
100
AcDbLine
 10
244.1888041774
 20
31.7498410737
 30
0.0
 11
228.8879752139
 21
31.7498410737
 31
0.0
  0
LINE
  5
131
330
1F
100
AcDbEntity
  8
1
100
AcDbLine
 10
244.3595810882
 20
31.7096613136
 30
0.0
 11
244.3595810882
 21
31.2490124044
 31
0.0
  0
LINE
  5
132
330
1F
100
AcDbEntity
  8
1
100
AcDbLine
 10
259.6500031761
 20
18.042173171
 30
0.0
 11
259.6492730192
 21
18.0428493112
 31
0.0
  0
LINE
  5
133
330
1F
100
AcDbEntity
  8
1
100
AcDbLine
 10
244.3597093225
 20
31.3377156854
 30
0.0
 11
244.4653734565
 21
31.3377156854
 31
0.0
  0
LINE
  5
134
330
1F
100
AcDbEntity
  8
1
  6
Continuous
370
    50
100
AcDbLine
 10
1.0000020266
 20
-32.0000015199
 30
0.0
 11
1.0000020266
 21
32.0000015199
 31
0.0
  0
LINE
  5
135
330
1F
100
AcDbEntity
  8
1
  6
Continuous
370
    50
100
AcDbLine
 10
0.0
 20
-30.9999994934
 30
0.0
 11
0.0
 21
30.9999994933
 31
0.0
  0
LINE
  5
136
330
1F
100
AcDbEntity
  8
1
  6
Continuous
370
    50
100
AcDbLine
 10
69.9525922537
 20
6.9930241443
 30
0.0
 11
67.7885040641
 21
6.9930241443
 31
0.0
  0
LINE
  5
137
330
1F
100
AcDbEntity
  8
1
  6
Continuous
370
    50
100
AcDbLine
 10
67.9331123829
 20
7.3135369458
 30
0.0
 11
68.4151351452
 21
7.2734728455
 31
0.0
  0
LINE
  5
138
330
1F
100
AcDbEntity
  8
1
  6
Continuous
370
    50
100
AcDbLine
 10
81.7863717675
 20
8.0346912145
 30
0.0
 11
81.6464349628
 21
7.506181486
 31
0.0
  0
LINE
  5
139
330
1F
100
AcDbEntity
  8
1
  6
Continuous
370
    50
100
AcDbLine
 10
81.6464349628
 20
7.506181486
 30
0.0
 11
81.5059244633
 21
6.9754961878
 31
0.0
  0
LINE
  5
13A
330
1F
100
AcDbEntity
  8
1
  6
Continuous
370
    50
100
AcDbLine
 10
80.1875591278
 20
6.4709391445
 30
0.0
 11
80.391921103
 21
7.2550983169
 31
0.0
  0
LINE
  5
13B
330
1F
100
AcDbEntity
  8
1
  6
Continuous
370
    50
100
AcDbLine
 10
80.391921103
 20
7.2550983169
 30
0.0
 11
80.5950909853
 21
8.0346912145
 31
0.0
  0
LINE
  5
13C
330
1F
100
AcDbEntity
  8
1
  6
Continuous
370
    50
100
AcDbLine
 10
80.5950909853
 20
8.0346912145
 30
0.0
 11
80.1043063402
 21
8.0346912145
 31
0.0
  0
LINE
  5
13D
330
1F
100
AcDbEntity
  8
1
  6
Continuous
370
    50
100
AcDbLine
 10
80.1043063402
 20
8.0346912145
 30
0.0
 11
79.9587517977
 21
7.4930880219
 31
0.0
  0
LINE
  5
13E
330
1F
100
AcDbEntity
  8
1
  6
Continuous
370
    50
100
AcDbLine
 10
79.9587517977
 20
7.4930880219
 30
0.0
 11
79.8125863075
 21
6.9492040203
 31
0.0
  0
LINE
  5
13F
330
1F
100
AcDbEntity
  8
1
  6
Continuous
370
    50
100
AcDbLine
 10
78.8003429771
 20
5.9914216399
 30
0.0
 11
78.6250978708
 21
6.0178735294
 31
0.0
  0
LINE
  5
140
330
1F
100
AcDbEntity
  8
1
  6
Continuous
370
    50
100
AcDbLine
 10
78.6250978708
 20
6.0178735294
 30
0.0
 11
78.5509794951
 21
6.0557802208
 31
0.0
  0
LINE
  5
141
330
1F
100
AcDbEntity
  8
1
  6
Continuous
370
    50
100
AcDbLine
 10
78.5509794951
 20
6.0557802208
 30
0.0
 11
78.4934461117
 21
6.1165271328
 31
0.0
  0
LINE
  5
142
330
1F
100
AcDbEntity
  8
1
  6
Continuous
370
    50
100
AcDbLine
 10
78.4934461117
 20
6.1165271328
 30
0.0
 11
78.4665122628
 21
6.1825481243
 31
0.0
  0
LINE
  5
143
330
1F
100
AcDbEntity
  8
1
  6
Continuous
370
    50
100
AcDbLine
 10
78.4665122628
 20
6.1825481243
 30
0.0
 11
78.4610509873
 21
6.235562265
 31
0.0
  0
LINE
  5
144
330
1F
100
AcDbEntity
  8
1
  6
Continuous
370
    50
100
AcDbLine
 10
78.5130113364
 20
6.5041170456
 30
0.0
 11
78.7132754922
 21
7.2715971619
 31
0.0
  0
LINE
  5
145
330
1F
100
AcDbEntity
  8
1
  6
Continuous
370
    50
100
AcDbLine
 10
78.7132754922
 20
7.2715971619
 30
0.0
 11
78.9123997092
 21
8.0346912145
 31
0.0
  0
LINE
  5
146
330
1F
100
AcDbEntity
  8
1
  6
Continuous
370
    50
100
AcDbLine
 10
78.9123997092
 20
8.0346912145
 30
0.0
 11
78.4216150642
 21
8.0346912145
 31
0.0
  0
LINE
  5
147
330
1F
100
AcDbEntity
  8
1
  6
Continuous
370
    50
100
AcDbLine
 10
78.4216150642
 20
8.0346912145
 30
0.0
 11
78.2162174583
 21
7.3192343116
 31
0.0
  0
LINE
  5
148
330
1F
100
AcDbEntity
  8
1
  6
Continuous
370
    50
100
AcDbLine
 10
78.2162174583
 20
7.3192343116
 30
0.0
 11
78.0097022653
 21
6.5998951905
 31
0.0
  0
LINE
  5
149
330
1F
100
AcDbEntity
  8
1
  6
Continuous
370
    50
100
AcDbLine
 10
77.9433473945
 20
6.2599764205
 30
0.0
 11
77.9848769307
 21
6.0366438702
 31
0.0
  0
LINE
  5
14A
330
1F
100
AcDbEntity
  8
1
  6
Continuous
370
    50
100
AcDbLine
 10
77.9848769307
 20
6.0366438702
 30
0.0
 11
78.0660510063
 21
5.9093190357
 31
0.0
  0
LINE
  5
14B
330
1F
100
AcDbEntity
  8
1
  6
Continuous
370
    50
100
AcDbLine
 10
78.0660510063
 20
5.9093190357
 30
0.0
 11
78.1842470169
 21
5.8140228503
 31
0.0
  0
LINE
  5
14C
330
1F
100
AcDbEntity
  8
1
  6
Continuous
370
    50
100
AcDbLine
 10
78.1842470169
 20
5.8140228503
 30
0.0
 11
78.3825218678
 21
5.7391738519
 31
0.0
  0
LINE
  5
14D
330
1F
100
AcDbEntity
  8
1
  6
Continuous
370
    50
100
AcDbLine
 10
78.3825218678
 20
5.7391738519
 30
0.0
 11
78.6663815379
 21
5.7109729388
 31
0.0
  0
LINE
  5
14E
330
1F
100
AcDbEntity
  8
1
  6
Continuous
370
    50
100
AcDbLine
 10
81.2905803323
 20
6.1610681005
 30
0.0
 11
81.1822786927
 21
5.7510370388
 31
0.0
  0
LINE
  5
14F
330
1F
100
AcDbEntity
  8
1
  6
Continuous
370
    50
100
AcDbLine
 10
81.1822786927
 20
5.7510370388
 30
0.0
 11
81.6736891866
 21
5.7510370388
 31
0.0
  0
LINE
  5
150
330
1F
100
AcDbEntity
  8
1
  6
Continuous
370
    50
100
AcDbLine
 10
81.6736891866
 20
5.7510370388
 30
0.0
 11
81.8761140108
 21
6.5162740647
 31
0.0
  0
LINE
  5
151
330
1F
100
AcDbEntity
  8
1
  6
Continuous
370
    50
100
AcDbLine
 10
81.8761140108
 20
6.5162740647
 30
0.0
 11
82.0775181055
 21
7.2776428423
 31
0.0
  0
LINE
  5
152
330
1F
100
AcDbEntity
  8
1
  6
Continuous
370
    50
100
AcDbLine
 10
82.0775181055
 20
7.2776428423
 30
0.0
 11
82.2777822614
 21
8.0346912145
 31
0.0
  0
LINE
  5
153
330
1F
100
AcDbEntity
  8
1
  6
Continuous
370
    50
100
AcDbLine
 10
82.2777822614
 20
8.0346912145
 30
0.0
 11
81.7863717675
 21
8.0346912145
 31
0.0
  0
LINE
  5
154
330
1F
100
AcDbEntity
  8
1
  6
Continuous
370
    50
100
AcDbLine
 10
90.035662055
 20
8.0346912145
 30
0.0
 11
89.7837132216
 21
7.000381127
 31
0.0
  0
LINE
  5
155
330
1F
100
AcDbEntity
  8
1
  6
Continuous
370
    50
100
AcDbLine
 10
89.7837132216
 20
7.000381127
 30
0.0
 11
89.5298793912
 21
5.9583303519
 31
0.0
  0
LINE
  5
156
330
1F
100
AcDbEntity
  8
1
  6
Continuous
370
    50
100
AcDbLine
 10
89.5298793912
 20
5.9583303519
 30
0.0
 11
89.274443686
 21
4.9096909352
 31
0.0
  0
LINE
  5
157
330
1F
100
AcDbEntity
  8
1
  6
Continuous
370
    50
100
AcDbLine
 10
89.274443686
 20
4.9096909352
 30
0.0
 11
89.7552147508
 21
4.9096909352
 31
0.0
  0
LINE
  5
158
330
1F
100
AcDbEntity
  8
1
  6
Continuous
370
    50
100
AcDbLine
 10
89.7552147508
 20
4.9096909352
 30
0.0
 11
89.9223163724
 21
5.5116540753
 31
0.0
  0
LINE
  5
159
330
1F
100
AcDbEntity
  8
1
  6
Continuous
370
    50
100
AcDbLine
 10
89.9223163724
 20
5.5116540753
 30
0.0
 11
90.0888666511
 21
6.1116139405
 31
0.0
  0
LINE
  5
15A
330
1F
100
AcDbEntity
  8
1
  6
Continuous
370
    50
100
AcDbLine
 10
90.4287919402
 20
7.709170226
 30
0.0
 11
90.5164331198
 21
8.0346912145
 31
0.0
  0
LINE
  5
15B
330
1F
100
AcDbEntity
  8
1
  6
Continuous
370
    50
100
AcDbLine
 10
90.5164331198
 20
8.0346912145
 30
0.0
 11
90.035662055
 21
8.0346912145
 31
0.0
  0
LINE
  5
15C
330
1F
100
AcDbEntity
  8
1
  6
Continuous
370
    50
100
AcDbLine
 10
102.8243228793
 20
8.0346912145
 30
0.0
 11
102.7068421245
 21
7.5881984084
 31
0.0
  0
LINE
  5
15D
330
1F
100
AcDbEntity
  8
1
  6
Continuous
370
    50
100
AcDbLine
 10
102.7068421245
 20
7.5881984084
 30
0.0
 11
102.5889441371
 21
7.1401344613
 31
0.0
  0
LINE
  5
15E
330
1F
100
AcDbEntity
  8
1
  6
Continuous
370
    50
100
AcDbLine
 10
102.5889441371
 20
7.1401344613
 30
0.0
 11
102.452211082
 21
6.7294063046
 31
0.0
  0
LINE
  5
15F
330
1F
100
AcDbEntity
  8
1
  6
Continuous
370
    50
100
AcDbLine
 10
102.452211082
 20
6.7294063046
 30
0.0
 11
102.2348180413
 21
6.3491743058
 31
0.0
  0
LINE
  5
160
330
1F
100
AcDbEntity
  8
1
  6
Continuous
370
    50
100
AcDbLine
 10
102.2348180413
 20
6.3491743058
 30
0.0
 11
101.982600987
 21
6.1255926266
 31
0.0
  0
LINE
  5
161
330
1F
100
AcDbEntity
  8
1
  6
Continuous
370
    50
100
AcDbLine
 10
101.982600987
 20
6.1255926266
 30
0.0
 11
101.747199893
 21
6.0142464936
 31
0.0
  0
LINE
  5
162
330
1F
100
AcDbEntity
  8
1
  6
Continuous
370
    50
100
AcDbLine
 10
101.747199893
 20
6.0142464936
 30
0.0
 11
101.5879660845
 21
5.99142164
 31
0.0
  0
LINE
  5
163
330
1F
100
AcDbEntity
  8
1
  6
Continuous
370
    50
100
AcDbLine
 10
101.3062670827
 20
6.1116139405
 30
0.0
 11
101.1034399271
 21
5.7510370388
 31
0.0
  0
LINE
  5
164
330
1F
100
AcDbEntity
  8
1
  6
Continuous
370
    50
100
AcDbLine
 10
102.360457182
 20
6.143540144
 30
0.0
 11
102.2233590484
 21
5.7510370388
 31
0.0
  0
LINE
  5
165
330
1F
100
AcDbEntity
  8
1
  6
Continuous
370
    50
100
AcDbLine
 10
102.2233590484
 20
5.7510370388
 30
0.0
 11
102.7141436935
 21
5.7510370388
 31
0.0
  0
LINE
  5
166
330
1F
100
AcDbEntity
  8
1
  6
Continuous
370
    50
100
AcDbLine
 10
102.7141436935
 20
5.7510370388
 30
0.0
 11
102.9155254364
 21
6.5162740647
 31
0.0
  0
LINE
  5
167
330
1F
100
AcDbEntity
  8
1
  6
Continuous
370
    50
100
AcDbLine
 10
102.9155254364
 20
6.5162740647
 30
0.0
 11
103.1158864498
 21
7.2776428423
 31
0.0
  0
LINE
  5
168
330
1F
100
AcDbEntity
  8
1
  6
Continuous
370
    50
100
AcDbLine
 10
103.1158864498
 20
7.2776428423
 30
0.0
 11
103.3151075244
 21
8.0346912145
 31
0.0
  0
LINE
  5
169
330
1F
100
AcDbEntity
  8
1
  6
Continuous
370
    50
100
AcDbLine
 10
103.3151075244
 20
8.0346912145
 30
0.0
 11
102.8243228793
 21
8.0346912145
 31
0.0
  0
LINE
  5
16A
330
1F
100
AcDbEntity
  8
1
  6
Continuous
370
    50
100
AcDbLine
 10
114.5479232073
 20
8.0346912145
 30
0.0
 11
114.4079864025
 21
7.506181486
 31
0.0
  0
LINE
  5
16B
330
1F
100
AcDbEntity
  8
1
  6
Continuous
370
    50
100
AcDbLine
 10
114.4079864025
 20
7.506181486
 30
0.0
 11
114.2674684525
 21
6.9754961878
 31
0.0
  0
LINE
  5
16C
330
1F
100
AcDbEntity
  8
1
  6
Continuous
370
    50
100
AcDbLine
 10
112.9491105676
 20
6.4709391446
 30
0.0
 11
113.1534725428
 21
7.2550983169
 31
0.0
  0
LINE
  5
16D
330
1F
100
AcDbEntity
  8
1
  6
Continuous
370
    50
100
AcDbLine
 10
113.1534725428
 20
7.2550983169
 30
0.0
 11
113.3566424251
 21
8.0346912145
 31
0.0
  0
LINE
  5
16E
330
1F
100
AcDbEntity
  8
1
  6
Continuous
370
    50
100
AcDbLine
 10
113.3566424251
 20
8.0346912145
 30
0.0
 11
112.8658503294
 21
8.0346912145
 31
0.0
  0
LINE
  5
16F
330
1F
100
AcDbEntity
  8
1
  6
Continuous
370
    50
100
AcDbLine
 10
112.8658503294
 20
8.0346912145
 30
0.0
 11
112.7203032374
 21
7.4930880219
 31
0.0
  0
LINE
  5
170
330
1F
100
AcDbEntity
  8
1
  6
Continuous
370
    50
100
AcDbLine
 10
112.7203032374
 20
7.4930880219
 30
0.0
 11
112.5741377473
 21
6.9492040203
 31
0.0
  0
LINE
  5
171
330
1F
100
AcDbEntity
  8
1
  6
Continuous
370
    50
100
AcDbLine
 10
111.5618944168
 20
5.9914216399
 30
0.0
 11
111.3866493106
 21
6.0178735294
 31
0.0
  0
LINE
  5
172
330
1F
100
AcDbEntity
  8
1
  6
Continuous
370
    50
100
AcDbLine
 10
111.3866493106
 20
6.0178735294
 30
0.0
 11
111.3125309348
 21
6.0557802208
 31
0.0
  0
LINE
  5
173
330
1F
100
AcDbEntity
  8
1
  6
Continuous
370
    50
100
AcDbLine
 10
111.3125309348
 20
6.0557802208
 30
0.0
 11
111.2549975514
 21
6.1165271328
 31
0.0
  0
LINE
  5
174
330
1F
100
AcDbEntity
  8
1
  6
Continuous
370
    50
100
AcDbLine
 10
111.2549975514
 20
6.1165271328
 30
0.0
 11
111.2280637026
 21
6.1825481243
 31
0.0
  0
LINE
  5
175
330
1F
100
AcDbEntity
  8
1
  6
Continuous
370
    50
100
AcDbLine
 10
111.2280637026
 20
6.1825481243
 30
0.0
 11
111.222602427
 21
6.235562265
 31
0.0
  0
LINE
  5
176
330
1F
100
AcDbEntity
  8
1
  6
Continuous
370
    50
100
AcDbLine
 10
111.2745553255
 20
6.5041170456
 30
0.0
 11
111.474826932
 21
7.2715971619
 31
0.0
  0
LINE
  5
177
330
1F
100
AcDbEntity
  8
1
  6
Continuous
370
    50
100
AcDbLine
 10
111.474826932
 20
7.2715971619
 30
0.0
 11
111.6739436984
 21
8.0346912145
 31
0.0
  0
LINE
  5
178
330
1F
100
AcDbEntity
  8
1
  6
Continuous
370
    50
100
AcDbLine
 10
111.6739436984
 20
8.0346912145
 30
0.0
 11
111.1831590533
 21
8.0346912145
 31
0.0
  0
LINE
  5
179
330
1F
100
AcDbEntity
  8
1
  6
Continuous
370
    50
100
AcDbLine
 10
111.1831590533
 20
8.0346912145
 30
0.0
 11
110.9777614474
 21
7.3192343116
 31
0.0
  0
LINE
  5
17A
330
1F
100
AcDbEntity
  8
1
  6
Continuous
370
    50
100
AcDbLine
 10
110.9777614474
 20
7.3192343116
 30
0.0
 11
110.771253705
 21
6.5998951905
 31
0.0
  0
LINE
  5
17B
330
1F
100
AcDbEntity
  8
1
  6
Continuous
370
    50
100
AcDbLine
 10
110.7048988342
 20
6.2599764206
 30
0.0
 11
110.7464283705
 21
6.0366438702
 31
0.0
  0
LINE
  5
17C
330
1F
100
AcDbEntity
  8
1
  6
Continuous
370
    50
100
AcDbLine
 10
110.7464283705
 20
6.0366438702
 30
0.0
 11
110.8275949955
 21
5.9093190357
 31
0.0
  0
LINE
  5
17D
330
1F
100
AcDbEntity
  8
1
  6
Continuous
370
    50
100
AcDbLine
 10
110.8275949955
 20
5.9093190357
 30
0.0
 11
110.9457984567
 21
5.8140228503
 31
0.0
  0
LINE
  5
17E
330
1F
100
AcDbEntity
  8
1
  6
Continuous
370
    50
100
AcDbLine
 10
110.9457984567
 20
5.8140228503
 30
0.0
 11
111.1440733075
 21
5.7391738519
 31
0.0
  0
LINE
  5
17F
330
1F
100
AcDbEntity
  8
1
  6
Continuous
370
    50
100
AcDbLine
 10
111.1440733075
 20
5.7391738519
 30
0.0
 11
111.4279255271
 21
5.7109729388
 31
0.0
  0
LINE
  5
180
330
1F
100
AcDbEntity
  8
1
  6
Continuous
370
    50
100
AcDbLine
 10
114.0521243214
 20
6.1610681005
 30
0.0
 11
113.9438301325
 21
5.7510370388
 31
0.0
  0
LINE
  5
181
330
1F
100
AcDbEntity
  8
1
  6
Continuous
370
    50
100
AcDbLine
 10
113.9438301325
 20
5.7510370388
 30
0.0
 11
114.4352406263
 21
5.7510370388
 31
0.0
  0
LINE
  5
182
330
1F
100
AcDbEntity
  8
1
  6
Continuous
370
    50
100
AcDbLine
 10
114.4352406263
 20
5.7510370388
 30
0.0
 11
114.6376654506
 21
6.5162740647
 31
0.0
  0
LINE
  5
183
330
1F
100
AcDbEntity
  8
1
  6
Continuous
370
    50
100
AcDbLine
 10
114.6376654506
 20
6.5162740647
 30
0.0
 11
114.8390695453
 21
7.2776428423
 31
0.0
  0
LINE
  5
184
330
1F
100
AcDbEntity
  8
1
  6
Continuous
370
    50
100
AcDbLine
 10
114.8390695453
 20
7.2776428423
 30
0.0
 11
115.0393337011
 21
8.0346912145
 31
0.0
  0
LINE
  5
185
330
1F
100
AcDbEntity
  8
1
  6
Continuous
370
    50
100
AcDbLine
 10
115.0393337011
 20
8.0346912145
 30
0.0
 11
114.5479232073
 21
8.0346912145
 31
0.0
  0
LINE
  5
186
330
1F
100
AcDbEntity
  8
1
  6
Continuous
370
    50
100
AcDbLine
 10
135.5971060693
 20
-0.4737379494
 30
0.0
 11
135.4556456208
 21
0.8196675918
 31
0.0
  0
LINE
  5
187
330
1F
100
AcDbEntity
  8
1
  6
Continuous
370
    50
100
AcDbLine
 10
135.4556456208
 20
0.8196675918
 30
0.0
 11
135.3143341839
 21
2.1117341239
 31
0.0
  0
LINE
  5
188
330
1F
100
AcDbEntity
  8
1
  6
Continuous
370
    50
100
AcDbLine
 10
135.3143341839
 20
2.1117341239
 30
0.0
 11
135.1734027267
 21
3.4003504553
 31
0.0
  0
LINE
  5
189
330
1F
100
AcDbEntity
  8
1
  6
Continuous
370
    50
100
AcDbLine
 10
133.8073834777
 20
3.5846040119
 30
0.0
 11
133.2119368017
 21
2.0792125725
 31
0.0
  0
LINE
  5
18A
330
1F
100
AcDbEntity
  8
1
  6
Continuous
370
    50
100
AcDbLine
 10
133.2119368017
 20
2.0792125725
 30
0.0
 11
132.6146535575
 21
0.5691836123
 31
0.0
  0
LINE
  5
18B
330
1F
100
AcDbEntity
  8
1
  6
Continuous
370
    50
100
AcDbLine
 10
132.6146535575
 20
0.5691836123
 30
0.0
 11
132.0168673992
 21
-0.9421150898
 31
0.0
  0
LINE
  5
18C
330
1F
100
AcDbEntity
  8
1
  6
Continuous
370
    50
100
AcDbLine
 10
132.0168673992
 20
-0.9421150898
 30
0.0
 11
131.9248154759
 21
1.2504892656
 31
0.0
  0
LINE
  5
18D
330
1F
100
AcDbEntity
  8
1
  6
Continuous
370
    50
100
AcDbLine
 10
131.9248154759
 20
1.2504892656
 30
0.0
 11
131.8330094218
 21
3.43722268
 31
0.0
  0
LINE
  5
18E
330
1F
100
AcDbEntity
  8
1
  6
Continuous
370
    50
100
AcDbLine
 10
131.8330094218
 20
3.43722268
 30
0.0
 11
131.7418776453
 21
5.6078182533
 31
0.0
  0
LINE
  5
18F
330
1F
100
AcDbEntity
  8
1
  6
Continuous
370
    50
100
AcDbLine
 10
130.3577944637
 20
5.8004111052
 30
0.0
 11
129.4530555606
 21
3.0564463231
 31
0.0
  0
LINE
  5
190
330
1F
100
AcDbEntity
  8
1
  6
Continuous
370
    50
100
AcDbLine
 10
129.4530555606
 20
3.0564463231
 30
0.0
 11
128.5407543182
 21
0.2895685612
 31
0.0
  0
LINE
  5
191
330
1F
100
AcDbEntity
  8
1
  6
Continuous
370
    50
100
AcDbLine
 10
128.5407543182
 20
0.2895685612
 30
0.0
 11
127.6277452707
 21
-2.4794801139
 31
0.0
  0
LINE
  5
192
330
1F
100
AcDbEntity
  8
1
  6
Continuous
370
    50
100
AcDbLine
 10
127.6277452707
 20
-2.4794801139
 30
0.0
 11
127.564497292
 21
0.2267679665
 31
0.0
  0
LINE
  5
193
330
1F
100
AcDbEntity
  8
1
  6
Continuous
370
    50
100
AcDbLine
 10
127.564497292
 20
0.2267679665
 30
0.0
 11
127.5012791157
 21
2.9313920532
 31
0.0
  0
LINE
  5
194
330
1F
100
AcDbEntity
  8
1
  6
Continuous
370
    50
100
AcDbLine
 10
127.5012791157
 20
2.9313920532
 30
0.0
 11
127.4385601282
 21
5.6150248274
 31
0.0
  0
LINE
  5
195
330
1F
100
AcDbEntity
  8
1
  6
Continuous
370
    50
100
AcDbLine
 10
127.4385601282
 20
5.6150248274
 30
0.0
 11
127.3767799139
 21
8.2584479824
 31
0.0
  0
LINE
  5
196
330
1F
100
AcDbEntity
  8
1
  6
Continuous
370
    50
100
AcDbLine
 10
125.9944811464
 20
8.471689187
 30
0.0
 11
125.1132562757
 21
5.8944947086
 31
0.0
  0
LINE
  5
197
330
1F
100
AcDbEntity
  8
1
  6
Continuous
370
    50
100
AcDbLine
 10
125.1132562757
 20
5.8944947086
 30
0.0
 11
124.218262732
 21
3.2770342659
 31
0.0
  0
LINE
  5
198
330
1F
100
AcDbEntity
  8
1
  6
Continuous
370
    50
100
AcDbLine
 10
124.218262732
 20
3.2770342659
 30
0.0
 11
123.3156174421
 21
0.6371882627
 31
0.0
  0
LINE
  5
199
330
1F
100
AcDbEntity
  8
1
  6
Continuous
370
    50
100
AcDbLine
 10
123.3156174421
 20
0.6371882627
 30
0.0
 11
122.4114820361
 21
-2.0070103929
 31
0.0
  0
LINE
  5
19A
330
1F
100
AcDbEntity
  8
1
  6
Continuous
370
    50
100
AcDbLine
 10
122.4114820361
 20
-2.0070103929
 30
0.0
 11
121.5120330453
 21
-4.6374988742
 31
0.0
  0
LINE
  5
19B
330
1F
100
AcDbEntity
  8
1
  6
Continuous
370
    50
100
AcDbLine
 10
121.5120330453
 20
-4.6374988742
 30
0.0
 11
120.6234171987
 21
-7.2363088839
 31
0.0
  0
LINE
  5
19C
330
1F
100
AcDbEntity
  8
1
  6
Continuous
370
    50
100
AcDbLine
 10
120.6234171987
 20
-7.2363088839
 30
0.0
 11
119.7516992688
 21
-9.7856866196
 31
0.0
  0
LINE
  5
19D
330
1F
100
AcDbEntity
  8
1
  6
Continuous
370
    50
100
AcDbLine
 10
121.0960745811
 20
-10.2455262094
 30
0.0
 11
121.898278594
 21
-7.8992201016
 31
0.0
  0
LINE
  5
19E
330
1F
100
AcDbEntity
  8
1
  6
Continuous
370
    50
100
AcDbLine
 10
121.898278594
 20
-7.8992201016
 30
0.0
 11
122.7162629366
 21
-5.5067287757
 31
0.0
  0
LINE
  5
19F
330
1F
100
AcDbEntity
  8
1
  6
Continuous
370
    50
100
AcDbLine
 10
122.7162629366
 20
-5.5067287757
 30
0.0
 11
123.5452592373
 21
-3.0820411629
 31
0.0
  0
LINE
  5
1A0
330
1F
100
AcDbEntity
  8
1
  6
Continuous
370
    50
100
AcDbLine
 10
123.5452592373
 20
-3.0820411629
 30
0.0
 11
124.3804171681
 21
-0.6393333314
 31
0.0
  0
LINE
  5
1A1
330
1F
100
AcDbEntity
  8
1
  6
Continuous
370
    50
100
AcDbLine
 10
124.3804171681
 20
-0.6393333314
 30
0.0
 11
125.2168565989
 21
1.8071124796
 31
0.0
  0
LINE
  5
1A2
330
1F
100
AcDbEntity
  8
1
  6
Continuous
370
    50
100
AcDbLine
 10
125.2168565989
 20
1.8071124796
 30
0.0
 11
126.0496750474
 21
4.2429924943
 31
0.0
  0
LINE
  5
1A3
330
1F
100
AcDbEntity
  8
1
  6
Continuous
370
    50
100
AcDbLine
 10
126.0496750474
 20
4.2429924943
 30
0.0
 11
126.1132359505
 21
1.5226040269
 31
0.0
  0
LINE
  5
1A4
330
1F
100
AcDbEntity
  8
1
  6
Continuous
370
    50
100
AcDbLine
 10
126.1132359505
 20
1.5226040269
 30
0.0
 11
126.1770576239
 21
-1.2088784715
 31
0.0
  0
LINE
  5
1A5
330
1F
100
AcDbEntity
  8
1
  6
Continuous
370
    50
100
AcDbLine
 10
126.1770576239
 20
-1.2088784715
 30
0.0
 11
126.2406781316
 21
-3.9315526374
 31
0.0
  0
LINE
  5
1A6
330
1F
100
AcDbEntity
  8
1
  6
Continuous
370
    50
100
AcDbLine
 10
126.2406781316
 20
-3.9315526374
 30
0.0
 11
126.3036206365
 21
-6.6255806013
 31
0.0
  0
LINE
  5
1A7
330
1F
100
AcDbEntity
  8
1
  6
Continuous
370
    50
100
AcDbLine
 10
127.6883035898
 20
-6.8312776275
 30
0.0
 11
128.6129206419
 21
-4.0269847959
 31
0.0
  0
LINE
  5
1A8
330
1F
100
AcDbEntity
  8
1
  6
Continuous
370
    50
100
AcDbLine
 10
128.6129206419
 20
-4.0269847959
 30
0.0
 11
129.548035562
 21
-1.1908470187
 31
0.0
  0
LINE
  5
1A9
330
1F
100
AcDbEntity
  8
1
  6
Continuous
370
    50
100
AcDbLine
 10
129.548035562
 20
-1.1908470187
 30
0.0
 11
130.486253649
 21
1.6547074775
 31
0.0
  0
LINE
  5
1AA
330
1F
100
AcDbEntity
  8
1
  6
Continuous
370
    50
100
AcDbLine
 10
130.486253649
 20
1.6547074775
 30
0.0
 11
130.5704750121
 21
-0.3481973254
 31
0.0
  0
LINE
  5
1AB
330
1F
100
AcDbEntity
  8
1
  6
Continuous
370
    50
100
AcDbLine
 10
130.5704750121
 20
-0.3481973254
 30
0.0
 11
130.6546367705
 21
-2.3497375659
 31
0.0
  0
LINE
  5
1AC
330
1F
100
AcDbEntity
  8
1
  6
Continuous
370
    50
100
AcDbLine
 10
130.6546367705
 20
-2.3497375659
 30
0.0
 11
130.7384110987
 21
-4.3420684523
 31
0.0
  0
LINE
  5
1AD
330
1F
100
AcDbEntity
  8
1
  6
Continuous
370
    50
100
AcDbLine
 10
132.1080029011
 20
-4.573576618
 30
0.0
 11
132.7606216073
 21
-2.9237375128
 31
0.0
  0
LINE
  5
1AE
330
1F
100
AcDbEntity
  8
1
  6
Continuous
370
    50
100
AcDbLine
 10
132.7606216073
 20
-2.9237375128
 30
0.0
 11
133.4163546562
 21
-1.266018604
 31
0.0
  0
LINE
  5
1AF
330
1F
100
AcDbEntity
  8
1
  6
Continuous
370
    50
100
AcDbLine
 10
133.4163546562
 20
-1.266018604
 30
0.0
 11
134.0734399855
 21
0.3951125545
 31
0.0
  0
LINE
  5
1B0
330
1F
100
AcDbEntity
  8
1
  6
Continuous
370
    50
100
AcDbLine
 10
134.0734399855
 20
0.3951125545
 30
0.0
 11
134.1839358211
 21
-0.6157907774
 31
0.0
  0
LINE
  5
1B1
330
1F
100
AcDbEntity
  8
1
  6
Continuous
370
    50
100
AcDbLine
 10
134.1839358211
 20
-0.6157907774
 30
0.0
 11
134.2943683267
 21
-1.6260795528
 31
0.0
  0
LINE
  5
1B2
330
1F
100
AcDbEntity
  8
1
  6
Continuous
370
    50
100
AcDbLine
 10
134.2943683267
 20
-1.6260795528
 30
0.0
 11
134.4046182931
 21
-2.6347455569
 31
0.0
  0
LINE
  5
1B3
330
1F
100
AcDbEntity
  8
1
  6
Continuous
370
    50
100
AcDbLine
 10
135.7092857361
 20
-2.9395180755
 30
0.0
 11
136.1824832857
 21
-2.1974705159
 31
0.0
  0
LINE
  5
1B4
330
1F
100
AcDbEntity
  8
1
  6
Continuous
370
    50
100
AcDbLine
 10
136.1824832857
 20
-2.1974705159
 30
0.0
 11
136.6564370692
 21
-1.4542337739
 31
0.0
  0
LINE
  5
1B5
330
1F
100
AcDbEntity
  8
1
  6
Continuous
370
    50
100
AcDbLine
 10
136.6564370692
 20
-1.4542337739
 30
0.0
 11
137.1308974922
 21
-0.7102098316
 31
0.0
  0
LINE
  5
1B6
330
1F
100
AcDbEntity
  8
1
  6
Continuous
370
    50
100
AcDbLine
 10
137.1308974922
 20
-0.7102098316
 30
0.0
 11
149.2850743234
 21
-0.7102098316
 31
0.0
  0
LINE
  5
1B7
330
1F
100
AcDbEntity
  8
1
  6
Continuous
370
    50
100
AcDbLine
 10
149.2850743234
 20
0.7100112852
 30
0.0
 11
136.7413438857
 21
0.7100112853
 31
0.0
  0
LINE
  5
1B8
330
1F
100
AcDbEntity
  8
1
  6
Continuous
370
    50
100
AcDbLine
 10
136.1425183714
 20
0.382008322
 30
0.0
 11
135.8698084951
 21
-0.0458689246
 31
0.0
  0
LINE
  5
1B9
330
1F
100
AcDbEntity
  8
1
  6
Continuous
370
    50
100
AcDbLine
 10
135.8698084951
 20
-0.0458689246
 30
0.0
 11
135.5971060693
 21
-0.4737379494
 31
0.0
  0
LINE
  5
1BA
330
1F
100
AcDbEntity
  8
1
  6
Continuous
370
    50
100
AcDbLine
 10
94.6805179119
 20
-3.2875745092
 30
0.0
 11
115.9320175648
 21
-3.2875745091
 31
0.0
  0
LINE
  5
1BB
330
1F
100
AcDbEntity
  8
1
  6
Continuous
370
    50
100
AcDbLine
 10
114.7566065192
 20
-5.0689564086
 30
0.0
 11
90.0396332145
 21
-5.0689564087
 31
0.0
  0
LINE
  5
1BC
330
1F
100
AcDbEntity
  8
1
  6
Continuous
370
    50
100
AcDbLine
 10
90.0396332145
 20
-5.0689564087
 30
0.0
 11
89.8020341992
 21
-5.8809984475
 31
0.0
  0
LINE
  5
1BD
330
1F
100
AcDbEntity
  8
1
  6
Continuous
370
    50
100
AcDbLine
 10
89.8020341992
 20
-5.8809984475
 30
0.0
 11
89.5655751228
 21
-6.6891391761
 31
0.0
  0
LINE
  5
1BE
330
1F
100
AcDbEntity
  8
1
  6
Continuous
370
    50
100
AcDbLine
 10
89.5655751228
 20
-6.6891391761
 30
0.0
 11
89.330419898
 21
-7.4928426183
 31
0.0
  0
LINE
  5
1BF
330
1F
100
AcDbEntity
  8
1
  6
Continuous
370
    50
100
AcDbLine
 10
89.330419898
 20
-7.4928426183
 30
0.0
 11
114.5576611161
 21
-7.4928426183
 31
0.0
  0
LINE
  5
1C0
330
1F
100
AcDbEntity
  8
1
  6
Continuous
370
    50
100
AcDbLine
 10
116.1309629679
 20
-0.8636882412
 30
0.0
 11
94.879463315
 21
-0.8636882412
 31
0.0
  0
LINE
  5
1C1
330
1F
100
AcDbEntity
  8
1
  6
Continuous
370
    50
100
AcDbLine
 10
94.025708735
 20
0.4304542672
 30
0.0
 11
94.2203253508
 21
0.8424317348
 31
0.0
  0
LINE
  5
1C2
330
1F
100
AcDbEntity
  8
1
  6
Continuous
370
    50
100
AcDbLine
 10
94.2203253508
 20
0.8424317348
 30
0.0
 11
94.5396795869
 21
1.1669851375
 31
0.0
  0
LINE
  5
1C3
330
1F
100
AcDbEntity
  8
1
  6
Continuous
370
    50
100
AcDbLine
 10
94.5396795869
 20
1.1669851375
 30
0.0
 11
95.1357483864
 21
1.4699455351
 31
0.0
  0
LINE
  5
1C4
330
1F
100
AcDbEntity
  8
1
  6
Continuous
370
    50
100
AcDbLine
 10
95.1357483864
 20
1.4699455351
 30
0.0
 11
96.3627994061
 21
1.6736051766
 31
0.0
  0
LINE
  5
1C5
330
1F
100
AcDbEntity
  8
1
  6
Continuous
370
    50
100
AcDbLine
 10
96.3627994061
 20
1.6736051766
 30
0.0
 11
96.6485366225
 21
1.6793275717
 31
0.0
  0
LINE
  5
1C6
330
1F
100
AcDbEntity
  8
1
  6
Continuous
370
    50
100
AcDbLine
 10
96.6485366225
 20
1.6793275717
 30
0.0
 11
120.8008378744
 21
1.6793275717
 31
0.0
  0
LINE
  5
1C7
330
1F
100
AcDbEntity
  8
1
  6
Continuous
370
    50
100
AcDbLine
 10
120.8008378744
 20
1.6793275717
 30
0.0
 11
121.0462525487
 21
2.4889304769
 31
0.0
  0
LINE
  5
1C8
330
1F
100
AcDbEntity
  8
1
  6
Continuous
370
    50
100
AcDbLine
 10
121.0462525487
 20
2.4889304769
 30
0.0
 11
121.2911754847
 21
3.2969333698
 31
0.0
  0
LINE
  5
1C9
330
1F
100
AcDbEntity
  8
1
  6
Continuous
370
    50
100
AcDbLine
 10
121.2911754847
 20
3.2969333698
 30
0.0
 11
121.5354651213
 21
4.1028168052
 31
0.0
  0
LINE
  5
1CA
330
1F
100
AcDbEntity
  8
1
  6
Continuous
370
    50
100
AcDbLine
 10
121.5354651213
 20
4.1028168052
 30
0.0
 11
96.8466922641
 21
4.1028168052
 31
0.0
  0
LINE
  5
1CB
330
1F
100
AcDbEntity
  8
1
  6
Continuous
370
    50
100
AcDbLine
 10
191.9000016715
 20
-32.0000015199
 30
0.0
 11
191.9000016715
 21
32.0000015199
 31
0.0
  0
LINE
  5
1CC
330
1F
100
AcDbEntity
  8
1
  6
Continuous
370
    50
100
AcDbLine
 10
58.8996112347
 20
10.2455262095
 30
0.0
 11
58.0973774195
 21
7.8992201016
 31
0.0
  0
LINE
  5
1CD
330
1F
100
AcDbEntity
  8
1
  6
Continuous
370
    50
100
AcDbLine
 10
58.0973774195
 20
7.8992201016
 30
0.0
 11
57.2793483734
 21
5.5067287759
 31
0.0
  0
LINE
  5
1CE
330
1F
100
AcDbEntity
  8
1
  6
Continuous
370
    50
100
AcDbLine
 10
57.2793483734
 20
5.5067287759
 30
0.0
 11
56.4503222704
 21
3.082041163
 31
0.0
  0
LINE
  5
1CF
330
1F
100
AcDbEntity
  8
1
  6
Continuous
370
    50
100
AcDbLine
 10
56.4503222704
 20
3.082041163
 30
0.0
 11
55.6151270866
 21
0.6393333316
 31
0.0
  0
LINE
  5
1D0
330
1F
100
AcDbEntity
  8
1
  6
Continuous
370
    50
100
AcDbLine
 10
55.6151270866
 20
0.6393333316
 30
0.0
 11
54.7786653042
 21
-1.8071124796
 31
0.0
  0
LINE
  5
1D1
330
1F
100
AcDbEntity
  8
1
  6
Continuous
370
    50
100
AcDbLine
 10
54.7786653042
 20
-1.8071124796
 30
0.0
 11
53.9458096027
 21
-4.2429924943
 31
0.0
  0
LINE
  5
1D2
330
1F
100
AcDbEntity
  8
1
  6
Continuous
370
    50
100
AcDbLine
 10
53.9458096027
 20
-4.2429924943
 30
0.0
 11
53.8820922375
 21
-1.5226040269
 31
0.0
  0
LINE
  5
1D3
330
1F
100
AcDbEntity
  8
1
  6
Continuous
370
    50
100
AcDbLine
 10
53.8820922375
 20
-1.5226040269
 30
0.0
 11
53.8181215525
 21
1.2088784715
 31
0.0
  0
LINE
  5
1D4
330
1F
100
AcDbEntity
  8
1
  6
Continuous
370
    50
100
AcDbLine
 10
53.8181215525
 20
1.2088784715
 30
0.0
 11
53.7543594837
 21
3.9315526374
 31
0.0
  0
LINE
  5
1D5
330
1F
100
AcDbEntity
  8
1
  6
Continuous
370
    50
100
AcDbLine
 10
53.7543594837
 20
3.9315526374
 30
0.0
 11
53.6912679672
 21
6.6255806014
 31
0.0
  0
LINE
  5
1D6
330
1F
100
AcDbEntity
  8
1
  6
Continuous
370
    50
100
AcDbLine
 10
52.3065924645
 20
6.8308804184
 30
0.0
 11
51.3819754124
 21
4.0268474259
 31
0.0
  0
LINE
  5
1D7
330
1F
100
AcDbEntity
  8
1
  6
Continuous
370
    50
100
AcDbLine
 10
51.3819754124
 20
4.0268474259
 30
0.0
 11
50.4468530417
 21
1.1909765891
 31
0.0
  0
LINE
  5
1D8
330
1F
100
AcDbEntity
  8
1
  6
Continuous
370
    50
100
AcDbLine
 10
50.4468530417
 20
1.1909765891
 30
0.0
 11
49.5086312294
 21
-1.6543103848
 31
0.0
  0
LINE
  5
1D9
330
1F
100
AcDbEntity
  8
1
  6
Continuous
370
    50
100
AcDbLine
 10
49.5086312294
 20
-1.6543103848
 30
0.0
 11
49.4248121977
 21
0.3485291963
 31
0.0
  0
LINE
  5
1DA
330
1F
100
AcDbEntity
  8
1
  6
Continuous
370
    50
100
AcDbLine
 10
49.4248121977
 20
0.3485291963
 30
0.0
 11
49.3410527706
 21
2.350002993
 31
0.0
  0
LINE
  5
1DB
330
1F
100
AcDbEntity
  8
1
  6
Continuous
370
    50
100
AcDbLine
 10
49.3410527706
 20
2.350002993
 30
0.0
 11
49.2576658726
 21
4.3422668242
 31
0.0
  0
LINE
  5
1DC
330
1F
100
AcDbEntity
  8
1
  6
Continuous
370
    50
100
AcDbLine
 10
47.888070345
 20
4.5733782463
 30
0.0
 11
47.2352653742
 21
2.9236043337
 31
0.0
  0
LINE
  5
1DD
330
1F
100
AcDbEntity
  8
1
  6
Continuous
370
    50
100
AcDbLine
 10
47.2352653742
 20
2.9236043337
 30
0.0
 11
46.5793311596
 21
1.2659517815
 31
0.0
  0
LINE
  5
1DE
330
1F
100
AcDbEntity
  8
1
  6
Continuous
370
    50
100
AcDbLine
 10
46.5793311596
 20
1.2659517815
 30
0.0
 11
45.9220409393
 21
-0.3951125545
 31
0.0
  0
LINE
  5
1DF
330
1F
100
AcDbEntity
  8
1
  6
Continuous
370
    50
100
AcDbLine
 10
45.9220409393
 20
-0.3951125545
 30
0.0
 11
45.8115488291
 21
0.6157907773
 31
0.0
  0
LINE
  5
1E0
330
1F
100
AcDbEntity
  8
1
  6
Continuous
370
    50
100
AcDbLine
 10
45.8115488291
 20
0.6157907773
 30
0.0
 11
45.7011163235
 21
1.6260795528
 31
0.0
  0
LINE
  5
1E1
330
1F
100
AcDbEntity
  8
1
  6
Continuous
370
    50
100
AcDbLine
 10
45.7011163235
 20
1.6260795528
 30
0.0
 11
45.5908626318
 21
2.6347455569
 31
0.0
  0
LINE
  5
1E2
330
1F
100
AcDbEntity
  8
1
  6
Continuous
370
    50
100
AcDbLine
 10
44.2864000798
 20
2.9393197038
 30
0.0
 11
43.8133329153
 21
2.1972719114
 31
0.0
  0
LINE
  5
1E3
330
1F
100
AcDbEntity
  8
1
  6
Continuous
370
    50
100
AcDbLine
 10
43.8133329153
 20
2.1972719114
 30
0.0
 11
43.3395057917
 21
1.4540350531
 31
0.0
  0
LINE
  5
1E4
330
1F
100
AcDbEntity
  8
1
  6
Continuous
370
    50
100
AcDbLine
 10
43.3395057917
 20
1.4540350531
 30
0.0
 11
42.8651869297
 21
0.7100112853
 31
0.0
  0
LINE
  5
1E5
330
1F
100
AcDbEntity
  8
1
  6
Continuous
370
    50
100
AcDbLine
 10
42.8651869297
 20
0.7100112853
 30
0.0
 11
30.7100117207
 21
0.7100112853
 31
0.0
  0
LINE
  5
1E6
330
1F
100
AcDbEntity
  8
1
  6
Continuous
370
    50
100
AcDbLine
 10
30.7100117207
 20
-0.7102098316
 30
0.0
 11
43.2543456554
 21
-0.7102098316
 31
0.0
  0
LINE
  5
1E7
330
1F
100
AcDbEntity
  8
1
  6
Continuous
370
    50
100
AcDbLine
 10
43.8535660506
 20
-0.3820083221
 30
0.0
 11
44.1261678934
 21
0.0458689246
 31
0.0
  0
LINE
  5
1E8
330
1F
100
AcDbEntity
  8
1
  6
Continuous
370
    50
100
AcDbLine
 10
44.1261678934
 20
0.0458689246
 30
0.0
 11
44.3987697363
 21
0.4737379495
 31
0.0
  0
LINE
  5
1E9
330
1F
100
AcDbEntity
  8
1
  6
Continuous
370
    50
100
AcDbLine
 10
44.3987697363
 20
0.4737379495
 30
0.0
 11
44.5401072502
 21
-0.8196675917
 31
0.0
  0
LINE
  5
1EA
330
1F
100
AcDbEntity
  8
1
  6
Continuous
370
    50
100
AcDbLine
 10
44.5401072502
 20
-0.8196675917
 30
0.0
 11
44.6812808514
 21
-2.1117341239
 31
0.0
  0
LINE
  5
1EB
330
1F
100
AcDbEntity
  8
1
  6
Continuous
370
    50
100
AcDbLine
 10
44.6812808514
 20
-2.1117341239
 30
0.0
 11
44.8220819235
 21
-3.4003504551
 31
0.0
  0
LINE
  5
1EC
330
1F
100
AcDbEntity
  8
1
  6
Continuous
370
    50
100
AcDbLine
 10
46.1885035038
 20
-3.5842068027
 30
0.0
 11
46.7836856842
 21
-2.0791450515
 31
0.0
  0
LINE
  5
1ED
330
1F
100
AcDbEntity
  8
1
  6
Continuous
370
    50
100
AcDbLine
 10
46.7836856842
 20
-2.0791450515
 30
0.0
 11
47.3807007074
 21
-0.5694476422
 31
0.0
  0
LINE
  5
1EE
330
1F
100
AcDbEntity
  8
1
  6
Continuous
370
    50
100
AcDbLine
 10
47.3807007074
 20
-0.5694476422
 30
0.0
 11
47.9782223702
 21
0.9415194509
 31
0.0
  0
LINE
  5
1EF
330
1F
100
AcDbEntity
  8
1
  6
Continuous
370
    50
100
AcDbLine
 10
47.9782223702
 20
0.9415194509
 30
0.0
 11
48.0703413487
 21
-1.2510205852
 31
0.0
  0
LINE
  5
1F0
330
1F
100
AcDbEntity
  8
1
  6
Continuous
370
    50
100
AcDbLine
 10
48.0703413487
 20
-1.2510205852
 30
0.0
 11
48.1622070074
 21
-3.4376874101
 31
0.0
  0
LINE
  5
1F1
330
1F
100
AcDbEntity
  8
1
  6
Continuous
370
    50
100
AcDbLine
 10
48.1622070074
 20
-3.4376874101
 30
0.0
 11
48.2534021139
 21
-5.6082154624
 31
0.0
  0
LINE
  5
1F2
330
1F
100
AcDbEntity
  8
1
  6
Continuous
370
    50
100
AcDbLine
 10
49.6372878552
 20
-5.8008078485
 30
0.0
 11
50.5421608687
 21
-3.0567143112
 31
0.0
  0
LINE
  5
1F3
330
1F
100
AcDbEntity
  8
1
  6
Continuous
370
    50
100
AcDbLine
 10
50.5421608687
 20
-3.0567143112
 30
0.0
 11
51.4545887709
 21
-0.2897031373
 31
0.0
  0
LINE
  5
1F4
330
1F
100
AcDbEntity
  8
1
  6
Continuous
370
    50
100
AcDbLine
 10
51.4545887709
 20
-0.2897031373
 30
0.0
 11
52.36774683
 21
2.4794801139
 31
0.0
  0
LINE
  5
1F5
330
1F
100
AcDbEntity
  8
1
  6
Continuous
370
    50
100
AcDbLine
 10
52.36774683
 20
2.4794801139
 30
0.0
 11
52.43088305
 21
-0.2268707176
 31
0.0
  0
LINE
  5
1F6
330
1F
100
AcDbEntity
  8
1
  6
Continuous
370
    50
100
AcDbLine
 10
52.43088305
 20
-0.2268707176
 30
0.0
 11
52.4940043688
 21
-2.9315967112
 31
0.0
  0
LINE
  5
1F7
330
1F
100
AcDbEntity
  8
1
  6
Continuous
370
    50
100
AcDbLine
 10
52.4940043688
 20
-2.9315967112
 30
0.0
 11
52.5566190481
 21
-5.615327973
 31
0.0
  0
LINE
  5
1F8
330
1F
100
AcDbEntity
  8
1
  6
Continuous
370
    50
100
AcDbLine
 10
52.5566190481
 20
-5.615327973
 30
0.0
 11
52.6183098555
 21
-8.2588447258
 31
0.0
  0
LINE
  5
1F9
330
1F
100
AcDbEntity
  8
1
  6
Continuous
370
    50
100
AcDbLine
 10
54.0006011724
 20
-8.4720868618
 30
0.0
 11
54.8819452524
 21
-5.8948416263
 31
0.0
  0
LINE
  5
1FA
330
1F
100
AcDbEntity
  8
1
  6
Continuous
370
    50
100
AcDbLine
 10
54.8819452524
 20
-5.8948416263
 30
0.0
 11
55.7770431042
 21
-3.2773267011
 31
0.0
  0
LINE
  5
1FB
330
1F
100
AcDbEntity
  8
1
  6
Continuous
370
    50
100
AcDbLine
 10
55.7770431042
 20
-3.2773267011
 30
0.0
 11
56.6798150539
 21
-0.6374234799
 31
0.0
  0
LINE
  5
1FC
330
1F
100
AcDbEntity
  8
1
  6
Continuous
370
    50
100
AcDbLine
 10
56.6798150539
 20
-0.6374234799
 30
0.0
 11
57.5840622187
 21
2.0068343728
 31
0.0
  0
LINE
  5
1FD
330
1F
100
AcDbEntity
  8
1
  6
Continuous
370
    50
100
AcDbLine
 10
57.5840622187
 20
2.0068343728
 30
0.0
 11
58.4836304188
 21
4.637382459
 31
0.0
  0
LINE
  5
1FE
330
1F
100
AcDbEntity
  8
1
  6
Continuous
370
    50
100
AcDbLine
 10
58.4836304188
 20
4.637382459
 30
0.0
 11
59.3723505735
 21
7.2362516075
 31
0.0
  0
LINE
  5
1FF
330
1F
100
AcDbEntity
  8
1
  6
Continuous
370
    50
100
AcDbLine
 10
59.3723505735
 20
7.2362516075
 30
0.0
 11
60.2441728115
 21
9.7856866196
 31
0.0
  0
LINE
  5
200
330
1F
100
AcDbEntity
  8
1
  6
Continuous
370
    50
100
AcDbLine
 10
58.5199743509
 20
-1.3479492627
 30
0.0
 11
58.456838131
 21
-1.5721111558
 31
0.0
  0
LINE
  5
201
330
1F
100
AcDbEntity
  8
1
  6
Continuous
370
    50
100
AcDbLine
 10
64.0519559384
 20
-7.4928426183
 30
0.0
 11
87.5518172979
 21
-7.4928426183
 31
0.0
  0
LINE
  5
202
330
1F
100
AcDbEntity
  8
1
  6
Continuous
370
    50
100
AcDbLine
 10
87.5518172979
 20
-7.4928426183
 30
0.0
 11
88.3385390043
 21
-4.6274759806
 31
0.0
  0
LINE
  5
203
330
1F
100
AcDbEntity
  8
1
  6
Continuous
370
    50
100
AcDbLine
 10
88.3385390043
 20
-4.6274759806
 30
0.0
 11
89.135825634
 21
-1.7236233689
 31
0.0
  0
LINE
  5
204
330
1F
100
AcDbEntity
  8
1
  6
Continuous
370
    50
100
AcDbLine
 10
89.135825634
 20
-1.7236233689
 30
0.0
 11
89.9370536208
 21
1.19456416
 31
0.0
  0
LINE
  5
205
330
1F
100
AcDbEntity
  8
1
  6
Continuous
370
    50
100
AcDbLine
 10
89.9370536208
 20
1.19456416
 30
0.0
 11
90.7355472446
 21
4.1028168052
 31
0.0
  0
LINE
  5
206
330
1F
100
AcDbEntity
  8
1
  6
Continuous
370
    50
100
AcDbLine
 10
90.7355472446
 20
4.1028168052
 30
0.0
 11
66.7696893215
 21
4.1028168052
 31
0.0
  0
LINE
  5
207
330
1F
100
AcDbEntity
  8
1
  6
Continuous
370
    50
100
AcDbLine
 10
118.5827329755
 20
8.0747548491
 30
0.0
 11
118.2121485472
 21
8.0466680228
 31
0.0
  0
LINE
  5
208
330
1F
100
AcDbEntity
  8
1
  6
Continuous
370
    50
100
AcDbLine
 10
118.2121485472
 20
8.0466680228
 30
0.0
 11
117.7309602499
 21
7.8835980967
 31
0.0
  0
LINE
  5
209
330
1F
100
AcDbEntity
  8
1
  6
Continuous
370
    50
100
AcDbLine
 10
117.7309602499
 20
7.8835980967
 30
0.0
 11
117.551356554
 21
7.7425949276
 31
0.0
  0
LINE
  5
20A
330
1F
100
AcDbEntity
  8
1
  6
Continuous
370
    50
100
AcDbLine
 10
117.551356554
 20
7.7425949276
 30
0.0
 11
117.4282729626
 21
7.5514852069
 31
0.0
  0
LINE
  5
20B
330
1F
100
AcDbEntity
  8
1
  6
Continuous
370
    50
100
AcDbLine
 10
117.4282729626
 20
7.5514852069
 30
0.0
 11
117.3958331347
 21
7.3855272495
 31
0.0
  0
LINE
  5
20C
330
1F
100
AcDbEntity
  8
1
  6
Continuous
370
    50
100
AcDbLine
 10
118.8782081008
 20
6.281260401
 30
0.0
 11
118.8620403409
 21
6.2099862843
 31
0.0
  0
LINE
  5
20D
330
1F
100
AcDbEntity
  8
1
  6
Continuous
370
    50
100
AcDbLine
 10
118.8620403409
 20
6.2099862843
 30
0.0
 11
118.81929636
 21
6.1495765113
 31
0.0
  0
LINE
  5
20E
330
1F
100
AcDbEntity
  8
1
  6
Continuous
370
    50
100
AcDbLine
 10
118.81929636
 20
6.1495765113
 30
0.0
 11
118.7122240663
 21
6.067420356
 31
0.0
  0
LINE
  5
20F
330
1F
100
AcDbEntity
  8
1
  6
Continuous
370
    50
100
AcDbLine
 10
118.7122240663
 20
6.067420356
 30
0.0
 11
118.5443177819
 21
6.0089561158
 31
0.0
  0
LINE
  5
210
330
1F
100
AcDbEntity
  8
1
  6
Continuous
370
    50
100
AcDbLine
 10
118.5443177819
 20
6.0089561158
 30
0.0
 11
118.3461025357
 21
5.99142164
 31
0.0
  0
LINE
  5
211
330
1F
100
AcDbEntity
  8
1
  6
Continuous
370
    50
100
AcDbLine
 10
118.3461025357
 20
5.99142164
 30
0.0
 11
118.0320382118
 21
6.0302452184
 31
0.0
  0
LINE
  5
212
330
1F
100
AcDbEntity
  8
1
  6
Continuous
370
    50
100
AcDbLine
 10
118.0320382118
 20
6.0302452184
 30
0.0
 11
117.8771704435
 21
6.0979225673
 31
0.0
  0
LINE
  5
213
330
1F
100
AcDbEntity
  8
1
  6
Continuous
370
    50
100
AcDbLine
 10
117.8771704435
 20
6.0979225673
 30
0.0
 11
117.7516654134
 21
6.2118885107
 31
0.0
  0
LINE
  5
214
330
1F
100
AcDbEntity
  8
1
  6
Continuous
370
    50
100
AcDbLine
 10
117.7516654134
 20
6.2118885107
 30
0.0
 11
117.68951267
 21
6.3445982524
 31
0.0
  0
LINE
  5
215
330
1F
100
AcDbEntity
  8
1
  6
Continuous
370
    50
100
AcDbLine
 10
117.68951267
 20
6.3445982524
 30
0.0
 11
117.6762804389
 21
6.4321267419
 31
0.0
  0
LINE
  5
216
330
1F
100
AcDbEntity
  8
1
  6
Continuous
370
    50
100
AcDbLine
 10
117.6762804389
 20
6.4321267419
 30
0.0
 11
117.1955168247
 21
6.3920626416
 31
0.0
  0
LINE
  5
217
330
1F
100
AcDbEntity
  8
1
  6
Continuous
370
    50
100
AcDbLine
 10
117.1955168247
 20
6.3920626416
 30
0.0
 11
117.2379106283
 21
6.1885244214
 31
0.0
  0
LINE
  5
218
330
1F
100
AcDbEntity
  8
1
  6
Continuous
370
    50
100
AcDbLine
 10
117.2379106283
 20
6.1885244214
 30
0.0
 11
117.3535734415
 21
6.0121086427
 31
0.0
  0
LINE
  5
219
330
1F
100
AcDbEntity
  8
1
  6
Continuous
370
    50
100
AcDbLine
 10
117.3535734415
 20
6.0121086427
 30
0.0
 11
117.5578013063
 21
5.8590020053
 31
0.0
  0
LINE
  5
21A
330
1F
100
AcDbEntity
  8
1
  6
Continuous
370
    50
100
AcDbLine
 10
117.5578013063
 20
5.8590020053
 30
0.0
 11
117.9070025683
 21
5.7445168496
 31
0.0
  0
LINE
  5
21B
330
1F
100
AcDbEntity
  8
1
  6
Continuous
370
    50
100
AcDbLine
 10
117.9070025683
 20
5.7445168496
 30
0.0
 11
118.3223202825
 21
5.7109729388
 31
0.0
  0
LINE
  5
21C
330
1F
100
AcDbEntity
  8
1
  6
Continuous
370
    50
100
AcDbLine
 10
118.3223202825
 20
5.7109729388
 30
0.0
 11
118.8571229577
 21
5.7876938955
 31
0.0
  0
LINE
  5
21D
330
1F
100
AcDbEntity
  8
1
  6
Continuous
370
    50
100
AcDbLine
 10
118.8571229577
 20
5.7876938955
 30
0.0
 11
119.0888956189
 21
5.9038973413
 31
0.0
  0
LINE
  5
21E
330
1F
100
AcDbEntity
  8
1
  6
Continuous
370
    50
100
AcDbLine
 10
119.0888956189
 20
5.9038973413
 30
0.0
 11
119.2738562822
 21
6.0855387711
 31
0.0
  0
LINE
  5
21F
330
1F
100
AcDbEntity
  8
1
  6
Continuous
370
    50
100
AcDbLine
 10
119.2738562822
 20
6.0855387711
 30
0.0
 11
119.3427294493
 21
6.2336130068
 31
0.0
  0
LINE
  5
220
330
1F
100
AcDbEntity
  8
1
  6
Continuous
370
    50
100
AcDbLine
 10
119.3427294493
 20
6.2336130068
 30
0.0
 11
119.3589791656
 21
6.3601364382
 31
0.0
  0
LINE
  5
221
330
1F
100
AcDbEntity
  8
1
  6
Continuous
370
    50
100
AcDbLine
 10
117.8766041994
 20
7.4437456206
 30
0.0
 11
117.8929209709
 21
7.5276303106
 31
0.0
  0
LINE
  5
222
330
1F
100
AcDbEntity
  8
1
  6
Continuous
370
    50
100
AcDbLine
 10
117.8929209709
 20
7.5276303106
 30
0.0
 11
117.9376989603
 21
7.6011866332
 31
0.0
  0
LINE
  5
223
330
1F
100
AcDbEntity
  8
1
  6
Continuous
370
    50
100
AcDbLine
 10
117.9376989603
 20
7.6011866332
 30
0.0
 11
118.0385127664
 21
7.6864864677
 31
0.0
  0
LINE
  5
224
330
1F
100
AcDbEntity
  8
1
  6
Continuous
370
    50
100
AcDbLine
 10
118.0385127664
 20
7.6864864677
 30
0.0
 11
118.2113066316
 21
7.7585475519
 31
0.0
  0
LINE
  5
225
330
1F
100
AcDbEntity
  8
1
  6
Continuous
370
    50
100
AcDbLine
 10
118.2113066316
 20
7.7585475519
 30
0.0
 11
118.5458004475
 21
7.7943061479
 31
0.0
  0
LINE
  5
226
330
1F
100
AcDbEntity
  8
1
  6
Continuous
370
    50
100
AcDbLine
 10
118.5458004475
 20
7.7943061479
 30
0.0
 11
118.9499273896
 21
7.7241994441
 31
0.0
  0
LINE
  5
227
330
1F
100
AcDbEntity
  8
1
  6
Continuous
370
    50
100
AcDbLine
 10
118.9499273896
 20
7.7241994441
 30
0.0
 11
119.0973296762
 21
7.6460358686
 31
0.0
  0
LINE
  5
228
330
1F
100
AcDbEntity
  8
1
  6
Continuous
370
    50
100
AcDbLine
 10
119.0973296762
 20
7.6460358686
 30
0.0
 11
119.1926077008
 21
7.5523918495
 31
0.0
  0
LINE
  5
229
330
1F
100
AcDbEntity
  8
1
  6
Continuous
370
    50
100
AcDbLine
 10
119.1926077008
 20
7.5523918495
 30
0.0
 11
119.2504987121
 21
7.4331075885
 31
0.0
  0
LINE
  5
22A
330
1F
100
AcDbEntity
  8
1
  6
Continuous
370
    50
100
AcDbLine
 10
119.2504987121
 20
7.4331075885
 30
0.0
 11
119.2788481712
 21
7.2334087454
 31
0.0
  0
LINE
  5
22B
330
1F
100
AcDbEntity
  8
1
  6
Continuous
370
    50
100
AcDbLine
 10
119.2788481712
 20
7.2334087454
 30
0.0
 11
119.759619236
 21
7.2734728455
 31
0.0
  0
LINE
  5
22C
330
1F
100
AcDbEntity
  8
1
  6
Continuous
370
    50
100
AcDbLine
 10
105.8518961072
 20
7.2878710926
 30
0.0
 11
105.7254448533
 21
6.7232176662
 31
0.0
  0
LINE
  5
22D
330
1F
100
AcDbEntity
  8
1
  6
Continuous
370
    50
100
AcDbLine
 10
108.0353930592
 20
6.3920626417
 30
0.0
 11
107.5546219945
 21
6.4321267419
 31
0.0
  0
LINE
  5
22E
330
1F
100
AcDbEntity
  8
1
  6
Continuous
370
    50
100
AcDbLine
 10
107.4951514602
 20
6.7313555629
 30
0.0
 11
107.9284176231
 21
6.8581588567
 31
0.0
  0
LINE
  5
22F
330
1F
100
AcDbEntity
  8
1
  6
Continuous
370
    50
100
AcDbLine
 10
107.9284176231
 20
6.8581588567
 30
0.0
 11
108.1240624189
 21
6.9930516184
 31
0.0
  0
LINE
  5
230
330
1F
100
AcDbEntity
  8
1
  6
Continuous
370
    50
100
AcDbLine
 10
108.1240624189
 20
6.9930516184
 30
0.0
 11
108.2651689649
 21
7.1836393326
 31
0.0
  0
LINE
  5
231
330
1F
100
AcDbEntity
  8
1
  6
Continuous
370
    50
100
AcDbLine
 10
108.2651689649
 20
7.1836393326
 30
0.0
 11
108.3142757416
 21
7.3914551176
 31
0.0
  0
LINE
  5
232
330
1F
100
AcDbEntity
  8
1
  6
Continuous
370
    50
100
AcDbLine
 10
108.3142757416
 20
7.3914551176
 30
0.0
 11
108.3158403635
 21
7.4230874889
 31
0.0
  0
LINE
  5
233
330
1F
100
AcDbEntity
  8
1
  6
Continuous
370
    50
100
AcDbLine
 10
106.3489466906
 20
8.0346912146
 30
0.0
 11
105.865046382
 21
8.0346912146
 31
0.0
  0
LINE
  5
234
330
1F
100
AcDbEntity
  8
1
  6
Continuous
370
    50
100
AcDbLine
 10
98.7951382994
 20
7.3460889981
 30
0.0
 11
98.6152589321
 21
6.6902637482
 31
0.0
  0
LINE
  5
235
330
1F
100
AcDbEntity
  8
1
  6
Continuous
370
    50
100
AcDbLine
 10
98.6152589321
 20
6.6902637482
 30
0.0
 11
98.4345674515
 21
6.0314857401
 31
0.0
  0
LINE
  5
236
330
1F
100
AcDbEntity
  8
1
  6
Continuous
370
    50
100
AcDbLine
 10
98.4345674515
 20
6.0314857401
 30
0.0
 11
97.9137346149
 21
6.0314857401
 31
0.0
  0
LINE
  5
237
330
1F
100
AcDbEntity
  8
1
  6
Continuous
370
    50
100
AcDbLine
 10
97.9137346149
 20
6.0314857401
 30
0.0
 11
97.8336036205
 21
5.7510370388
 31
0.0
  0
LINE
  5
238
330
1F
100
AcDbEntity
  8
1
  6
Continuous
370
    50
100
AcDbLine
 10
97.8336036205
 20
5.7510370388
 30
0.0
 11
98.3544364572
 21
5.7510370388
 31
0.0
  0
LINE
  5
239
330
1F
100
AcDbEntity
  8
1
  6
Continuous
370
    50
100
AcDbLine
 10
98.3544364572
 20
5.7510370388
 30
0.0
 11
98.2543900609
 21
5.3308377973
 31
0.0
  0
LINE
  5
23A
330
1F
100
AcDbEntity
  8
1
  6
Continuous
370
    50
100
AcDbLine
 10
98.2543900609
 20
5.3308377973
 30
0.0
 11
98.1541126967
 21
4.9096909352
 31
0.0
  0
LINE
  5
23B
330
1F
100
AcDbEntity
  8
1
  6
Continuous
370
    50
100
AcDbLine
 10
98.1541126967
 20
4.9096909352
 30
0.0
 11
98.6924767494
 21
5.1820017398
 31
0.0
  0
LINE
  5
23C
330
1F
100
AcDbEntity
  8
1
  6
Continuous
370
    50
100
AcDbLine
 10
98.6924767494
 20
5.1820017398
 30
0.0
 11
98.8352075219
 21
5.7510370388
 31
0.0
  0
LINE
  5
23D
330
1F
100
AcDbEntity
  8
1
  6
Continuous
370
    50
100
AcDbLine
 10
98.8352075219
 20
5.7510370388
 30
0.0
 11
99.1957858205
 21
5.7510370388
 31
0.0
  0
LINE
  5
23E
330
1F
100
AcDbEntity
  8
1
  6
Continuous
370
    50
100
AcDbLine
 10
99.1957858205
 20
5.7510370388
 30
0.0
 11
99.2759093642
 21
6.0314857401
 31
0.0
  0
LINE
  5
23F
330
1F
100
AcDbEntity
  8
1
  6
Continuous
370
    50
100
AcDbLine
 10
99.2759093642
 20
6.0314857401
 30
0.0
 11
98.9153310657
 21
6.0314857401
 31
0.0
  0
LINE
  5
240
330
1F
100
AcDbEntity
  8
1
  6
Continuous
370
    50
100
AcDbLine
 10
98.9153310657
 20
6.0314857401
 30
0.0
 11
99.0960374475
 21
6.7034726962
 31
0.0
  0
LINE
  5
241
330
1F
100
AcDbEntity
  8
1
  6
Continuous
370
    50
100
AcDbLine
 10
99.0960374475
 20
6.7034726962
 30
0.0
 11
99.2759093642
 21
7.3723811656
 31
0.0
  0
LINE
  5
242
330
1F
100
AcDbEntity
  8
1
  6
Continuous
370
    50
100
AcDbLine
 10
98.4308049083
 20
8.04345496
 30
0.0
 11
98.3488038182
 21
7.7304542065
 31
0.0
  0
LINE
  5
243
330
1F
100
AcDbEntity
  8
1
  6
Continuous
370
    50
100
AcDbLine
 10
98.6417680979
 20
7.7943061479
 30
0.0
 11
98.727658391
 21
7.7874460257
 31
0.0
  0
LINE
  5
244
330
1F
100
AcDbEntity
  8
1
  6
Continuous
370
    50
100
AcDbLine
 10
98.727658391
 20
7.7874460257
 30
0.0
 11
98.7814813852
 21
7.770913653
 31
0.0
  0
LINE
  5
245
330
1F
100
AcDbEntity
  8
1
  6
Continuous
370
    50
100
AcDbLine
 10
98.7814813852
 20
7.770913653
 30
0.0
 11
98.817281425
 21
7.7452007681
 31
0.0
  0
LINE
  5
246
330
1F
100
AcDbEntity
  8
1
  6
Continuous
370
    50
100
AcDbLine
 10
98.817281425
 20
7.7452007681
 30
0.0
 11
98.84224087
 21
7.7094584703
 31
0.0
  0
LINE
  5
247
330
1F
100
AcDbEntity
  8
1
  6
Continuous
370
    50
100
AcDbLine
 10
98.84224087
 20
7.7094584703
 30
0.0
 11
98.8524407148
 21
7.6686069369
 31
0.0
  0
LINE
  5
248
330
1F
100
AcDbEntity
  8
1
  6
Continuous
370
    50
100
AcDbLine
 10
98.8524407148
 20
7.6686069369
 30
0.0
 11
98.853982985
 21
7.6465699822
 31
0.0
  0
LINE
  5
249
330
1F
100
AcDbEntity
  8
1
  6
Continuous
370
    50
100
AcDbLine
 10
84.8145708442
 20
7.2878710926
 30
0.0
 11
84.6881195903
 21
6.7232176662
 31
0.0
  0
LINE
  5
24A
330
1F
100
AcDbEntity
  8
1
  6
Continuous
370
    50
100
AcDbLine
 10
86.9980677962
 20
6.3920626417
 30
0.0
 11
86.5172967315
 21
6.4321267419
 31
0.0
  0
LINE
  5
24B
330
1F
100
AcDbEntity
  8
1
  6
Continuous
370
    50
100
AcDbLine
 10
86.4578261971
 20
6.7313555629
 30
0.0
 11
86.89109236
 21
6.8581588567
 31
0.0
  0
LINE
  5
24C
330
1F
100
AcDbEntity
  8
1
  6
Continuous
370
    50
100
AcDbLine
 10
86.89109236
 20
6.8581588567
 30
0.0
 11
87.0867371559
 21
6.9930516184
 31
0.0
  0
LINE
  5
24D
330
1F
100
AcDbEntity
  8
1
  6
Continuous
370
    50
100
AcDbLine
 10
87.0867371559
 20
6.9930516184
 30
0.0
 11
87.2278437018
 21
7.1836393326
 31
0.0
  0
LINE
  5
24E
330
1F
100
AcDbEntity
  8
1
  6
Continuous
370
    50
100
AcDbLine
 10
87.2278437018
 20
7.1836393326
 30
0.0
 11
87.2769504786
 21
7.3914551176
 31
0.0
  0
LINE
  5
24F
330
1F
100
AcDbEntity
  8
1
  6
Continuous
370
    50
100
AcDbLine
 10
87.2769504786
 20
7.3914551176
 30
0.0
 11
87.2785151005
 21
7.4230874889
 31
0.0
  0
LINE
  5
250
330
1F
100
AcDbEntity
  8
1
  6
Continuous
370
    50
100
AcDbLine
 10
85.3116214276
 20
8.0346912146
 30
0.0
 11
84.8277211189
 21
8.0346912146
 31
0.0
  0
LINE
  5
251
330
1F
100
AcDbEntity
  8
1
  6
Continuous
370
    50
100
AcDbLine
 10
74.6278092265
 20
6.0490136966
 30
0.0
 11
74.542671442
 21
5.7510370388
 31
0.0
  0
LINE
  5
252
330
1F
100
AcDbEntity
  8
1
  6
Continuous
370
    50
100
AcDbLine
 10
74.542671442
 20
5.7510370388
 30
0.0
 11
75.0334560871
 21
5.7510370388
 31
0.0
  0
LINE
  5
253
330
1F
100
AcDbEntity
  8
1
  6
Continuous
370
    50
100
AcDbLine
 10
75.0334560871
 20
5.7510370388
 30
0.0
 11
75.3160566092
 21
6.8007027731
 31
0.0
  0
LINE
  5
254
330
1F
100
AcDbEntity
  8
1
  6
Continuous
370
    50
100
AcDbLine
 10
75.3160566092
 20
6.8007027731
 30
0.0
 11
75.5966156721
 21
7.8427577391
 31
0.0
  0
LINE
  5
255
330
1F
100
AcDbEntity
  8
1
  6
Continuous
370
    50
100
AcDbLine
 10
75.5966156721
 20
7.8427577391
 30
0.0
 11
75.8748054504
 21
8.8760368526
 31
0.0
  0
LINE
  5
256
330
1F
100
AcDbEntity
  8
1
  6
Continuous
370
    50
100
AcDbLine
 10
75.8748054504
 20
8.8760368526
 30
0.0
 11
75.3840208054
 21
8.8760368526
 31
0.0
  0
LINE
  5
257
330
1F
100
AcDbEntity
  8
1
  6
Continuous
370
    50
100
AcDbLine
 10
75.3840208054
 20
8.8760368526
 30
0.0
 11
75.2207413316
 21
8.2766395063
 31
0.0
  0
LINE
  5
258
330
1F
100
AcDbEntity
  8
1
  6
Continuous
370
    50
100
AcDbLine
 10
75.2207413316
 20
8.2766395063
 30
0.0
 11
75.0566199422
 21
7.6741138473
 31
0.0
  0
LINE
  5
259
330
1F
100
AcDbEntity
  8
1
  6
Continuous
370
    50
100
AcDbLine
 10
64.9819076061
 20
8.0346912145
 30
0.0
 11
64.8644268513
 21
7.5881984084
 31
0.0
  0
LINE
  5
25A
330
1F
100
AcDbEntity
  8
1
  6
Continuous
370
    50
100
AcDbLine
 10
64.8644268513
 20
7.5881984084
 30
0.0
 11
64.7465288639
 21
7.1401344613
 31
0.0
  0
LINE
  5
25B
330
1F
100
AcDbEntity
  8
1
  6
Continuous
370
    50
100
AcDbLine
 10
64.7465288639
 20
7.1401344613
 30
0.0
 11
64.6097958088
 21
6.7294063046
 31
0.0
  0
LINE
  5
25C
330
1F
100
AcDbEntity
  8
1
  6
Continuous
370
    50
100
AcDbLine
 10
64.6097958088
 20
6.7294063046
 30
0.0
 11
64.3924027681
 21
6.3491743058
 31
0.0
  0
LINE
  5
25D
330
1F
100
AcDbEntity
  8
1
  6
Continuous
370
    50
100
AcDbLine
 10
64.3924027681
 20
6.3491743058
 30
0.0
 11
64.1401857138
 21
6.1255926266
 31
0.0
  0
LINE
  5
25E
330
1F
100
AcDbEntity
  8
1
  6
Continuous
370
    50
100
AcDbLine
 10
64.1401857138
 20
6.1255926266
 30
0.0
 11
63.9047920704
 21
6.0142464936
 31
0.0
  0
LINE
  5
25F
330
1F
100
AcDbEntity
  8
1
  6
Continuous
370
    50
100
AcDbLine
 10
63.9047920704
 20
6.0142464936
 30
0.0
 11
63.7455582619
 21
5.99142164
 31
0.0
  0
LINE
  5
260
330
1F
100
AcDbEntity
  8
1
  6
Continuous
370
    50
100
AcDbLine
 10
63.4638518095
 20
6.1116139404
 30
0.0
 11
63.2610321045
 21
5.7510370388
 31
0.0
  0
LINE
  5
261
330
1F
100
AcDbEntity
  8
1
  6
Continuous
370
    50
100
AcDbLine
 10
64.5180344581
 20
6.1435401439
 30
0.0
 11
64.3809437752
 21
5.7510370388
 31
0.0
  0
LINE
  5
262
330
1F
100
AcDbEntity
  8
1
  6
Continuous
370
    50
100
AcDbLine
 10
64.3809437752
 20
5.7510370388
 30
0.0
 11
64.8717284203
 21
5.7510370388
 31
0.0
  0
LINE
  5
263
330
1F
100
AcDbEntity
  8
1
  6
Continuous
370
    50
100
AcDbLine
 10
64.8717284203
 20
5.7510370388
 30
0.0
 11
65.0731176138
 21
6.5162740647
 31
0.0
  0
LINE
  5
264
330
1F
100
AcDbEntity
  8
1
  6
Continuous
370
    50
100
AcDbLine
 10
65.0731176138
 20
6.5162740647
 30
0.0
 11
65.2734637261
 21
7.2776428423
 31
0.0
  0
LINE
  5
265
330
1F
100
AcDbEntity
  8
1
  6
Continuous
370
    50
100
AcDbLine
 10
65.2734637261
 20
7.2776428423
 30
0.0
 11
65.4726922512
 21
8.0346912145
 31
0.0
  0
LINE
  5
266
330
1F
100
AcDbEntity
  8
1
  6
Continuous
370
    50
100
AcDbLine
 10
65.4726922512
 20
8.0346912145
 30
0.0
 11
64.9819076061
 21
8.0346912145
 31
0.0
  0
LINE
  5
267
330
1F
100
AcDbEntity
  8
1
  6
Continuous
370
    50
100
AcDbLine
 10
60.7965439558
 20
-2.0406867843
 30
0.0
 11
60.8600825071
 21
-1.8159293104
 31
0.0
  0
LINE
  5
268
330
1F
100
AcDbEntity
  8
1
  6
Continuous
370
    50
100
AcDbLine
 10
66.5715336799
 20
1.6793275718
 30
0.0
 11
87.602250278
 21
1.6793275717
 31
0.0
  0
LINE
  5
269
330
1F
100
AcDbEntity
  8
1
  6
Continuous
370
    50
100
AcDbLine
 10
85.7489928603
 20
-5.0689564087
 30
0.0
 11
64.2500966787
 21
-5.0689564087
 31
0.0
  0
LINE
  5
26A
330
1F
100
AcDbEntity
  8
1
  6
Continuous
370
    50
100
AcDbLine
 10
87.602250278
 20
1.6793275717
 30
0.0
 11
86.9826823473
 21
-0.5767018302
 31
0.0
  0
LINE
  5
26B
330
1F
100
AcDbEntity
  8
1
  6
Continuous
370
    50
100
AcDbLine
 10
86.9826823473
 20
-0.5767018302
 30
0.0
 11
86.3639041781
 21
-2.8298639226
 31
0.0
  0
LINE
  5
26C
330
1F
100
AcDbEntity
  8
1
  6
Continuous
370
    50
100
AcDbLine
 10
86.3639041781
 20
-2.8298639226
 30
0.0
 11
85.7489928603
 21
-5.0689564087
 31
0.0
  0
LINE
  5
26D
330
1F
100
AcDbEntity
  8
1
  6
Continuous
370
    50
100
AcDbLine
 10
192.0000016689
 20
-31.8999998272
 30
0.0
 11
192.0000016689
 21
31.8999998272
 31
0.0
  0
LINE
  5
26E
330
1F
100
AcDbEntity
  8
1
  6
Continuous
370
    50
100
AcDbLine
 10
68.2323426008
 20
6.7125754431
 30
0.0
 11
69.8730945587
 21
6.7125754431
 31
0.0
  0
LINE
  5
26F
330
1F
100
AcDbEntity
  8
1
  6
Continuous
370
    50
100
AcDbLine
 10
74.9107599258
 20
7.1182246321
 30
0.0
 11
74.8034343124
 21
6.6709709353
 31
0.0
  0
LINE
  5
270
330
1F
100
AcDbEntity
  8
1
  6
Continuous
370
    50
100
AcDbLine
 10
74.8034343124
 20
6.6709709353
 30
0.0
 11
74.5579376817
 21
6.2804287299
 31
0.0
  0
LINE
  5
271
330
1F
100
AcDbEntity
  8
1
  6
Continuous
370
    50
100
AcDbLine
 10
74.5579376817
 20
6.2804287299
 30
0.0
 11
74.3246302009
 21
6.0934098438
 31
0.0
  0
LINE
  5
272
330
1F
100
AcDbEntity
  8
1
  6
Continuous
370
    50
100
AcDbLine
 10
74.3246302009
 20
6.0934098438
 30
0.0
 11
74.0367025137
 21
5.9976303019
 31
0.0
  0
LINE
  5
273
330
1F
100
AcDbEntity
  8
1
  6
Continuous
370
    50
100
AcDbLine
 10
74.0367025137
 20
5.9976303019
 30
0.0
 11
73.9323198795
 21
5.99142164
 31
0.0
  0
LINE
  5
274
330
1F
100
AcDbEntity
  8
1
  6
Continuous
370
    50
100
AcDbLine
 10
73.3107030392
 20
6.6142934375
 30
0.0
 11
73.4039098024
 21
7.0872083306
 31
0.0
  0
LINE
  5
275
330
1F
100
AcDbEntity
  8
1
  6
Continuous
370
    50
100
AcDbLine
 10
73.4039098024
 20
7.0872083306
 30
0.0
 11
73.6494734883
 21
7.502226159
 31
0.0
  0
LINE
  5
276
330
1F
100
AcDbEntity
  8
1
  6
Continuous
370
    50
100
AcDbLine
 10
73.6494734883
 20
7.502226159
 30
0.0
 11
73.853366077
 21
7.6800105163
 31
0.0
  0
LINE
  5
277
330
1F
100
AcDbEntity
  8
1
  6
Continuous
370
    50
100
AcDbLine
 10
73.853366077
 20
7.6800105163
 30
0.0
 11
74.1095468402
 21
7.7792000956
 31
0.0
  0
LINE
  5
278
330
1F
100
AcDbEntity
  8
1
  6
Continuous
370
    50
100
AcDbLine
 10
74.1095468402
 20
7.7792000956
 30
0.0
 11
74.2722377181
 21
7.7943061479
 31
0.0
  0
LINE
  5
279
330
1F
100
AcDbEntity
  8
1
  6
Continuous
370
    50
100
AcDbLine
 10
86.2312167883
 20
7.7943061479
 30
0.0
 11
86.5144580603
 21
7.7544744126
 31
0.0
  0
LINE
  5
27A
330
1F
100
AcDbEntity
  8
1
  6
Continuous
370
    50
100
AcDbLine
 10
86.5144580603
 20
7.7544744126
 30
0.0
 11
86.6437628865
 21
7.6899202541
 31
0.0
  0
LINE
  5
27B
330
1F
100
AcDbEntity
  8
1
  6
Continuous
370
    50
100
AcDbLine
 10
86.6437628865
 20
7.6899202541
 30
0.0
 11
86.7452174425
 21
7.5877853669
 31
0.0
  0
LINE
  5
27C
330
1F
100
AcDbEntity
  8
1
  6
Continuous
370
    50
100
AcDbLine
 10
86.7452174425
 20
7.5877853669
 30
0.0
 11
86.7884233594
 21
7.4872840196
 31
0.0
  0
LINE
  5
27D
330
1F
100
AcDbEntity
  8
1
  6
Continuous
370
    50
100
AcDbLine
 10
86.7884233594
 20
7.4872840196
 30
0.0
 11
86.7977440357
 21
7.4068112298
 31
0.0
  0
LINE
  5
27E
330
1F
100
AcDbEntity
  8
1
  6
Continuous
370
    50
100
AcDbLine
 10
86.7977440357
 20
7.4068112298
 30
0.0
 11
86.7738202214
 21
7.2841229848
 31
0.0
  0
LINE
  5
27F
330
1F
100
AcDbEntity
  8
1
  6
Continuous
370
    50
100
AcDbLine
 10
86.7738202214
 20
7.2841229848
 30
0.0
 11
86.7063254118
 21
7.1771955118
 31
0.0
  0
LINE
  5
280
330
1F
100
AcDbEntity
  8
1
  6
Continuous
370
    50
100
AcDbLine
 10
86.7063254118
 20
7.1771955118
 30
0.0
 11
86.6059288383
 21
7.0948731154
 31
0.0
  0
LINE
  5
281
330
1F
100
AcDbEntity
  8
1
  6
Continuous
370
    50
100
AcDbLine
 10
86.6059288383
 20
7.0948731154
 30
0.0
 11
86.4124074578
 21
7.0185801015
 31
0.0
  0
LINE
  5
282
330
1F
100
AcDbEntity
  8
1
  6
Continuous
370
    50
100
AcDbLine
 10
86.4124074578
 20
7.0185801015
 30
0.0
 11
85.8481004834
 21
6.9441962987
 31
0.0
  0
LINE
  5
283
330
1F
100
AcDbEntity
  8
1
  6
Continuous
370
    50
100
AcDbLine
 10
107.2685420513
 20
7.7943061479
 30
0.0
 11
107.5517833233
 21
7.7544744126
 31
0.0
  0
LINE
  5
284
330
1F
100
AcDbEntity
  8
1
  6
Continuous
370
    50
100
AcDbLine
 10
107.5517833233
 20
7.7544744126
 30
0.0
 11
107.6810881496
 21
7.6899202541
 31
0.0
  0
LINE
  5
285
330
1F
100
AcDbEntity
  8
1
  6
Continuous
370
    50
100
AcDbLine
 10
107.6810881496
 20
7.6899202541
 30
0.0
 11
107.7825427055
 21
7.5877853669
 31
0.0
  0
LINE
  5
286
330
1F
100
AcDbEntity
  8
1
  6
Continuous
370
    50
100
AcDbLine
 10
107.7825427055
 20
7.5877853669
 30
0.0
 11
107.8257486224
 21
7.4872840196
 31
0.0
  0
LINE
  5
287
330
1F
100
AcDbEntity
  8
1
  6
Continuous
370
    50
100
AcDbLine
 10
107.8257486224
 20
7.4872840196
 30
0.0
 11
107.8350692988
 21
7.4068112298
 31
0.0
  0
LINE
  5
288
330
1F
100
AcDbEntity
  8
1
  6
Continuous
370
    50
100
AcDbLine
 10
107.8350692988
 20
7.4068112298
 30
0.0
 11
107.8111454845
 21
7.2841229848
 31
0.0
  0
LINE
  5
289
330
1F
100
AcDbEntity
  8
1
  6
Continuous
370
    50
100
AcDbLine
 10
107.8111454845
 20
7.2841229848
 30
0.0
 11
107.7436506748
 21
7.1771955118
 31
0.0
  0
LINE
  5
28A
330
1F
100
AcDbEntity
  8
1
  6
Continuous
370
    50
100
AcDbLine
 10
107.7436506748
 20
7.1771955118
 30
0.0
 11
107.6432541013
 21
7.0948731154
 31
0.0
  0
LINE
  5
28B
330
1F
100
AcDbEntity
  8
1
  6
Continuous
370
    50
100
AcDbLine
 10
107.6432541013
 20
7.0948731154
 30
0.0
 11
107.4497327209
 21
7.0185801015
 31
0.0
  0
LINE
  5
28C
330
1F
100
AcDbEntity
  8
1
  6
Continuous
370
    50
100
AcDbLine
 10
107.4497327209
 20
7.0185801015
 30
0.0
 11
106.8854257464
 21
6.9441962987
 31
0.0
  0
LINE
  5
28D
330
1F
100
AcDbEntity
  8
SK1
100
AcDbLine
 10
-34.9999964237
 20
8.6278039963
 30
0.0
 11
-9.0000033379
 21
8.6278039963
 31
0.0
  0
LINE
  5
28E
330
1F
100
AcDbEntity
  8
SK1
100
AcDbLine
 10
-34.9999964237
 20
8.6278039963
 30
0.0
 11
-34.9999964237
 21
17.9999992251
 31
0.0
  0
LINE
  5
28F
330
1F
100
AcDbEntity
  8
SK1
100
AcDbLine
 10
-34.9999964237
 20
-17.9999992251
 30
0.0
 11
-34.9999964237
 21
-8.6278039961
 31
0.0
  0
LINE
  5
290
330
1F
100
AcDbEntity
  8
SK1
100
AcDbLine
 10
-9.0000033379
 20
-8.6278039961
 30
0.0
 11
-34.9999964237
 21
-8.6278039961
 31
0.0
  0
LINE
  5
291
330
1F
100
AcDbEntity
  8
SK1
100
AcDbLine
 10
-17.0654952526
 20
-17.9948341101
 30
0.0
 11
-17.076343298
 21
-17.9986916482
 31
0.0
  0
LINE
  5
292
330
1F
100
AcDbEntity
  8
SK1
100
AcDbLine
 10
-17.076343298
 20
-17.9986916482
 30
0.0
 11
-16.9433057308
 21
-17.9516077042
 31
0.0
  0
LINE
  5
293
330
1F
100
AcDbEntity
  8
SK1
100
AcDbLine
 10
-16.9433057308
 20
-17.9516077042
 30
0.0
 11
-16.2302851677
 21
-17.7105367184
 31
0.0
  0
LINE
  5
294
330
1F
100
AcDbEntity
  8
SK1
100
AcDbLine
 10
-16.2302851677
 20
-17.7105367184
 30
0.0
 11
-14.9109810591
 21
-17.3168033362
 31
0.0
  0
LINE
  5
295
330
1F
100
AcDbEntity
  8
SK1
100
AcDbLine
 10
-14.9109810591
 20
-17.3168033362
 30
0.0
 11
-13.9729231596
 21
-17.0804262161
 31
0.0
  0
LINE
  5
296
330
1F
100
AcDbEntity
  8
SK1
100
AcDbLine
 10
-13.9729231596
 20
-17.0804262161
 30
0.0
 11
-12.9014104605
 21
-16.8571081012
 31
0.0
  0
LINE
  5
297
330
1F
100
AcDbEntity
  8
SK1
100
AcDbLine
 10
-12.9014104605
 20
-16.8571081012
 30
0.0
 11
-11.6396248341
 21
-16.6606940329
 31
0.0
  0
LINE
  5
298
330
1F
100
AcDbEntity
  8
SK1
100
AcDbLine
 10
-11.6396248341
 20
-16.6606940329
 30
0.0
 11
-10.2693736553
 21
-16.5318958462
 31
0.0
  0
LINE
  5
299
330
1F
100
AcDbEntity
  8
SK1
100
AcDbLine
 10
-10.2693736553
 20
-16.5318958462
 30
0.0
 11
-8.875221014
 21
-16.4933186024
 31
0.0
  0
LINE
  5
29A
330
1F
100
AcDbEntity
  8
SK1
100
AcDbLine
 10
-8.875221014
 20
-16.4933186024
 30
0.0
 11
-7.4433386326
 21
-16.5514871477
 31
0.0
  0
LINE
  5
29B
330
1F
100
AcDbEntity
  8
SK1
100
AcDbLine
 10
-7.4433386326
 20
-16.5514871477
 30
0.0
 11
-6.1164647341
 21
-16.6929233819
 31
0.0
  0
LINE
  5
29C
330
1F
100
AcDbEntity
  8
SK1
100
AcDbLine
 10
-6.1164647341
 20
-16.6929233819
 30
0.0
 11
-4.8334300518
 21
-16.9076230377
 31
0.0
  0
LINE
  5
29D
330
1F
100
AcDbEntity
  8
SK1
100
AcDbLine
 10
-4.8334300518
 20
-16.9076230377
 30
0.0
 11
-3.6807507276
 21
-17.1633437275
 31
0.0
  0
LINE
  5
29E
330
1F
100
AcDbEntity
  8
SK1
100
AcDbLine
 10
-3.6807507276
 20
-17.1633437275
 30
0.0
 11
-2.6497244835
 21
-17.440136522
 31
0.0
  0
LINE
  5
29F
330
1F
100
AcDbEntity
  8
SK1
100
AcDbLine
 10
-2.6497244835
 20
-17.440136522
 30
0.0
 11
-2.0065158606
 21
-17.6347717642
 31
0.0
  0
LINE
  5
2A0
330
1F
100
AcDbEntity
  8
SK1
100
AcDbLine
 10
-2.0065158606
 20
-17.6347717642
 30
0.0
 11
-1.4854371548
 21
-17.8043432534
 31
0.0
  0
LINE
  5
2A1
330
1F
100
AcDbEntity
  8
SK1
100
AcDbLine
 10
-1.4854371548
 20
17.8043432534
 30
0.0
 11
-2.5868862867
 21
17.4584221095
 31
0.0
  0
LINE
  5
2A2
330
1F
100
AcDbEntity
  8
SK1
100
AcDbLine
 10
-2.5868862867
 20
17.4584221095
 30
0.0
 11
-3.4080892801
 21
17.2322262079
 31
0.0
  0
LINE
  5
2A3
330
1F
100
AcDbEntity
  8
SK1
100
AcDbLine
 10
-3.4080892801
 20
17.2322262079
 30
0.0
 11
-4.3648928404
 21
17.0045495034
 31
0.0
  0
LINE
  5
2A4
330
1F
100
AcDbEntity
  8
SK1
100
AcDbLine
 10
-4.3648928404
 20
17.0045495034
 30
0.0
 11
-5.5338740349
 21
16.7810805143
 31
0.0
  0
LINE
  5
2A5
330
1F
100
AcDbEntity
  8
SK1
100
AcDbLine
 10
-5.5338740349
 20
16.7810805143
 30
0.0
 11
-6.8240463734
 21
16.6071336717
 31
0.0
  0
LINE
  5
2A6
330
1F
100
AcDbEntity
  8
SK1
100
AcDbLine
 10
-6.8240463734
 20
16.6071336717
 30
0.0
 11
-8.2026720047
 21
16.5083222091
 31
0.0
  0
LINE
  5
2A7
330
1F
100
AcDbEntity
  8
SK1
100
AcDbLine
 10
-8.2026720047
 20
16.5083222091
 30
0.0
 11
-9.6460282803
 21
16.5030397474
 31
0.0
  0
LINE
  5
2A8
330
1F
100
AcDbEntity
  8
SK1
100
AcDbLine
 10
-9.6460282803
 20
16.5030397474
 30
0.0
 11
-11.0078305006
 21
16.5902227163
 31
0.0
  0
LINE
  5
2A9
330
1F
100
AcDbEntity
  8
SK1
100
AcDbLine
 10
-11.0078305006
 20
16.5902227163
 30
0.0
 11
-12.3511552811
 21
16.7624428868
 31
0.0
  0
LINE
  5
2AA
330
1F
100
AcDbEntity
  8
SK1
100
AcDbLine
 10
-12.3511552811
 20
16.7624428868
 30
0.0
 11
-13.5754644871
 21
16.9916749
 31
0.0
  0
LINE
  5
2AB
330
1F
100
AcDbEntity
  8
SK1
100
AcDbLine
 10
-13.5754644871
 20
16.9916749
 30
0.0
 11
-14.7044062614
 21
17.2615610064
 31
0.0
  0
LINE
  5
2AC
330
1F
100
AcDbEntity
  8
SK1
100
AcDbLine
 10
-14.7044062614
 20
17.2615610064
 30
0.0
 11
-15.6354010105
 21
17.5243839622
 31
0.0
  0
LINE
  5
2AD
330
1F
100
AcDbEntity
  8
SK1
100
AcDbLine
 10
-15.6354010105
 20
17.5243839622
 30
0.0
 11
-16.3898169994
 21
17.7627988159
 31
0.0
  0
LINE
  5
2AE
330
1F
100
AcDbEntity
  8
SK1
100
AcDbLine
 10
-16.3898169994
 20
17.7627988159
 30
0.0
 11
-16.8322920799
 21
17.912818119
 31
0.0
  0
LINE
  5
2AF
330
1F
100
AcDbEntity
  8
SK1
100
AcDbLine
 10
-16.8322920799
 20
17.912818119
 30
0.0
 11
-17.0598626137
 21
17.9928224533
 31
0.0
  0
LINE
  5
2B0
330
1F
100
AcDbEntity
  8
SK1
100
AcDbLine
 10
-17.0598626137
 20
17.9928224533
 30
0.0
 11
-17.0582979917
 21
17.9922673852
 31
0.0
  0
LINE
  5
2B1
330
1F
100
AcDbEntity
  8
SK1
100
AcDbLine
 10
-1.4854371548
 20
17.8043432534
 30
0.0
 11
-1.4854371548
 21
-17.8043432534
 31
0.0
  0
LINE
  5
2B2
330
1F
100
AcDbEntity
  8
SK1
100
AcDbLine
 10
-9.0000033379
 20
-8.6278039961
 30
0.0
 11
-9.0000033379
 21
8.6278039963
 31
0.0
  0
LINE
  5
2B3
330
1F
100
AcDbEntity
  8
SK1
100
AcDbLine
 10
-0.9964108467
 20
-17.8686901926
 30
0.0
 11
-0.9957402944
 21
-17.8687851876
 31
0.0
  0
LINE
  5
2B4
330
1F
100
AcDbEntity
  8
SK1
100
AcDbLine
 10
-0.9957402944
 20
-17.8687851876
 30
0.0
 11
-1.1164397001
 21
-17.8518630565
 31
0.0
  0
LINE
  5
2B5
330
1F
100
AcDbEntity
  8
SK1
100
AcDbLine
 10
-1.1164397001
 20
-17.8518630565
 30
0.0
 11
-1.4854371548
 21
-17.8043432534
 31
0.0
  0
LINE
  5
2B6
330
1F
100
AcDbEntity
  8
SK1
100
AcDbLine
 10
-1.4854371548
 20
17.8043432534
 30
0.0
 11
-1.123458147
 21
17.8508982063
 31
0.0
  0
LINE
  5
2B7
330
1F
100
AcDbEntity
  8
SK1
100
AcDbLine
 10
-1.123458147
 20
17.8508982063
 30
0.0
 11
-0.9964108467
 21
17.8686901928
 31
0.0
  0
LINE
  5
2B8
330
1F
100
AcDbEntity
  8
SK1
100
AcDbLine
 10
-34.9999964237
 20
8.6278039963
 30
0.0
 11
-35.4995727539
 21
7.8279962764
 31
0.0
  0
LINE
  5
2B9
330
1F
100
AcDbEntity
  8
SK1
100
AcDbLine
 10
-35.4995727539
 20
7.8279962764
 30
0.0
 11
-35.675957799
 21
6.9960406981
 31
0.0
  0
LINE
  5
2BA
330
1F
100
AcDbEntity
  8
SK1
100
AcDbLine
 10
-35.675957799
 20
6.9960406981
 30
0.0
 11
-35.675957799
 21
-6.9960406982
 31
0.0
  0
LINE
  5
2BB
330
1F
100
AcDbEntity
  8
SK1
100
AcDbLine
 10
-35.675957799
 20
-6.9960406982
 30
0.0
 11
-35.4740917683
 21
-7.8861834482
 31
0.0
  0
LINE
  5
2BC
330
1F
100
AcDbEntity
  8
SK1
100
AcDbLine
 10
-35.4740917683
 20
-7.8861834482
 30
0.0
 11
-34.9999964237
 21
-8.6278039961
 31
0.0
  0
LINE
  5
2BD
330
1F
100
AcDbEntity
  8
SK1
100
AcDbLine
 10
-19.6485519409
 20
4.041752778
 30
0.0
 11
-18.7252163887
 21
4.7514992767
 31
0.0
  0
LINE
  5
2BE
330
1F
100
AcDbEntity
  8
SK1
100
AcDbLine
 10
-18.7252163887
 20
4.7514992767
 30
0.0
 11
-17.6782608032
 21
5.2707889117
 31
0.0
  0
LINE
  5
2BF
330
1F
100
AcDbEntity
  8
SK1
100
AcDbLine
 10
-17.6782608032
 20
5.2707889117
 30
0.0
 11
-16.7081952095
 21
5.5488795043
 31
0.0
  0
LINE
  5
2C0
330
1F
100
AcDbEntity
  8
SK1
100
AcDbLine
 10
-16.7081952095
 20
5.5488795043
 30
0.0
 11
-15.7028287649
 21
5.6656021624
 31
0.0
  0
LINE
  5
2C1
330
1F
100
AcDbEntity
  8
SK1
100
AcDbLine
 10
-15.7028287649
 20
5.6656021624
 30
0.0
 11
-13.7364268303
 21
5.4112705402
 31
0.0
  0
LINE
  5
2C2
330
1F
100
AcDbEntity
  8
SK1
100
AcDbLine
 10
-13.7364268303
 20
5.4112705402
 30
0.0
 11
-11.9748413563
 21
4.5528509654
 31
0.0
  0
LINE
  5
2C3
330
1F
100
AcDbEntity
  8
SK1
100
AcDbLine
 10
-11.9748413563
 20
4.5528509654
 30
0.0
 11
-11.2128853798
 21
3.9059352129
 31
0.0
  0
LINE
  5
2C4
330
1F
100
AcDbEntity
  8
SK1
100
AcDbLine
 10
-11.2128853798
 20
3.9059352129
 30
0.0
 11
-10.5728656053
 21
3.1379058491
 31
0.0
  0
LINE
  5
2C5
330
1F
100
AcDbEntity
  8
SK1
100
AcDbLine
 10
-10.5728656053
 20
3.1379058491
 30
0.0
 11
-10.0833624601
 21
2.2776450497
 31
0.0
  0
LINE
  5
2C6
330
1F
100
AcDbEntity
  8
SK1
100
AcDbLine
 10
-10.0833624601
 20
2.2776450497
 30
0.0
 11
-9.7520947456
 21
1.3410507236
 31
0.0
  0
LINE
  5
2C7
330
1F
100
AcDbEntity
  8
SK1
100
AcDbLine
 10
-9.7520947456
 20
1.3410507236
 30
0.0
 11
-9.6079707146
 21
-0.5072733621
 31
0.0
  0
LINE
  5
2C8
330
1F
100
AcDbEntity
  8
SK1
100
AcDbLine
 10
-9.6079707146
 20
-0.5072733621
 30
0.0
 11
-10.0484937429
 21
-2.2017394659
 31
0.0
  0
LINE
  5
2C9
330
1F
100
AcDbEntity
  8
SK1
100
AcDbLine
 10
-10.0484937429
 20
-2.2017394659
 30
0.0
 11
-11.0071152449
 21
-3.6882623099
 31
0.0
  0
LINE
  5
2CA
330
1F
100
AcDbEntity
  8
SK1
100
AcDbLine
 10
-11.0071152449
 20
-3.6882623099
 30
0.0
 11
-12.4740898609
 21
-4.8714852891
 31
0.0
  0
LINE
  5
2CB
330
1F
100
AcDbEntity
  8
SK1
100
AcDbLine
 10
-12.4740898609
 20
-4.8714852891
 30
0.0
 11
-14.3492817879
 21
-5.5606965907
 31
0.0
  0
LINE
  5
2CC
330
1F
100
AcDbEntity
  8
SK1
100
AcDbLine
 10
-14.3492817879
 20
-5.5606965907
 30
0.0
 11
-16.3546353578
 21
-5.6094876491
 31
0.0
  0
LINE
  5
2CD
330
1F
100
AcDbEntity
  8
SK1
100
AcDbLine
 10
-16.3546353578
 20
-5.6094876491
 30
0.0
 11
-18.2290971279
 21
-5.0298753194
 31
0.0
  0
LINE
  5
2CE
330
1F
100
AcDbEntity
  8
SK1
100
AcDbLine
 10
-18.2290971279
 20
-5.0298753194
 30
0.0
 11
-19.8252946138
 21
-3.8678667042
 31
0.0
  0
LINE
  5
2CF
330
1F
100
AcDbEntity
  8
SK1
100
AcDbLine
 10
-19.8252946138
 20
-3.8678667042
 30
0.0
 11
-20.45789361
 21
-3.0919113197
 31
0.0
  0
LINE
  5
2D0
330
1F
100
AcDbEntity
  8
SK1
100
AcDbLine
 10
-20.45789361
 20
-3.0919113197
 30
0.0
 11
-20.9458172321
 21
-2.2146250122
 31
0.0
  0
LINE
  5
2D1
330
1F
100
AcDbEntity
  8
SK1
100
AcDbLine
 10
-20.9458172321
 20
-2.2146250122
 30
0.0
 11
-21.2563127279
 21
-1.3042662759
 31
0.0
  0
LINE
  5
2D2
330
1F
100
AcDbEntity
  8
SK1
100
AcDbLine
 10
-21.2563127279
 20
-1.3042662759
 30
0.0
 11
-21.4044004679
 21
-0.3510010137
 31
0.0
  0
LINE
  5
2D3
330
1F
100
AcDbEntity
  8
SK1
100
AcDbLine
 10
-21.4044004679
 20
-0.3510010137
 30
0.0
 11
-21.2252438068
 21
1.4272977133
 31
0.0
  0
LINE
  5
2D4
330
1F
100
AcDbEntity
  8
SK1
100
AcDbLine
 10
-21.2252438068
 20
1.4272977133
 30
0.0
 11
-20.5083191395
 21
3.0175463763
 31
0.0
  0
LINE
  5
2D5
330
1F
100
AcDbEntity
  8
SK1
100
AcDbLine
 10
-20.5083191395
 20
3.0175463763
 30
0.0
 11
-19.6485519409
 21
4.041752778
 31
0.0
  0
LINE
  5
2D6
330
1F
100
AcDbEntity
  8
SK1
100
AcDbLine
 10
-39.9999984941
 20
-17.0000001942
 30
0.0
 11
-39.9999984941
 21
16.9999998058
 31
0.0
  0
LINE
  5
2D7
330
1F
100
AcDbEntity
  8
1
  6
Continuous
370
    50
100
AcDbLine
 10
228.0000001192
 20
31.7500010132
 30
0.0
 11
206.1797659844
 21
31.7500010132
 31
0.0
  0
LINE
  5
2D8
330
1F
100
AcDbEntity
  8
1
  6
Continuous
370
    50
100
AcDbLine
 10
203.5172535106
 20
31.6514223814
 30
0.0
 11
203.5407274962
 21
31.5892398358
 31
0.0
  0
LINE
  5
2D9
330
1F
100
AcDbEntity
  8
1
  6
Continuous
370
    50
100
AcDbLine
 10
203.5407274962
 20
31.5892398358
 30
0.0
 11
203.5698955879
 21
31.5119698644
 31
0.0
  0
LINE
  5
2DA
330
1F
100
AcDbEntity
  8
1
  6
Continuous
370
    50
100
AcDbLine
 10
214.7966101766
 20
23.749999702
 30
0.0
 11
224.5070375502
 21
23.749999702
 31
0.0
  0
LINE
  5
2DB
330
1F
100
AcDbEntity
  8
1
100
AcDbLine
 10
228.0000023309
 20
21.5588962935
 30
0.0
 11
228.0000007812
 21
20.8614130974
 31
0.0
  0
LINE
  5
2DC
330
1F
100
AcDbEntity
  8
1
100
AcDbLine
 10
228.0000007812
 20
20.7102296413
 30
0.0
 11
228.0000007812
 21
19.959505415
 31
0.0
  0
LINE
  5
2DD
330
1F
100
AcDbEntity
  8
1
100
AcDbLine
 10
228.0000025128
 20
12.210102828
 30
0.0
 11
228.0000009631
 21
10.3953115816
 31
0.0
  0
LINE
  5
2DE
330
1F
100
AcDbEntity
  8
1
  6
Continuous
370
    50
100
AcDbLine
 10
228.0000009631
 20
10.3953115816
 30
0.0
 11
217.7000016963
 21
10.3953115816
 31
0.0
  0
LINE
  5
2DF
330
1F
100
AcDbEntity
  8
1
  6
Continuous
370
    50
100
AcDbLine
 10
228.0000008398
 20
-10.3953117505
 30
0.0
 11
217.7000016686
 21
-10.3953114431
 31
0.0
  0
LINE
  5
2E0
330
1F
100
AcDbEntity
  8
1
100
AcDbLine
 10
228.0000008398
 20
-10.3953117505
 30
0.0
 11
228.0000008398
 21
-12.2101065001
 31
0.0
  0
LINE
  5
2E1
330
1F
100
AcDbEntity
  8
1
100
AcDbLine
 10
228.0000021784
 20
-19.9595102897
 30
0.0
 11
228.0000006287
 21
-21.5588994512
 31
0.0
  0
LINE
  5
2E2
330
1F
100
AcDbEntity
  8
1
100
AcDbLine
 10
228.0000017342
 20
-25.6648105451
 30
0.0
 11
228.0000001845
 21
-26.6173930715
 31
0.0
  0
LINE
  5
2E3
330
1F
100
AcDbEntity
  8
1
100
AcDbLine
 10
224.7519269586
 20
-28.2110869885
 30
0.0
 11
224.7155383229
 21
-28.1991176308
 31
0.0
  0
LINE
  5
2E4
330
1F
100
AcDbEntity
  8
1
100
AcDbLine
 10
224.7155383229
 20
-28.1991176308
 30
0.0
 11
224.6061302722
 21
-28.1448923051
 31
0.0
  0
LINE
  5
2E5
330
1F
100
AcDbEntity
  8
1
100
AcDbLine
 10
224.6061302722
 20
-28.1448923051
 30
0.0
 11
224.5295085013
 21
-28.0704274774
 31
0.0
  0
LINE
  5
2E6
330
1F
100
AcDbEntity
  8
1
100
AcDbLine
 10
224.5295085013
 20
-28.0704274774
 30
0.0
 11
224.5020009577
 21
-27.9786475002
 31
0.0
  0
LINE
  5
2E7
330
1F
100
AcDbEntity
  8
1
100
AcDbLine
 10
224.5020009577
 20
-27.9786475002
 30
0.0
 11
224.5404645801
 21
-27.8792120517
 31
0.0
  0
LINE
  5
2E8
330
1F
100
AcDbEntity
  8
1
100
AcDbLine
 10
224.5404645801
 20
-27.8792120517
 30
0.0
 11
224.6489450336
 21
-27.7905259282
 31
0.0
  0
LINE
  5
2E9
330
1F
100
AcDbEntity
  8
1
100
AcDbLine
 10
224.6489450336
 20
-27.7905259282
 30
0.0
 11
224.7519254576
 21
-27.7467947513
 31
0.0
  0
LINE
  5
2EA
330
1F
100
AcDbEntity
  8
1
100
AcDbLine
 10
228.0000015586
 20
-29.1029728449
 30
0.0
 11
228.0000000238
 21
-29.6679134801
 31
0.0
  0
LINE
  5
2EB
330
1F
100
AcDbEntity
  8
1
100
AcDbLine
 10
224.7519269586
 20
-30.5723603815
 30
0.0
 11
224.6982716024
 21
-30.5623114108
 31
0.0
  0
LINE
  5
2EC
330
1F
100
AcDbEntity
  8
1
100
AcDbLine
 10
224.6982716024
 20
-30.5623114108
 30
0.0
 11
224.5870567858
 21
-30.5288061499
 31
0.0
  0
LINE
  5
2ED
330
1F
100
AcDbEntity
  8
1
100
AcDbLine
 10
224.5870567858
 20
-30.5288061499
 30
0.0
 11
224.5185896754
 21
-30.4852481932
 31
0.0
  0
LINE
  5
2EE
330
1F
100
AcDbEntity
  8
1
100
AcDbLine
 10
224.5185896754
 20
-30.4852481932
 30
0.0
 11
224.5036847889
 21
-30.4352845997
 31
0.0
  0
LINE
  5
2EF
330
1F
100
AcDbEntity
  8
1
100
AcDbLine
 10
224.5036847889
 20
-30.4352845997
 30
0.0
 11
224.5485186577
 21
-30.3846057504
 31
0.0
  0
LINE
  5
2F0
330
1F
100
AcDbEntity
  8
1
100
AcDbLine
 10
224.5485186577
 20
-30.3846057504
 30
0.0
 11
224.6497906745
 21
-30.3405188024
 31
0.0
  0
LINE
  5
2F1
330
1F
100
AcDbEntity
  8
1
100
AcDbLine
 10
224.6497906745
 20
-30.3405188024
 30
0.0
 11
224.7519254576
 21
-30.3163449544
 31
0.0
  0
LINE
  5
2F2
330
1F
100
AcDbEntity
  8
1
100
AcDbLine
 10
228.0000017314
 20
-31.0368087662
 30
0.0
 11
228.0000001327
 21
-31.3031078764
 31
0.0
  0
LINE
  5
2F3
330
1F
100
AcDbEntity
  8
1
100
AcDbLine
 10
224.7519269586
 20
-31.6460579633
 30
0.0
 11
224.6226966381
 21
-31.6371843218
 31
0.0
  0
LINE
  5
2F4
330
1F
100
AcDbEntity
  8
1
100
AcDbLine
 10
224.6226966381
 20
-31.6371843218
 30
0.0
 11
224.5363071561
 21
-31.6247157752
 31
0.0
  0
LINE
  5
2F5
330
1F
100
AcDbEntity
  8
1
100
AcDbLine
 10
224.5363071561
 20
-31.6247157752
 30
0.0
 11
224.5022431016
 21
-31.6096395254
 31
0.0
  0
LINE
  5
2F6
330
1F
100
AcDbEntity
  8
1
100
AcDbLine
 10
224.5022431016
 20
-31.6096395254
 30
0.0
 11
224.5246395469
 21
-31.593453139
 31
0.0
  0
LINE
  5
2F7
330
1F
100
AcDbEntity
  8
1
100
AcDbLine
 10
224.5246395469
 20
-31.593453139
 30
0.0
 11
224.6013730764
 21
-31.5781161189
 31
0.0
  0
LINE
  5
2F8
330
1F
100
AcDbEntity
  8
1
100
AcDbLine
 10
224.6013730764
 20
-31.5781161189
 30
0.0
 11
224.7237190604
 21
-31.5657593309
 31
0.0
  0
LINE
  5
2F9
330
1F
100
AcDbEntity
  8
1
100
AcDbLine
 10
224.7237190604
 20
-31.5657593309
 30
0.0
 11
224.7519254576
 21
-31.5638547047
 31
0.0
  0
LINE
  5
2FA
330
1F
100
AcDbEntity
  8
1
100
AcDbLine
 10
228.0000017399
 20
-31.7424627538
 30
0.0
 11
228.0000001901
 21
-31.7499994986
 31
0.0
  0
LINE
  5
2FB
330
1F
100
AcDbEntity
  8
1
  6
Continuous
370
    50
100
AcDbLine
 10
206.1797660553
 20
-31.7499994986
 30
0.0
 11
228.0000001901
 21
-31.7499994986
 31
0.0
  0
LINE
  5
2FC
330
1F
100
AcDbEntity
  8
1
  6
Continuous
370
    50
100
AcDbLine
 10
192.2000017348
 20
0.0000015147
 30
0.0
 11
192.2000017348
 21
-31.7499994986
 31
0.0
  0
LINE
  5
2FD
330
1F
100
AcDbEntity
  8
1
  6
Continuous
370
    50
100
AcDbLine
 10
192.2000017348
 20
31.7500010132
 30
0.0
 11
192.2000017348
 21
0.0000015147
 31
0.0
  0
LINE
  5
2FE
330
1F
100
AcDbEntity
  8
1
  6
Continuous
370
    50
100
AcDbLine
 10
217.7000016686
 20
-10.3953114431
 30
0.0
 11
217.7000016963
 21
10.3953115816
 31
0.0
  0
LINE
  5
2FF
330
1F
100
AcDbEntity
  8
1
100
AcDbLine
 10
228.3000021928
 20
-9.4394162527
 30
0.0
 11
228.0000008398
 21
-10.3953117505
 31
0.0
  0
LINE
  5
300
330
1F
100
AcDbEntity
  8
1
100
AcDbLine
 10
228.3000021928
 20
9.4394087562
 30
0.0
 11
228.0000009631
 21
10.3953115816
 31
0.0
  0
LINE
  5
301
330
1F
100
AcDbEntity
  8
1
100
AcDbLine
 10
228.3000021928
 20
9.4394087562
 30
0.0
 11
228.3000021928
 21
-4.9500037214
 31
0.0
  0
LINE
  5
302
330
1F
100
AcDbEntity
  8
1
100
AcDbLine
 10
228.3000021928
 20
-5.0500035515
 30
0.0
 11
228.3000021928
 21
-9.4394162527
 31
0.0
  0
LINE
  5
303
330
1F
100
AcDbEntity
  8
1
100
AcDbLine
 10
228.0500018095
 20
12.0092116471
 30
0.0
 11
228.0000025128
 21
12.210102828
 31
0.0
  0
LINE
  5
304
330
1F
100
AcDbEntity
  8
1
100
AcDbLine
 10
228.3000021928
 20
10.140974983
 30
0.0
 11
228.2404013967
 21
10.9832471411
 31
0.0
  0
LINE
  5
305
330
1F
100
AcDbEntity
  8
1
100
AcDbLine
 10
228.2404013967
 20
10.9832471411
 30
0.0
 11
228.0500018095
 21
12.0092116471
 31
0.0
  0
LINE
  5
306
330
1F
100
AcDbEntity
  8
1
100
AcDbLine
 10
228.3000021928
 20
9.4394087562
 30
0.0
 11
228.3000021928
 21
10.140974983
 31
0.0
  0
LINE
  5
307
330
1F
100
AcDbEntity
  8
1
100
AcDbLine
 10
228.0500016862
 20
-12.0092155641
 30
0.0
 11
228.2190330082
 21
-11.1403027779
 31
0.0
  0
LINE
  5
308
330
1F
100
AcDbEntity
  8
1
100
AcDbLine
 10
228.2190330082
 20
-11.1403027779
 30
0.0
 11
228.3000021928
 21
-10.1409824795
 31
0.0
  0
LINE
  5
309
330
1F
100
AcDbEntity
  8
1
100
AcDbLine
 10
228.0000008398
 20
-12.2101065001
 30
0.0
 11
228.0500016862
 21
-12.0092155641
 31
0.0
  0
LINE
  5
30A
330
1F
100
AcDbEntity
  8
1
100
AcDbLine
 10
228.3000021928
 20
-10.1409824795
 30
0.0
 11
228.3000021928
 21
-9.4394162527
 31
0.0
  0
LINE
  5
30B
330
1F
100
AcDbEntity
  8
1
100
AcDbLine
 10
228.3000021928
 20
-4.9500037214
 30
0.0
 11
228.3000021928
 21
-5.0500035515
 31
0.0
  0
LINE
  5
30C
330
1F
100
AcDbEntity
  8
1
100
AcDbLine
 10
224.505674292
 20
16.7846300394
 30
0.0
 11
224.5021464858
 21
16.7102538675
 31
0.0
  0
LINE
  5
30D
330
1F
100
AcDbEntity
  8
1
100
AcDbLine
 10
224.5021464858
 20
16.7102538675
 30
0.0
 11
224.5038750205
 21
16.6145511597
 31
0.0
  0
LINE
  5
30E
330
1F
100
AcDbEntity
  8
1
100
AcDbLine
 10
228.0000007812
 20
20.8614130974
 30
0.0
 11
228.0100031857
 21
20.8548658997
 31
0.0
  0
LINE
  5
30F
330
1F
100
AcDbEntity
  8
1
100
AcDbLine
 10
228.0500016276
 20
21.4538329751
 30
0.0
 11
228.0000023309
 21
21.5588962935
 31
0.0
  0
LINE
  5
310
330
1F
100
AcDbEntity
  8
1
100
AcDbLine
 10
228.3000021343
 20
20.1718953908
 30
0.0
 11
228.3000021343
 21
20.5932368995
 31
0.0
  0
LINE
  5
311
330
1F
100
AcDbEntity
  8
1
100
AcDbLine
 10
228.0100031857
 20
20.7036843062
 30
0.0
 11
228.0000007812
 21
20.7102296413
 31
0.0
  0
LINE
  5
312
330
1F
100
AcDbEntity
  8
1
100
AcDbLine
 10
228.0100031857
 20
20.8548658997
 30
0.0
 11
228.0100031857
 21
20.7036843062
 31
0.0
  0
LINE
  5
313
330
1F
100
AcDbEntity
  8
1
100
AcDbLine
 10
228.3000019817
 20
-20.5932408759
 30
0.0
 11
228.3000019817
 21
-20.1718993673
 31
0.0
  0
LINE
  5
314
330
1F
100
AcDbEntity
  8
1
100
AcDbLine
 10
228.0500014751
 20
-21.4538369516
 30
0.0
 11
228.2613222926
 21
-20.872140322
 31
0.0
  0
LINE
  5
315
330
1F
100
AcDbEntity
  8
1
100
AcDbLine
 10
228.2613222926
 20
-20.872140322
 30
0.0
 11
228.3000019817
 21
-20.5932408759
 31
0.0
  0
LINE
  5
316
330
1F
100
AcDbEntity
  8
1
100
AcDbLine
 10
228.0000006287
 20
-21.5588994512
 30
0.0
 11
228.0500014751
 21
-21.4538369516
 31
0.0
  0
LINE
  5
317
330
1F
100
AcDbEntity
  8
1
100
AcDbLine
 10
224.5070375502
 20
23.749999702
 30
0.0
 11
224.7519259917
 21
23.749999702
 31
0.0
  0
LINE
  5
318
330
1F
100
AcDbEntity
  8
1
100
AcDbLine
 10
224.7519259917
 20
23.749999702
 30
0.0
 11
224.9215272831
 21
23.749999702
 31
0.0
  0
LINE
  5
319
330
1F
100
AcDbEntity
  8
1
100
AcDbLine
 10
228.3000015375
 20
-25.9484780829
 30
0.0
 11
228.3000015375
 21
-25.7900657009
 31
0.0
  0
LINE
  5
31A
330
1F
100
AcDbEntity
  8
1
100
AcDbLine
 10
228.0000001845
 20
-26.6173930715
 30
0.0
 11
228.0500010309
 21
-26.538895617
 31
0.0
  0
LINE
  5
31B
330
1F
100
AcDbEntity
  8
1
100
AcDbLine
 10
228.0000000238
 20
-29.6679134801
 30
0.0
 11
228.0500008702
 21
-29.6033579245
 31
0.0
  0
LINE
  5
31C
330
1F
100
AcDbEntity
  8
1
100
AcDbLine
 10
228.0500009791
 20
-31.2474762538
 30
0.0
 11
228.1729951636
 21
-31.1053731927
 31
0.0
  0
LINE
  5
31D
330
1F
100
AcDbEntity
  8
1
100
AcDbLine
 10
228.1729951636
 20
-31.1053731927
 30
0.0
 11
228.2092496888
 21
-31.0585351178
 31
0.0
  0
LINE
  5
31E
330
1F
100
AcDbEntity
  8
1
100
AcDbLine
 10
228.0000001327
 20
-31.3031078764
 30
0.0
 11
228.0500009791
 21
-31.2474762538
 31
0.0
  0
LINE
  5
31F
330
1F
100
AcDbEntity
  8
1
100
AcDbLine
 10
228.3000014722
 20
26.2499997562
 30
0.0
 11
228.3000014722
 21
25.2029454505
 31
0.0
  0
LINE
  5
320
330
1F
100
AcDbEntity
  8
1
100
AcDbLine
 10
228.3000014722
 20
25.2029454505
 30
0.0
 11
228.2671481371
 21
25.0000009483
 31
0.0
  0
LINE
  5
321
330
1F
100
AcDbEntity
  8
1
100
AcDbLine
 10
228.3000014722
 20
25.2029454505
 30
0.0
 11
228.3000014722
 21
25.0000009483
 31
0.0
  0
LINE
  5
322
330
1F
100
AcDbEntity
  8
1
100
AcDbLine
 10
228.0000001901
 20
-31.7499994986
 30
0.0
 11
228.0074433201
 21
-31.7425563686
 31
0.0
  0
LINE
  5
323
330
1F
100
AcDbEntity
  8
1
100
AcDbLine
 10
228.3000014722
 20
31.4499996603
 30
0.0
 11
228.0000001192
 21
31.7500010132
 31
0.0
  0
LINE
  5
324
330
1F
100
AcDbEntity
  8
1
100
AcDbLine
 10
228.3000014722
 20
26.2499997562
 30
0.0
 11
228.3000014722
 21
31.4499996603
 31
0.0
  0
LINE
  5
325
330
1F
100
AcDbEntity
  8
1
100
AcDbLine
 10
244.0000027418
 20
17.7999995649
 30
0.0
 11
244.0000027418
 21
10.7307368889
 31
0.0
  0
LINE
  5
326
330
1F
100
AcDbEntity
  8
1
100
AcDbLine
 10
253.5000033677
 20
9.3000000343
 30
0.0
 11
253.5000033677
 21
17.3000004143
 31
0.0
  0
LINE
  5
327
330
1F
100
AcDbEntity
  8
1
100
AcDbLine
 10
253.5000033677
 20
1.3000000035
 30
0.0
 11
253.5000033677
 21
9.3000000343
 31
0.0
  0
LINE
  5
328
330
1F
100
AcDbEntity
  8
1
100
AcDbLine
 10
228.4480787973
 20
11.5696030767
 30
0.0
 11
228.4480787973
 21
-11.5696073412
 31
0.0
  0
LINE
  5
329
330
1F
100
AcDbEntity
  8
1
100
AcDbLine
 10
258.1855664845
 20
-32.8315824892
 30
0.0
 11
258.0335969921
 21
-32.5360030558
 31
0.0
  0
LINE
  5
32A
330
1F
100
AcDbEntity
  8
1
100
AcDbLine
 10
258.0335969921
 20
-32.5360030558
 30
0.0
 11
257.7167088982
 21
-31.6886149969
 31
0.0
  0
LINE
  5
32B
330
1F
100
AcDbEntity
  8
1
100
AcDbLine
 10
257.7167088982
 20
-31.6886149969
 30
0.0
 11
257.4095438119
 21
-30.5491120245
 31
0.0
  0
LINE
  5
32C
330
1F
100
AcDbEntity
  8
1
100
AcDbLine
 10
257.4095438119
 20
-30.5491120245
 30
0.0
 11
257.0660645958
 21
-28.8531605776
 31
0.0
  0
LINE
  5
32D
330
1F
100
AcDbEntity
  8
1
100
AcDbLine
 10
257.0660645958
 20
-28.8531605776
 30
0.0
 11
256.7430521246
 21
-26.7855834838
 31
0.0
  0
LINE
  5
32E
330
1F
100
AcDbEntity
  8
1
100
AcDbLine
 10
256.7430521246
 20
-26.7855834838
 30
0.0
 11
256.4466158744
 21
-24.3847754475
 31
0.0
  0
LINE
  5
32F
330
1F
100
AcDbEntity
  8
1
100
AcDbLine
 10
256.4466158744
 20
-24.3847754475
 30
0.0
 11
256.1802650686
 21
-21.6711249824
 31
0.0
  0
LINE
  5
330
330
1F
100
AcDbEntity
  8
1
100
AcDbLine
 10
256.1802650686
 20
-21.6711249824
 30
0.0
 11
255.9458921548
 21
-18.6723538365
 31
0.0
  0
LINE
  5
331
330
1F
100
AcDbEntity
  8
1
100
AcDbLine
 10
255.9458921548
 20
-18.6723538365
 30
0.0
 11
255.747989833
 21
-15.4450296115
 31
0.0
  0
LINE
  5
332
330
1F
100
AcDbEntity
  8
1
100
AcDbLine
 10
255.747989833
 20
-15.4450296115
 30
0.0
 11
255.6398223039
 21
-13.233145016
 31
0.0
  0
LINE
  5
333
330
1F
100
AcDbEntity
  8
1
100
AcDbLine
 10
258.1855664845
 20
-32.8315824892
 30
0.0
 11
258.1855664845
 21
-32.8442447509
 31
0.0
  0
LINE
  5
334
330
1F
100
AcDbEntity
  8
1
100
AcDbLine
 10
228.4480781309
 20
21.2757978683
 30
0.0
 11
228.4480779749
 21
20.2753641325
 31
0.0
  0
LINE
  5
335
330
1F
100
AcDbEntity
  8
1
100
AcDbLine
 10
228.4480775004
 20
-20.2753670828
 30
0.0
 11
228.4480773443
 21
-21.2758020696
 31
0.0
  0
LINE
  5
336
330
1F
100
AcDbEntity
  8
1
100
AcDbLine
 10
228.448077097
 20
-25.8512408007
 30
0.0
 11
228.448076941
 21
-26.4473737445
 31
0.0
  0
LINE
  5
337
330
1F
100
AcDbEntity
  8
1
100
AcDbLine
 10
225.1500007181
 20
24.9499986641
 30
0.0
 11
225.1500007181
 21
24.3164553069
 31
0.0
  0
LINE
  5
338
330
1F
100
AcDbEntity
  8
1
100
AcDbLine
 10
228.448077837
 20
-29.2144276073
 30
0.0
 11
228.448077681
 21
-29.5680122459
 31
0.0
  0
LINE
  5
339
330
1F
100
AcDbEntity
  8
1
100
AcDbLine
 10
228.4480779205
 20
-31.0914602019
 30
0.0
 11
228.4480777645
 21
-31.2581384862
 31
0.0
  0
LINE
  5
33A
330
1F
100
AcDbEntity
  8
1
100
AcDbLine
 10
244.8095309707
 20
-31.3377118126
 30
0.0
 11
244.7860684869
 21
-31.4707746712
 31
0.0
  0
LINE
  5
33B
330
1F
100
AcDbEntity
  8
CUT
100
AcDbLine
 10
259.1796142754
 20
-33.3155354256
 30
0.0
 11
259.0610679161
 21
-33.9878459861
 31
0.0
  0
LINE
  5
33C
330
1F
100
AcDbEntity
  8
CUT
100
AcDbLine
 10
259.2203660159
 20
-18.589251027
 30
0.0
 11
259.2972486681
 21
-18.1532263062
 31
0.0
  0
LINE
  5
33D
330
1F
100
AcDbEntity
  8
CUT
100
AcDbLine
 10
259.3173025033
 20
-33.2000010582
 30
0.0
 11
259.9999845149
 21
-33.2000017479
 31
0.0
  0
LINE
  5
33E
330
1F
100
AcDbEntity
  8
CUT
100
AcDbLine
 10
259.3173095942
 20
-18.7047866892
 30
0.0
 11
259.9999909821
 21
-18.7047868632
 31
0.0
  0
LINE
  5
33F
330
1F
100
AcDbEntity
  8
1
100
AcDbLine
 10
243.3442175388
 20
18.0375482888
 30
0.0
 11
243.3000020683
 21
17.9832670838
 31
0.0
  0
LINE
  5
340
330
1F
100
AcDbEntity
  8
1
100
AcDbLine
 10
243.3442175388
 20
18.0375482888
 30
0.0
 11
243.3143258095
 21
18.0626288057
 31
0.0
  0
LINE
  5
341
330
1F
100
AcDbEntity
  8
1
100
AcDbLine
 10
243.3143258095
 20
18.0626288057
 30
0.0
 11
243.3000020683
 21
18.0746503175
 31
0.0
  0
LINE
  5
342
330
1F
100
AcDbEntity
  8
1
100
AcDbLine
 10
244.1250011325
 20
18.9680512995
 30
0.0
 11
243.3442175388
 21
18.0375482888
 31
0.0
  0
LINE
  5
343
330
1F
100
AcDbEntity
  8
SK1
100
AcDbLine
 10
-9.0000033379
 20
6.9960406981
 30
0.0
 11
-35.675957799
 21
6.9960406981
 31
0.0
  0
LINE
  5
344
330
1F
100
AcDbEntity
  8
SK1
100
AcDbLine
 10
-9.0000033379
 20
-6.9960406982
 30
0.0
 11
-35.675957799
 21
-6.9960406982
 31
0.0
  0
LINE
  5
345
330
1F
100
AcDbEntity
  8
1
100
AcDbLine
 10
224.7519258417
 20
17.3855575724
 30
0.0
 11
224.7519273428
 21
15.9841251752
 31
0.0
  0
LINE
  5
346
330
1F
100
AcDbEntity
  8
1
100
AcDbLine
 10
224.7519250429
 20
-15.9841298712
 30
0.0
 11
224.751926544
 21
-17.3855620855
 31
0.0
  0
LINE
  5
347
330
1F
100
AcDbEntity
  8
1
100
AcDbLine
 10
224.7519259917
 20
23.749999702
 30
0.0
 11
224.7519259917
 21
23.4240982584
 31
0.0
  0
LINE
  5
348
330
1F
100
AcDbEntity
  8
1
100
AcDbLine
 10
224.7519251648
 20
-23.4241007185
 30
0.0
 11
224.7519266659
 21
-24.1880460086
 31
0.0
  0
LINE
  5
349
330
1F
100
AcDbEntity
  8
1
100
AcDbLine
 10
224.7519254576
 20
-27.7467947513
 30
0.0
 11
224.7519269586
 21
-28.2110869885
 31
0.0
  0
LINE
  5
34A
330
1F
100
AcDbEntity
  8
1
100
AcDbLine
 10
224.7519254576
 20
-30.3163449544
 30
0.0
 11
224.7519269586
 21
-30.5723603815
 31
0.0
  0
LINE
  5
34B
330
1F
100
AcDbEntity
  8
1
100
AcDbLine
 10
224.7519254576
 20
-31.5638547047
 30
0.0
 11
224.7519269586
 21
-31.6460579633
 31
0.0
  0
LINE
  5
34C
330
1F
100
AcDbEntity
  8
1
  6
Continuous
370
    50
100
AcDbLine
 10
203.5698955879
 20
31.5119698644
 30
0.0
 11
203.5797303543
 21
31.5156839789
 31
0.0
  0
LINE
  5
34D
330
1F
100
AcDbEntity
  8
1
  6
Continuous
370
    50
100
AcDbLine
 10
203.5797303543
 20
31.5156839789
 30
0.0
 11
203.609152697
 21
31.5267890691
 31
0.0
  0
LINE
  5
34E
330
1F
100
AcDbEntity
  8
1
  6
Continuous
370
    50
100
AcDbLine
 10
203.609152697
 20
31.5267890691
 30
0.0
 11
203.6579148844
 21
31.5451957285
 31
0.0
  0
LINE
  5
34F
330
1F
100
AcDbEntity
  8
1
  6
Continuous
370
    50
100
AcDbLine
 10
203.6579148844
 20
31.5451957285
 30
0.0
 11
203.7256071344
 21
31.57075122
 31
0.0
  0
LINE
  5
350
330
1F
100
AcDbEntity
  8
1
  6
Continuous
370
    50
100
AcDbLine
 10
203.7256071344
 20
31.57075122
 30
0.0
 11
203.8116594777
 21
31.6032357514
 31
0.0
  0
LINE
  5
351
330
1F
100
AcDbEntity
  8
1
  6
Continuous
370
    50
100
AcDbLine
 10
203.8116594777
 20
31.6032357514
 30
0.0
 11
203.9153492078
 21
31.6423773765
 31
0.0
  0
LINE
  5
352
330
1F
100
AcDbEntity
  8
1
  6
Continuous
370
    50
100
AcDbLine
 10
203.9153492078
 20
31.6423773765
 30
0.0
 11
204.0358027443
 21
31.6878482699
 31
0.0
  0
LINE
  5
353
330
1F
100
AcDbEntity
  8
1
  6
Continuous
370
    50
100
AcDbLine
 10
204.0358027443
 20
31.6878482699
 30
0.0
 11
204.1720086709
 21
31.7392647266
 31
0.0
  0
LINE
  5
354
330
1F
100
AcDbEntity
  8
1
  6
Continuous
370
    50
100
AcDbLine
 10
214.7966098986
 20
26.2500005758
 30
0.0
 11
228.3000014722
 21
26.2499997562
 31
0.0
  0
ARC
  5
355
330
1F
100
AcDbEntity
  8
1
100
AcDbCircle
 10
253.5000016689
 20
1.8
 30
0.0
 40
0.5
100
AcDbArc
 50
270.0001946681
 51
0.0
  0
ARC
  5
356
330
1F
100
AcDbEntity
  8
1
100
AcDbCircle
 10
253.5000016689
 20
16.8
 30
0.0
 40
0.5000004142028918
100
AcDbArc
 50
0.0
 51
89.999805332
  0
ARC
  5
357
330
1F
100
AcDbEntity
  8
SK1
100
AcDbCircle
 10
-0.2999983311
 20
-18.2
 30
0.0
 40
0.5000000000000001
100
AcDbArc
 50
53.1301023542
 51
105.0
  0
ARC
  5
358
330
1F
100
AcDbEntity
  8
SK1
100
AcDbCircle
 10
-0.2999983311
 20
18.2000000001
 30
0.0
 40
0.5000000000000001
100
AcDbArc
 50
255.0
 51
306.8698976458
  0
ARC
  5
359
330
1F
100
AcDbEntity
  8
SK1
100
AcDbCircle
 10
-38.9999982968
 20
-17.0000001942
 30
0.0
 40
1.000000197249532
100
AcDbArc
 50
180.0
 51
280.0002145392
  0
ARC
  5
35A
330
1F
100
AcDbEntity
  8
SK1
100
AcDbCircle
 10
-38.9999982968
 20
17.0000001943
 30
0.0
 40
1.000000197249546
100
AcDbArc
 50
79.9997854608
 51
180.0000222597
  0
ARC
  5
35B
330
1F
100
AcDbEntity
  8
1
100
AcDbCircle
 10
228.094117798
 20
20.7755810556
 30
0.0
 40
0.6127844457339124
100
AcDbArc
 50
305.2837348846
 51
54.7162472378
  0
ARC
  5
35C
330
1F
100
AcDbEntity
  8
1
100
AcDbCircle
 10
226.8821241634
 20
10.6224631028
 30
0.0
 40
1.830106020320559
100
AcDbArc
 50
352.8701046474
 51
31.1669045945
  0
ARC
  5
35D
330
1F
100
AcDbEntity
  8
1
100
AcDbCircle
 10
226.8060776651
 20
-10.6062749924
 30
0.0
 40
1.903727116020573
100
AcDbArc
 50
329.6006228427
 51
6.362371683
  0
ARC
  5
35E
330
1F
100
AcDbEntity
  8
1
100
AcDbCircle
 10
228.0909495403
 20
-20.7755845205
 30
0.0
 40
0.6146200980288125
100
AcDbArc
 50
305.5247482488999
 51
54.4752338713
  0
ARC
  5
35F
330
1F
100
AcDbEntity
  8
1
100
AcDbCircle
 10
251.8115062729
 20
-24.3948579456
 30
0.0
 40
2.600003024113593
100
AcDbArc
 50
142.5440875694
 51
217.4559124273
  0
ARC
  5
360
330
1F
100
AcDbEntity
  8
1
100
AcDbCircle
 10
228.1945116673
 20
-63.8084277046
 30
0.0
 40
32.06238373888108
100
AcDbArc
 50
89.11836997829997
 51
89.5468696959
  0
ARC
  5
361
330
1F
100
AcDbEntity
  8
1
100
AcDbCircle
 10
269.4000021566
 20
-3.9999996307
 30
0.0
 40
14.99999938828112
100
AcDbArc
 50
180.0000007257
 51
210.6753397725
  0
ARC
  5
362
330
1F
100
AcDbEntity
  8
1
100
AcDbCircle
 10
248.2999909727
 20
13.1710826229
 30
0.0
 40
4.999999236889598
100
AcDbArc
 50
213.7213404289
 51
225.0002390301
  0
ARC
  5
363
330
1F
100
AcDbEntity
  8
1
100
AcDbCircle
 10
251.8115062729
 20
-24.3948579456
 30
0.0
 40
2.600003024113593
100
AcDbArc
 50
217.4559124273
 51
142.5440875694
  0
ARC
  5
364
330
1F
100
AcDbEntity
  8
1
100
AcDbCircle
 10
258.3192926181
 20
-32.0373608239
 30
0.0
 40
0.8054009762257133
100
AcDbArc
 50
260.4425352718
 51
358.3534512153
  0
ARC
  5
365
330
1F
100
AcDbEntity
  8
1
100
AcDbCircle
 10
269.4000021566
 20
-3.9999996307
 30
0.0
 40
15.00000060383991
100
AcDbArc
 50
226.23697804
 51
229.4583981265
  0
ARC
  5
366
330
1F
100
AcDbEntity
  8
1
100
AcDbCircle
 10
269.4000021566
 20
-3.9999996307
 30
0.0
 40
15.00000061192217
100
AcDbArc
 50
210.8462487407
 51
217.1288943126
  0
ARC
  5
367
330
1F
100
AcDbEntity
  8
1
100
AcDbCircle
 10
266.7420200043
 20
-6.5132865383
 30
0.0
 40
11.34786931273587
100
AcDbArc
 50
215.4533609122
 51
227.152050584
  0
ARC
  5
368
330
1F
100
AcDbEntity
  8
1
100
AcDbCircle
 10
226.5872883199
 20
-23.4087238501
 30
0.0
 40
1.699934520259424
100
AcDbArc
 50
186.9943847689
 51
212.2749369114
  0
ARC
  5
369
330
1F
100
AcDbEntity
  8
1
100
AcDbCircle
 10
226.4103104713
 20
23.471859351
 30
0.0
 40
1.51714303963216
100
AcDbArc
 50
146.1720031611
 51
174.5586751549
  0
ARC
  5
36A
330
1F
100
AcDbEntity
  8
1
100
AcDbCircle
 10
225.965295029
 20
-27.5552332937
 30
0.0
 40
1.085919580259707
100
AcDbArc
 50
191.1856857704
 51
221.3414047192
  0
CIRCLE
  5
36B
330
1F
100
AcDbEntity
  8
1
100
AcDbCircle
 10
251.8115062729
 20
-24.3948579456
 30
0.0
 40
2.049996408800022
  0
ARC
  5
36C
330
1F
100
AcDbEntity
  8
1
100
AcDbCircle
 10
225.9661539359
 20
-29.7766186983
 30
0.0
 40
1.148037692928962
100
AcDbArc
 50
201.7712857845
 51
224.6908542728
  0
ARC
  5
36D
330
1F
100
AcDbEntity
  8
1
100
AcDbCircle
 10
258.339744396
 20
-32.1208218779
 30
0.0
 40
0.7396698462443239
100
AcDbArc
 50
257.9689626901001
 51
329.3036216857
  0
ARC
  5
36E
330
1F
100
AcDbEntity
  8
1
100
AcDbCircle
 10
244.9249872299
 20
-30.6829285042
 30
0.0
 40
0.8000000000000127
100
AcDbArc
 50
234.932977372
 51
259.9999853927
  0
ARC
  5
36F
330
1F
100
AcDbEntity
  8
CUT
100
AcDbCircle
 10
259.1999911493
 20
-18.7047866592
 30
0.0
 40
0.1173184448374829
100
AcDbArc
 50
359.9999853927
 51
79.9986449667
  0
ARC
  5
370
330
1F
100
AcDbEntity
  8
CUT
100
AcDbCircle
 10
259.1999862795
 20
-33.200001544
 30
0.0
 40
0.1173162237732154
100
AcDbArc
 50
259.9998732049
 51
0.0002372579
  0
ARC
  5
371
330
1F
100
AcDbEntity
  8
CUT
100
AcDbCircle
 10
259.1999862795
 20
-33.200001544
 30
0.0
 40
0.7999982354247478
100
AcDbArc
 50
259.9999907109
 51
359.9999853934
  0
ARC
  5
372
330
1F
100
AcDbEntity
  8
CUT
100
AcDbCircle
 10
259.1999911493
 20
-18.7047866592
 30
0.0
 40
0.7999998327353137
100
AcDbArc
 50
359.9999853927
 51
55.83449906720001
  0
ARC
  5
373
330
1F
100
AcDbEntity
  8
1
100
AcDbCircle
 10
244.9250026067
 20
30.6829361909
 30
0.0
 40
0.8000002682000881
100
AcDbArc
 50
99.9999853927
 51
179.9999683543
  0
ARC
  5
374
330
1F
100
AcDbEntity
  8
CUT
100
AcDbCircle
 10
259.2000032007
 20
33.2000004718
 30
0.0
 40
0.8000000066476478
100
AcDbArc
 50
359.9999853927
 51
99.9999800734
  0
ARC
  5
375
330
1F
100
AcDbEntity
  8
CUT
100
AcDbCircle
 10
259.2000013596
 20
18.7047855871
 30
0.0
 40
0.8000018477500321
100
AcDbArc
 50
279.9999853927
 51
359.9999797777
  0
CIRCLE
  5
376
330
1F
100
AcDbEntity
  8
1
100
AcDbCircle
 10
252.0625016689
 20
24.6938587301
 30
0.0
 40
3.797167001354751
  0
CIRCLE
  5
377
330
1F
100
AcDbEntity
  8
1
100
AcDbCircle
 10
252.0625016689
 20
24.6938587301
 30
0.0
 40
3.749999999999972
  0
ARC
  5
378
330
1F
100
AcDbEntity
  8
1
100
AcDbCircle
 10
228.3946747202
 20
63.8054195835
 30
0.0
 40
32.05937396418096
100
AcDbArc
 50
270.4528807129
 51
270.8816501464
  0
ARC
  5
379
330
1F
100
AcDbEntity
  8
1
100
AcDbCircle
 10
251.8115016689
 20
24.39485873
 30
0.0
 40
8.00000000000005
100
AcDbArc
 50
163.906890996
 51
196.093109004
  0
ARC
  5
37A
330
1F
100
AcDbEntity
  8
1
100
AcDbCircle
 10
251.8115016689
 20
24.39485873
 30
0.0
 40
8.000000000000014
100
AcDbArc
 50
285.8763668547
 51
296.0897970386
  0
ARC
  5
37B
330
1F
100
AcDbEntity
  8
1
100
AcDbCircle
 10
269.4000050333
 20
4.0000003693
 30
0.0
 40
15.00000057228359
100
AcDbArc
 50
130.5416093388
 51
180.0
  0
ARC
  5
37C
330
1F
100
AcDbEntity
  8
1
  6
Continuous
370
    50
100
AcDbCircle
 10
69.73930508
 20
7.1304250826
 30
0.0
 40
0.2537132954725254
100
AcDbArc
 50
327.2101110793001
 51
356.960586508
  0
ARC
  5
37D
330
1F
100
AcDbEntity
  8
1
  6
Continuous
370
    50
100
AcDbCircle
 10
69.3027821711
 20
6.6451359331
 30
0.0
 40
1.55372597097041
100
AcDbArc
 50
167.0614580971
 51
179.7753695997
  0
ARC
  5
37E
330
1F
100
AcDbEntity
  8
1
  6
Continuous
370
    50
100
AcDbCircle
 10
68.7613036639
 20
6.7150340354
 30
0.0
 40
1.014244568833649
100
AcDbArc
 50
183.6068902571
 51
278.126027181
  0
ARC
  5
37F
330
1F
100
AcDbEntity
  8
1
  6
Continuous
370
    50
100
AcDbCircle
 10
69.0052704084
 20
7.1769291406
 30
0.0
 40
1.46940410097714
100
AcDbArc
 50
266.0741903929
 51
357.6370646467
  0
ARC
  5
380
330
1F
100
AcDbEntity
  8
1
  6
Continuous
370
    50
100
AcDbCircle
 10
69.4351097192
 20
7.0404377385
 30
0.0
 40
1.041086436513011
100
AcDbArc
 50
4.1813256972
 51
96.5373622339
  0
ARC
  5
381
330
1F
100
AcDbEntity
  8
1
  6
Continuous
370
    50
100
AcDbCircle
 10
69.1981334316
 20
6.652231062
 30
0.0
 40
1.427446575370567
100
AcDbArc
 50
85.24020586440001
 51
152.40110763
  0
ARC
  5
382
330
1F
100
AcDbEntity
  8
1
  6
Continuous
370
    50
100
AcDbCircle
 10
69.3190012457
 20
6.7496498303
 30
0.0
 40
1.044683913485667
100
AcDbArc
 50
89.5835451847
 51
149.9061606686
  0
ARC
  5
383
330
1F
100
AcDbEntity
  8
1
  6
Continuous
370
    50
100
AcDbCircle
 10
69.3539613529
 20
7.1550571036
 30
0.0
 40
0.6398345777464656
100
AcDbArc
 50
356.5875876785
 51
92.4513918432
  0
ARC
  5
384
330
1F
100
AcDbEntity
  8
1
  6
Continuous
370
    50
100
AcDbCircle
 10
80.4032938919
 20
7.0994945987
 30
0.0
 40
1.109580904169232
100
AcDbArc
 50
272.9874466744
 51
353.5836521281
  0
ARC
  5
385
330
1F
100
AcDbEntity
  8
1
  6
Continuous
370
    50
100
AcDbCircle
 10
80.4150672107
 20
6.2592240136
 30
0.0
 40
0.2717336264047743
100
AcDbArc
 50
183.1427622873
 51
279.7579010308
  0
ARC
  5
386
330
1F
100
AcDbEntity
  8
1
  6
Continuous
370
    50
100
AcDbCircle
 10
81.3051687597
 20
6.1373004301
 30
0.0
 40
1.166347324375807
100
AcDbArc
 50
163.3781181289
 51
174.7350338709
  0
ARC
  5
387
330
1F
100
AcDbEntity
  8
1
  6
Continuous
370
    50
100
AcDbCircle
 10
78.756849795
 20
7.0511796063
 30
0.0
 40
1.060650085596945
100
AcDbArc
 50
272.3501385718
 51
354.4828082893
  0
ARC
  5
388
330
1F
100
AcDbEntity
  8
1
  6
Continuous
370
    50
100
AcDbCircle
 10
79.8864274052
 20
6.0990825415
 30
0.0
 40
1.431895473718577
100
AcDbArc
 50
163.5686704327
 51
174.5306057627
  0
ARC
  5
389
330
1F
100
AcDbEntity
  8
1
  6
Continuous
370
    50
100
AcDbCircle
 10
79.3663595325
 20
6.1586289219
 30
0.0
 40
1.426616577912448
100
AcDbArc
 50
161.98236852
 51
175.9262499975
  0
ARC
  5
38A
330
1F
100
AcDbEntity
  8
1
  6
Continuous
370
    50
100
AcDbCircle
 10
78.6503191208
 20
7.0935393708
 30
0.0
 40
1.382659734216383
100
AcDbArc
 50
270.6656224864
 51
315.8821748578
  0
ARC
  5
38B
330
1F
100
AcDbEntity
  8
1
  6
Continuous
370
    50
100
AcDbCircle
 10
80.2520900132
 20
6.355287525
 30
0.0
 40
0.6491184659795386
100
AcDbArc
 50
200.212055936
 51
276.9749308473
  0
ARC
  5
38C
330
1F
100
AcDbEntity
  8
1
  6
Continuous
370
    50
100
AcDbCircle
 10
80.2673763456
 20
7.094563458
 30
0.0
 40
1.385048728785877
100
AcDbArc
 50
272.6293788278
 51
317.6249965875
  0
ARC
  5
38D
330
1F
100
AcDbEntity
  8
1
  6
Continuous
370
    50
100
AcDbCircle
 10
90.8698991925
 20
6.6695083811
 30
0.0
 40
0.9598218780472488
100
AcDbArc
 50
215.5383604616
 51
272.9667767683
  0
ARC
  5
38E
330
1F
100
AcDbEntity
  8
1
  6
Continuous
370
    50
100
AcDbCircle
 10
90.9107264059
 20
7.1596430542
 30
0.0
 40
1.448697148808339
100
AcDbArc
 50
270.3500255964
 51
359.5503042772
  0
ARC
  5
38F
330
1F
100
AcDbEntity
  8
1
  6
Continuous
370
    50
100
AcDbCircle
 10
91.4214622865
 20
7.1393609149
 30
0.0
 40
0.9379589861228915
100
AcDbArc
 50
0.5443974027
 51
94.23831089379999
  0
ARC
  5
390
330
1F
100
AcDbEntity
  8
1
  6
Continuous
370
    50
100
AcDbCircle
 10
91.3821256815
 20
6.6501895425
 30
0.0
 40
1.424880805733018
100
AcDbArc
 50
91.20574482470002
 51
131.994718289
  0
ARC
  5
391
330
1F
100
AcDbEntity
  8
1
  6
Continuous
370
    50
100
AcDbCircle
 10
101.593381277
 20
6.3943235935
 30
0.0
 40
0.4029383433457514
100
AcDbArc
 50
224.557132262
 51
269.229964035
  0
ARC
  5
392
330
1F
100
AcDbEntity
  8
1
  6
Continuous
370
    50
100
AcDbCircle
 10
101.525854666
 20
7.9157635125
 30
0.0
 40
2.205555466901161
100
AcDbArc
 50
258.9583182239
 51
268.490991999
  0
ARC
  5
393
330
1F
100
AcDbEntity
  8
1
  6
Continuous
370
    50
100
AcDbCircle
 10
101.3381017787
 20
7.1159687805
 30
0.0
 40
1.410967052722874
100
AcDbArc
 50
275.2730717068
 51
316.4337371159
  0
ARC
  5
394
330
1F
100
AcDbEntity
  8
1
  6
Continuous
370
    50
100
AcDbCircle
 10
113.1648486608
 20
7.0994827158
 30
0.0
 40
1.10956886409725
100
AcDbArc
 50
272.9873069758
 51
353.5841996812
  0
ARC
  5
395
330
1F
100
AcDbEntity
  8
1
  6
Continuous
370
    50
100
AcDbCircle
 10
113.1766186505
 20
6.2592240136
 30
0.0
 40
0.2717336264442994
100
AcDbArc
 50
183.1427622873
 51
279.7579010142
  0
ARC
  5
396
330
1F
100
AcDbEntity
  8
1
  6
Continuous
370
    50
100
AcDbCircle
 10
114.0650096256
 20
6.1376311795
 30
0.0
 40
1.164613630021875
100
AcDbArc
 50
163.3696370821
 51
174.7435149221
  0
ARC
  5
397
330
1F
100
AcDbEntity
  8
1
  6
Continuous
370
    50
100
AcDbCircle
 10
111.5184012347
 20
7.0511796063
 30
0.0
 40
1.0606500856441
100
AcDbArc
 50
272.3501385718
 51
354.4828082898999
  0
ARC
  5
398
330
1F
100
AcDbEntity
  8
1
  6
Continuous
370
    50
100
AcDbCircle
 10
112.649205371
 20
6.0988833686
 30
0.0
 40
1.433135402020089
100
AcDbArc
 50
163.5749876262
 51
174.5273530102
  0
ARC
  5
399
330
1F
100
AcDbEntity
  8
1
  6
Continuous
370
    50
100
AcDbCircle
 10
112.1273274631
 20
6.1587428276
 30
0.0
 40
1.42602645298446
100
AcDbArc
 50
161.9794690268
 51
175.9291494926
  0
ARC
  5
39A
330
1F
100
AcDbEntity
  8
1
  6
Continuous
370
    50
100
AcDbCircle
 10
111.4118680716
 20
7.0935278357
 30
0.0
 40
1.382648142135341
100
AcDbArc
 50
270.6654224487
 51
315.8823748964
  0
ARC
  5
39B
330
1F
100
AcDbEntity
  8
1
  6
Continuous
370
    50
100
AcDbCircle
 10
113.0136444149
 20
6.3553031812
 30
0.0
 40
0.6491336465069867
100
AcDbArc
 50
200.2130351915
 51
276.9745035376
  0
ARC
  5
39C
330
1F
100
AcDbEntity
  8
1
  6
Continuous
370
    50
100
AcDbCircle
 10
113.0289251673
 20
7.0945521026
 30
0.0
 40
1.385037505305713
100
AcDbArc
 50
272.6295085667999
 51
317.6252088785
  0
ARC
  5
39D
330
1F
100
AcDbEntity
  8
1
  6
Continuous
370
    50
100
AcDbCircle
 10
134.4688276516
 20
3.3240688025
 30
0.0
 40
0.7086924064825749
100
AcDbArc
 50
6.1791272401
 51
82.4234813649
  0
ARC
  5
39E
330
1F
100
AcDbEntity
  8
1
  6
Continuous
370
    50
100
AcDbCircle
 10
134.4679509923
 20
3.3220115261
 30
0.0
 40
0.7108475610230375
100
AcDbArc
 50
82.3753011884
 51
158.3209134129
  0
ARC
  5
39F
330
1F
100
AcDbEntity
  8
1
  6
Continuous
370
    50
100
AcDbCircle
 10
131.0334037998
 20
5.5793052722
 30
0.0
 40
0.7090473749013121
100
AcDbArc
 50
2.3046613847
 51
82.1415718355
  0
ARC
  5
3A0
330
1F
100
AcDbEntity
  8
1
  6
Continuous
370
    50
100
AcDbCircle
 10
131.0338766544
 20
5.5758580303
 30
0.0
 40
0.7123982117216825
100
AcDbArc
 50
82.2171520476
 51
161.6266748055
  0
ARC
  5
3A1
330
1F
100
AcDbEntity
  8
1
  6
Continuous
370
    50
100
AcDbCircle
 10
126.6659876043
 20
8.2416169936
 30
0.0
 40
0.710991553815534
100
AcDbArc
 50
1.3564643757
 51
81.1982703704
  0
ARC
  5
3A2
330
1F
100
AcDbEntity
  8
1
  6
Continuous
370
    50
100
AcDbCircle
 10
126.6686601624
 20
8.2396398098
 30
0.0
 40
0.7125425908975688
100
AcDbArc
 50
81.4349689212
 51
90.1999666838
  0
ARC
  5
3A3
330
1F
100
AcDbEntity
  8
1
  6
Continuous
370
    50
100
AcDbCircle
 10
126.6661609368
 20
8.2424599639
 30
0.0
 40
0.7097180972987815
100
AcDbArc
 50
89.99899877259999
 51
161.1563797915
  0
ARC
  5
3A4
330
1F
100
AcDbEntity
  8
1
  6
Continuous
370
    50
100
AcDbCircle
 10
120.4240980497
 20
-10.0155505793
 30
0.0
 40
0.7106036592396426
100
AcDbArc
 50
161.1266683087
 51
251.1126889613
  0
ARC
  5
3A5
330
1F
100
AcDbEntity
  8
1
  6
Continuous
370
    50
100
AcDbCircle
 10
120.4232887158
 20
-10.0144838919
 30
0.0
 40
0.711351792805748
100
AcDbArc
 50
251.2021786087
 51
341.0469455845
  0
ARC
  5
3A6
330
1F
100
AcDbEntity
  8
1
  6
Continuous
370
    50
100
AcDbCircle
 10
127.0139346314
 20
-6.6087579944
 30
0.0
 40
0.7105131747568928
100
AcDbArc
 50
181.35670173
 51
261.5552086873
  0
ARC
  5
3A7
330
1F
100
AcDbEntity
  8
1
  6
Continuous
370
    50
100
AcDbCircle
 10
127.0132509954
 20
-6.6082122625
 30
0.0
 40
0.7109529958897519
100
AcDbArc
 50
261.6161644876
 51
341.7143032355
  0
ARC
  5
3A8
330
1F
100
AcDbEntity
  8
1
  6
Continuous
370
    50
100
AcDbCircle
 10
131.4468877424
 20
-4.31325916
 30
0.0
 40
0.7090621481867565
100
AcDbArc
 50
182.3285763494
 51
260.486108106
  0
ARC
  5
3A9
330
1F
100
AcDbEntity
  8
1
  6
Continuous
370
    50
100
AcDbCircle
 10
131.4488393024
 20
-4.3143623123
 30
0.0
 40
0.7082998701545805
100
AcDbArc
 50
260.3156640975998
 51
338.5329006854
  0
ARC
  5
3AA
330
1F
100
AcDbEntity
  8
1
  6
Continuous
370
    50
100
AcDbCircle
 10
135.1102608165
 20
-2.5577271868
 30
0.0
 40
0.7098332199715108
100
AcDbArc
 50
186.2289733738
 51
256.8887822929
  0
ARC
  5
3AB
330
1F
100
AcDbEntity
  8
1
  6
Continuous
370
    50
100
AcDbCircle
 10
135.1106555285
 20
-2.5575140644
 30
0.0
 40
0.7101304034684808
100
AcDbArc
 50
256.8616664062
 51
327.4568231155
  0
ARC
  5
3AC
330
1F
100
AcDbEntity
  8
1
  6
Continuous
370
    50
100
AcDbCircle
 10
149.2856676675
 20
-0.0007924527
 30
0.0
 40
0.7094176270748563
100
AcDbArc
 50
269.9520788384999
 51
0.0640020773
  0
ARC
  5
3AD
330
1F
100
AcDbEntity
  8
1
  6
Continuous
370
    50
100
AcDbCircle
 10
149.2858299305
 20
0.0007563629
 30
0.0
 40
0.7092553247814363
100
AcDbArc
 50
359.9388987133
 51
90.0610402256
  0
ARC
  5
3AE
330
1F
100
AcDbEntity
  8
1
  6
Continuous
370
    50
100
AcDbCircle
 10
136.7409042952
 20
0.0001831485
 30
0.0
 40
0.709828272917291
100
AcDbArc
 50
89.96451721780001
 51
147.4583849092
  0
ARC
  5
3AF
330
1F
100
AcDbEntity
  8
1
  6
Continuous
370
    50
100
AcDbCircle
 10
94.5798773362
 20
-0.125136718
 30
0.0
 40
3.164038765399745
100
AcDbArc
 50
218.4791954008
 51
271.8227504222
  0
ARC
  5
3B0
330
1F
100
AcDbEntity
  8
1
  6
Continuous
370
    50
100
AcDbCircle
 10
115.9611155049
 20
-4.272316745
 30
0.0
 40
0.9851720465397932
100
AcDbArc
 50
39.1948396123
 51
91.69252838839999
  0
ARC
  5
3B1
330
1F
100
AcDbEntity
  8
1
  6
Continuous
370
    50
100
AcDbCircle
 10
116.4028236621
 20
-3.9354109051
 30
0.0
 40
0.4303150293104872
100
AcDbArc
 50
354.9136507596
 51
41.59743082100001
  0
ARC
  5
3B2
330
1F
100
AcDbEntity
  8
1
  6
Continuous
370
    50
100
AcDbCircle
 10
115.1425137617
 20
-3.2872010834
 30
0.0
 40
1.823067864660942
100
AcDbArc
 50
257.7791696539
 51
337.8837887925001
  0
ARC
  5
3B3
330
1F
100
AcDbEntity
  8
1
  6
Continuous
370
    50
100
AcDbCircle
 10
114.9170254087
 20
-3.0238856231
 30
0.0
 40
4.483382575661254
100
AcDbArc
 50
265.4025406759
 51
341.7430204143
  0
ARC
  5
3B4
330
1F
100
AcDbEntity
  8
1
  6
Continuous
370
    50
100
AcDbCircle
 10
116.5805130144
 20
-3.7307669761
 30
0.0
 40
2.686381960297258
100
AcDbArc
 50
344.9473609438
 51
37.25791039879999
  0
ARC
  5
3B5
330
1F
100
AcDbEntity
  8
1
  6
Continuous
370
    50
100
AcDbCircle
 10
116.2035820372
 20
-4.0310629599
 30
0.0
 40
3.168207085712158
100
AcDbArc
 50
37.4535072094
 51
91.3134023396
  0
ARC
  5
3B6
330
1F
100
AcDbEntity
  8
1
  6
Continuous
370
    50
100
AcDbCircle
 10
94.781886405
 20
0.0262088248
 30
0.0
 40
0.8952307197692171
100
AcDbArc
 50
220.5790596196
 51
276.2574646648
  0
ARC
  5
3B7
330
1F
100
AcDbEntity
  8
1
  6
Continuous
370
    50
100
AcDbCircle
 10
95.2845421379
 20
0.0314935689
 30
0.0
 40
1.320542000522289
100
AcDbArc
 50
162.4150862104
 51
206.4227651994
  0
ARC
  5
3B8
330
1F
100
AcDbEntity
  8
1
  6
Continuous
370
    50
100
AcDbCircle
 10
96.3080701784
 20
-0.7872867373
 30
0.0
 40
4.919677469872878
100
AcDbArc
 50
83.7144741944
 51
159.9148981228
  0
ARC
  5
3B9
330
1F
100
AcDbEntity
  8
1
  6
Continuous
370
    50
100
AcDbCircle
 10
95.137555086
 20
-0.1463467459
 30
0.0
 40
3.605790390073838
100
AcDbArc
 50
163.0943149059
 51
212.6916504519
  0
ARC
  5
3BA
330
1F
100
AcDbEntity
  8
1
  6
Continuous
370
    50
100
AcDbCircle
 10
59.5715548683
 20
10.0154469224
 30
0.0
 40
0.7107775279164462
100
AcDbArc
 50
341.1402896183
 51
71.0975418362
  0
ARC
  5
3BB
330
1F
100
AcDbEntity
  8
1
  6
Continuous
370
    50
100
AcDbCircle
 10
59.5688733067
 20
9.9953720115
 30
0.0
 40
0.7306493079887135
100
AcDbArc
 50
71.408585222
 51
89.7632787699
  0
ARC
  5
3BC
330
1F
100
AcDbEntity
  8
1
  6
Continuous
370
    50
100
AcDbCircle
 10
59.5717156453
 20
10.0157032506
 30
0.0
 40
0.7103118548960831
100
AcDbArc
 50
89.9857728613
 51
161.1221168529
  0
ARC
  5
3BD
330
1F
100
AcDbEntity
  8
1
  6
Continuous
370
    50
100
AcDbCircle
 10
52.98176588
 20
6.6093913448
 30
0.0
 40
0.7096867645756215
100
AcDbArc
 50
1.3071351985
 51
81.5471105927
  0
ARC
  5
3BE
330
1F
100
AcDbEntity
  8
1
  6
Continuous
370
    50
100
AcDbCircle
 10
52.9814455374
 20
6.608598572
 30
0.0
 40
0.7105180429296397
100
AcDbArc
 50
81.5309562393
 51
161.7692471642
  0
ARC
  5
3BF
330
1F
100
AcDbEntity
  8
1
  6
Continuous
370
    50
100
AcDbCircle
 10
48.547991458
 20
4.3121940423
 30
0.0
 40
0.7103113028459263
100
AcDbArc
 50
2.426483484
 51
80.4050219712
  0
ARC
  5
3C0
330
1F
100
AcDbEntity
  8
1
  6
Continuous
370
    50
100
AcDbCircle
 10
48.5484317473
 20
4.3123576539
 30
0.0
 40
0.710076708084296
100
AcDbArc
 50
80.4378512287
 51
158.4326338297
  0
ARC
  5
3C1
330
1F
100
AcDbEntity
  8
1
  6
Continuous
370
    50
100
AcDbCircle
 10
44.8857607442
 20
2.5582610256
 30
0.0
 40
0.7092380104205248
100
AcDbArc
 50
6.190840675699998
 51
76.90512245390002
  0
ARC
  5
3C2
330
1F
100
AcDbEntity
  8
1
  6
Continuous
370
    50
100
AcDbCircle
 10
44.8855730648
 20
2.5564287003
 30
0.0
 40
0.7110652477014474
100
AcDbArc
 50
76.92384383
 51
147.4201005024
  0
ARC
  5
3C3
330
1F
100
AcDbEntity
  8
1
  6
Continuous
370
    50
100
AcDbCircle
 10
30.70924476
 20
0.0007781169
 30
0.0
 40
0.7092335830933323
100
AcDbArc
 50
89.93804069519999
 51
179.3222440852
  0
ARC
  5
3C4
330
1F
100
AcDbEntity
  8
1
  6
Continuous
370
    50
100
AcDbCircle
 10
30.7093938393
 20
-0.000806933
 30
0.0
 40
0.7094031677837592
100
AcDbArc
 50
179.1943769453
 51
270.0499039227
  0
ARC
  5
3C5
330
1F
100
AcDbEntity
  8
1
  6
Continuous
370
    50
100
AcDbCircle
 10
43.2537711156
 20
0.0019591426
 30
0.0
 40
0.7121692060083267
100
AcDbArc
 50
270.0462231574
 51
327.3740683098999
  0
ARC
  5
3C6
330
1F
100
AcDbEntity
  8
1
  6
Continuous
370
    50
100
AcDbCircle
 10
45.5279955068
 20
-3.323207686
 30
0.0
 40
0.7101161834335923
100
AcDbArc
 50
186.2365782745
 51
262.3304089345
  0
ARC
  5
3C7
330
1F
100
AcDbEntity
  8
1
  6
Continuous
370
    50
100
AcDbCircle
 10
45.5287417004
 20
-3.3243378709
 30
0.0
 40
0.7090962551042544
100
AcDbArc
 50
262.258467386
 51
338.501364786
  0
ARC
  5
3C8
330
1F
100
AcDbEntity
  8
1
  6
Continuous
370
    50
100
AcDbCircle
 10
48.9626508121
 20
-5.5789406091
 30
0.0
 40
0.7098526135291193
100
AcDbArc
 50
182.3635911708
 51
262.1201888797
  0
ARC
  5
3C9
330
1F
100
AcDbEntity
  8
1
  6
Continuous
370
    50
100
AcDbCircle
 10
48.9627191087
 20
-5.5785624165
 30
0.0
 40
0.7102365984922125
100
AcDbArc
 50
262.1189140118
 51
341.7648615954
  0
ARC
  5
3CA
330
1F
100
AcDbEntity
  8
1
  6
Continuous
370
    50
100
AcDbCircle
 10
53.3292165595
 20
-8.2412405898
 30
0.0
 40
0.7111246356731455
100
AcDbArc
 50
181.4185217236
 51
261.2227980907
  0
ARC
  5
3CB
330
1F
100
AcDbEntity
  8
1
  6
Continuous
370
    50
100
AcDbCircle
 10
53.3276600984
 20
-8.2404176107
 30
0.0
 40
0.7117024174472651
100
AcDbArc
 50
261.356743986
 51
341.0032687706999
  0
ARC
  5
3CC
330
1F
100
AcDbEntity
  8
1
  6
Continuous
370
    50
100
AcDbCircle
 10
62.6773326831
 20
-2.8614665662
 30
0.0
 40
4.413050151427056
100
AcDbArc
 50
163.0121585103
 51
215.4655400648
  0
ARC
  5
3CD
330
1F
100
AcDbEntity
  8
1
  6
Continuous
370
    50
100
AcDbCircle
 10
63.6897205909
 20
-1.3653099556
 30
0.0
 40
6.138230280737179
100
AcDbArc
 50
221.3674313018
 51
273.3831611026
  0
ARC
  5
3CE
330
1F
100
AcDbEntity
  8
1
  6
Continuous
370
    50
100
AcDbCircle
 10
66.2581012209
 20
-4.0912365337
 30
0.0
 40
8.210008069910476
100
AcDbArc
 50
86.42742844680001
 51
160.479785448
  0
ARC
  5
3CF
330
1F
100
AcDbEntity
  8
1
  6
Continuous
370
    50
100
AcDbCircle
 10
117.9345675776
 20
7.3957029788
 30
0.0
 40
0.5388305350656594
100
AcDbArc
 50
181.0820860454
 51
235.2527004872
  0
ARC
  5
3D0
330
1F
100
AcDbEntity
  8
1
  6
Continuous
370
    50
100
AcDbCircle
 10
119.2529554156
 20
9.7075301035
 30
0.0
 40
3.198421800312754
100
AcDbArc
 50
239.454731148
 51
253.318364943
  0
ARC
  5
3D1
330
1F
100
AcDbEntity
  8
1
  6
Continuous
370
    50
100
AcDbCircle
 10
117.6176037269
 20
4.3263035268
 30
0.0
 40
2.42586506875732
100
AcDbArc
 50
62.0425853763
 51
72.80282593539998
  0
ARC
  5
3D2
330
1F
100
AcDbEntity
  8
1
  6
Continuous
370
    50
100
AcDbCircle
 10
118.6466254554
 20
6.2635793151
 30
0.0
 40
0.2322566305522854
100
AcDbArc
 50
4.3660009099
 51
62.21694181400002
  0
ARC
  5
3D3
330
1F
100
AcDbEntity
  8
1
  6
Continuous
370
    50
100
AcDbCircle
 10
118.7881203819
 20
6.2908985719
 30
0.0
 40
0.5750422880599382
100
AcDbArc
 50
6.915466771500001
 51
71.0104138721
  0
ARC
  5
3D4
330
1F
100
AcDbEntity
  8
1
  6
Continuous
370
    50
100
AcDbCircle
 10
123.288572893
 20
18.6439773405
 30
0.0
 40
12.57239750026406
100
AcDbArc
 50
244.9981731356
 51
249.9353751195
  0
ARC
  5
3D5
330
1F
100
AcDbEntity
  8
1
  6
Continuous
370
    50
100
AcDbCircle
 10
118.1475187813
 20
7.4590313064
 30
0.0
 40
0.2713454677477908
100
AcDbArc
 50
183.2293487927
 51
230.4898657656
  0
ARC
  5
3D6
330
1F
100
AcDbEntity
  8
1
  6
Continuous
370
    50
100
AcDbCircle
 10
119.1857797059
 20
7.3659567075
 30
0.0
 40
0.5812444159533952
100
AcDbArc
 50
350.8445527931
 51
63.5434277061
  0
ARC
  5
3D7
330
1F
100
AcDbEntity
  8
1
  6
Continuous
370
    50
100
AcDbCircle
 10
118.6464956411
 20
6.3005173596
 30
0.0
 40
1.775382873300651
100
AcDbArc
 50
63.2809807268
 51
92.0582137707
  0
ARC
  5
3D8
330
1F
100
AcDbEntity
  8
1
  6
Continuous
370
    50
100
AcDbCircle
 10
104.4754858786
 20
7.6653118178
 30
0.0
 40
1.437817627982086
100
AcDbArc
 50
2.4469368983
 51
14.8863652105
  0
ARC
  5
3D9
330
1F
100
AcDbEntity
  8
1
  6
Continuous
370
    50
100
AcDbCircle
 10
103.6148927168
 20
7.8177522534
 30
0.0
 40
2.298903698155379
100
AcDbArc
 50
346.6739028169
 51
357.7300576032999
  0
ARC
  5
3DA
330
1F
100
AcDbEntity
  8
1
  6
Continuous
370
    50
100
AcDbCircle
 10
107.582286463
 20
6.2718861329
 30
0.0
 40
1.910905784316006
100
AcDbArc
 50
166.3383840853
 51
179.1182517808
  0
ARC
  5
3DB
330
1F
100
AcDbEntity
  8
1
  6
Continuous
370
    50
100
AcDbCircle
 10
106.1248283539
 20
6.3094372707
 30
0.0
 40
0.4532945710051533
100
AcDbArc
 50
181.0295193968
 51
241.2769484084
  0
ARC
  5
3DC
330
1F
100
AcDbEntity
  8
1
  6
Continuous
370
    50
100
AcDbCircle
 10
106.6531022246
 20
7.177198036
 30
0.0
 40
1.468883990419006
100
AcDbArc
 50
239.4727638146
 51
273.4479412461
  0
ARC
  5
3DD
330
1F
100
AcDbEntity
  8
1
  6
Continuous
370
    50
100
AcDbCircle
 10
106.9165465534
 20
6.9479902671
 30
0.0
 40
1.249349041830212
100
AcDbArc
 50
261.9431491778
 51
333.5783357145999
  0
ARC
  5
3DE
330
1F
100
AcDbEntity
  8
1
  6
Continuous
370
    50
100
AcDbCircle
 10
106.8425387514
 20
6.7811292995
 30
0.0
 40
0.7930102965188662
100
AcDbArc
 50
264.7690632479
 51
333.889840789
  0
ARC
  5
3DF
330
1F
100
AcDbEntity
  8
1
  6
Continuous
370
    50
100
AcDbCircle
 10
106.7321376797
 20
6.9516629328
 30
0.0
 40
0.9609969353678083
100
AcDbArc
 50
241.6430820765
 51
272.2722875397
  0
ARC
  5
3E0
330
1F
100
AcDbEntity
  8
1
  6
Continuous
370
    50
100
AcDbCircle
 10
106.4104097546
 20
6.3261336911
 30
0.0
 40
0.2580976538763914
100
AcDbArc
 50
178.7049993357
 51
238.5379869705
  0
ARC
  5
3E1
330
1F
100
AcDbEntity
  8
1
  6
Continuous
370
    50
100
AcDbCircle
 10
107.3919359623
 20
6.2826522593
 30
0.0
 40
1.240538512988198
100
AcDbArc
 50
164.554176243
 51
177.7217511713
  0
ARC
  5
3E2
330
1F
100
AcDbEntity
  8
1
  6
Continuous
370
    50
100
AcDbCircle
 10
107.6274884275
 20
-1.9111553861
 30
0.0
 40
8.643524083192903
100
AcDbArc
 50
90.8772632423
 51
99.5315436571
  0
ARC
  5
3E3
330
1F
100
AcDbEntity
  8
1
  6
Continuous
370
    50
100
AcDbCircle
 10
107.5391802347
 20
7.2989086383
 30
0.0
 40
0.7865248518962515
100
AcDbArc
 50
9.0840353872
 51
99.4521803072
  0
ARC
  5
3E4
330
1F
100
AcDbEntity
  8
1
  6
Continuous
370
    50
100
AcDbCircle
 10
107.4062277517
 20
6.306571483
 30
0.0
 40
1.768187419111511
100
AcDbArc
 50
89.877322035
 51
124.9712687492
  0
ARC
  5
3E5
330
1F
100
AcDbEntity
  8
1
  6
Continuous
370
    50
100
AcDbCircle
 10
105.039978445
 20
7.6862264203
 30
0.0
 40
1.354557337594388
100
AcDbArc
 50
2.931203932899999
 51
14.9071645512
  0
ARC
  5
3E6
330
1F
100
AcDbEntity
  8
1
  6
Continuous
370
    50
100
AcDbCircle
 10
95.9230020789
 20
8.0645561343
 30
0.0
 40
2.960635319523994
100
AcDbArc
 50
345.9556255586
 51
351.8837949904001
  0
ARC
  5
3E7
330
1F
100
AcDbEntity
  8
1
  6
Continuous
370
    50
100
AcDbCircle
 10
97.3341589955
 20
7.9506456801
 30
0.0
 40
2.026026738064924
100
AcDbArc
 50
343.4161634886
 51
353.5291271031
  0
ARC
  5
3E8
330
1F
100
AcDbEntity
  8
1
  6
Continuous
370
    50
100
AcDbCircle
 10
99.0713657391
 20
7.7267962185
 30
0.0
 40
0.275949103752233
100
AcDbArc
 50
359.069788108
 51
57.51600334070001
  0
ARC
  5
3E9
330
1F
100
AcDbEntity
  8
1
  6
Continuous
370
    50
100
AcDbCircle
 10
98.8139163627
 20
7.3091847507
 30
0.0
 40
0.76652151968311
100
AcDbArc
 50
58.04783121
 51
92.8550047341
  0
ARC
  5
3EA
330
1F
100
AcDbEntity
  8
1
  6
Continuous
370
    50
100
AcDbCircle
 10
98.7828490571
 20
6.0801122503
 30
0.0
 40
1.994655278137331
100
AcDbArc
 50
90.2042921558
 51
100.1655956529
  0
ARC
  5
3EB
330
1F
100
AcDbEntity
  8
1
  6
Continuous
370
    50
100
AcDbCircle
 10
98.6255111325
 20
7.1648834749
 30
0.0
 40
0.6296325835210319
100
AcDbArc
 50
88.5204720082
 51
116.0703417309
  0
ARC
  5
3EC
330
1F
100
AcDbEntity
  8
1
  6
Continuous
370
    50
100
AcDbCircle
 10
83.4381606155
 20
7.6653118178
 30
0.0
 40
1.437817627982123
100
AcDbArc
 50
2.4469368983
 51
14.8863652105
  0
ARC
  5
3ED
330
1F
100
AcDbEntity
  8
1
  6
Continuous
370
    50
100
AcDbCircle
 10
82.5775674538
 20
7.8177522534
 30
0.0
 40
2.298903698125349
100
AcDbArc
 50
346.6739028169
 51
357.7300576032
  0
ARC
  5
3EE
330
1F
100
AcDbEntity
  8
1
  6
Continuous
370
    50
100
AcDbCircle
 10
86.5449612
 20
6.2718861329
 30
0.0
 40
1.91090578431602
100
AcDbArc
 50
166.3383840853
 51
179.1182517808
  0
ARC
  5
3EF
330
1F
100
AcDbEntity
  8
1
  6
Continuous
370
    50
100
AcDbCircle
 10
85.0875030909
 20
6.3094372707
 30
0.0
 40
0.4532945710051675
100
AcDbArc
 50
181.0295193968
 51
241.2769484084
  0
ARC
  5
3F0
330
1F
100
AcDbEntity
  8
1
  6
Continuous
370
    50
100
AcDbCircle
 10
85.6157769616
 20
7.177198036
 30
0.0
 40
1.468883990419006
100
AcDbArc
 50
239.4727638146
 51
273.4479412461
  0
ARC
  5
3F1
330
1F
100
AcDbEntity
  8
1
  6
Continuous
370
    50
100
AcDbCircle
 10
85.8792212904
 20
6.9479902671
 30
0.0
 40
1.249349041830208
100
AcDbArc
 50
261.9431491778
 51
333.5783357145999
  0
ARC
  5
3F2
330
1F
100
AcDbEntity
  8
1
  6
Continuous
370
    50
100
AcDbCircle
 10
85.8052134884
 20
6.7811292995
 30
0.0
 40
0.7930102965188918
100
AcDbArc
 50
264.7690632479
 51
333.889840789
  0
ARC
  5
3F3
330
1F
100
AcDbEntity
  8
1
  6
Continuous
370
    50
100
AcDbCircle
 10
85.6948172929
 20
6.9516839833
 30
0.0
 40
0.9610177759673479
100
AcDbArc
 50
241.6434223298
 51
272.2719472898
  0
ARC
  5
3F4
330
1F
100
AcDbEntity
  8
1
  6
Continuous
370
    50
100
AcDbCircle
 10
85.3730844915
 20
6.3261336911
 30
0.0
 40
0.258097653876363
100
AcDbArc
 50
178.7049993357
 51
238.5379869731
  0
ARC
  5
3F5
330
1F
100
AcDbEntity
  8
1
  6
Continuous
370
    50
100
AcDbCircle
 10
86.3546106993
 20
6.2826522593
 30
0.0
 40
1.24053851302627
100
AcDbArc
 50
164.554176243
 51
177.7217511715
  0
ARC
  5
3F6
330
1F
100
AcDbEntity
  8
1
  6
Continuous
370
    50
100
AcDbCircle
 10
86.5901631644
 20
-1.9111553861
 30
0.0
 40
8.643524083189469
100
AcDbArc
 50
90.8772632423
 51
99.5315436564
  0
ARC
  5
3F7
330
1F
100
AcDbEntity
  8
1
  6
Continuous
370
    50
100
AcDbCircle
 10
86.5018549716
 20
7.2989086383
 30
0.0
 40
0.7865248519497045
100
AcDbArc
 50
9.084035386
 51
99.4521803072
  0
ARC
  5
3F8
330
1F
100
AcDbEntity
  8
1
  6
Continuous
370
    50
100
AcDbCircle
 10
86.3689024887
 20
6.306571483
 30
0.0
 40
1.768187419111297
100
AcDbArc
 50
89.8773220383
 51
124.9712687492
  0
ARC
  5
3F9
330
1F
100
AcDbEntity
  8
1
  6
Continuous
370
    50
100
AcDbCircle
 10
84.002653182
 20
7.6862264203
 30
0.0
 40
1.354557337594374
100
AcDbArc
 50
2.931203932899999
 51
14.9071645512
  0
ARC
  5
3FA
330
1F
100
AcDbEntity
  8
1
  6
Continuous
370
    50
100
AcDbCircle
 10
74.2831474187
 20
7.1292550796
 30
0.0
 40
0.9461135351135233
100
AcDbArc
 50
35.162090257
 51
92.0639100202
  0
ARC
  5
3FB
330
1F
100
AcDbEntity
  8
1
  6
Continuous
370
    50
100
AcDbCircle
 10
74.2783382527
 20
6.626631482
 30
0.0
 40
1.44841903156386
100
AcDbArc
 50
91.1577037324
 51
180.2404372751
  0
ARC
  5
3FC
330
1F
100
AcDbEntity
  8
1
  6
Continuous
370
    50
100
AcDbCircle
 10
73.721319715
 20
6.6013609261
 30
0.0
 40
0.8915943315939464
100
AcDbArc
 50
178.7665598608
 51
272.9808394107001
  0
ARC
  5
3FD
330
1F
100
AcDbEntity
  8
1
  6
Continuous
370
    50
100
AcDbCircle
 10
73.7357610909
 20
7.0554888161
 30
0.0
 40
1.344894807224872
100
AcDbArc
 50
271.3601381143
 51
311.5508656871999
  0
ARC
  5
3FE
330
1F
100
AcDbEntity
  8
1
  6
Continuous
370
    50
100
AcDbCircle
 10
63.750965637
 20
6.3943230691
 30
0.0
 40
0.402937714045084
100
AcDbArc
 50
224.557115732
 51
269.2310745287
  0
ARC
  5
3FF
330
1F
100
AcDbEntity
  8
1
  6
Continuous
370
    50
100
AcDbCircle
 10
63.6834352139
 20
7.9156577559
 30
0.0
 40
2.205449440661002
100
AcDbArc
 50
258.9580885515
 51
268.491221669
  0
ARC
  5
400
330
1F
100
AcDbEntity
  8
1
  6
Continuous
370
    50
100
AcDbCircle
 10
63.4957537603
 20
7.1158101472
 30
0.0
 40
1.410803595231804
100
AcDbArc
 50
275.2712452882
 51
316.4363141911002
  0
ARC
  5
401
330
1F
100
AcDbEntity
  8
1
  6
Continuous
370
    50
100
AcDbCircle
 10
63.9259354758
 20
-1.1097574752
 30
0.0
 40
3.972447190331839
100
AcDbArc
 50
224.2008388842
 51
274.6806773732
  0
ARC
  5
402
330
1F
100
AcDbEntity
  8
1
  6
Continuous
370
    50
100
AcDbCircle
 10
62.7534195161
 20
-2.6818655014
 30
0.0
 40
2.059240662474861
100
AcDbArc
 50
161.8583939017
 51
215.5539517925
  0
ARC
  5
403
330
1F
100
AcDbEntity
  8
1
  6
Continuous
370
    50
100
AcDbCircle
 10
66.1548524343
 20
-4.0538398813
 30
0.0
 40
5.748289511265732
100
AcDbArc
 50
85.84310532569998
 51
157.08795167
  0
ARC
  5
404
330
1F
100
AcDbEntity
  8
1
  6
Continuous
370
    50
100
AcDbCircle
 10
68.9038825401
 20
7.0032756891
 30
0.0
 40
1.011868850213312
100
AcDbArc
 50
269.6901005378
 51
343.3041921109
  0
ARC
  5
405
330
1F
100
AcDbEntity
  8
1
  6
Continuous
370
    50
100
AcDbCircle
 10
68.8401929695
 20
6.5994279681
 30
0.0
 40
0.610787092084621
100
AcDbArc
 50
177.8416250469
 51
275.4693997262
  0
ARC
  5
406
330
1F
100
AcDbEntity
  8
1
  6
Continuous
370
    50
100
AcDbCircle
 10
70.9011390792
 20
6.5933533909
 30
0.0
 40
2.671458130090966
100
AcDbArc
 50
177.4421497179
 51
179.3763419679
  0
ARC
  5
407
330
1F
100
AcDbEntity
  8
1
  6
Continuous
370
    50
100
AcDbCircle
 10
73.9021780631
 20
6.5829586575
 30
0.0
 40
0.5923044591349185
100
AcDbArc
 50
176.9674563063
 51
272.9169882319999
  0
ARC
  5
408
330
1F
100
AcDbEntity
  8
1
  6
Continuous
370
    50
100
AcDbCircle
 10
74.3217924348
 20
7.1754635737
 30
0.0
 40
0.6208234866921069
100
AcDbArc
 50
29.1828080298
 51
94.57827366329998
  0
ARC
  5
409
330
1F
100
AcDbEntity
  8
1
  6
Continuous
370
    50
100
AcDbCircle
 10
73.7772712359
 20
7.1534279348
 30
0.0
 40
1.134035221178822
100
AcDbArc
 50
358.2211092554002
 51
16.6404455035
  0
ARC
  5
40A
330
1F
100
AcDbEntity
  8
1
  6
Continuous
370
    50
100
AcDbCircle
 10
90.8366522505
 20
6.6109495479
 30
0.0
 40
0.62105186799598
100
AcDbArc
 50
178.0740836985
 51
274.0146651484
  0
ARC
  5
40B
330
1F
100
AcDbEntity
  8
1
  6
Continuous
370
    50
100
AcDbCircle
 10
91.3947123926
 20
6.6520920901
 30
0.0
 40
1.178935469075057
100
AcDbArc
 50
132.4044414256
 51
180.9851960525
  0
ARC
  5
40C
330
1F
100
AcDbEntity
  8
1
  6
Continuous
370
    50
100
AcDbCircle
 10
91.2502096753
 20
6.8799473947
 30
0.0
 40
0.9144459421248169
100
AcDbArc
 50
90.79121159610001
 51
135.3477719341
  0
ARC
  5
40D
330
1F
100
AcDbEntity
  8
1
  6
Continuous
370
    50
100
AcDbCircle
 10
91.2513285862
 20
7.1616450937
 30
0.0
 40
0.6328103751079646
100
AcDbArc
 50
352.4190589203001
 51
91.24471420889999
  0
ARC
  5
40E
330
1F
100
AcDbEntity
  8
1
  6
Continuous
370
    50
100
AcDbCircle
 10
90.811286056
 20
7.0567361136
 30
0.0
 40
1.067536818320322
100
AcDbArc
 50
273.697662619
 51
1.1499473761
  0
ARC
  5
40F
330
1F
100
AcDbEntity
  8
1
  6
Continuous
370
    50
100
AcDbCircle
 10
85.9227736286
 20
4.0356401695
 30
0.0
 40
2.909514536021583
100
AcDbArc
 50
91.470666619
 51
104.0748503875
  0
ARC
  5
410
330
1F
100
AcDbEntity
  8
1
  6
Continuous
370
    50
100
AcDbCircle
 10
86.2021134334
 20
6.8064994258
 30
0.0
 40
0.98823535933259
100
AcDbArc
 50
88.3124055229
 51
177.0239147767
  0
ARC
  5
411
330
1F
100
AcDbEntity
  8
1
  6
Continuous
370
    50
100
AcDbCircle
 10
106.9600988916
 20
4.0356401695
 30
0.0
 40
2.909514536021584
100
AcDbArc
 50
91.470666619
 51
104.0748503875
  0
ARC
  5
412
330
1F
100
AcDbEntity
  8
1
  6
Continuous
370
    50
100
AcDbCircle
 10
107.2394386964
 20
6.8064994258
 30
0.0
 40
0.9882353593326042
100
AcDbArc
 50
88.3124055229
 51
177.0239147767
  0
CIRCLE
  5
413
330
1F
100
AcDbEntity
  8
SK1
100
AcDbCircle
 10
-15.4999983311
 20
0.0000000001
 30
0.0
 40
4.499999999999948
  0
ARC
  5
414
330
1F
100
AcDbEntity
  8
1
  6
Continuous
370
    50
100
AcDbCircle
 10
205.7220089072
 20
-70.3837502163
 30
0.0
 40
102.1347770437243
100
AcDbArc
 50
89.7432056236
 51
90.8695557346
  0
ARC
  5
415
330
1F
100
AcDbEntity
  8
1
  6
Continuous
370
    50
100
AcDbCircle
 10
204.0360319125
 20
30.2686890691
 30
0.0
 40
1.476848822039972
100
AcDbArc
 50
84.7171680171
 51
110.5652505323
  0
ARC
  5
416
330
1F
100
AcDbEntity
  8
1
  6
Continuous
370
    50
100
AcDbCircle
 10
214.7969601765
 20
35.7505070513
 30
0.0
 40
12.00050735434472
100
AcDbArc
 50
200.6829524061
 51
269.998328944
  0
ARC
  5
417
330
1F
100
AcDbEntity
  8
1
100
AcDbCircle
 10
224.9581012007
 20
23.8339797673
 30
0.0
 40
0.4588148517585521
100
AcDbArc
 50
190.5467030414
 51
243.2970674218
  0
ARC
  5
418
330
1F
100
AcDbEntity
  8
1
100
AcDbCircle
 10
225.3429838604
 20
16.7911081308
 30
0.0
 40
0.8382837944171151
100
AcDbArc
 50
134.8360923968
 51
180.083184448
  0
ARC
  5
419
330
1F
100
AcDbEntity
  8
1
100
AcDbCircle
 10
225.4782596707
 20
16.6325209618
 30
0.0
 40
0.9736404606872618
100
AcDbArc
 50
180.7479888886
 51
221.7552419683
  0
ARC
  5
41A
330
1F
100
AcDbEntity
  8
1
100
AcDbCircle
 10
225.513379676
 20
-16.6848451628
 30
0.0
 40
1.034801951178308
100
AcDbArc
 50
137.3787305126
 51
222.6213922241
  0
ARC
  5
41B
330
1F
100
AcDbEntity
  8
1
100
AcDbCircle
 10
224.9298685991
 20
-23.8060730139
 30
0.0
 40
0.4213866398434949
100
AcDbArc
 50
114.9786599224
 51
245.021565232
  0
ARC
  5
41C
330
1F
100
AcDbEntity
  8
1
100
AcDbCircle
 10
225.9501471153
 20
20.3772214874
 30
0.0
 40
2.359762968655461
100
AcDbArc
 50
5.2522744312
 51
27.1445617311
  0
ARC
  5
41D
330
1F
100
AcDbEntity
  8
1
100
AcDbCircle
 10
227.0999851219
 20
-25.7884927378
 30
0.0
 40
1.21063401092527
100
AcDbArc
 50
321.695337918
 51
352.4061467993
  0
ARC
  5
41E
330
1F
100
AcDbEntity
  8
1
100
AcDbCircle
 10
227.4661545098
 20
-28.9801442195
 30
0.0
 40
0.8539741767914403
100
AcDbArc
 50
313.1320039324
 51
347.5357880347
  0
ARC
  5
41F
330
1F
100
AcDbEntity
  8
1
100
AcDbCircle
 10
251.8115016689
 20
24.39485873
 30
0.0
 40
3.500000000000012
100
AcDbArc
 50
302.9498717357
 51
157.0255712945
  0
ARC
  5
420
330
1F
100
AcDbEntity
  8
1
100
AcDbCircle
 10
251.8115016689
 20
24.39485873
 30
0.0
 40
1.969999999999974
100
AcDbArc
 50
330.0
 51
30.0
  0
ARC
  5
421
330
1F
100
AcDbEntity
  8
1
100
AcDbCircle
 10
251.8115016689
 20
24.39485873
 30
0.0
 40
1.970000000000017
100
AcDbArc
 50
30.0
 51
89.9999999992
  0
ARC
  5
422
330
1F
100
AcDbEntity
  8
1
100
AcDbCircle
 10
251.8115016689
 20
24.39485873
 30
0.0
 40
1.970000000000023
100
AcDbArc
 50
89.9999999992
 51
150.0
  0
ARC
  5
423
330
1F
100
AcDbEntity
  8
1
100
AcDbCircle
 10
251.8115016689
 20
24.39485873
 30
0.0
 40
1.970000000000023
100
AcDbArc
 50
150.0
 51
210.0
  0
ARC
  5
424
330
1F
100
AcDbEntity
  8
1
100
AcDbCircle
 10
251.8115016689
 20
24.39485873
 30
0.0
 40
1.970000000000027
100
AcDbArc
 50
210.0
 51
270.0
  0
ARC
  5
425
330
1F
100
AcDbEntity
  8
1
100
AcDbCircle
 10
251.8115016689
 20
24.39485873
 30
0.0
 40
1.970000000000027
100
AcDbArc
 50
270.0
 51
330.0
  0
ARC
  5
426
330
1F
100
AcDbEntity
  8
1
100
AcDbCircle
 10
250.3652392446
 20
25.22985873
 30
0.0
 40
0.3000000000173377
100
AcDbArc
 50
150.0000000019
 51
236.6158381936
  0
ARC
  5
427
330
1F
100
AcDbEntity
  8
1
100
AcDbCircle
 10
249.8149893014
 20
24.39485873
 30
0.0
 40
0.6999999999999894
100
AcDbArc
 50
303.3841618063
 51
56.6158381942
  0
ARC
  5
428
330
1F
100
AcDbEntity
  8
1
100
AcDbCircle
 10
250.3652392446
 20
23.5598587301
 30
0.0
 40
0.3000000000173538
100
AcDbArc
 50
123.3841618052
 51
209.9999999981
  0
ARC
  5
429
330
1F
100
AcDbEntity
  8
1
100
AcDbCircle
 10
251.8115016689
 20
26.0648587301
 30
0.0
 40
0.3000000000000128
100
AcDbArc
 50
89.9999999947
 51
176.6158381936
  0
ARC
  5
42A
330
1F
100
AcDbEntity
  8
1
100
AcDbCircle
 10
250.8132454852
 20
26.1238891592
 30
0.0
 40
0.6999999999999653
100
AcDbArc
 50
243.3841618063
 51
356.6158381974
  0
ARC
  5
42B
330
1F
100
AcDbEntity
  8
1
100
AcDbCircle
 10
250.3652392446
 20
25.22985873
 30
0.0
 40
0.3000000000173377
100
AcDbArc
 50
63.3841617948
 51
150.0000000019
  0
ARC
  5
42C
330
1F
100
AcDbEntity
  8
1
100
AcDbCircle
 10
250.8132454852
 20
22.6658283008
 30
0.0
 40
0.7000000000000048
100
AcDbArc
 50
3.3841618063
 51
116.6158381937
  0
ARC
  5
42D
330
1F
100
AcDbEntity
  8
1
100
AcDbCircle
 10
251.8115016689
 20
22.7248587301
 30
0.0
 40
0.3000000000000504
100
AcDbArc
 50
183.3841618169
 51
270.0
  0
ARC
  5
42E
330
1F
100
AcDbEntity
  8
1
100
AcDbCircle
 10
250.3652392446
 20
23.5598587301
 30
0.0
 40
0.3000000000654528
100
AcDbArc
 50
209.9999999981
 51
296.6158381966
  0
ARC
  5
42F
330
1F
100
AcDbEntity
  8
1
100
AcDbCircle
 10
253.2577640933
 20
25.22985873
 30
0.0
 40
0.3000000000000142
100
AcDbArc
 50
30.0000000076
 51
116.6158381936
  0
ARC
  5
430
330
1F
100
AcDbEntity
  8
1
100
AcDbCircle
 10
252.8097578527
 20
26.1238891592
 30
0.0
 40
0.700000000000004
100
AcDbArc
 50
183.3841618063
 51
296.6158381987
  0
ARC
  5
431
330
1F
100
AcDbEntity
  8
1
100
AcDbCircle
 10
251.8115016689
 20
26.0648587301
 30
0.0
 40
0.3000000000332422
100
AcDbArc
 50
3.3841617968
 51
89.9999999947
  0
ARC
  5
432
330
1F
100
AcDbEntity
  8
1
100
AcDbCircle
 10
252.8097578527
 20
22.6658283008
 30
0.0
 40
0.7000000000000616
100
AcDbArc
 50
63.38416180629999
 51
176.6158381937
  0
ARC
  5
433
330
1F
100
AcDbEntity
  8
1
100
AcDbCircle
 10
253.2577640933
 20
23.5598587301
 30
0.0
 40
0.3000000000654274
100
AcDbArc
 50
243.3841618034
 51
329.9999999924
  0
ARC
  5
434
330
1F
100
AcDbEntity
  8
1
100
AcDbCircle
 10
251.8115016689
 20
22.7248587301
 30
0.0
 40
0.3000000000390886
100
AcDbArc
 50
270.0
 51
356.6158381842
  0
ARC
  5
435
330
1F
100
AcDbEntity
  8
1
100
AcDbCircle
 10
253.2577640933
 20
23.5598587301
 30
0.0
 40
0.3000000000000049
100
AcDbArc
 50
329.9999999924
 51
56.6158381937
  0
ARC
  5
436
330
1F
100
AcDbEntity
  8
1
100
AcDbCircle
 10
253.8080140365
 20
24.39485873
 30
0.0
 40
0.7000000000000085
100
AcDbArc
 50
123.3841618063
 51
236.6158381942
  0
ARC
  5
437
330
1F
100
AcDbEntity
  8
1
100
AcDbCircle
 10
253.2577640933
 20
25.22985873
 30
0.0
 40
0.2999999999957737
100
AcDbArc
 50
303.3841618052
 51
30.0000000076
  0
CIRCLE
  5
438
330
1F
100
AcDbEntity
  8
1
100
AcDbCircle
 10
251.8115062729
 20
-24.3948579456
 30
0.0
 40
1.599996408800085
  0
ARC
  5
439
330
1F
100
AcDbEntity
  8
1
  6
Continuous
370
    50
100
AcDbCircle
 10
214.7966098986
 20
35.7500001707
 30
0.0
 40
9.49999959480806
100
AcDbArc
 50
204.9010579021
 51
270.0
  0
ELLIPSE
  5
43A
330
1F
100
AcDbEntity
  8
1
100
AcDbEllipse
 10
270.7672977714
 20
-0.0000018814
 30
0.0
 11
54.99261555107693
 21
0.0
 31
0.0
210
0.0
220
0.0
230
1.0
 40
0.5773502692
 41
2.448922602355483
 42
2.547412161835625
  0
ELLIPSE
  5
43B
330
1F
100
AcDbEntity
  8
1
100
AcDbEllipse
 10
187.6288582059
 20
-0.0000005962
 30
0.0
 11
54.99261328710313
 21
0.0
 31
0.0
210
0.0
220
0.0
230
1.0
 40
0.5773502692
 41
0.734348737413171
 42
0.8186557084468481
  0
ELLIPSE
  5
43C
330
1F
100
AcDbEntity
  8
1
100
AcDbEllipse
 10
260.3749924165
 20
0.0000000001
 30
0.0
 11
54.99261314031185
 21
0.0
 31
0.0
210
0.0
220
0.0
230
1.0
 40
0.5773502692
 41
2.235010287337157
 42
2.264814707605661
  0
ELLIPSE
  5
43D
330
1F
100
AcDbEntity
  8
1
100
AcDbEllipse
 10
177.2365532385
 20
-0.000002929
 30
0.0
 11
54.99261495347204
 21
0.0
 31
0.0
210
0.0
220
0.0
230
1.0
 40
0.5773502692
 41
0.3729852293770718
 42
0.5111555732727795
  0
ELLIPSE
  5
43E
330
1F
100
AcDbEntity
  8
1
100
AcDbEllipse
 10
198.0211633441
 20
0.0000000001
 30
0.0
 11
54.99261591265139
 21
0.0
 31
0.0
210
0.0
220
0.0
230
1.0
 40
0.5773502692
 41
5.229334455018392
 42
5.298698767312111
  0
ELLIPSE
  5
43F
330
1F
100
AcDbEntity
  8
1
100
AcDbEllipse
 10
260.3749924165
 20
0.0000000001
 30
0.0
 11
54.99261654590924
 21
0.0
 31
0.0
210
0.0
220
0.0
230
1.0
 40
0.5773502692
 41
4.018370678074985
 42
4.09296370639529
  0
ELLIPSE
  5
440
330
1F
100
AcDbEntity
  8
1
100
AcDbEllipse
 10
187.6288582059
 20
-0.0000005962
 30
0.0
 11
54.99261619556648
 21
0.0
 31
0.0
210
0.0
220
0.0
230
1.0
 40
0.5773502692
 41
5.464529551816507
 42
5.548836489836077
  0
ELLIPSE
  5
441
330
1F
100
AcDbEntity
  8
1
100
AcDbEllipse
 10
270.7672977714
 20
-0.0000018814
 30
0.0
 11
54.99261501736254
 21
0.0
 31
0.0
210
0.0
220
0.0
230
1.0
 40
0.5773502692
 41
3.735773177709111
 42
3.834262679618346
  0
ELLIPSE
  5
442
330
1F
100
AcDbEntity
  8
1
100
AcDbEllipse
 10
177.2365532385
 20
-0.000002929
 30
0.0
 11
54.99261394775027
 21
0.0
 31
0.0
210
0.0
220
0.0
230
1.0
 40
0.5773502692
 41
5.77202978144351
 42
5.910200124539664
  0
ELLIPSE
  5
443
330
1F
100
AcDbEntity
  8
1
100
AcDbEllipse
 10
244.1772837054
 20
0.0000012227
 30
0.0
 11
2.273736754432321E-13
 21
31.74999999999998
 31
0.0
210
0.0
220
0.0
230
1.0
 40
0.1139356083
 41
3.144742265096643
 42
3.192007733268456
  0
ELLIPSE
  5
444
330
1F
100
AcDbEntity
  8
1
100
AcDbEllipse
 10
229.1980779512
 20
0.0000015147
 30
0.0
 11
54.9926149706495
 21
0.0
 31
0.0
210
0.0
220
0.0
230
1.0
 40
0.5773502692
 41
4.639622723484541
 42
4.698750365333895
  0
ELLIPSE
  5
445
330
1F
100
AcDbEntity
  8
1
100
AcDbEllipse
 10
218.8057730349
 20
0.0000000001
 30
0.0
 11
54.99261500672358
 21
2.775557561562891E-14
 31
0.0
210
0.0
220
0.0
230
1.0
 40
0.5773502692
 41
4.828926891423491
 42
4.888638233956843
  0
ELLIPSE
  5
446
330
1F
100
AcDbEntity
  8
1
100
AcDbEllipse
 10
239.5903827881
 20
0.0000003861
 30
0.0
 11
54.99261515999436
 21
-2.775557561562892E-14
 31
0.0
210
0.0
220
0.0
230
1.0
 40
0.5773502692
 41
4.44762816459091
 42
4.508361848758684
  0
ELLIPSE
  5
447
330
1F
100
AcDbEntity
  8
1
100
AcDbEllipse
 10
208.4134681895
 20
0.0000000001
 30
0.0
 11
54.99261424878881
 21
0.0
 31
0.0
210
0.0
220
0.0
230
1.0
 40
0.5773502692
 41
5.022590646892743
 42
5.085285643795724
  0
ELLIPSE
  5
448
330
1F
100
AcDbEntity
  8
1
100
AcDbEllipse
 10
249.9826874608
 20
-0.0000003701
 30
0.0
 11
54.99261484916849
 21
0.0
 31
0.0
210
0.0
220
0.0
230
1.0
 40
0.5773502692
 41
4.24489026992212
 42
4.31002900422033
  0
ELLIPSE
  5
449
330
1F
100
AcDbEntity
  8
1
100
AcDbEllipse
 10
258.294157034
 20
-8.9999999999
 30
0.0
 11
0.0
 21
9.074999999999999
 31
0.0
210
0.0
220
0.0
230
1.0
 40
0.1051042353
 41
2.033912847199232
 42
4.014285445210382
  0
ELLIPSE
  5
44A
330
1F
100
AcDbEntity
  8
1
100
AcDbEllipse
 10
244.1772837054
 20
0.0000012227
 30
0.0
 11
-1.989519660128281E-13
 21
31.75000085955276
 31
0.0
210
0.0
220
0.0
230
1.0
 40
0.1139356083
 41
6.23277014065758
 42
6.280000612582748
  0
ELLIPSE
  5
44B
330
1F
100
AcDbEntity
  8
1
100
AcDbEllipse
 10
229.3980778803
 20
0.0000000001
 30
0.0
 11
54.99261314031187
 21
0.0
 31
0.0
210
0.0
220
0.0
230
1.0
 40
0.5773502692
 41
1.584434948326033
 42
1.596038070768407
  0
ELLIPSE
  5
44C
330
1F
100
AcDbEntity
  8
1
100
AcDbEllipse
 10
187.6288582059
 20
-0.0000005962
 30
0.0
 11
54.99261207853223
 21
-2.775557561562891E-14
 31
0.0
210
0.0
220
0.0
230
1.0
 40
0.5773502692
 41
0.7464274050129183
 42
0.8297563374978463
  0
ELLIPSE
  5
44D
330
1F
100
AcDbEntity
  8
1
100
AcDbEllipse
 10
270.7672977714
 20
-0.0000018814
 30
0.0
 11
54.99261301630076
 21
2.775557561562891E-14
 31
0.0
210
0.0
220
0.0
230
1.0
 40
0.5773502692
 41
2.461781847801321
 42
2.562127263907658
  0
ELLIPSE
  5
44E
330
1F
100
AcDbEntity
  8
1
100
AcDbEllipse
 10
177.2365532385
 20
-0.000002929
 30
0.0
 11
54.99261614062056
 21
-2.775557561562891E-14
 31
0.0
210
0.0
220
0.0
230
1.0
 40
0.5773502692
 41
0.3947422125260097
 42
0.5275721395514867
  0
ELLIPSE
  5
44F
330
1F
100
AcDbEntity
  8
1
  6
Continuous
370
    50
100
AcDbEllipse
 10
235.0205097446
 20
0.0000000001
 30
0.0
 11
0.0
 21
31.75
 31
0.0
210
0.0
220
0.0
230
1.0
 40
0.5773502692
 41
1.237233670627343
 42
1.904358978348232
  0
ELLIPSE
  5
450
330
1F
100
AcDbEntity
  8
1
100
AcDbEllipse
 10
177.2365532385
 20
-0.000002929
 30
0.0
 11
54.9926131403123
 21
-2.775557561562891E-14
 31
0.0
210
0.0
220
0.0
230
1.0
 40
0.5773502692
 41
5.755613178192974
 42
5.888443146504586
  0
ELLIPSE
  5
451
330
1F
100
AcDbEntity
  8
1
100
AcDbEllipse
 10
270.7672977714
 20
-0.0000018814
 30
0.0
 11
54.99261314031212
 21
0.0
 31
0.0
210
0.0
220
0.0
230
1.0
 40
0.5773502692
 41
3.72105807003784
 42
3.821403502583367
  0
ELLIPSE
  5
452
330
1F
100
AcDbEntity
  8
1
100
AcDbEllipse
 10
187.6288582059
 20
-0.0000005962
 30
0.0
 11
54.99261314031233
 21
-2.775557561562892E-14
 31
0.0
210
0.0
220
0.0
230
1.0
 40
0.5773502692
 41
5.453428931634806
 42
5.536757835707163
  0
ELLIPSE
  5
453
330
1F
100
AcDbEntity
  8
1
100
AcDbEllipse
 10
260.3749924165
 20
0.0000000001
 30
0.0
 11
54.99261334538846
 21
0.0
 31
0.0
210
0.0
220
0.0
230
1.0
 40
0.5773502692
 41
4.007723389958041
 42
4.082920415794932
  0
ELLIPSE
  5
454
330
1F
100
AcDbEntity
  8
1
100
AcDbEllipse
 10
198.0211633441
 20
0.0000000001
 30
0.0
 11
54.99261314031224
 21
0.0
 31
0.0
210
0.0
220
0.0
230
1.0
 40
0.5773502692
 41
5.219986559199122
 42
5.288948632788377
  0
ELLIPSE
  5
455
330
1F
100
AcDbEntity
  8
1
100
AcDbEllipse
 10
249.9826874608
 20
-0.0000003701
 30
0.0
 11
54.99261314031219
 21
0.0
 31
0.0
210
0.0
220
0.0
230
1.0
 40
0.5773502692
 41
4.235741722764028
 42
4.301157015595161
  0
ELLIPSE
  5
456
330
1F
100
AcDbEntity
  8
1
100
AcDbEllipse
 10
208.4134681895
 20
0.0000000001
 30
0.0
 11
54.99261314031236
 21
0.0
 31
0.0
210
0.0
220
0.0
230
1.0
 40
0.5773502692
 41
5.01404594840276
 42
5.076551218609183
  0
ELLIPSE
  5
457
330
1F
100
AcDbEntity
  8
1
100
AcDbEllipse
 10
239.5903827881
 20
0.0000003861
 30
0.0
 11
54.99261314031221
 21
0.0
 31
0.0
210
0.0
220
0.0
230
1.0
 40
0.5773502692
 41
4.439176297168569
 42
4.500034056744331
  0
ELLIPSE
  5
458
330
1F
100
AcDbEntity
  8
1
100
AcDbEllipse
 10
218.8057730349
 20
0.0000000001
 30
0.0
 11
54.99261314031233
 21
0.0
 31
0.0
210
0.0
220
0.0
230
1.0
 40
0.5773502692
 41
4.820727170867343
 42
4.880368063609303
  0
ELLIPSE
  5
459
330
1F
100
AcDbEntity
  8
1
100
AcDbEllipse
 10
229.1980779512
 20
0.0000015147
 30
0.0
 11
54.99261314031216
 21
0.0
 31
0.0
210
0.0
220
0.0
230
1.0
 40
0.5773502692
 41
4.631450670409926
 42
4.690601126742391
  0
ELLIPSE
  5
45A
330
1F
100
AcDbEntity
  8
1
100
AcDbEllipse
 10
225.0019256993
 20
16.8224392304
 30
0.0
 11
0.5
 21
0.0
 31
0.0
210
0.0
220
0.0
230
1.0
 40
0.6186980992
 41
3.247002735713401
 42
3.264120790854151
  0
ELLIPSE
  5
45B
330
1F
100
AcDbEntity
  8
1
100
AcDbEllipse
 10
259.7151351449
 20
0.0000006224
 30
0.0
 11
0.0
 21
32.54933002670801
 31
0.0
210
0.0
220
0.0
230
1.0
 40
0.1051222895
 41
1.938184545805892
 42
2.968065949268153
  0
DIMENSION
  5
45C
330
1F
100
AcDbEntity
  8
2
  6
Continuous
370
    25
100
AcDbDimension
280
     0
  2
_D
 10
270.4413203931281
 20
-33.98784883474927
 30
0.0
 11
270.4413289008
 21
-0.0000024772
 31
0.0
 70
   160
  1
%%c<> - 110
 71
     5
 42
67.97569271510213
 73
     0
 74
     0
 75
     0
  3
SLDDIMSTYLE0
100
AcDbAlignedDimension
 13
259.0610849314
 23
33.987846729
 33
0.0
 14
259.0610679161
 24
-33.9878459861
 34
0.0
 50
89.999985658
100
AcDbRotatedDimension
1001
ACAD
1000
DSTYLE
1002
{
1070
   140
1040
3.5
1070
   340
1005
4D0
1070
   177
1070
   256
1070
   176
1070
   256
1070
   178
1070
   256
1070
   347
1005
14
1070
   346
1005
14
1070
   345
1005
14
1002
}
  0
DIMENSION
  5
46A
330
1F
100
AcDbEntity
  8
2
  6
Continuous
370
    25
100
AcDbDimension
280
     0
  2
_D_1
 10
0.0
 20
44.6025980907
 30
0.0
 11
130.0000016037
 21
44.6025980907
 31
0.0
 70
   160
  1
<>
 71
     5
 42
260.0000032074
 73
     0
 74
     0
 75
     0
  3
SLDDIMSTYLE1
100
AcDbAlignedDimension
 13
260.0000032074
 23
33.2000002678
 33
0.0
 14
0.0
 24
30.9999994933
 34
0.0
100
AcDbRotatedDimension
1001
ACAD
1000
DSTYLE
1002
{
1070
   140
1040
3.5
1070
   340
1005
4D0
1070
   177
1070
   256
1070
   176
1070
   256
1070
   178
1070
   256
1070
   347
1005
14
1070
   346
1005
14
1070
   345
1005
14
1002
}
  0
DIMENSION
  5
475
330
1F
100
AcDbEntity
  8
2
  6
Continuous
370
    25
100
AcDbDimension
280
     0
  2
_D_2
 10
228.5000013596
 20
-43.8301646526
 30
0.0
 11
114.2500006798
 21
-43.8301646526
 31
0.0
 70
   160
  1
<>
 71
     5
 42
228.5000013596
 73
     0
 74
     0
 75
     0
  3
SLDDIMSTYLE1
100
AcDbAlignedDimension
 13
0.0
 23
-30.9999994934
 33
0.0
 14
228.5000013596
 24
-31.7474993483
 34
0.0
100
AcDbRotatedDimension
1001
ACAD
1000
DSTYLE
1002
{
1070
   140
1040
3.5
1070
   340
1005
4D0
1070
   177
1070
   256
1070
   176
1070
   256
1070
   178
1070
   256
1070
   347
1005
14
1070
   346
1005
14
1070
   345
1005
14
1002
}
  0
DIMENSION
  5
47F
330
1F
100
AcDbEntity
  8
SK2
100
AcDbDimension
280
     0
  2
_D_3
 10
-45.6193672243
 20
17.9999992251
 30
0.0
 11
-45.6193672243
 21
0.0
 31
0.0
 70
   160
  1
%%c<>
 71
     5
 42
35.9999984502
 73
     0
 74
     0
 75
     0
  3
SLDDIMSTYLE1
100
AcDbAlignedDimension
 13
-34.9999964237
 23
-17.9999992251
 33
0.0
 14
-34.9999964237
 24
17.9999992251
 34
0.0
 50
90.0
100
AcDbRotatedDimension
1001
ACAD
1000
DSTYLE
1002
{
1070
   140
1040
3.5
1070
   340
1005
4D0
1070
   177
1070
   256
1070
   176
1070
   256
1070
   178
1070
   256
1070
   347
1005
14
1070
   346
1005
14
1070
   345
1005
14
1002
}
  0
DIMENSION
  5
48A
330
1F
100
AcDbEntity
  8
2
  6
Continuous
370
    25
100
AcDbDimension
280
     0
  2
_D_4
 10
-54.9813677689
 20
-32.0000015199
 30
0.0
 11
-54.9813677689
 21
0.0
 31
0.0
 70
   160
  1
%%c<>
 71
     5
 42
64.0000030398
 73
     0
 74
     0
 75
     0
  3
SLDDIMSTYLE1
100
AcDbAlignedDimension
 13
1.0000020266
 23
32.0000015199
 33
0.0
 14
1.0000020266
 24
-32.0000015199
 34
0.0
 50
90.0
100
AcDbRotatedDimension
1001
ACAD
1000
DSTYLE
1002
{
1070
   140
1040
3.5
1070
   340
1005
4D0
1070
   177
1070
   256
1070
   176
1070
   256
1070
   178
1070
   256
1070
   347
1005
14
1070
   346
1005
14
1070
   345
1005
14
1002
}
  0
MTEXT
  5
495
330
1F
100
AcDbEntity
  8
SK6
  6
Continuous
370
    35
100
AcDbMText
 10
10.2963807342
 20
-21.5355106392
 30
0.0
 40
3.5
 41
0.0
 46
0.0
 71
     1
 72
     1
  1
389.407
  7
BMG_Text
 73
     1
 44
1.0
  0
LINE
  5
541
330
1F
100
AcDbEntity
  8
1
100
AcDbLine
 10
244.4653734565
 20
31.3377156854
 30
0.0
 11
259.2164753636616
 21
33.38825207900533
 31
0.0
  0
LINE
  5
542
330
1F
100
AcDbEntity
  8
1
100
AcDbLine
 10
259.2164753636616
 20
33.38825207900533
 30
0.0
 11
259.6476636938
 21
18.0417578011
 31
0.0
  0
LINE
  5
544
330
1F
100
AcDbEntity
  8
CUT
100
AcDbLine
 10
244.1250023385
 20
30.6829366327
 30
0.0
 11
244.1250023385
 21
17.30532701557111
 31
0.0
  0
LINE
  5
545
330
1F
100
AcDbEntity
  8
CUT
100
AcDbLine
 10
259.3389200218
 20
17.9169375296
 30
0.0
 11
253.9701159463
 21
16.9702730956
 31
0.0
  0
ARC
  5
546
330
1F
100
AcDbEntity
  8
CUT
100
AcDbCircle
 10
244.9250026067
 20
30.68293619089997
 30
0.0
 40
0.8000002682001169
100
AcDbArc
 50
99.9999853926991
 51
179.9999683584143
  0
CIRCLE
  5
547
330
1F
100
AcDbEntity
  8
CUT
100
AcDbCircle
 10
252.0625016689
 20
24.6938587301
 30
0.0
 40
3.797167001354751
  0
LINE
  5
54A
330
1F
100
AcDbEntity
  8
NOCUT
100
AcDbLine
 10
0.0
 20
-0.0000000000500009
 30
0.0
 11
0.0
 21
30.9999994933
 31
0.0
  0
LINE
  5
54B
330
1F
100
AcDbEntity
  8
NOCUT
100
AcDbLine
 10
0.0
 20
30.9999994933
 30
0.0
 11
1.0000020266
 21
32.0000015199
 31
0.0
  0
LINE
  5
54C
330
1F
100
AcDbEntity
  8
NOCUT
100
AcDbLine
 10
1.0000020266
 20
32.0000015199
 30
0.0
 11
191.9000016715
 21
32.0000015199
 31
0.0
  0
LINE
  5
54D
330
1F
100
AcDbEntity
  8
NOCUT
100
AcDbLine
 10
191.9000016715
 20
32.0000015199
 30
0.0
 11
192.0000016689
 21
31.8999998272
 31
0.0
  0
LINE
  5
54E
330
1F
100
AcDbEntity
  8
NOCUT
100
AcDbLine
 10
192.0000016689
 20
31.8999998272
 30
0.0
 11
192.0000016689
 21
31.58453580758144
 31
0.0
  0
LINE
  5
54F
330
1F
100
AcDbEntity
  8
NOCUT
100
AcDbLine
 10
192.0000016689
 20
31.58453580758144
 30
0.0
 11
192.2000017348
 21
31.7500010132
 31
0.0
  0
LINE
  5
550
330
1F
100
AcDbEntity
  8
NOCUT
100
AcDbLine
 10
192.2000017348
 20
31.7500010132
 30
0.0
 11
206.1797659844
 21
31.7500010132
 31
0.0
  0
LINE
  5
551
330
1F
100
AcDbEntity
  8
NOCUT
100
AcDbLine
 10
206.1797659844
 20
31.7500010132
 30
0.0
 11
244.1899586551294
 21
31.7500010132
 31
0.0
  0
LINE
  5
552
330
1F
100
AcDbEntity
  8
NOCUT
100
AcDbLine
 10
244.1899586551294
 20
31.7500010132
 30
0.0
 11
244.3595810882
 21
31.7096613136
 31
0.0
  0
LINE
  5
553
330
1F
100
AcDbEntity
  8
NOCUT
100
AcDbLine
 10
244.3595810882
 20
31.7096613136
 30
0.0
 11
244.3595810882
 21
31.33780715891067
 31
0.0
  0
LINE
  5
554
330
1F
100
AcDbEntity
  8
NOCUT
100
AcDbLine
 10
244.3595810882
 20
31.33780715891067
 30
0.0
 11
244.4653734565
 21
31.3377156854
 31
0.0
  0
LINE
  5
555
330
1F
100
AcDbEntity
  8
NOCUT
100
AcDbLine
 10
244.7860842188519
 20
31.47078269285193
 30
0.0
 11
259.061084931413
 21
33.98784672907013
 31
0.0
  0
LINE
  5
55C
330
1F
100
AcDbEntity
  8
NOCUT
100
AcDbLine
 10
244.4653734565
 20
31.3377156854
 30
0.0
 11
244.4653715580096
 21
31.33771838995555
 31
0.0
  0
LINE
  5
55D
330
1F
100
AcDbEntity
  8
NOCUT
100
AcDbLine
 10
244.4653715580096
 20
31.33771838995555
 30
0.0
 11
244.7860842189
 21
31.4707826928
 31
0.0
  0
ARC
  5
55E
330
1F
100
AcDbEntity
  8
NOCUT
100
AcDbCircle
 10
259.1988985667857
 20
33.1958779269531
 30
0.0
 40
0.803870127267961
100
AcDbArc
 50
4.753954850388959
 51
99.87141974668177
  0
LINE
  5
55F
330
1F
100
AcDbEntity
  8
NOCUT
100
AcDbLine
 10
260.0000032074
 20
33.2625002678
 30
0.0
 11
260.0000032074
 21
18.7047853047
 31
0.0
  0
ARC
  5
560
330
1F
100
AcDbEntity
  8
NOCUT
100
AcDbCircle
 10
259.1928621924127
 20
18.70738403418789
 30
0.0
 40
0.8071451985050512
100
AcDbArc
 50
304.4973220475048
 51
359.8155270089238
  0
LINE
  5
561
330
1F
100
AcDbEntity
  8
NOCUT
100
AcDbLine
 10
259.6476636938
 20
18.0417578011
 30
0.0
 11
259.6476636938
 21
15.40262867357085
 31
0.0
  0
ARC
  5
562
330
1F
100
AcDbEntity
  8
NOCUT
100
AcDbCircle
 10
269.4000050333088
 20
4.000000369258888
 30
0.0
 40
15.00000057230881
100
AcDbArc
 50
130.5416093387262
 51
179.999999999843
  0
LINE
  5
563
330
1F
100
AcDbEntity
  8
NOCUT
100
AcDbLine
 10
254.400004461
 20
4.000000369299998
 30
0.0
 11
254.400004461
 21
0.0216664102989341
 31
0.0
  0
LINE
  5
564
330
1F
100
AcDbEntity
  8
NOCUT
100
AcDbLine
 10
254.400004461
 20
0.0216664102989341
 30
0.0
 11
-0.002454547371741
 21
0.0216664102989653
 31
0.0
  0
LWPOLYLINE
  5
58C
330
1F
100
AcDbEntity
  8
INFTOTAL
100
AcDbPolyline
 90
        4
 70
     1
 43
0.0
 10
-88.22823117345845
 20
85.49467718173457
 10
-88.22823117345845
 20
-64.64097499217877
 10
304.3282905656721
 20
-64.64097499217877
 10
304.3282905656721
 20
85.49467718173457
  0
ENDSEC
  0
SECTION
  2
OBJECTS
  0
DICTIONARY
  5
C
330
0
100
AcDbDictionary
281
     1
  3
ACAD_DETAILVIEWSTYLE
350
55A
  3
ACAD_GROUP
350
D
  3
ACAD_LAYOUT
350
4B8
  3
ACAD_MATERIAL
350
4CC
  3
ACAD_MLEADERSTYLE
350
4E6
  3
ACAD_MLINESTYLE
350
17
  3
ACAD_PLOTSETTINGS
350
528
  3
ACAD_PLOTSTYLENAME
350
529
  3
ACAD_SCALELIST
350
496
  3
ACAD_SECTIONVIEWSTYLE
350
55B
  3
ACAD_TABLESTYLE
350
535
  3
ACAD_VISUALSTYLE
350
4BB
  3
ACDB_RECOMPOSE_DATA
350
58F
  3
AcDbVariableDictionary
350
4E4
  3
APPDATA
350
538
  0
DICTIONARY
  5
539
330
2
100
AcDbDictionary
280
     1
281
     1
  3
ACAD_LAYERSTATES
360
53A
  0
DICTIONARY
  5
55A
102
{ACAD_REACTORS
330
C
102
}
330
C
100
AcDbDictionary
281
     1
  0
DICTIONARY
  5
D
102
{ACAD_REACTORS
330
C
102
}
330
C
100
AcDbDictionary
281
     1
  0
DICTIONARY
  5
4B8
102
{ACAD_REACTORS
330
C
102
}
330
C
100
AcDbDictionary
281
     1
  3
Layout1
350
4BA
  3
Model
350
4B9
  0
DICTIONARY
  5
4CC
102
{ACAD_REACTORS
330
C
102
}
330
C
100
AcDbDictionary
281
     1
  3
ByBlock
350
4CE
  3
ByLayer
350
4CD
  3
Global
350
4CF
  0
DICTIONARY
  5
4E6
102
{ACAD_REACTORS
330
C
102
}
330
C
100
AcDbDictionary
281
     1
  3
Standard
350
537
  0
DICTIONARY
  5
17
102
{ACAD_REACTORS
330
C
102
}
330
C
100
AcDbDictionary
281
     1
  3
STANDARD
350
18
  0
DICTIONARY
  5
528
102
{ACAD_REACTORS
330
C
102
}
330
C
100
AcDbDictionary
281
     1
  0
ACDBDICTIONARYWDFLT
  5
529
102
{ACAD_REACTORS
330
C
102
}
330
C
100
AcDbDictionary
281
     1
  3
Normal
350
52A
100
AcDbDictionaryWithDefault
340
52A
  0
DICTIONARY
  5
496
102
{ACAD_REACTORS
330
C
102
}
330
C
100
AcDbDictionary
281
     1
  3
A0
350
497
  3
A1
350
498
  3
A2
350
499
  3
A3
350
49A
  3
A4
350
49B
  3
A5
350
49C
  3
A6
350
49D
  3
A7
350
49E
  3
A8
350
49F
  3
A9
350
4A0
  3
B0
350
4A1
  3
B1
350
4A2
  3
B2
350
4A3
  3
B3
350
4A4
  3
B4
350
4A5
  3
B5
350
4A6
  3
B6
350
4A7
  3
B7
350
4A8
  3
B8
350
4A9
  3
B9
350
4AA
  3
C0
350
4AB
  3
C1
350
4AC
  3
C2
350
4AD
  3
C3
350
4AE
  3
C4
350
4AF
  3
C5
350
4B0
  3
C6
350
4B1
  3
C7
350
4B2
  3
C8
350
4B3
  3
C9
350
4B4
  3
D0
350
4B5
  3
D1
350
4B6
  3
D2
350
4B7
  0
DICTIONARY
  5
55B
102
{ACAD_REACTORS
330
C
102
}
330
C
100
AcDbDictionary
281
     1
  0
DICTIONARY
  5
535
102
{ACAD_REACTORS
330
C
102
}
330
C
100
AcDbDictionary
281
     1
  3
Standard
350
536
  0
DICTIONARY
  5
4BB
102
{ACAD_REACTORS
330
C
102
}
330
C
100
AcDbDictionary
281
     1
  3
2dWireframe
350
4C0
  3
3D Hidden
350
4C2
  3
3dWireframe
350
4C1
  3
Basic
350
4C3
  3
Brighten
350
4C7
  3
ColorChange
350
4CB
  3
Conceptual
350
4C5
  3
Dim
350
4C6
  3
EdgeColorOff
350
52F
  3
Facepattern
350
4CA
  3
Flat
350
4BC
  3
FlatWithEdges
350
4BD
  3
Gouraud
350
4BE
  3
GouraudWithEdges
350
4BF
  3
Hidden
350
52C
  3
JitterOff
350
52D
  3
Linepattern
350
4C9
  3
OverhangOff
350
52E
  3
Realistic
350
4C4
  3
Shaded
350
534
  3
Shaded with edges
350
533
  3
Shades of Gray
350
530
  3
Sketchy
350
531
  3
Thicken
350
4C8
  3
Wireframe
350
52B
  3
X-Ray
350
532
  0
XRECORD
  5
58F
102
{ACAD_REACTORS
330
C
102
}
330
C
100
AcDbXrecord
280
     1
 90
        1
330
536
  0
DICTIONARY
  5
4E4
102
{ACAD_REACTORS
330
C
102
}
330
C
100
AcDbDictionary
281
     1
  3
CANNOSCALE
350
557
  3
CMLEADERSTYLE
350
559
  3
CTABLESTYLE
350
558
  3
DIMASSOC
350
4E8
  3
HIDETEXT
350
4E9
  3
MSLTSCALE
350
4E7
  0
DICTIONARY
  5
538
102
{ACAD_REACTORS
330
C
102
}
330
C
100
AcDbDictionary
281
     1
  0
DICTIONARY
  5
53A
102
{ACAD_REACTORS
330
539
102
}
330
539
100
AcDbDictionary
281
     1
  0
LAYOUT
  5
4BA
102
{ACAD_REACTORS
330
4B8
102
}
330
4B8
100
AcDbPlotSettings
  1

  2
none_device
  4

  6

 40
0.0
 41
0.0
 42
0.0
 43
0.0
 44
0.0
 45
0.0
 46
0.0
 47
0.0
 48
0.0
 49
0.0
140
0.0
141
0.0
142
1.0
143
1.0
 70
   688
 72
     0
 73
     0
 74
     5
  7

 75
    16
 76
     0
 77
     2
 78
   300
147
1.0
148
0.0
149
0.0
100
AcDbLayout
  1
Layout1
 70
     1
 71
     1
 10
0.0
 20
0.0
 11
420.0
 21
297.0
 12
0.0
 22
0.0
 32
0.0
 14
1.000000000000000E+20
 24
1.000000000000000E+20
 34
1.000000000000000E+20
 15
-1.000000000000000E+20
 25
-1.000000000000000E+20
 35
-1.000000000000000E+20
146
0.0
 13
0.0
 23
0.0
 33
0.0
 16
1.0
 26
0.0
 36
0.0
 17
0.0
 27
1.0
 37
0.0
 76
     0
330
1B
  0
LAYOUT
  5
4B9
102
{ACAD_REACTORS
330
4B8
102
}
330
4B8
100
AcDbPlotSettings
  1

  2
none_device
  4

  6

 40
0.0
 41
0.0
 42
0.0
 43
0.0
 44
0.0
 45
0.0
 46
0.0
 47
0.0
 48
0.0
 49
0.0
140
0.0
141
0.0
142
1.0
143
1.0
 70
  1712
 72
     0
 73
     0
 74
     0
  7

 75
     0
 76
     0
 77
     2
 78
   300
147
1.0
148
-0.0000001562100806
149
0.0
100
AcDbLayout
  1
Model
 70
     1
 71
     0
 10
0.0
 20
0.0
 11
420.0
 21
297.0
 12
0.0
 22
0.0
 32
0.0
 14
-88.22823117345843
 24
-64.64097499217877
 34
0.0
 15
304.3282905656721
 25
85.49467718173457
 35
0.0
146
0.0
 13
0.0
 23
0.0
 33
0.0
 16
1.0
 26
0.0
 36
0.0
 17
0.0
 27
1.0
 37
0.0
 76
     0
330
1F
331
29
  0
MATERIAL
  5
4CE
102
{ACAD_REACTORS
330
4CC
102
}
330
4CC
100
AcDbMaterial
  1
ByBlock
 72
     1
 94
      127
  0
MATERIAL
  5
4CD
102
{ACAD_REACTORS
330
4CC
102
}
330
4CC
100
AcDbMaterial
  1
ByLayer
 72
     1
 94
      127
  0
MATERIAL
  5
4CF
102
{ACAD_REACTORS
330
4CC
102
}
330
4CC
100
AcDbMaterial
  1
Global
 72
     1
 94
      127
  0
MLEADERSTYLE
  5
537
102
{ACAD_REACTORS
330
4E6
102
}
330
4E6
100
AcDbMLeaderStyle
179
     2
170
     2
171
     1
172
     0
 90
        2
 40
0.0
 41
0.0
173
     1
 91
-1056964608
340
14
 92
       -2
290
     1
 42
2.0
291
     1
 43
8.0
  3
Standard
341
0
 44
4.0
300

342
11
174
     1
178
     1
175
     1
176
     0
 93
-1056964608
 45
4.0
292
     0
297
     0
 46
4.0
343
0
 94
-1056964608
 47
1.0
 49
1.0
140
1.0
293
     1
141
0.0
294
     1
177
     0
142
1.0
295
     0
296
     0
143
3.75
271
     0
272
     9
273
     9
298
     0
  0
MLINESTYLE
  5
18
102
{ACAD_REACTORS
330
17
102
}
330
17
100
AcDbMlineStyle
  2
Standard
 70
     0
  3

 62
   256
 51
90.0
 52
90.0
 71
     2
 49
0.5
 62
   256
  6
BYLAYER
 49
-0.5
 62
   256
  6
BYLAYER
  0
ACDBPLACEHOLDER
  5
52A
102
{ACAD_REACTORS
330
529
102
}
330
529
  0
SCALE
  5
497
102
{ACAD_REACTORS
330
496
102
}
330
496
100
AcDbScale
 70
     0
300
1:1
140
1.0
141
1.0
290
     1
  0
SCALE
  5
498
102
{ACAD_REACTORS
330
496
102
}
330
496
100
AcDbScale
 70
     0
300
1:2
140
1.0
141
2.0
290
     0
  0
SCALE
  5
499
102
{ACAD_REACTORS
330
496
102
}
330
496
100
AcDbScale
 70
     0
300
1:4
140
1.0
141
4.0
290
     0
  0
SCALE
  5
49A
102
{ACAD_REACTORS
330
496
102
}
330
496
100
AcDbScale
 70
     0
300
1:5
140
1.0
141
5.0
290
     0
  0
SCALE
  5
49B
102
{ACAD_REACTORS
330
496
102
}
330
496
100
AcDbScale
 70
     0
300
1:8
140
1.0
141
8.0
290
     0
  0
SCALE
  5
49C
102
{ACAD_REACTORS
330
496
102
}
330
496
100
AcDbScale
 70
     0
300
1:10
140
1.0
141
10.0
290
     0
  0
SCALE
  5
49D
102
{ACAD_REACTORS
330
496
102
}
330
496
100
AcDbScale
 70
     0
300
1:16
140
1.0
141
16.0
290
     0
  0
SCALE
  5
49E
102
{ACAD_REACTORS
330
496
102
}
330
496
100
AcDbScale
 70
     0
300
1:20
140
1.0
141
20.0
290
     0
  0
SCALE
  5
49F
102
{ACAD_REACTORS
330
496
102
}
330
496
100
AcDbScale
 70
     0
300
1:30
140
1.0
141
30.0
290
     0
  0
SCALE
  5
4A0
102
{ACAD_REACTORS
330
496
102
}
330
496
100
AcDbScale
 70
     0
300
1:40
140
1.0
141
40.0
290
     0
  0
SCALE
  5
4A1
102
{ACAD_REACTORS
330
496
102
}
330
496
100
AcDbScale
 70
     0
300
1:50
140
1.0
141
50.0
290
     0
  0
SCALE
  5
4A2
102
{ACAD_REACTORS
330
496
102
}
330
496
100
AcDbScale
 70
     0
300
1:100
140
1.0
141
100.0
290
     0
  0
SCALE
  5
4A3
102
{ACAD_REACTORS
330
496
102
}
330
496
100
AcDbScale
 70
     0
300
2:1
140
2.0
141
1.0
290
     0
  0
SCALE
  5
4A4
102
{ACAD_REACTORS
330
496
102
}
330
496
100
AcDbScale
 70
     0
300
4:1
140
4.0
141
1.0
290
     0
  0
SCALE
  5
4A5
102
{ACAD_REACTORS
330
496
102
}
330
496
100
AcDbScale
 70
     0
300
8:1
140
8.0
141
1.0
290
     0
  0
SCALE
  5
4A6
102
{ACAD_REACTORS
330
496
102
}
330
496
100
AcDbScale
 70
     0
300
10:1
140
10.0
141
1.0
290
     0
  0
SCALE
  5
4A7
102
{ACAD_REACTORS
330
496
102
}
330
496
100
AcDbScale
 70
     0
300
100:1
140
100.0
141
1.0
290
     0
  0
SCALE
  5
4A8
102
{ACAD_REACTORS
330
496
102
}
330
496
100
AcDbScale
 70
     0
300
1/128" = 1'-0"
140
0.0078125
141
12.0
290
     0
  0
SCALE
  5
4A9
102
{ACAD_REACTORS
330
496
102
}
330
496
100
AcDbScale
 70
     0
300
1/64" = 1'-0"
140
0.015625
141
12.0
290
     0
  0
SCALE
  5
4AA
102
{ACAD_REACTORS
330
496
102
}
330
496
100
AcDbScale
 70
     0
300
1/32" = 1'-0"
140
0.03125
141
12.0
290
     0
  0
SCALE
  5
4AB
102
{ACAD_REACTORS
330
496
102
}
330
496
100
AcDbScale
 70
     0
300
1/16" = 1'-0"
140
0.0625
141
12.0
290
     0
  0
SCALE
  5
4AC
102
{ACAD_REACTORS
330
496
102
}
330
496
100
AcDbScale
 70
     0
300
3/32" = 1'-0"
140
0.09375
141
12.0
290
     0
  0
SCALE
  5
4AD
102
{ACAD_REACTORS
330
496
102
}
330
496
100
AcDbScale
 70
     0
300
1/8" = 1'-0"
140
0.125
141
12.0
290
     0
  0
SCALE
  5
4AE
102
{ACAD_REACTORS
330
496
102
}
330
496
100
AcDbScale
 70
     0
300
3/16" = 1'-0"
140
0.1875
141
12.0
290
     0
  0
SCALE
  5
4AF
102
{ACAD_REACTORS
330
496
102
}
330
496
100
AcDbScale
 70
     0
300
1/4" = 1'-0"
140
0.25
141
12.0
290
     0
  0
SCALE
  5
4B0
102
{ACAD_REACTORS
330
496
102
}
330
496
100
AcDbScale
 70
     0
300
3/8" = 1'-0"
140
0.375
141
12.0
290
     0
  0
SCALE
  5
4B1
102
{ACAD_REACTORS
330
496
102
}
330
496
100
AcDbScale
 70
     0
300
1/2" = 1'-0"
140
0.5
141
12.0
290
     0
  0
SCALE
  5
4B2
102
{ACAD_REACTORS
330
496
102
}
330
496
100
AcDbScale
 70
     0
300
3/4" = 1'-0"
140
0.75
141
12.0
290
     0
  0
SCALE
  5
4B3
102
{ACAD_REACTORS
330
496
102
}
330
496
100
AcDbScale
 70
     0
300
1" = 1'-0"
140
1.0
141
12.0
290
     0
  0
SCALE
  5
4B4
102
{ACAD_REACTORS
330
496
102
}
330
496
100
AcDbScale
 70
     0
300
1-1/2" = 1'-0"
140
1.5
141
12.0
290
     0
  0
SCALE
  5
4B5
102
{ACAD_REACTORS
330
496
102
}
330
496
100
AcDbScale
 70
     0
300
3" = 1'-0"
140
3.0
141
12.0
290
     0
  0
SCALE
  5
4B6
102
{ACAD_REACTORS
330
496
102
}
330
496
100
AcDbScale
 70
     0
300
6" = 1'-0"
140
6.0
141
12.0
290
     0
  0
SCALE
  5
4B7
102
{ACAD_REACTORS
330
496
102
}
330
496
100
AcDbScale
 70
     0
300
1'-0" = 1'-0"
140
12.0
141
12.0
290
     0
  0
TABLESTYLE
  5
536
102
{ACAD_REACTORS
330
535
102
}
102
{ACAD_XDICTIONARY
360
58D
102
}
330
535
100
AcDbTableStyle
  3
Standard
 70
     0
 71
     0
 40
0.06
 41
0.06
280
     0
281
     0
  7
STANDARD
140
4.5
170
     2
 62
     0
 63
   257
283
     0
 90
        4
 91
        0
  1

274
    -2
284
     1
 64
     0
275
    -2
285
     1
 65
     0
276
    -2
286
     1
 66
     0
277
    -2
287
     1
 67
     0
278
    -2
288
     1
 68
     0
279
    -2
289
     1
 69
     0
  7
STANDARD
140
6.0
170
     5
 62
     0
 63
   257
283
     0
 90
        4
 91
        0
  1

274
    -2
284
     1
 64
     0
275
    -2
285
     1
 65
     0
276
    -2
286
     1
 66
     0
277
    -2
287
     1
 67
     0
278
    -2
288
     1
 68
     0
279
    -2
289
     1
 69
     0
  7
STANDARD
140
4.5
170
     5
 62
     0
 63
   257
283
     0
 90
        4
 91
        0
  1

274
    -2
284
     1
 64
     0
275
    -2
285
     1
 65
     0
276
    -2
286
     1
 66
     0
277
    -2
287
     1
 67
     0
278
    -2
288
     1
 68
     0
279
    -2
289
     1
 69
     0
  0
VISUALSTYLE
  5
4C0
102
{ACAD_REACTORS
330
4BB
102
}
330
4BB
100
AcDbVisualStyle
  2
2dWireframe
 70
     4
177
     3
291
     0
 70
    58
 90
        0
176
     1
 90
        2
176
     1
 90
        0
176
     1
 90
        0
176
     1
 40
-0.6
176
     1
 40
-30.0
176
     1
 62
     7
176
     1
 90
        1
176
     1
 90
        4
176
     1
 62
     7
176
     1
 62
   257
176
     1
 90
        1
176
     1
 90
        1
176
     1
 40
1.0
176
     1
 90
        0
176
     1
 62
   257
176
     1
 40
1.0
176
     1
 90
        1
176
     1
 90
        6
176
     1
 90
        2
176
     1
 62
     7
176
     1
 90
        5
176
     1
 90
        0
176
     1
 90
        0
176
     1
290
     0
176
     1
 90
        1
176
     1
 40
0.0
176
     1
 90
        0
176
     1
290
     1
176
     1
290
     1
176
     1
290
     0
176
     1
290
     0
176
     1
290
     0
176
     1
290
     0
176
     1
290
     0
176
     1
290
     0
176
     1
290
     0
176
     1
 90
       50
176
     1
 40
0.0
176
     1
 40
1.0
176
     1
 90
        0
176
     1
 62
    18
420
        0
176
     1
 90
       50
176
     1
 90
        3
176
     1
 62
     5
420
      255
176
     1
290
     0
176
     1
 90
       50
176
     1
 90
       50
176
     1
 90
       50
176
     1
290
     0
176
     1
 90
       50
176
     1
 62
   256
176
     0
 40
1.0
176
     0
 90
        2
176
     1
  1
strokes_ogs.tif
176
     1
290
     0
176
     1
 40
1.0
176
     1
 40
1.0
176
     1
  0
VISUALSTYLE
  5
4C2
102
{ACAD_REACTORS
330
4BB
102
}
330
4BB
100
AcDbVisualStyle
  2
3D Hidden
 70
     6
177
     3
291
     0
 70
    58
 90
        1
176
     1
 90
        2
176
     1
 90
        2
176
     1
 90
        0
176
     1
 40
-0.6
176
     1
 40
-30.0
176
     1
 62
     7
176
     1
 90
        2
176
     1
 90
        2
176
     1
 62
     7
176
     1
 62
   257
176
     1
 90
        2
176
     1
 90
        1
176
     1
 40
40.0
176
     1
 90
        0
176
     1
 62
   257
176
     1
 40
1.0
176
     1
 90
        1
176
     1
 90
        6
176
     1
 90
        2
176
     1
 62
     7
176
     1
 90
        3
176
     1
 90
        0
176
     1
 90
        0
176
     1
290
     0
176
     1
 90
        1
176
     1
 40
0.0
176
     1
 90
        0
176
     1
290
     0
176
     1
290
     1
176
     1
290
     1
176
     1
290
     0
176
     1
290
     0
176
     1
290
     0
176
     1
290
     0
176
     1
290
     0
176
     1
290
     0
176
     1
 90
       50
176
     1
 40
0.0
176
     1
 40
1.0
176
     1
 90
        0
176
     1
 62
    18
420
        0
176
     1
 90
       50
176
     1
 90
        3
176
     1
 62
     5
420
      255
176
     1
290
     0
176
     1
 90
       50
176
     1
 90
       50
176
     1
 90
       50
176
     1
290
     0
176
     1
 90
       50
176
     1
 62
   256
176
     0
 40
1.0
176
     0
 90
        2
176
     1
  1
strokes_ogs.tif
176
     1
290
     0
176
     1
 40
1.0
176
     1
 40
1.0
176
     1
  0
VISUALSTYLE
  5
4C1
102
{ACAD_REACTORS
330
4BB
102
}
330
4BB
100
AcDbVisualStyle
  2
3dWireframe
 70
     5
177
     3
291
     0
 70
    58
 90
        0
176
     1
 90
        2
176
     1
 90
        0
176
     1
 90
        0
176
     1
 40
-0.6
176
     1
 40
-30.0
176
     1
 62
     7
176
     1
 90
        1
176
     1
 90
        4
176
     1
 62
     7
176
     1
 62
   257
176
     1
 90
        1
176
     1
 90
        1
176
     1
 40
1.0
176
     1
 90
        0
176
     1
 62
   257
176
     1
 40
1.0
176
     1
 90
        1
176
     1
 90
        6
176
     1
 90
        2
176
     1
 62
     7
176
     1
 90
        5
176
     1
 90
        0
176
     1
 90
        0
176
     1
290
     0
176
     1
 90
        1
176
     1
 40
0.0
176
     1
 90
        0
176
     1
290
     0
176
     1
290
     1
176
     1
290
     1
176
     1
290
     0
176
     1
290
     0
176
     1
290
     0
176
     1
290
     0
176
     1
290
     0
176
     1
290
     0
176
     1
 90
       50
176
     1
 40
0.0
176
     1
 40
1.0
176
     1
 90
        0
176
     1
 62
    18
420
        0
176
     1
 90
       50
176
     1
 90
        3
176
     1
 62
     5
420
      255
176
     1
290
     0
176
     1
 90
       50
176
     1
 90
       50
176
     1
 90
       50
176
     1
290
     0
176
     1
 90
       50
176
     1
 62
   256
176
     0
 40
1.0
176
     0
 90
        2
176
     1
  1
strokes_ogs.tif
176
     1
290
     0
176
     1
 40
1.0
176
     1
 40
1.0
176
     1
  0
VISUALSTYLE
  5
4C3
102
{ACAD_REACTORS
330
4BB
102
}
330
4BB
100
AcDbVisualStyle
  2
Basic
 70
     7
177
     3
291
     1
 70
    58
 90
        1
176
     1
 90
        0
176
     1
 90
        1
176
     1
 90
        0
176
     1
 40
-0.6
176
     1
 40
-30.0
176
     1
 62
     7
176
     1
 90
        0
176
     1
 90
        4
176
     1
 62
     7
176
     1
 62
   257
176
     1
 90
        1
176
     1
 90
        1
176
     1
 40
1.0
176
     1
 90
        8
176
     1
 62
     7
176
     1
 40
1.0
176
     1
 90
        1
176
     1
 90
        6
176
     1
 90
        2
176
     1
 62
     7
176
     1
 90
        5
176
     1
 90
        0
176
     1
 90
        0
176
     1
290
     0
176
     1
 90
        1
176
     1
 40
0.0
176
     1
 90
        0
176
     1
290
     0
176
     1
290
     1
176
     1
290
     1
176
     1
290
     0
176
     1
290
     0
176
     1
290
     0
176
     1
290
     0
176
     1
290
     0
176
     1
290
     0
176
     1
 90
       50
176
     1
 40
0.0
176
     1
 40
1.0
176
     1
 90
        0
176
     1
 62
    18
420
        0
176
     1
 90
       50
176
     1
 90
        3
176
     1
 62
     5
420
      255
176
     1
290
     0
176
     1
 90
       50
176
     1
 90
       50
176
     1
 90
       50
176
     1
290
     0
176
     1
 90
       50
176
     1
 62
   256
176
     0
 40
1.0
176
     0
 90
        2
176
     1
  1
strokes_ogs.tif
176
     1
290
     0
176
     1
 40
1.0
176
     1
 40
1.0
176
     1
  0
VISUALSTYLE
  5
4C7
102
{ACAD_REACTORS
330
4BB
102
}
330
4BB
100
AcDbVisualStyle
  2
Brighten
 70
    12
177
     3
291
     1
 70
    58
 90
        2
176
     1
 90
        2
176
     1
 90
        0
176
     1
 90
        0
176
     1
 40
-0.6
176
     1
 40
-30.0
176
     1
 62
     7
176
     1
 90
        1
176
     1
 90
        4
176
     1
 62
     7
176
     1
 62
   257
176
     1
 90
        1
176
     1
 90
        1
176
     1
 40
1.0
176
     1
 90
        8
176
     1
 62
     7
176
     1
 40
1.0
176
     1
 90
        1
176
     1
 90
        6
176
     1
 90
        2
176
     1
 62
     7
176
     1
 90
        5
176
     1
 90
        0
176
     1
 90
        0
176
     1
290
     0
176
     1
 90
        1
176
     1
 40
50.0
176
     1
 90
        0
176
     1
290
     0
176
     1
290
     1
176
     1
290
     1
176
     1
290
     0
176
     1
290
     0
176
     1
290
     0
176
     1
290
     0
176
     1
290
     0
176
     1
290
     0
176
     1
 90
       50
176
     1
 40
0.0
176
     1
 40
1.0
176
     1
 90
        0
176
     1
 62
    18
420
        0
176
     1
 90
       50
176
     1
 90
        3
176
     1
 62
     5
420
      255
176
     1
290
     0
176
     1
 90
       50
176
     1
 90
       50
176
     1
 90
       50
176
     1
290
     0
176
     1
 90
       50
176
     1
 62
   256
176
     0
 40
1.0
176
     0
 90
        2
176
     1
  1
strokes_ogs.tif
176
     1
290
     0
176
     1
 40
1.0
176
     1
 40
1.0
176
     1
  0
VISUALSTYLE
  5
4CB
102
{ACAD_REACTORS
330
4BB
102
}
330
4BB
100
AcDbVisualStyle
  2
ColorChange
 70
    16
177
     3
291
     1
 70
    58
 90
        2
176
     1
 90
        2
176
     1
 90
        3
176
     1
 90
        0
176
     1
 40
-0.6
176
     1
 40
-30.0
176
     1
 62
     8
176
     1
 90
        1
176
     1
 90
        4
176
     1
 62
     7
176
     1
 62
   257
176
     1
 90
        1
176
     1
 90
        1
176
     1
 40
1.0
176
     1
 90
        8
176
     1
 62
     8
176
     1
 40
1.0
176
     1
 90
        1
176
     1
 90
        6
176
     1
 90
        2
176
     1
 62
     7
176
     1
 90
        5
176
     1
 90
        0
176
     1
 90
        0
176
     1
290
     0
176
     1
 90
        1
176
     1
 40
0.0
176
     1
 90
        0
176
     1
290
     0
176
     1
290
     1
176
     1
290
     1
176
     1
290
     0
176
     1
290
     0
176
     1
290
     0
176
     1
290
     0
176
     1
290
     0
176
     1
290
     0
176
     1
 90
       50
176
     1
 40
0.0
176
     1
 40
1.0
176
     1
 90
        0
176
     1
 62
    18
420
        0
176
     1
 90
       50
176
     1
 90
        3
176
     1
 62
     5
420
      255
176
     1
290
     0
176
     1
 90
       50
176
     1
 90
       50
176
     1
 90
       50
176
     1
290
     0
176
     1
 90
       50
176
     1
 62
   256
176
     0
 40
1.0
176
     0
 90
        2
176
     1
  1
strokes_ogs.tif
176
     1
290
     0
176
     1
 40
1.0
176
     1
 40
1.0
176
     1
  0
VISUALSTYLE
  5
4C5
102
{ACAD_REACTORS
330
4BB
102
}
330
4BB
100
AcDbVisualStyle
  2
Conceptual
 70
     9
177
     3
291
     0
 70
    58
 90
        3
176
     1
 90
        2
176
     1
 90
        0
176
     1
 90
        0
176
     1
 40
-0.6
176
     1
 40
-30.0
176
     1
 62
     7
176
     1
 90
        2
176
     1
 90
        2
176
     1
 62
     7
176
     1
 62
   257
176
     1
 90
        1
176
     1
 90
        1
176
     1
 40
40.0
176
     1
 90
        8
176
     1
 62
     7
176
     1
 40
1.0
176
     1
 90
        1
176
     1
 90
        6
176
     1
 90
        2
176
     1
 62
     7
176
     1
 90
        3
176
     1
 90
        0
176
     1
 90
        0
176
     1
290
     0
176
     1
 90
        1
176
     1
 40
0.0
176
     1
 90
        0
176
     1
290
     0
176
     1
290
     1
176
     1
290
     1
176
     1
290
     0
176
     1
290
     0
176
     1
290
     0
176
     1
290
     0
176
     1
290
     0
176
     1
290
     0
176
     1
 90
       50
176
     1
 40
0.0
176
     1
 40
1.0
176
     1
 90
        0
176
     1
 62
    18
420
        0
176
     1
 90
       50
176
     1
 90
        3
176
     1
 62
     5
420
      255
176
     1
290
     0
176
     1
 90
       50
176
     1
 90
       50
176
     1
 90
       50
176
     1
290
     0
176
     1
 90
       50
176
     1
 62
   256
176
     0
 40
1.0
176
     0
 90
        2
176
     1
  1
strokes_ogs.tif
176
     1
290
     0
176
     1
 40
1.0
176
     1
 40
1.0
176
     1
  0
VISUALSTYLE
  5
4C6
102
{ACAD_REACTORS
330
4BB
102
}
330
4BB
100
AcDbVisualStyle
  2
Dim
 70
    11
177
     3
291
     1
 70
    58
 90
        2
176
     1
 90
        2
176
     1
 90
        0
176
     1
 90
        0
176
     1
 40
-0.6
176
     1
 40
-30.0
176
     1
 62
     7
176
     1
 90
        1
176
     1
 90
        4
176
     1
 62
     7
176
     1
 62
   257
176
     1
 90
        1
176
     1
 90
        1
176
     1
 40
1.0
176
     1
 90
        8
176
     1
 62
     7
176
     1
 40
1.0
176
     1
 90
        1
176
     1
 90
        6
176
     1
 90
        2
176
     1
 62
     7
176
     1
 90
        5
176
     1
 90
        0
176
     1
 90
        0
176
     1
290
     0
176
     1
 90
        1
176
     1
 40
-50.0
176
     1
 90
        0
176
     1
290
     0
176
     1
290
     1
176
     1
290
     1
176
     1
290
     0
176
     1
290
     0
176
     1
290
     0
176
     1
290
     0
176
     1
290
     0
176
     1
290
     0
176
     1
 90
       50
176
     1
 40
0.0
176
     1
 40
1.0
176
     1
 90
        0
176
     1
 62
    18
420
        0
176
     1
 90
       50
176
     1
 90
        3
176
     1
 62
     5
420
      255
176
     1
290
     0
176
     1
 90
       50
176
     1
 90
       50
176
     1
 90
       50
176
     1
290
     0
176
     1
 90
       50
176
     1
 62
   256
176
     0
 40
1.0
176
     0
 90
        2
176
     1
  1
strokes_ogs.tif
176
     1
290
     0
176
     1
 40
1.0
176
     1
 40
1.0
176
     1
  0
VISUALSTYLE
  5
52F
102
{ACAD_REACTORS
330
4BB
102
}
330
4BB
100
AcDbVisualStyle
  2
EdgeColorOff
 70
    22
177
     3
291
     1
 70
    58
 90
        2
176
     0
 90
        2
176
     0
 90
        0
176
     0
 90
        0
176
     0
 40
0.6
176
     0
 40
30.0
176
     0
 62
     7
420
 16777215
176
     0
 90
        1
176
     0
 90
        4
176
     0
 62
     7
176
     0
 62
   257
176
     0
 90
        1
176
     0
 90
        1
176
     0
 40
1.0
176
     0
 90
        8
176
     2
 62
     7
176
     0
 40
1.0
176
     0
 90
        1
176
     0
 90
        6
176
     0
 90
        2
176
     0
 62
     7
176
     0
 90
        5
176
     0
 90
        0
176
     0
 90
        0
176
     0
290
     0
176
     0
 90
        1
176
     0
 40
0.0
176
     0
 90
        0
176
     0
290
     0
176
     0
290
     1
176
     0
290
     1
176
     0
290
     0
176
     0
290
     0
176
     0
290
     0
176
     0
290
     0
176
     0
290
     0
176
     0
290
     0
176
     0
 90
       50
176
     0
 40
0.0
176
     0
 40
1.0
176
     0
 90
        0
176
     0
 62
    18
420
        0
176
     0
 90
       50
176
     0
 90
        3
176
     0
 62
     5
420
      255
176
     0
290
     0
176
     0
 90
       50
176
     0
 90
       50
176
     0
 90
       50
176
     0
290
     0
176
     0
 90
       50
176
     0
 62
   256
176
     0
 40
1.0
176
     0
 90
        2
176
     0
  1
strokes_ogs.tif
176
     0
290
     0
176
     0
 40
1.0
176
     0
 40
1.0
176
     0
  0
VISUALSTYLE
  5
4CA
102
{ACAD_REACTORS
330
4BB
102
}
330
4BB
100
AcDbVisualStyle
  2
Facepattern
 70
    15
177
     3
291
     1
 70
    58
 90
        2
176
     1
 90
        2
176
     1
 90
        0
176
     1
 90
        0
176
     1
 40
-0.6
176
     1
 40
-30.0
176
     1
 62
     7
176
     1
 90
        1
176
     1
 90
        4
176
     1
 62
     7
176
     1
 62
   257
176
     1
 90
        1
176
     1
 90
        1
176
     1
 40
1.0
176
     1
 90
        8
176
     1
 62
     7
176
     1
 40
1.0
176
     1
 90
        1
176
     1
 90
        6
176
     1
 90
        2
176
     1
 62
     7
176
     1
 90
        5
176
     1
 90
        0
176
     1
 90
        0
176
     1
290
     0
176
     1
 90
        1
176
     1
 40
0.0
176
     1
 90
        0
176
     1
290
     0
176
     1
290
     1
176
     1
290
     1
176
     1
290
     0
176
     1
290
     0
176
     1
290
     0
176
     1
290
     0
176
     1
290
     0
176
     1
290
     0
176
     1
 90
       50
176
     1
 40
0.0
176
     1
 40
1.0
176
     1
 90
        0
176
     1
 62
    18
420
        0
176
     1
 90
       50
176
     1
 90
        3
176
     1
 62
     5
420
      255
176
     1
290
     0
176
     1
 90
       50
176
     1
 90
       50
176
     1
 90
       50
176
     1
290
     0
176
     1
 90
       50
176
     1
 62
   256
176
     0
 40
1.0
176
     0
 90
        2
176
     1
  1
strokes_ogs.tif
176
     1
290
     0
176
     1
 40
1.0
176
     1
 40
1.0
176
     1
  0
VISUALSTYLE
  5
4BC
102
{ACAD_REACTORS
330
4BB
102
}
330
4BB
100
AcDbVisualStyle
  2
Flat
 70
     0
177
     3
291
     1
 70
    58
 90
        2
176
     1
 90
        1
176
     1
 90
        1
176
     1
 90
        2
176
     1
 40
-0.6
176
     1
 40
30.0
176
     1
 62
     7
176
     1
 90
        0
176
     1
 90
        4
176
     1
 62
     7
176
     1
 62
   257
176
     1
 90
        1
176
     1
 90
        1
176
     1
 40
1.0
176
     1
 90
        8
176
     1
 62
     7
176
     1
 40
1.0
176
     1
 90
        1
176
     1
 90
        6
176
     1
 90
        2
176
     1
 62
     7
176
     1
 90
        5
176
     1
 90
        0
176
     1
 90
        0
176
     1
290
     0
176
     1
 90
       13
176
     1
 40
0.0
176
     1
 90
        0
176
     1
290
     0
176
     1
290
     1
176
     1
290
     1
176
     1
290
     0
176
     1
290
     0
176
     1
290
     0
176
     1
290
     0
176
     1
290
     0
176
     1
290
     0
176
     1
 90
       50
176
     1
 40
0.0
176
     1
 40
1.0
176
     1
 90
        0
176
     1
 62
    18
420
        0
176
     1
 90
       50
176
     1
 90
        3
176
     1
 62
     5
420
      255
176
     1
290
     0
176
     1
 90
       50
176
     1
 90
       50
176
     1
 90
       50
176
     1
290
     0
176
     1
 90
       50
176
     1
 62
   256
176
     0
 40
1.0
176
     0
 90
        2
176
     1
  1
strokes_ogs.tif
176
     1
290
     0
176
     1
 40
1.0
176
     1
 40
1.0
176
     1
  0
VISUALSTYLE
  5
4BD
102
{ACAD_REACTORS
330
4BB
102
}
330
4BB
100
AcDbVisualStyle
  2
FlatWithEdges
 70
     1
177
     3
291
     1
 70
    58
 90
        2
176
     1
 90
        1
176
     1
 90
        1
176
     1
 90
        2
176
     1
 40
-0.6
176
     1
 40
30.0
176
     1
 62
     7
176
     1
 90
        1
176
     1
 90
        4
176
     1
 62
     7
176
     1
 62
   257
176
     1
 90
        1
176
     1
 90
        1
176
     1
 40
1.0
176
     1
 90
        0
176
     1
 62
   257
176
     1
 40
1.0
176
     1
 90
        1
176
     1
 90
        6
176
     1
 90
        2
176
     1
 62
     7
176
     1
 90
        5
176
     1
 90
        0
176
     1
 90
        0
176
     1
290
     0
176
     1
 90
       13
176
     1
 40
0.0
176
     1
 90
        0
176
     1
290
     0
176
     1
290
     1
176
     1
290
     1
176
     1
290
     0
176
     1
290
     0
176
     1
290
     0
176
     1
290
     0
176
     1
290
     0
176
     1
290
     0
176
     1
 90
       50
176
     1
 40
0.0
176
     1
 40
1.0
176
     1
 90
        0
176
     1
 62
    18
420
        0
176
     1
 90
       50
176
     1
 90
        3
176
     1
 62
     5
420
      255
176
     1
290
     0
176
     1
 90
       50
176
     1
 90
       50
176
     1
 90
       50
176
     1
290
     0
176
     1
 90
       50
176
     1
 62
   256
176
     0
 40
1.0
176
     0
 90
        2
176
     1
  1
strokes_ogs.tif
176
     1
290
     0
176
     1
 40
1.0
176
     1
 40
1.0
176
     1
  0
VISUALSTYLE
  5
4BE
102
{ACAD_REACTORS
330
4BB
102
}
330
4BB
100
AcDbVisualStyle
  2
Gouraud
 70
     2
177
     3
291
     1
 70
    58
 90
        2
176
     1
 90
        2
176
     1
 90
        1
176
     1
 90
        2
176
     1
 40
-0.6
176
     1
 40
30.0
176
     1
 62
     7
176
     1
 90
        0
176
     1
 90
        4
176
     1
 62
     7
176
     1
 62
   257
176
     1
 90
        1
176
     1
 90
        1
176
     1
 40
1.0
176
     1
 90
        0
176
     1
 62
     7
176
     1
 40
1.0
176
     1
 90
        1
176
     1
 90
        6
176
     1
 90
        2
176
     1
 62
     7
176
     1
 90
        5
176
     1
 90
        0
176
     1
 90
        0
176
     1
290
     0
176
     1
 90
       13
176
     1
 40
0.0
176
     1
 90
        0
176
     1
290
     0
176
     1
290
     1
176
     1
290
     1
176
     1
290
     0
176
     1
290
     0
176
     1
290
     0
176
     1
290
     0
176
     1
290
     0
176
     1
290
     0
176
     1
 90
       50
176
     1
 40
0.0
176
     1
 40
1.0
176
     1
 90
        0
176
     1
 62
    18
420
        0
176
     1
 90
       50
176
     1
 90
        3
176
     1
 62
     5
420
      255
176
     1
290
     0
176
     1
 90
       50
176
     1
 90
       50
176
     1
 90
       50
176
     1
290
     0
176
     1
 90
       50
176
     1
 62
   256
176
     0
 40
1.0
176
     0
 90
        2
176
     1
  1
strokes_ogs.tif
176
     1
290
     0
176
     1
 40
1.0
176
     1
 40
1.0
176
     1
  0
VISUALSTYLE
  5
4BF
102
{ACAD_REACTORS
330
4BB
102
}
330
4BB
100
AcDbVisualStyle
  2
GouraudWithEdges
 70
     3
177
     3
291
     1
 70
    58
 90
        2
176
     1
 90
        2
176
     1
 90
        1
176
     1
 90
        2
176
     1
 40
-0.6
176
     1
 40
30.0
176
     1
 62
     7
176
     1
 90
        1
176
     1
 90
        4
176
     1
 62
     7
176
     1
 62
   257
176
     1
 90
        1
176
     1
 90
        1
176
     1
 40
1.0
176
     1
 90
        0
176
     1
 62
   257
176
     1
 40
1.0
176
     1
 90
        1
176
     1
 90
        6
176
     1
 90
        2
176
     1
 62
     7
176
     1
 90
        5
176
     1
 90
        0
176
     1
 90
        0
176
     1
290
     0
176
     1
 90
       13
176
     1
 40
0.0
176
     1
 90
        0
176
     1
290
     0
176
     1
290
     1
176
     1
290
     1
176
     1
290
     0
176
     1
290
     0
176
     1
290
     0
176
     1
290
     0
176
     1
290
     0
176
     1
290
     0
176
     1
 90
       50
176
     1
 40
0.0
176
     1
 40
1.0
176
     1
 90
        0
176
     1
 62
    18
420
        0
176
     1
 90
       50
176
     1
 90
        3
176
     1
 62
     5
420
      255
176
     1
290
     0
176
     1
 90
       50
176
     1
 90
       50
176
     1
 90
       50
176
     1
290
     0
176
     1
 90
       50
176
     1
 62
   256
176
     0
 40
1.0
176
     0
 90
        2
176
     1
  1
strokes_ogs.tif
176
     1
290
     0
176
     1
 40
1.0
176
     1
 40
1.0
176
     1
  0
VISUALSTYLE
  5
52C
102
{ACAD_REACTORS
330
4BB
102
}
330
4BB
100
AcDbVisualStyle
  2
Hidden
 70
     6
177
     3
291
     0
 70
    58
 90
        1
176
     1
 90
        2
176
     1
 90
        2
176
     1
 90
        0
176
     1
 40
0.6
176
     1
 40
30.0
176
     1
 62
     7
420
 16777215
176
     1
 90
        2
176
     1
 90
        2
176
     1
 62
     7
176
     1
 62
   257
176
     1
 90
        2
176
     1
 90
        1
176
     1
 40
40.0
176
     1
 90
        0
176
     1
 62
   257
176
     1
 40
1.0
176
     1
 90
        1
176
     1
 90
        6
176
     1
 90
        2
176
     1
 62
     7
176
     1
 90
        3
176
     1
 90
        0
176
     1
 90
        0
176
     1
290
     0
176
     1
 90
        1
176
     1
 40
0.0
176
     1
 90
        0
176
     1
290
     0
176
     1
290
     1
176
     1
290
     1
176
     1
290
     0
176
     1
290
     0
176
     1
290
     0
176
     1
290
     0
176
     1
290
     0
176
     1
290
     0
176
     1
 90
       50
176
     1
 40
0.0
176
     1
 40
1.0
176
     1
 90
        0
176
     1
 62
    18
420
        0
176
     1
 90
       50
176
     1
 90
        3
176
     1
 62
     5
420
      255
176
     1
290
     0
176
     1
 90
       50
176
     1
 90
       50
176
     1
 90
       50
176
     1
290
     0
176
     1
 90
       50
176
     1
 62
   256
176
     0
 40
1.0
176
     0
 90
        2
176
     1
  1
strokes_ogs.tif
176
     1
290
     0
176
     1
 40
1.0
176
     1
 40
1.0
176
     1
  0
VISUALSTYLE
  5
52D
102
{ACAD_REACTORS
330
4BB
102
}
330
4BB
100
AcDbVisualStyle
  2
JitterOff
 70
    20
177
     3
291
     1
 70
    58
 90
        2
176
     0
 90
        2
176
     0
 90
        0
176
     0
 90
        0
176
     0
 40
0.6
176
     0
 40
30.0
176
     0
 62
     7
420
 16777215
176
     0
 90
        1
176
     0
 90
        4
176
     0
 62
     7
176
     0
 62
   257
176
     0
 90
        1
176
     0
 90
        1
176
     0
 40
1.0
176
     0
 90
       10
176
     2
 62
     7
176
     0
 40
1.0
176
     0
 90
        1
176
     0
 90
        6
176
     0
 90
        2
176
     0
 62
     7
176
     0
 90
        5
176
     0
 90
        0
176
     0
 90
        0
176
     0
290
     0
176
     0
 90
        1
176
     0
 40
0.0
176
     0
 90
        0
176
     0
290
     0
176
     0
290
     1
176
     0
290
     1
176
     0
290
     0
176
     0
290
     0
176
     0
290
     0
176
     0
290
     0
176
     0
290
     0
176
     0
290
     0
176
     0
 90
       50
176
     0
 40
0.0
176
     0
 40
1.0
176
     0
 90
        0
176
     0
 62
    18
420
        0
176
     0
 90
       50
176
     0
 90
        3
176
     0
 62
     5
420
      255
176
     0
290
     0
176
     0
 90
       50
176
     0
 90
       50
176
     0
 90
       50
176
     0
290
     0
176
     0
 90
       50
176
     0
 62
   256
176
     0
 40
1.0
176
     0
 90
        2
176
     0
  1
strokes_ogs.tif
176
     0
290
     0
176
     0
 40
1.0
176
     0
 40
1.0
176
     0
  0
VISUALSTYLE
  5
4C9
102
{ACAD_REACTORS
330
4BB
102
}
330
4BB
100
AcDbVisualStyle
  2
Linepattern
 70
    14
177
     3
291
     1
 70
    58
 90
        2
176
     1
 90
        2
176
     1
 90
        0
176
     1
 90
        0
176
     1
 40
-0.6
176
     1
 40
-30.0
176
     1
 62
     7
176
     1
 90
        1
176
     1
 90
        4
176
     1
 62
     7
176
     1
 62
   257
176
     1
 90
        7
176
     1
 90
        7
176
     1
 40
1.0
176
     1
 90
        8
176
     1
 62
     7
176
     1
 40
1.0
176
     1
 90
        1
176
     1
 90
        6
176
     1
 90
        2
176
     1
 62
     7
176
     1
 90
        5
176
     1
 90
        0
176
     1
 90
        0
176
     1
290
     0
176
     1
 90
        1
176
     1
 40
0.0
176
     1
 90
        0
176
     1
290
     0
176
     1
290
     1
176
     1
290
     1
176
     1
290
     0
176
     1
290
     0
176
     1
290
     0
176
     1
290
     0
176
     1
290
     0
176
     1
290
     0
176
     1
 90
       50
176
     1
 40
0.0
176
     1
 40
1.0
176
     1
 90
        0
176
     1
 62
    18
420
        0
176
     1
 90
       50
176
     1
 90
        3
176
     1
 62
     5
420
      255
176
     1
290
     0
176
     1
 90
       50
176
     1
 90
       50
176
     1
 90
       50
176
     1
290
     0
176
     1
 90
       50
176
     1
 62
   256
176
     0
 40
1.0
176
     0
 90
        2
176
     1
  1
strokes_ogs.tif
176
     1
290
     0
176
     1
 40
1.0
176
     1
 40
1.0
176
     1
  0
VISUALSTYLE
  5
52E
102
{ACAD_REACTORS
330
4BB
102
}
330
4BB
100
AcDbVisualStyle
  2
OverhangOff
 70
    21
177
     3
291
     1
 70
    58
 90
        2
176
     0
 90
        2
176
     0
 90
        0
176
     0
 90
        0
176
     0
 40
0.6
176
     0
 40
30.0
176
     0
 62
     7
420
 16777215
176
     0
 90
        1
176
     0
 90
        4
176
     0
 62
     7
176
     0
 62
   257
176
     0
 90
        1
176
     0
 90
        1
176
     0
 40
1.0
176
     0
 90
        9
176
     2
 62
     7
176
     0
 40
1.0
176
     0
 90
        1
176
     0
 90
        6
176
     0
 90
        2
176
     0
 62
     7
176
     0
 90
        5
176
     0
 90
        0
176
     0
 90
        0
176
     0
290
     0
176
     0
 90
        1
176
     0
 40
0.0
176
     0
 90
        0
176
     0
290
     0
176
     0
290
     1
176
     0
290
     1
176
     0
290
     0
176
     0
290
     0
176
     0
290
     0
176
     0
290
     0
176
     0
290
     0
176
     0
290
     0
176
     0
 90
       50
176
     0
 40
0.0
176
     0
 40
1.0
176
     0
 90
        0
176
     0
 62
    18
420
        0
176
     0
 90
       50
176
     0
 90
        3
176
     0
 62
     5
420
      255
176
     0
290
     0
176
     0
 90
       50
176
     0
 90
       50
176
     0
 90
       50
176
     0
290
     0
176
     0
 90
       50
176
     0
 62
   256
176
     0
 40
1.0
176
     0
 90
        2
176
     0
  1
strokes_ogs.tif
176
     0
290
     0
176
     0
 40
1.0
176
     0
 40
1.0
176
     0
  0
VISUALSTYLE
  5
4C4
102
{ACAD_REACTORS
330
4BB
102
}
330
4BB
100
AcDbVisualStyle
  2
Realistic
 70
     8
177
     3
291
     0
 70
    58
 90
        2
176
     1
 90
        2
176
     1
 90
        0
176
     1
 90
        0
176
     1
 40
-0.6
176
     1
 40
-30.0
176
     1
 62
     7
176
     1
 90
        1
176
     1
 90
        0
176
     1
 62
     7
176
     1
 62
   257
176
     1
 90
        1
176
     1
 90
        1
176
     1
 40
1.0
176
     1
 90
        8
176
     1
 62
     8
176
     1
 40
1.0
176
     1
 90
        1
176
     1
 90
        6
176
     1
 90
        2
176
     1
 62
     7
176
     1
 90
        5
176
     1
 90
        0
176
     1
 90
        0
176
     1
290
     0
176
     1
 90
       13
176
     1
 40
0.0
176
     1
 90
        0
176
     1
290
     0
176
     1
290
     1
176
     1
290
     1
176
     1
290
     0
176
     1
290
     0
176
     1
290
     0
176
     1
290
     0
176
     1
290
     0
176
     1
290
     0
176
     1
 90
       50
176
     1
 40
0.0
176
     1
 40
1.0
176
     1
 90
        0
176
     1
 62
    18
420
        0
176
     1
 90
       50
176
     1
 90
        3
176
     1
 62
     5
420
      255
176
     1
290
     0
176
     1
 90
       50
176
     1
 90
       50
176
     1
 90
       50
176
     1
290
     0
176
     1
 90
       50
176
     1
 62
   256
176
     0
 40
1.0
176
     0
 90
        2
176
     1
  1
strokes_ogs.tif
176
     1
290
     0
176
     1
 40
1.0
176
     1
 40
1.0
176
     1
  0
VISUALSTYLE
  5
534
102
{ACAD_REACTORS
330
4BB
102
}
330
4BB
100
AcDbVisualStyle
  2
Shaded
 70
    27
177
     3
291
     0
 70
    58
 90
        2
176
     1
 90
        2
176
     1
 90
        1
176
     1
 90
        2
176
     1
 40
0.6
176
     1
 40
30.0
176
     1
 62
     7
420
 16777215
176
     1
 90
        0
176
     1
 90
        4
176
     1
 62
     7
176
     1
 62
   257
176
     1
 90
        1
176
     1
 90
        1
176
     1
 40
1.0
176
     1
 90
        8
176
     1
 62
   257
176
     1
 40
1.0
176
     1
 90
        1
176
     1
 90
        6
176
     1
 90
        2
176
     1
 62
     8
420
  7895160
176
     1
 90
        3
176
     1
 90
        0
176
     1
 90
        0
176
     1
290
     0
176
     1
 90
        5
176
     1
 40
0.0
176
     1
 90
        0
176
     1
290
     0
176
     1
290
     1
176
     1
290
     1
176
     1
290
     0
176
     1
290
     0
176
     1
290
     0
176
     1
290
     0
176
     1
290
     0
176
     1
290
     0
176
     1
 90
       50
176
     1
 40
0.0
176
     1
 40
1.0
176
     1
 90
        0
176
     1
 62
    18
420
        0
176
     1
 90
       50
176
     1
 90
        3
176
     1
 62
     5
420
      255
176
     1
290
     0
176
     1
 90
       50
176
     1
 90
       50
176
     1
 90
       50
176
     1
290
     0
176
     1
 90
       50
176
     1
 62
   256
176
     0
 40
1.0
176
     0
 90
        2
176
     1
  1
strokes_ogs.tif
176
     1
290
     0
176
     1
 40
1.0
176
     1
 40
1.0
176
     1
  0
VISUALSTYLE
  5
533
102
{ACAD_REACTORS
330
4BB
102
}
330
4BB
100
AcDbVisualStyle
  2
Shaded with edges
 70
    26
177
     3
291
     0
 70
    58
 90
        2
176
     1
 90
        2
176
     1
 90
        1
176
     1
 90
        2
176
     1
 40
0.6
176
     1
 40
30.0
176
     1
 62
     7
420
 16777215
176
     1
 90
        1
176
     1
 90
       10
176
     1
 62
     7
176
     1
 62
   257
176
     1
 90
        2
176
     1
 90
        1
176
     1
 40
1.0
176
     1
 90
        8
176
     1
 62
   257
176
     1
 40
1.0
176
     1
 90
        1
176
     1
 90
        6
176
     1
 90
        2
176
     1
 62
     7
176
     1
 90
        3
176
     1
 90
        0
176
     1
 90
        0
176
     1
290
     0
176
     1
 90
        5
176
     1
 40
0.0
176
     1
 90
        0
176
     1
290
     0
176
     1
290
     1
176
     1
290
     1
176
     1
290
     0
176
     1
290
     0
176
     1
290
     0
176
     1
290
     0
176
     1
290
     0
176
     1
290
     0
176
     1
 90
       50
176
     1
 40
0.0
176
     1
 40
1.0
176
     1
 90
        0
176
     1
 62
    18
420
        0
176
     1
 90
       50
176
     1
 90
        3
176
     1
 62
     5
420
      255
176
     1
290
     0
176
     1
 90
       50
176
     1
 90
       50
176
     1
 90
       50
176
     1
290
     0
176
     1
 90
       50
176
     1
 62
   256
176
     0
 40
1.0
176
     0
 90
        2
176
     1
  1
strokes_ogs.tif
176
     1
290
     0
176
     1
 40
1.0
176
     1
 40
1.0
176
     1
  0
VISUALSTYLE
  5
530
102
{ACAD_REACTORS
330
4BB
102
}
330
4BB
100
AcDbVisualStyle
  2
Shades of Gray
 70
    23
177
     3
291
     0
 70
    58
 90
        2
176
     1
 90
        2
176
     1
 90
        3
176
     1
 90
        0
176
     1
 40
0.6
176
     1
 40
30.0
176
     1
 62
     7
420
 16777215
176
     1
 90
        2
176
     1
 90
        2
176
     1
 62
     7
176
     1
 62
     7
176
     1
 90
        1
176
     1
 90
        1
176
     1
 40
40.0
176
     1
 90
        8
176
     1
 62
     7
176
     1
 40
1.0
176
     1
 90
        1
176
     1
 90
        6
176
     1
 90
        2
176
     1
 62
     7
176
     1
 90
        3
176
     1
 90
        0
176
     1
 90
        0
176
     1
290
     0
176
     1
 90
        1
176
     1
 40
0.0
176
     1
 90
        0
176
     1
290
     0
176
     1
290
     1
176
     1
290
     1
176
     1
290
     0
176
     1
290
     0
176
     1
290
     0
176
     1
290
     0
176
     1
290
     0
176
     1
290
     0
176
     1
 90
       50
176
     1
 40
0.0
176
     1
 40
1.0
176
     1
 90
        0
176
     1
 62
    18
420
        0
176
     1
 90
       50
176
     1
 90
        3
176
     1
 62
     5
420
      255
176
     1
290
     0
176
     1
 90
       50
176
     1
 90
       50
176
     1
 90
       50
176
     1
290
     0
176
     1
 90
       50
176
     1
 62
   256
176
     0
 40
1.0
176
     0
 90
        2
176
     1
  1
strokes_ogs.tif
176
     1
290
     0
176
     1
 40
1.0
176
     1
 40
1.0
176
     1
  0
VISUALSTYLE
  5
531
102
{ACAD_REACTORS
330
4BB
102
}
330
4BB
100
AcDbVisualStyle
  2
Sketchy
 70
    24
177
     3
291
     0
 70
    58
 90
        1
176
     1
 90
        2
176
     1
 90
        2
176
     1
 90
        0
176
     1
 40
0.6
176
     1
 40
30.0
176
     1
 62
     7
420
 16777215
176
     1
 90
        2
176
     1
 90
        2
176
     1
 62
     7
176
     1
 62
     7
176
     1
 90
        1
176
     1
 90
        1
176
     1
 40
40.0
176
     1
 90
       11
176
     1
 62
     7
176
     1
 40
1.0
176
     1
 90
        1
176
     1
 90
        6
176
     1
 90
        2
176
     1
 62
     7
176
     1
 90
        6
176
     1
 90
        0
176
     1
 90
        0
176
     1
290
     0
176
     1
 90
        1
176
     1
 40
0.0
176
     1
 90
        0
176
     1
290
     0
176
     1
290
     1
176
     1
290
     1
176
     1
290
     0
176
     1
290
     0
176
     1
290
     0
176
     1
290
     0
176
     1
290
     0
176
     1
290
     0
176
     1
 90
       50
176
     1
 40
0.0
176
     1
 40
1.0
176
     1
 90
        0
176
     1
 62
    18
420
        0
176
     1
 90
       50
176
     1
 90
        3
176
     1
 62
     5
420
      255
176
     1
290
     0
176
     1
 90
       50
176
     1
 90
       50
176
     1
 90
       50
176
     1
290
     0
176
     1
 90
       50
176
     1
 62
   256
176
     0
 40
1.0
176
     0
 90
        2
176
     1
  1
strokes_ogs.tif
176
     1
290
     0
176
     1
 40
1.0
176
     1
 40
1.0
176
     1
  0
VISUALSTYLE
  5
4C8
102
{ACAD_REACTORS
330
4BB
102
}
330
4BB
100
AcDbVisualStyle
  2
Thicken
 70
    13
177
     3
291
     1
 70
    58
 90
        2
176
     1
 90
        2
176
     1
 90
        0
176
     1
 90
        0
176
     1
 40
-0.6
176
     1
 40
-30.0
176
     1
 62
     7
176
     1
 90
        1
176
     1
 90
        4
176
     1
 62
     7
176
     1
 62
   257
176
     1
 90
        1
176
     1
 90
        1
176
     1
 40
1.0
176
     1
 90
       12
176
     1
 62
     7
176
     1
 40
1.0
176
     1
 90
        1
176
     1
 90
        6
176
     1
 90
        2
176
     1
 62
     7
176
     1
 90
        5
176
     1
 90
        0
176
     1
 90
        0
176
     1
290
     0
176
     1
 90
        1
176
     1
 40
0.0
176
     1
 90
        0
176
     1
290
     0
176
     1
290
     1
176
     1
290
     1
176
     1
290
     0
176
     1
290
     0
176
     1
290
     0
176
     1
290
     0
176
     1
290
     0
176
     1
290
     0
176
     1
 90
       50
176
     1
 40
0.0
176
     1
 40
1.0
176
     1
 90
        0
176
     1
 62
    18
420
        0
176
     1
 90
       50
176
     1
 90
        3
176
     1
 62
     5
420
      255
176
     1
290
     0
176
     1
 90
       50
176
     1
 90
       50
176
     1
 90
       50
176
     1
290
     0
176
     1
 90
       50
176
     1
 62
   256
176
     0
 40
1.0
176
     0
 90
        2
176
     1
  1
strokes_ogs.tif
176
     1
290
     0
176
     1
 40
1.0
176
     1
 40
1.0
176
     1
  0
VISUALSTYLE
  5
52B
102
{ACAD_REACTORS
330
4BB
102
}
330
4BB
100
AcDbVisualStyle
  2
Wireframe
 70
     5
177
     3
291
     0
 70
    58
 90
        0
176
     1
 90
        2
176
     1
 90
        0
176
     1
 90
        0
176
     1
 40
0.6
176
     1
 40
30.0
176
     1
 62
     7
420
 16777215
176
     1
 90
        1
176
     1
 90
        4
176
     1
 62
     7
176
     1
 62
   257
176
     1
 90
        1
176
     1
 90
        1
176
     1
 40
1.0
176
     1
 90
        0
176
     1
 62
   257
176
     1
 40
1.0
176
     1
 90
        1
176
     1
 90
        6
176
     1
 90
        2
176
     1
 62
     7
176
     1
 90
        3
176
     1
 90
        0
176
     1
 90
        0
176
     1
290
     0
176
     1
 90
        1
176
     1
 40
0.0
176
     1
 90
        0
176
     1
290
     0
176
     1
290
     1
176
     1
290
     1
176
     1
290
     0
176
     1
290
     0
176
     1
290
     0
176
     1
290
     0
176
     1
290
     0
176
     1
290
     0
176
     1
 90
       50
176
     1
 40
0.0
176
     1
 40
1.0
176
     1
 90
        0
176
     1
 62
    18
420
        0
176
     1
 90
       50
176
     1
 90
        3
176
     1
 62
     5
420
      255
176
     1
290
     0
176
     1
 90
       50
176
     1
 90
       50
176
     1
 90
       50
176
     1
290
     0
176
     1
 90
       50
176
     1
 62
   256
176
     0
 40
1.0
176
     0
 90
        2
176
     1
  1
strokes_ogs.tif
176
     1
290
     0
176
     1
 40
1.0
176
     1
 40
1.0
176
     1
  0
VISUALSTYLE
  5
532
102
{ACAD_REACTORS
330
4BB
102
}
330
4BB
100
AcDbVisualStyle
  2
X-Ray
 70
    25
177
     3
291
     0
 70
    58
 90
        2
176
     1
 90
        2
176
     1
 90
        1
176
     1
 90
        1
176
     1
 40
0.5
176
     1
 40
30.0
176
     1
 62
     7
420
 16777215
176
     1
 90
        1
176
     1
 90
        0
176
     1
 62
     7
176
     1
 62
   257
176
     1
 90
        1
176
     1
 90
        1
176
     1
 40
1.0
176
     1
 90
        8
176
     1
 62
     7
176
     1
 40
1.0
176
     1
 90
        1
176
     1
 90
        6
176
     1
 90
        2
176
     1
 62
     7
176
     1
 90
        3
176
     1
 90
        0
176
     1
 90
        0
176
     1
290
     0
176
     1
 90
       13
176
     1
 40
0.0
176
     1
 90
        0
176
     1
290
     0
176
     1
290
     1
176
     1
290
     1
176
     1
290
     0
176
     1
290
     0
176
     1
290
     0
176
     1
290
     0
176
     1
290
     0
176
     1
290
     0
176
     1
 90
       50
176
     1
 40
0.0
176
     1
 40
1.0
176
     1
 90
        0
176
     1
 62
    18
420
        0
176
     1
 90
       50
176
     1
 90
        3
176
     1
 62
     5
420
      255
176
     1
290
     0
176
     1
 90
       50
176
     1
 90
       50
176
     1
 90
       50
176
     1
290
     0
176
     1
 90
       50
176
     1
 62
   256
176
     0
 40
1.0
176
     0
 90
        2
176
     1
  1
strokes_ogs.tif
176
     1
290
     0
176
     1
 40
1.0
176
     1
 40
1.0
176
     1
  0
DICTIONARYVAR
  5
557
102
{ACAD_REACTORS
330
4E4
102
}
330
4E4
100
DictionaryVariables
280
     0
  1
1:1
  0
DICTIONARYVAR
  5
559
102
{ACAD_REACTORS
330
4E4
102
}
330
4E4
100
DictionaryVariables
280
     0
  1
Standard
  0
DICTIONARYVAR
  5
558
102
{ACAD_REACTORS
330
4E4
102
}
330
4E4
100
DictionaryVariables
280
     0
  1
Standard
  0
DICTIONARYVAR
  5
4E8
102
{ACAD_REACTORS
330
4E4
102
}
330
4E4
100
DictionaryVariables
280
     0
  1
2
  0
DICTIONARYVAR
  5
4E9
102
{ACAD_REACTORS
330
4E4
102
}
330
4E4
100
DictionaryVariables
280
     0
  1
1
  0
DICTIONARYVAR
  5
4E7
102
{ACAD_REACTORS
330
4E4
102
}
330
4E4
100
DictionaryVariables
280
     0
  1
0
  0
DICTIONARY
  5
58D
330
536
100
AcDbDictionary
280
     1
281
     1
  3
ACAD_ROUNDTRIP_2008_TABLESTYLE_CELLSTYLEMAP
360
58E
  0
CELLSTYLEMAP
  5
58E
102
{ACAD_REACTORS
330
58D
102
}
330
58D
100
AcDbCellStyleMap
 90
        3
300
CELLSTYLE
  1
TABLEFORMAT_BEGIN
 90
        5
170
     1
 91
        0
 92
    32768
 62
   257
 93
        1
300
CONTENTFORMAT
  1
CONTENTFORMAT_BEGIN
 90
        0
 91
        0
 92
        4
 93
        0
300

 40
0.0
140
1.0
 94
        5
 62
     0
340
11
144
6.0
309
CONTENTFORMAT_END
171
     1
301
MARGIN
  1
CELLMARGIN_BEGIN
 40
1.5
 40
1.5
 40
1.5
 40
1.5
 40
1.5
 40
1.5
309
CELLMARGIN_END
 94
        6
 95
        1
302
GRIDFORMAT
  1
GRIDFORMAT_BEGIN
 90
        0
 91
        1
 62
     0
 92
       -2
340
14
 93
        0
 40
0.045
309
GRIDFORMAT_END
 95
        2
302
GRIDFORMAT
  1
GRIDFORMAT_BEGIN
 90
        0
 91
        1
 62
     0
 92
       -2
340
14
 93
        0
 40
0.045
309
GRIDFORMAT_END
 95
        4
302
GRIDFORMAT
  1
GRIDFORMAT_BEGIN
 90
        0
 91
        1
 62
     0
 92
       -2
340
14
 93
        0
 40
0.045
309
GRIDFORMAT_END
 95
        8
302
GRIDFORMAT
  1
GRIDFORMAT_BEGIN
 90
        0
 91
        1
 62
     0
 92
       -2
340
14
 93
        0
 40
0.045
309
GRIDFORMAT_END
 95
       16
302
GRIDFORMAT
  1
GRIDFORMAT_BEGIN
 90
        0
 91
        1
 62
     0
 92
       -2
340
14
 93
        0
 40
0.045
309
GRIDFORMAT_END
 95
       32
302
GRIDFORMAT
  1
GRIDFORMAT_BEGIN
 90
        0
 91
        1
 62
     0
 92
       -2
340
14
 93
        0
 40
0.045
309
GRIDFORMAT_END
309
TABLEFORMAT_END
  1
CELLSTYLE_BEGIN
 90
        1
 91
        1
300
_TITLE
309
CELLSTYLE_END
300
CELLSTYLE
  1
TABLEFORMAT_BEGIN
 90
        5
170
     1
 91
        0
 92
        0
 62
   257
 93
        1
300
CONTENTFORMAT
  1
CONTENTFORMAT_BEGIN
 90
        0
 91
        0
 92
        4
 93
        0
300

 40
0.0
140
1.0
 94
        5
 62
     0
340
11
144
4.5
309
CONTENTFORMAT_END
171
     1
301
MARGIN
  1
CELLMARGIN_BEGIN
 40
1.5
 40
1.5
 40
1.5
 40
1.5
 40
1.5
 40
1.5
309
CELLMARGIN_END
 94
        6
 95
        1
302
GRIDFORMAT
  1
GRIDFORMAT_BEGIN
 90
        0
 91
        1
 62
     0
 92
       -2
340
14
 93
        0
 40
0.045
309
GRIDFORMAT_END
 95
        2
302
GRIDFORMAT
  1
GRIDFORMAT_BEGIN
 90
        0
 91
        1
 62
     0
 92
       -2
340
14
 93
        0
 40
0.045
309
GRIDFORMAT_END
 95
        4
302
GRIDFORMAT
  1
GRIDFORMAT_BEGIN
 90
        0
 91
        1
 62
     0
 92
       -2
340
14
 93
        0
 40
0.045
309
GRIDFORMAT_END
 95
        8
302
GRIDFORMAT
  1
GRIDFORMAT_BEGIN
 90
        0
 91
        1
 62
     0
 92
       -2
340
14
 93
        0
 40
0.045
309
GRIDFORMAT_END
 95
       16
302
GRIDFORMAT
  1
GRIDFORMAT_BEGIN
 90
        0
 91
        1
 62
     0
 92
       -2
340
14
 93
        0
 40
0.045
309
GRIDFORMAT_END
 95
       32
302
GRIDFORMAT
  1
GRIDFORMAT_BEGIN
 90
        0
 91
        1
 62
     0
 92
       -2
340
14
 93
        0
 40
0.045
309
GRIDFORMAT_END
309
TABLEFORMAT_END
  1
CELLSTYLE_BEGIN
 90
        2
 91
        1
300
_HEADER
309
CELLSTYLE_END
300
CELLSTYLE
  1
TABLEFORMAT_BEGIN
 90
        5
170
     1
 91
        0
 92
        0
 62
   257
 93
        1
300
CONTENTFORMAT
  1
CONTENTFORMAT_BEGIN
 90
        0
 91
        0
 92
        4
 93
        0
300

 40
0.0
140
1.0
 94
        2
 62
     0
340
11
144
4.5
309
CONTENTFORMAT_END
171
     1
301
MARGIN
  1
CELLMARGIN_BEGIN
 40
1.5
 40
1.5
 40
1.5
 40
1.5
 40
1.5
 40
1.5
309
CELLMARGIN_END
 94
        6
 95
        1
302
GRIDFORMAT
  1
GRIDFORMAT_BEGIN
 90
        0
 91
        1
 62
     0
 92
       -2
340
14
 93
        0
 40
0.045
309
GRIDFORMAT_END
 95
        2
302
GRIDFORMAT
  1
GRIDFORMAT_BEGIN
 90
        0
 91
        1
 62
     0
 92
       -2
340
14
 93
        0
 40
0.045
309
GRIDFORMAT_END
 95
        4
302
GRIDFORMAT
  1
GRIDFORMAT_BEGIN
 90
        0
 91
        1
 62
     0
 92
       -2
340
14
 93
        0
 40
0.045
309
GRIDFORMAT_END
 95
        8
302
GRIDFORMAT
  1
GRIDFORMAT_BEGIN
 90
        0
 91
        1
 62
     0
 92
       -2
340
14
 93
        0
 40
0.045
309
GRIDFORMAT_END
 95
       16
302
GRIDFORMAT
  1
GRIDFORMAT_BEGIN
 90
        0
 91
        1
 62
     0
 92
       -2
340
14
 93
        0
 40
0.045
309
GRIDFORMAT_END
 95
       32
302
GRIDFORMAT
  1
GRIDFORMAT_BEGIN
 90
        0
 91
        1
 62
     0
 92
       -2
340
14
 93
        0
 40
0.045
309
GRIDFORMAT_END
309
TABLEFORMAT_END
  1
CELLSTYLE_BEGIN
 90
        3
 91
        2
300
_DATA
309
CELLSTYLE_END
  0
ENDSEC
  0
EOF
