  0
SECTION
  2
HEADER
  9
$ACADVER
  1
AC1027
  9
$ACADMAINTVER
 70
   105
  9
$DWGCODEPAGE
  3
ANSI_1252
  9
$REQUIREDVERSIONS
160
                 0
  9
$LASTSAVEDBY
  1
christoph.stuessi
  9
$INSBASE
 10
0.0
 20
0.0
 30
0.0
  9
$EXTMIN
 10
-89.11513588775921
 20
-66.13331054112683
 30
0.0
  9
$EXTMAX
 10
301.7196467209365
 20
67.7319068501775
 30
0.0
  9
$LIMMIN
 10
0.0
 20
0.0
  9
$LIMMAX
 10
420.0
 20
297.0
  9
$ORTHOMODE
 70
     0
  9
$REGENMODE
 70
     1
  9
$FILLMODE
 70
     1
  9
$QTEXTMODE
 70
     0
  9
$MIRRTEXT
 70
     1
  9
$LTSCALE
 40
1.0
  9
$ATTMODE
 70
     1
  9
$TEXTSIZE
 40
3.5
  9
$TRACEWID
 40
1.0
  9
$TEXTSTYLE
  7
STANDARD
  9
$CLAYER
  8
SK1
  9
$CELTYPE
  6
BYLAYER
  9
$CECOLOR
 62
   256
  9
$CELTSCALE
 40
1.0
  9
$DISPSILH
 70
     0
  9
$DIMSCALE
 40
1.0
  9
$DIMASZ
 40
3.5
  9
$DIMEXO
 40
0.0
  9
$DIMDLI
 40
3.75
  9
$DIMRND
 40
0.0
  9
$DIMDLE
 40
0.0
  9
$DIMEXE
 40
1.0
  9
$DIMTP
 40
0.0
  9
$DIMTM
 40
0.0
  9
$DIMTXT
 40
3.5
  9
$DIMCEN
 40
2.5
  9
$DIMTSZ
 40
0.0
  9
$DIMTOL
 70
     0
  9
$DIMLIM
 70
     0
  9
$DIMTIH
 70
     1
  9
$DIMTOH
 70
     1
  9
$DIMSE1
 70
     0
  9
$DIMSE2
 70
     0
  9
$DIMTAD
 70
     1
  9
$DIMZIN
 70
     0
  9
$DIMBLK
  1

  9
$DIMASO
 70
     1
  9
$DIMSHO
 70
     1
  9
$DIMPOST
  1

  9
$DIMAPOST
  1

  9
$DIMALT
 70
     0
  9
$DIMALTD
 70
     3
  9
$DIMALTF
 40
0.0393700787
  9
$DIMLFAC
 40
1.0
  9
$DIMTOFL
 70
     1
  9
$DIMTVP
 40
0.0
  9
$DIMTIX
 70
     0
  9
$DIMSOXD
 70
     0
  9
$DIMSAH
 70
     0
  9
$DIMBLK1
  1

  9
$DIMBLK2
  1

  9
$DIMSTYLE
  2
ISO-25
  9
$DIMCLRD
 70
     0
  9
$DIMCLRE
 70
     0
  9
$DIMCLRT
 70
     0
  9
$DIMTFAC
 40
1.0
  9
$DIMGAP
 40
1.5
  9
$DIMJUST
 70
     0
  9
$DIMSD1
 70
     0
  9
$DIMSD2
 70
     0
  9
$DIMTOLJ
 70
     0
  9
$DIMTZIN
 70
     0
  9
$DIMALTZ
 70
     0
  9
$DIMALTTZ
 70
     0
  9
$DIMUPT
 70
     0
  9
$DIMDEC
 70
     2
  9
$DIMTDEC
 70
     3
  9
$DIMALTU
 70
     2
  9
$DIMALTTD
 70
     3
  9
$DIMTXSTY
  7
STANDARD
  9
$DIMAUNIT
 70
     0
  9
$DIMADEC
 70
     0
  9
$DIMALTRND
 40
0.0
  9
$DIMAZIN
 70
     0
  9
$DIMDSEP
 70
    46
  9
$DIMATFIT
 70
     3
  9
$DIMFRAC
 70
     0
  9
$DIMLDRBLK
  1

  9
$DIMLUNIT
 70
     2
  9
$DIMLWD
 70
    -2
  9
$DIMLWE
 70
    -2
  9
$DIMTMOVE
 70
     2
  9
$DIMFXL
 40
1.0
  9
$DIMFXLON
 70
     0
  9
$DIMJOGANG
 40
0.7853981633974483
  9
$DIMTFILL
 70
     0
  9
$DIMTFILLCLR
 70
     0
  9
$DIMARCSYM
 70
     0
  9
$DIMLTYPE
  6

  9
$DIMLTEX1
  6

  9
$DIMLTEX2
  6

  9
$DIMTXTDIRECTION
 70
     0
  9
$LUNITS
 70
     2
  9
$LUPREC
 70
     2
  9
$SKETCHINC
 40
1.0
  9
$FILLETRAD
 40
10.0
  9
$AUNITS
 70
     0
  9
$AUPREC
 70
     2
  9
$MENU
  1
.
  9
$ELEVATION
 40
0.0
  9
$PELEVATION
 40
0.0
  9
$THICKNESS
 40
0.0
  9
$LIMCHECK
 70
     0
  9
$CHAMFERA
 40
0.0
  9
$CHAMFERB
 40
0.0
  9
$CHAMFERC
 40
0.0
  9
$CHAMFERD
 40
0.0
  9
$SKPOLY
 70
     0
  9
$TDCREATE
 40
2457907.670435833
  9
$TDUCREATE
 40
2457907.5871025
  9
$TDUPDATE
 40
2458369.315900741
  9
$TDUUPDATE
 40
2458369.232567407
  9
$TDINDWG
 40
0.0068004745
  9
$TDUSRTIMER
 40
0.0275116898
  9
$USRTIMER
 70
     1
  9
$ANGBASE
 50
0.0
  9
$ANGDIR
 70
     0
  9
$PDMODE
 70
     0
  9
$PDSIZE
 40
-1.0
  9
$PLINEWID
 40
0.0
  9
$SPLFRAME
 70
     0
  9
$SPLINETYPE
 70
     6
  9
$SPLINESEGS
 70
     8
  9
$HANDSEED
  5
5CB
  9
$SURFTAB1
 70
     6
  9
$SURFTAB2
 70
     6
  9
$SURFTYPE
 70
     6
  9
$SURFU
 70
     6
  9
$SURFV
 70
     6
  9
$UCSBASE
  2

  9
$UCSNAME
  2

  9
$UCSORG
 10
0.0
 20
0.0
 30
0.0
  9
$UCSXDIR
 10
1.0
 20
0.0
 30
0.0
  9
$UCSYDIR
 10
0.0
 20
1.0
 30
0.0
  9
$UCSORTHOREF
  2

  9
$UCSORTHOVIEW
 70
     0
  9
$UCSORGTOP
 10
0.0
 20
0.0
 30
0.0
  9
$UCSORGBOTTOM
 10
0.0
 20
0.0
 30
0.0
  9
$UCSORGLEFT
 10
0.0
 20
0.0
 30
0.0
  9
$UCSORGRIGHT
 10
0.0
 20
0.0
 30
0.0
  9
$UCSORGFRONT
 10
0.0
 20
0.0
 30
0.0
  9
$UCSORGBACK
 10
0.0
 20
0.0
 30
0.0
  9
$PUCSBASE
  2

  9
$PUCSNAME
  2

  9
$PUCSORG
 10
0.0
 20
0.0
 30
0.0
  9
$PUCSXDIR
 10
1.0
 20
0.0
 30
0.0
  9
$PUCSYDIR
 10
0.0
 20
1.0
 30
0.0
  9
$PUCSORTHOREF
  2

  9
$PUCSORTHOVIEW
 70
     0
  9
$PUCSORGTOP
 10
0.0
 20
0.0
 30
0.0
  9
$PUCSORGBOTTOM
 10
0.0
 20
0.0
 30
0.0
  9
$PUCSORGLEFT
 10
0.0
 20
0.0
 30
0.0
  9
$PUCSORGRIGHT
 10
0.0
 20
0.0
 30
0.0
  9
$PUCSORGFRONT
 10
0.0
 20
0.0
 30
0.0
  9
$PUCSORGBACK
 10
0.0
 20
0.0
 30
0.0
  9
$USERI1
 70
     0
  9
$USERI2
 70
     0
  9
$USERI3
 70
     0
  9
$USERI4
 70
     0
  9
$USERI5
 70
     0
  9
$USERR1
 40
0.0
  9
$USERR2
 40
0.0
  9
$USERR3
 40
0.0
  9
$USERR4
 40
0.0
  9
$USERR5
 40
0.0
  9
$WORLDVIEW
 70
     1
  9
$SHADEDGE
 70
     3
  9
$SHADEDIF
 70
    70
  9
$TILEMODE
 70
     1
  9
$MAXACTVP
 70
    64
  9
$PINSBASE
 10
0.0
 20
0.0
 30
0.0
  9
$PLIMCHECK
 70
     0
  9
$PEXTMIN
 10
1.000000000000000E+20
 20
1.000000000000000E+20
 30
1.000000000000000E+20
  9
$PEXTMAX
 10
-1.000000000000000E+20
 20
-1.000000000000000E+20
 30
-1.000000000000000E+20
  9
$PLIMMIN
 10
0.0
 20
0.0
  9
$PLIMMAX
 10
0.0
 20
0.0
  9
$UNITMODE
 70
     0
  9
$VISRETAIN
 70
     1
  9
$PLINEGEN
 70
     0
  9
$PSLTSCALE
 70
     1
  9
$TREEDEPTH
 70
  3020
  9
$CMLSTYLE
  2
STANDARD
  9
$CMLJUST
 70
     0
  9
$CMLSCALE
 40
20.0
  9
$PROXYGRAPHICS
 70
     1
  9
$MEASUREMENT
 70
     1
  9
$CELWEIGHT
370
    -1
  9
$ENDCAPS
280
     0
  9
$JOINSTYLE
280
     0
  9
$LWDISPLAY
290
     0
  9
$INSUNITS
 70
     0
  9
$HYPERLINKBASE
  1

  9
$STYLESHEET
  1

  9
$XEDIT
290
     1
  9
$CEPSNTYPE
380
     0
  9
$PSTYLEMODE
290
     1
  9
$FINGERPRINTGUID
  2
{300077F6-80FC-4F45-81C6-48431DA50A48}
  9
$VERSIONGUID
  2
{FAEB1C32-E019-11D5-929B-00C0DF256EC4}
  9
$EXTNAMES
290
     1
  9
$PSVPSCALE
 40
0.0
  9
$OLESTARTUP
290
     0
  9
$SORTENTS
280
   127
  9
$INDEXCTL
280
     0
  9
$HIDETEXT
280
     1
  9
$XCLIPFRAME
280
     2
  9
$HALOGAP
280
     0
  9
$OBSCOLOR
 70
   257
  9
$OBSLTYPE
280
     0
  9
$INTERSECTIONDISPLAY
280
     0
  9
$INTERSECTIONCOLOR
 70
   257
  9
$DIMASSOC
280
     2
  9
$PROJECTNAME
  1

  9
$CAMERADISPLAY
290
     0
  9
$LENSLENGTH
 40
50.0
  9
$CAMERAHEIGHT
 40
0.0
  9
$STEPSPERSEC
 40
2.0
  9
$STEPSIZE
 40
6.0
  9
$3DDWFPREC
 40
2.0
  9
$PSOLWIDTH
 40
0.25
  9
$PSOLHEIGHT
 40
4.0
  9
$LOFTANG1
 40
1.570796326794897
  9
$LOFTANG2
 40
1.570796326794897
  9
$LOFTMAG1
 40
0.0
  9
$LOFTMAG2
 40
0.0
  9
$LOFTPARAM
 70
     7
  9
$LOFTNORMALS
280
     1
  9
$LATITUDE
 40
37.795
  9
$LONGITUDE
 40
-122.394
  9
$NORTHDIRECTION
 40
0.0
  9
$TIMEZONE
 70
 -8000
  9
$LIGHTGLYPHDISPLAY
280
     1
  9
$TILEMODELIGHTSYNCH
280
     1
  9
$SOLIDHIST
280
     0
  9
$SHOWHIST
280
     1
  9
$DWFFRAME
280
     2
  9
$DGNFRAME
280
     2
  9
$REALWORLDSCALE
290
     1
  9
$INTERFERECOLOR
 62
   256
  9
$CSHADOW
280
     0
  9
$SHADOWPLANELOCATION
 40
0.0
  0
ENDSEC
  0
SECTION
  2
CLASSES
  0
CLASS
  1
ACDBDICTIONARYWDFLT
  2
AcDbDictionaryWithDefault
  3
ObjectDBX Classes
 90
        0
 91
        5
280
     0
281
     0
  0
CLASS
  1
VISUALSTYLE
  2
AcDbVisualStyle
  3
ObjectDBX Classes
 90
     4095
 91
        5
280
     0
281
     0
  0
CLASS
  1
MATERIAL
  2
AcDbMaterial
  3
ObjectDBX Classes
 90
     1153
 91
        5
280
     0
281
     0
  0
CLASS
  1
SCALE
  2
AcDbScale
  3
ObjectDBX Classes
 90
     1153
 91
        5
280
     0
281
     0
  0
CLASS
  1
TABLESTYLE
  2
AcDbTableStyle
  3
ObjectDBX Classes
 90
     4095
 91
        5
280
     0
281
     0
  0
CLASS
  1
MLEADERSTYLE
  2
AcDbMLeaderStyle
  3
ACDB_MLEADERSTYLE_CLASS
 90
     4095
 91
        5
280
     0
281
     0
  0
CLASS
  1
SUN
  2
AcDbSun
  3
SCENEOE
 90
     1153
 91
        5
280
     0
281
     0
  0
CLASS
  1
XRECORD
  2
AcDbXrecord
  3
ObjectDBX Classes
 90
        0
 91
        1
280
     0
281
     0
  0
CLASS
  1
LWPOLYLINE
  2
AcDbPolyline
  3
ObjectDBX Classes
 90
        0
 91
        1
280
     0
281
     1
  0
CLASS
  1
HATCH
  2
AcDbHatch
  3
ObjectDBX Classes
 90
        0
 91
        1
280
     0
281
     1
  0
CLASS
  1
DICTIONARYVAR
  2
AcDbDictionaryVar
  3
ObjectDBX Classes
 90
        0
 91
        5
280
     0
281
     0
  0
CLASS
  1
ACDBPLACEHOLDER
  2
AcDbPlaceHolder
  3
ObjectDBX Classes
 90
        0
 91
        1
280
     0
281
     0
  0
CLASS
  1
LAYOUT
  2
AcDbLayout
  3
ObjectDBX Classes
 90
        0
 91
        1
280
     0
281
     0
  0
CLASS
  1
CELLSTYLEMAP
  2
AcDbCellStyleMap
  3
ObjectDBX Classes
 90
     1152
 91
        5
280
     0
281
     0
  0
ENDSEC
  0
SECTION
  2
TABLES
  0
TABLE
  2
VPORT
  5
8
330
0
100
AcDbSymbolTable
 70
     1
  0
VPORT
  5
29
330
8
100
AcDbSymbolTableRecord
100
AcDbViewportTableRecord
  2
*ACTIVE
 70
     0
 10
0.0
 20
0.0
 11
1.0
 21
1.0
 12
125.6367538601482
 22
-31.76071585022516
 13
0.0
 23
0.0
 14
10.0
 24
10.0
 15
10.0
 25
10.0
 16
0.0
 26
0.0
 36
1.0
 17
0.0
 27
0.0
 37
0.0
 40
297.0
 41
2.246376811594203
 42
50.0
 43
0.0
 44
0.0
 50
0.0
 51
0.0
 71
    16
 72
  2000
 73
     1
 74
     3
 75
     0
 76
     0
 77
     0
 78
     0
281
     0
 65
     1
110
0.0
120
0.0
130
0.0
111
1.0
121
0.0
131
0.0
112
0.0
122
1.0
132
0.0
 79
     0
146
0.0
348
4BF
 60
     3
 61
     5
292
     1
282
     1
141
0.0
142
0.0
 63
   256
  0
ENDTAB
  0
TABLE
  2
LTYPE
  5
5
330
0
100
AcDbSymbolTable
 70
     9
  0
LTYPE
  5
14
330
5
100
AcDbSymbolTableRecord
100
AcDbLinetypeTableRecord
  2
BYBLOCK
 70
     0
  3

 72
    65
 73
     0
 40
0.0
  0
LTYPE
  5
15
330
5
100
AcDbSymbolTableRecord
100
AcDbLinetypeTableRecord
  2
BYLAYER
 70
     0
  3

 72
    65
 73
     0
 40
0.0
  0
LTYPE
  5
16
330
5
100
AcDbSymbolTableRecord
100
AcDbLinetypeTableRecord
  2
CONTINUOUS
 70
     0
  3
Solid line
 72
    65
 73
     0
 40
0.0
  0
LTYPE
  5
6E
330
5
100
AcDbSymbolTableRecord
100
AcDbLinetypeTableRecord
  2
HIDDEN
 70
     0
  3
Hidden __ __ __ __ __ __ __ __ __ __ __ __ __ __
 72
    65
 73
     2
 40
1.905
 49
1.27
 74
     0
 49
-0.635
 74
     0
  0
LTYPE
  5
6F
330
5
100
AcDbSymbolTableRecord
100
AcDbLinetypeTableRecord
  2
PHANTOM
 70
     0
  3
Phantom ______  __  __  ______  __  __  ______
 72
    65
 73
     6
 40
12.7
 49
6.35
 74
     0
 49
-1.27
 74
     0
 49
1.27
 74
     0
 49
-1.27
 74
     0
 49
1.27
 74
     0
 49
-1.27
 74
     0
  0
LTYPE
  5
70
330
5
100
AcDbSymbolTableRecord
100
AcDbLinetypeTableRecord
  2
CENTER
 70
     0
  3
Center ____ _ ____ _ ____ _ ____ _ ____ _ ____
 72
    65
 73
     4
 40
10.16
 49
6.35
 74
     0
 49
-1.27
 74
     0
 49
1.27
 74
     0
 49
-1.27
 74
     0
  0
LTYPE
  5
71
330
5
100
AcDbSymbolTableRecord
100
AcDbLinetypeTableRecord
  2
CENTERX2
 70
     0
  3
Center (2x) ________  __  ________  __  _____
 72
    65
 73
     4
 40
20.32
 49
12.7
 74
     0
 49
-2.54
 74
     0
 49
2.54
 74
     0
 49
-2.54
 74
     0
  0
LTYPE
  5
72
330
5
100
AcDbSymbolTableRecord
100
AcDbLinetypeTableRecord
  2
DOT2
 70
     0
  3
Dot (.5x) ........................................
 72
    65
 73
     2
 40
0.635
 49
0.0
 74
     0
 49
-0.635
 74
     0
  0
LTYPE
  5
516
330
5
100
AcDbSymbolTableRecord
100
AcDbLinetypeTableRecord
  2
DASH
 70
     0
  3
DASH _ _ _ _ _
 72
    65
 73
     2
 40
0.75
 49
0.4
 74
     0
 49
-0.35
 74
     0
  0
LTYPE
  5
517
330
5
100
AcDbSymbolTableRecord
100
AcDbLinetypeTableRecord
  2
LONGDASH_DASH
 70
     0
  3
LONGDASH_DASH __ . __ . __
 72
    65
 73
     4
 40
0.85
 49
0.4
 74
     0
 49
-0.2
 74
     0
 49
0.05
 74
     0
 49
-0.2
 74
     0
  0
LTYPE
  5
518
330
5
100
AcDbSymbolTableRecord
100
AcDbLinetypeTableRecord
  2
LONGDASH_DASH_DASH
 70
     0
  3
LONGDASH_DASH_DASH __ . . __ . . __
 72
    65
 73
     6
 40
1.1
 49
0.4
 74
     0
 49
-0.2
 74
     0
 49
0.05
 74
     0
 49
-0.2
 74
     0
 49
0.05
 74
     0
 49
-0.2
 74
     0
  0
ENDTAB
  0
TABLE
  2
LAYER
  5
2
102
{ACAD_XDICTIONARY
360
538
102
}
330
0
100
AcDbSymbolTable
 70
    16
  0
LAYER
  5
4D0
330
2
100
AcDbSymbolTableRecord
100
AcDbLayerTableRecord
  2
200
 70
     0
 62
     2
  6
CONTINUOUS
370
    50
390
529
347
4CE
348
0
  0
LAYER
  5
4D3
330
2
100
AcDbSymbolTableRecord
100
AcDbLayerTableRecord
  2
Defpoints
 70
     0
 62
     7
  6
CONTINUOUS
290
     0
370
    -3
390
529
347
4CE
348
0
  0
LAYER
  5
519
330
2
100
AcDbSymbolTableRecord
100
AcDbLayerTableRecord
  2
0
 70
     0
 62
    -1
  6
CONTINUOUS
370
    -3
390
0
347
4CE
348
0
  0
LAYER
  5
51A
330
2
100
AcDbSymbolTableRecord
100
AcDbLayerTableRecord
  2
1
 70
     0
 62
     4
  6
CONTINUOUS
370
    50
390
0
347
4CE
348
0
  0
LAYER
  5
51B
330
2
100
AcDbSymbolTableRecord
100
AcDbLayerTableRecord
  2
2
 70
     0
 62
     7
  6
CONTINUOUS
370
    25
390
0
347
4CE
348
0
  0
LAYER
  5
51C
330
2
100
AcDbSymbolTableRecord
100
AcDbLayerTableRecord
  2
3
 70
     0
 62
     1
  6
DASH
370
    35
390
0
347
4CE
348
0
  0
LAYER
  5
51D
330
2
100
AcDbSymbolTableRecord
100
AcDbLayerTableRecord
  2
4
 70
     0
 62
     2
  6
LONGDASH_DASH
370
    25
390
0
347
4CE
348
0
  0
LAYER
  5
51E
330
2
100
AcDbSymbolTableRecord
100
AcDbLayerTableRecord
  2
6
 70
     0
 62
     5
  6
CONTINUOUS
370
    -3
390
0
347
4CE
348
0
  0
LAYER
  5
51F
330
2
100
AcDbSymbolTableRecord
100
AcDbLayerTableRecord
  2
CUT
 70
     0
 62
     1
  6
CONTINUOUS
370
    25
390
0
347
4CE
348
0
  0
LAYER
  5
520
330
2
100
AcDbSymbolTableRecord
100
AcDbLayerTableRecord
  2
NOCUT
 70
     0
 62
     7
  6
CONTINUOUS
370
    25
390
0
347
4CE
348
0
  0
LAYER
  5
521
330
2
100
AcDbSymbolTableRecord
100
AcDbLayerTableRecord
  2
SK1
 70
     0
 62
     4
  6
CONTINUOUS
370
    50
390
0
347
4CE
348
0
  0
LAYER
  5
522
330
2
100
AcDbSymbolTableRecord
100
AcDbLayerTableRecord
  2
SK2
 70
     0
 62
     7
  6
CONTINUOUS
370
    25
390
0
347
4CE
348
0
  0
LAYER
  5
523
330
2
100
AcDbSymbolTableRecord
100
AcDbLayerTableRecord
  2
SK3
 70
     0
 62
     1
  6
DASH
370
    35
390
0
347
4CE
348
0
  0
LAYER
  5
524
330
2
100
AcDbSymbolTableRecord
100
AcDbLayerTableRecord
  2
SK4
 70
     0
 62
     2
  6
LONGDASH_DASH
370
    25
390
0
347
4CE
348
0
  0
LAYER
  5
525
330
2
100
AcDbSymbolTableRecord
100
AcDbLayerTableRecord
  2
SK6
 70
     0
 62
     5
  6
CONTINUOUS
370
    -3
390
0
347
4CE
348
0
  0
LAYER
  5
526
330
2
100
AcDbSymbolTableRecord
100
AcDbLayerTableRecord
  2
INFTOTAL
 70
     0
 62
     9
  6
CONTINUOUS
370
    18
390
0
347
4CE
348
0
  0
ENDTAB
  0
TABLE
  2
STYLE
  5
3
330
0
100
AcDbSymbolTable
 70
     3
  0
STYLE
  5
11
330
3
100
AcDbSymbolTableRecord
100
AcDbTextStyleTableRecord
  2
STANDARD
 70
     0
 40
0.0
 41
1.0
 50
0.0
 71
     0
 42
3.5
  3
txt
  4

  0
STYLE
  5
45C
330
3
100
AcDbSymbolTableRecord
100
AcDbTextStyleTableRecord
  2
SLDTEXTSTYLE0
 70
     0
 40
0.0
 41
0.605
 50
0.0
 71
     0
 42
3.5
  3
TXT
  4

  0
STYLE
  5
4CF
330
3
100
AcDbSymbolTableRecord
100
AcDbTextStyleTableRecord
  2
BMG_Text
 70
     0
 40
3.5
 41
1.0
 50
0.0
 71
     0
 42
3.5
  3
monos.ttf
  4

1001
ACAD
1000
Monospac821 BT
1071
       49
  0
ENDTAB
  0
TABLE
  2
VIEW
  5
6
330
0
100
AcDbSymbolTable
 70
     0
  0
ENDTAB
  0
TABLE
  2
UCS
  5
7
330
0
100
AcDbSymbolTable
 70
     0
  0
ENDTAB
  0
TABLE
  2
APPID
  5
9
330
0
100
AcDbSymbolTable
 70
     4
  0
APPID
  5
12
330
9
100
AcDbSymbolTableRecord
100
AcDbRegAppTableRecord
  2
ACAD
 70
     0
  0
APPID
  5
4E9
330
9
100
AcDbSymbolTableRecord
100
AcDbRegAppTableRecord
  2
ACAD_DSTYLE_DIM_LINETYPE
 70
     0
  0
APPID
  5
4EA
330
9
100
AcDbSymbolTableRecord
100
AcDbRegAppTableRecord
  2
ACAD_DSTYLE_DIM_EXT1_LINETYPE
 70
     0
  0
APPID
  5
4EB
330
9
100
AcDbSymbolTableRecord
100
AcDbRegAppTableRecord
  2
ACAD_DSTYLE_DIM_EXT2_LINETYPE
 70
     0
  0
ENDTAB
  0
TABLE
  2
DIMSTYLE
  5
A
330
0
100
AcDbSymbolTable
 70
     3
100
AcDbDimStyleTable
  0
DIMSTYLE
105
27
330
A
100
AcDbSymbolTableRecord
100
AcDbDimStyleTableRecord
  2
ISO-25
 70
     0
 41
2.5
 42
0.625
 43
3.75
 44
1.25
 73
     0
 74
     0
 77
     1
 78
     8
140
2.5
141
2.5
143
0.0393700787
147
0.625
171
     3
172
     1
178
     0
271
     2
272
     2
274
     3
283
     0
284
     8
340
11
  0
DIMSTYLE
105
45D
102
{ACAD_REACTORS
330
45B
330
467
330
471
330
47C
102
}
330
A
100
AcDbSymbolTableRecord
100
AcDbDimStyleTableRecord
  2
SLDDIMSTYLE0
 70
     0
 41
3.5
 44
0.0
 45
0.000000001
 73
     0
 74
     0
 77
     1
 78
    12
140
3.5
147
0.875
173
     1
178
     0
271
     2
272
     3
284
    12
340
45C
  0
DIMSTYLE
105
488
102
{ACAD_REACTORS
330
487
102
}
330
A
100
AcDbSymbolTableRecord
100
AcDbDimStyleTableRecord
  2
SLDDIMSTYLE1
 70
     0
 41
3.5
 44
0.0
 45
0.000000001
 73
     0
 74
     0
 77
     1
 78
    12
140
3.5
147
0.875
173
     1
178
     0
271
     1
272
     3
284
    12
340
45C
  0
ENDTAB
  0
TABLE
  2
BLOCK_RECORD
  5
1
330
0
100
AcDbSymbolTable
 70
     5
  0
BLOCK_RECORD
  5
1F
330
1
100
AcDbSymbolTableRecord
100
AcDbBlockTableRecord
  2
*MODEL_SPACE
340
4B8
 70
     0
280
     1
281
     0
  0
BLOCK_RECORD
  5
1B
330
1
100
AcDbSymbolTableRecord
100
AcDbBlockTableRecord
  2
*PAPER_SPACE
340
4B9
 70
     0
280
     1
281
     0
  0
BLOCK_RECORD
  5
45E
330
1
100
AcDbSymbolTableRecord
100
AcDbBlockTableRecord
  2
_D
340
0
 70
     0
280
     1
281
     0
  0
BLOCK_RECORD
  5
468
330
1
100
AcDbSymbolTableRecord
100
AcDbBlockTableRecord
  2
_D_1
340
0
 70
     0
280
     1
281
     0
  0
BLOCK_RECORD
  5
472
330
1
100
AcDbSymbolTableRecord
100
AcDbBlockTableRecord
  2
_D_2
340
0
 70
     0
280
     1
281
     0
  0
BLOCK_RECORD
  5
47D
330
1
100
AcDbSymbolTableRecord
100
AcDbBlockTableRecord
  2
_D_3
340
0
 70
     0
280
     1
281
     0
  0
BLOCK_RECORD
  5
489
330
1
100
AcDbSymbolTableRecord
100
AcDbBlockTableRecord
  2
_D_4
340
0
 70
     0
280
     1
281
     0
  0
ENDTAB
  0
ENDSEC
  0
SECTION
  2
BLOCKS
  0
BLOCK
  5
20
330
1F
100
AcDbEntity
  8
0
100
AcDbBlockBegin
  2
*MODEL_SPACE
 70
     0
 10
0.0
 20
0.0
 30
0.0
  3
*MODEL_SPACE
  1

  0
ENDBLK
  5
21
330
1F
100
AcDbEntity
  8
0
100
AcDbBlockEnd
  0
BLOCK
  5
1C
330
1B
100
AcDbEntity
 67
     1
  8
0
100
AcDbBlockBegin
  2
*PAPER_SPACE
 70
     0
 10
0.0
 20
0.0
 30
0.0
  3
*PAPER_SPACE
  1

  0
ENDBLK
  5
1D
330
1B
100
AcDbEntity
 67
     1
  8
0
100
AcDbBlockEnd
  0
BLOCK
  5
45F
330
45E
100
AcDbEntity
  8
0
100
AcDbBlockBegin
  2
_D
 70
     0
 10
0.0
 20
0.0
 30
0.0
  3
_D
  1

  0
LINE
  5
461
330
45E
100
AcDbEntity
  8
2
  6
Continuous
370
    -2
100
AcDbLine
 10
0.0
 20
18.5125004426
 30
0.0
 11
0.0
 21
33.6999682184
 31
0.0
  0
LINE
  5
462
330
45E
100
AcDbEntity
  8
2
  6
Continuous
370
    -2
100
AcDbLine
 10
200.0
 20
20.4874012108
 30
0.0
 11
200.0
 21
33.6999682184
 31
0.0
  0
LINE
  5
463
330
45E
100
AcDbEntity
  8
2
  6
Continuous
370
    -2
100
AcDbLine
 10
3.5
 20
33.6999682184
 30
0.0
 11
196.5
 21
33.6999682184
 31
0.0
  0
SOLID
  5
464
330
45E
100
AcDbEntity
  8
2
100
AcDbTrace
 10
3.5
 20
34.28330155173334
 30
0.0
 11
3.5
 21
33.11663488506667
 31
0.0
 12
0.0
 22
33.6999682184
 32
0.0
 13
0.0
 23
33.6999682184
 33
0.0
  0
SOLID
  5
465
330
45E
100
AcDbEntity
  8
2
100
AcDbTrace
 10
196.5
 20
33.11663488506667
 30
0.0
 11
196.5
 21
34.28330155173334
 31
0.0
 12
200.0
 22
33.6999682184
 32
0.0
 13
200.0
 23
33.6999682184
 33
0.0
  0
MTEXT
  5
466
330
45E
100
AcDbEntity
  8
2
370
    25
100
AcDbMText
 10
100.0
 20
36.3862182184
 30
0.0
 40
3.5
 41
0.0
 46
0.0
 71
     5
 72
     1
  1
\A1;200
  7
BMG_Text
 73
     1
 44
1.0
  0
POINT
  5
4D4
330
45E
100
AcDbEntity
  8
Defpoints
 62
     0
100
AcDbPoint
 10
0.0
 20
18.4500004426
 30
0.0
  0
POINT
  5
4D5
330
45E
100
AcDbEntity
  8
Defpoints
 62
     0
100
AcDbPoint
 10
200.0
 20
20.4249012108
 30
0.0
  0
POINT
  5
4D6
330
45E
100
AcDbEntity
  8
Defpoints
 62
     0
100
AcDbPoint
 10
200.0
 20
33.6999682184
 30
0.0
  0
ENDBLK
  5
460
330
45E
100
AcDbEntity
  8
0
100
AcDbBlockEnd
  0
BLOCK
  5
469
330
468
100
AcDbEntity
  8
0
100
AcDbBlockBegin
  2
_D_1
 70
     0
 10
0.0
 20
0.0
 30
0.0
  3
_D_1
  1

  0
LINE
  5
46B
330
468
100
AcDbEntity
  8
2
  6
ByBlock
370
    -2
100
AcDbLine
 10
180.9999932274
 20
-19.5625004023
 30
0.0
 11
180.9999932274
 21
-31.0362242444
 31
0.0
  0
LINE
  5
46C
330
468
100
AcDbEntity
  8
2
  6
ByBlock
370
    -2
100
AcDbLine
 10
0.0
 20
-18.5125004426
 30
0.0
 11
0.0
 21
-31.0362242444
 31
0.0
  0
LINE
  5
46D
330
468
100
AcDbEntity
  8
2
  6
ByBlock
370
    -2
100
AcDbLine
 10
177.4999932274
 20
-31.0362242444
 30
0.0
 11
3.5
 21
-31.0362242444
 31
0.0
  0
SOLID
  5
46E
330
468
100
AcDbEntity
  8
2
100
AcDbTrace
 10
177.4999932274
 20
-31.61955757773333
 30
0.0
 11
177.4999932274
 21
-30.45289091106667
 31
0.0
 12
180.9999932274
 22
-31.0362242444
 32
0.0
 13
180.9999932274
 23
-31.0362242444
 33
0.0
  0
SOLID
  5
46F
330
468
100
AcDbEntity
  8
2
100
AcDbTrace
 10
3.5
 20
-30.45289091106667
 30
0.0
 11
3.5
 21
-31.61955757773333
 31
0.0
 12
0.0
 22
-31.0362242444
 32
0.0
 13
0.0
 23
-31.0362242444
 33
0.0
  0
MTEXT
  5
470
330
468
100
AcDbEntity
  8
2
100
AcDbMText
 10
90.4999966137
 20
-28.3499742444
 30
0.0
 40
3.5
 41
0.0
 46
0.0
 71
     5
 72
     1
  1
\A1;181
  7
BMG_Text
 73
     1
 44
1.0
  0
POINT
  5
4D7
330
468
100
AcDbEntity
  8
Defpoints
 62
     0
100
AcDbPoint
 10
180.9999932274
 20
-19.5000004023
 30
0.0
  0
POINT
  5
4D8
330
468
100
AcDbEntity
  8
Defpoints
 62
     0
100
AcDbPoint
 10
0.0
 20
-18.4500004426
 30
0.0
  0
POINT
  5
4D9
330
468
100
AcDbEntity
  8
Defpoints
 62
     0
100
AcDbPoint
 10
0.0
 20
-31.0362242444
 30
0.0
  0
ENDBLK
  5
46A
330
468
100
AcDbEntity
  8
0
100
AcDbBlockEnd
  0
BLOCK
  5
473
330
472
100
AcDbEntity
  8
0
100
AcDbBlockBegin
  2
_D_2
 70
     0
 10
0.0
 20
0.0
 30
0.0
  3
_D_2
  1

  0
LINE
  5
475
330
472
100
AcDbEntity
  8
SK2
  6
ByBlock
370
    -2
100
AcDbLine
 10
-19.2625056878
 20
10.9999999404
 30
0.0
 11
-29.9544200401
 21
10.9999999404
 31
0.0
  0
LINE
  5
476
330
472
100
AcDbEntity
  8
SK2
  6
ByBlock
370
    -2
100
AcDbLine
 10
-19.2625056878
 20
-10.9999999404
 30
0.0
 11
-29.9544200401
 21
-10.9999999404
 31
0.0
  0
LINE
  5
477
330
472
100
AcDbEntity
  8
SK2
  6
ByBlock
370
    -2
100
AcDbLine
 10
-29.9544200401
 20
7.4999999404
 30
0.0
 11
-29.9544200401
 21
-7.4999999404
 31
0.0
  0
SOLID
  5
478
330
472
100
AcDbEntity
  8
SK2
100
AcDbTrace
 10
-29.37108670676667
 20
7.4999999404
 30
0.0
 11
-30.53775337343333
 21
7.4999999404
 31
0.0
 12
-29.9544200401
 22
10.9999999404
 32
0.0
 13
-29.9544200401
 23
10.9999999404
 33
0.0
  0
SOLID
  5
479
330
472
100
AcDbEntity
  8
SK2
100
AcDbTrace
 10
-30.53775337343333
 20
-7.4999999404
 30
0.0
 11
-29.37108670676667
 21
-7.4999999404
 31
0.0
 12
-29.9544200401
 22
-10.9999999404
 32
0.0
 13
-29.9544200401
 23
-10.9999999404
 33
0.0
  0
MTEXT
  5
47A
330
472
100
AcDbEntity
  8
SK2
100
AcDbMText
 10
-32.6914200401
 20
0.0
 30
0.0
 40
3.5
 41
0.0
 46
0.0
 71
     5
 72
     1
  1
\A1;%%c22
  7
BMG_Text
 11
0.0
 21
1.0
 31
0.0
 73
     1
 44
1.0
  0
POINT
  5
47B
330
472
100
AcDbEntity
  8
Defpoints
 62
     0
100
AcDbPoint
 10
-19.2000056878
 20
10.9999999404
 30
0.0
  0
POINT
  5
4DA
330
472
100
AcDbEntity
  8
Defpoints
 62
     0
100
AcDbPoint
 10
-19.2000056878
 20
-10.9999999404
 30
0.0
  0
POINT
  5
4DB
330
472
100
AcDbEntity
  8
Defpoints
 62
     0
100
AcDbPoint
 10
-29.9544200401
 20
-10.9999999404
 30
0.0
  0
ENDBLK
  5
474
330
472
100
AcDbEntity
  8
0
100
AcDbBlockEnd
  0
BLOCK
  5
47E
330
47D
100
AcDbEntity
  8
0
100
AcDbBlockBegin
  2
_D_3
 70
     0
 10
0.0
 20
0.0
 30
0.0
  3
_D_3
  1

  0
LINE
  5
480
330
47D
100
AcDbEntity
  8
2
  6
Continuous
370
    -2
100
AcDbLine
 10
0.9874869211999999
 20
19.5000004024
 30
0.0
 11
-36.2805141878
 21
19.5000004024
 31
0.0
  0
LINE
  5
481
330
47D
100
AcDbEntity
  8
2
  6
Continuous
370
    -2
100
AcDbLine
 10
0.9874869211999999
 20
-19.5000004023
 30
0.0
 11
-36.2805141878
 21
-19.5000004023
 31
0.0
  0
LINE
  5
482
330
47D
100
AcDbEntity
  8
2
  6
Continuous
370
    -2
100
AcDbLine
 10
-36.2805141878
 20
16.0000004024
 30
0.0
 11
-36.2805141878
 21
-16.0000004023
 31
0.0
  0
SOLID
  5
483
330
47D
100
AcDbEntity
  8
2
100
AcDbTrace
 10
-35.69718085446667
 20
16.0000004024
 30
0.0
 11
-36.86384752113334
 21
16.0000004024
 31
0.0
 12
-36.2805141878
 22
19.5000004024
 32
0.0
 13
-36.2805141878
 23
19.5000004024
 33
0.0
  0
SOLID
  5
484
330
47D
100
AcDbEntity
  8
2
100
AcDbTrace
 10
-36.86384752113334
 20
-16.0000004023
 30
0.0
 11
-35.69718085446667
 21
-16.0000004023
 31
0.0
 12
-36.2805141878
 22
-19.5000004023
 32
0.0
 13
-36.2805141878
 23
-19.5000004023
 33
0.0
  0
MTEXT
  5
485
330
47D
100
AcDbEntity
  8
2
370
    25
100
AcDbMText
 10
-39.0175141878
 20
0.0
 30
0.0
 40
3.5
 41
0.0
 46
0.0
 71
     5
 72
     1
  1
\A1;%%c39
  7
BMG_Text
 11
0.0
 21
1.0
 31
0.0
 73
     1
 44
1.0
  0
POINT
  5
486
330
47D
100
AcDbEntity
  8
Defpoints
 62
     0
100
AcDbPoint
 10
1.0499869212
 20
19.5000004024
 30
0.0
  0
POINT
  5
4DC
330
47D
100
AcDbEntity
  8
Defpoints
 62
     0
100
AcDbPoint
 10
1.0499869212
 20
-19.5000004023
 30
0.0
  0
POINT
  5
4DD
330
47D
100
AcDbEntity
  8
Defpoints
 62
     0
100
AcDbPoint
 10
-36.2805141878
 20
-19.5000004023
 30
0.0
  0
ENDBLK
  5
47F
330
47D
100
AcDbEntity
  8
0
100
AcDbBlockEnd
  0
BLOCK
  5
48A
330
489
100
AcDbEntity
  8
0
100
AcDbBlockBegin
  2
_D_4
 70
     0
 10
0.0
 20
0.0
 30
0.0
  3
_D_4
  1

  0
LINE
  5
48C
330
489
100
AcDbEntity
  8
2
  6
ByBlock
370
    -2
100
AcDbLine
 10
199.9624927863
 20
-20.4999987035
 30
0.0
 11
210.9715322893
 21
-20.4999987035
 31
0.0
  0
LINE
  5
48D
330
489
100
AcDbEntity
  8
2
  6
ByBlock
370
    -2
100
AcDbLine
 10
200.2756084854
 20
20.4939226306
 30
0.0
 11
210.9715322893
 21
20.4939226306
 31
0.0
  0
LINE
  5
48E
330
489
100
AcDbEntity
  8
2
  6
ByBlock
370
    -2
100
AcDbLine
 10
210.9715322893
 20
-16.9999987035
 30
0.0
 11
210.9715322893
 21
16.9939226306
 31
0.0
  0
SOLID
  5
48F
330
489
100
AcDbEntity
  8
2
100
AcDbTrace
 10
210.3881989559667
 20
-16.9999987035
 30
0.0
 11
211.5548656226333
 21
-16.9999987035
 31
0.0
 12
210.9715322893
 22
-20.4999987035
 32
0.0
 13
210.9715322893
 23
-20.4999987035
 33
0.0
  0
SOLID
  5
490
330
489
100
AcDbEntity
  8
2
100
AcDbTrace
 10
211.5548656226333
 20
16.9939226306
 30
0.0
 11
210.3881989559667
 21
16.9939226306
 31
0.0
 12
210.9715322893
 22
20.4939226306
 32
0.0
 13
210.9715322893
 23
20.4939226306
 33
0.0
  0
MTEXT
  5
491
330
489
100
AcDbEntity
  8
2
100
AcDbMText
 10
208.2345322893
 20
-0.0030380365
 30
0.0
 40
3.5
 41
0.0
 46
0.0
 71
     5
 72
     1
  1
\A1;%%c41 - 54
  7
BMG_Text
 11
0.0
 21
1.0
 31
0.0
 73
     1
 44
1.0
  0
POINT
  5
492
330
489
100
AcDbEntity
  8
Defpoints
 62
     0
100
AcDbPoint
 10
199.8999927863
 20
-20.4999987035
 30
0.0
  0
POINT
  5
493
330
489
100
AcDbEntity
  8
Defpoints
 62
     0
100
AcDbPoint
 10
200.2131084854
 20
20.4939226306
 30
0.0
  0
POINT
  5
4DE
330
489
100
AcDbEntity
  8
Defpoints
 62
     0
100
AcDbPoint
 10
210.9715322893
 20
20.4939226306
 30
0.0
  0
ENDBLK
  5
48B
330
489
100
AcDbEntity
  8
0
100
AcDbBlockEnd
  0
ENDSEC
  0
SECTION
  2
ENTITIES
  0
LINE
  5
79
330
1F
100
AcDbEntity
  8
4
100
AcDbLine
 10
-27.1003921862
 20
0.0
 30
0.0
 11
202.4758367324
 21
0.0
 31
0.0
  0
LINE
  5
7A
330
1F
100
AcDbEntity
  8
1
100
AcDbLine
 10
180.9999932274
 20
19.5000004024
 30
0.0
 11
180.9999932274
 21
-19.5000004023
 31
0.0
  0
LINE
  5
7B
330
1F
100
AcDbEntity
  8
SK1
100
AcDbLine
 10
-1.4500045012
 20
10.7077654165
 30
0.0
 11
-1.4500045012
 21
10.9606437099
 31
0.0
  0
LINE
  5
7C
330
1F
100
AcDbEntity
  8
SK1
100
AcDbLine
 10
-9.9500055686
 20
10.9606403858
 30
0.0
 11
-9.9500055686
 21
10.7098966836
 31
0.0
  0
LINE
  5
7D
330
1F
100
AcDbEntity
  8
2
100
AcDbLine
 10
199.8305304504
 20
20.4939226306
 30
0.0
 11
200.2131084854
 21
20.4939226306
 31
0.0
  0
LINE
  5
7E
330
1F
100
AcDbEntity
  8
SK1
100
AcDbLine
 10
-1.4500045012
 20
-10.9606437099
 30
0.0
 11
-1.4500045012
 21
-10.7095898774
 31
0.0
  0
LINE
  5
7F
330
1F
100
AcDbEntity
  8
SK1
100
AcDbLine
 10
-9.9500055686
 20
-10.7128117233
 30
0.0
 11
-9.9500055686
 21
-10.9606403857
 31
0.0
  0
LINE
  5
80
330
1F
100
AcDbEntity
  8
SK1
100
AcDbLine
 10
-1.5571838827
 20
11.3606428675
 30
0.0
 11
-2.4315034008
 21
12.8750022363
 31
0.0
  0
LINE
  5
81
330
1F
100
AcDbEntity
  8
SK1
100
AcDbLine
 10
-8.9685101169
 20
12.8749998361
 30
0.0
 11
-9.8428259396
 21
11.3606404673
 31
0.0
  0
LINE
  5
82
330
1F
100
AcDbEntity
  8
SK1
100
AcDbLine
 10
-9.8428259396
 20
-11.3606404673
 30
0.0
 11
-8.9685101169
 21
-12.8749998362
 31
0.0
  0
LINE
  5
83
330
1F
100
AcDbEntity
  8
SK1
100
AcDbLine
 10
-2.4315034008
 20
-12.8750022364
 30
0.0
 11
-1.5571838827
 21
-11.3606428675
 31
0.0
  0
LINE
  5
84
330
1F
100
AcDbEntity
  8
1
  6
Continuous
370
    50
100
AcDbLine
 10
1.0499869212
 20
-19.5000004023
 30
0.0
 11
153.1999937187
 21
-19.5000004023
 31
0.0
  0
LINE
  5
85
330
1F
100
AcDbEntity
  8
1
  6
Continuous
370
    50
100
AcDbLine
 10
153.1999937187
 20
19.5000004024
 30
0.0
 11
1.0499869212
 21
19.5000004024
 31
0.0
  0
LINE
  5
86
330
1F
100
AcDbEntity
  8
1
  6
Continuous
370
    50
100
AcDbLine
 10
153.1999937187
 20
-19.5000004023
 30
0.0
 11
153.2999937162
 21
-19.4000005722
 31
0.0
  0
LINE
  5
87
330
1F
100
AcDbEntity
  8
1
  6
Continuous
370
    50
100
AcDbLine
 10
153.2999937162
 20
19.4000005722
 30
0.0
 11
153.1999937187
 21
19.5000004024
 31
0.0
  0
LINE
  5
88
330
1F
100
AcDbEntity
  8
1
  6
Continuous
370
    50
100
AcDbLine
 10
1.0499869212
 20
19.5000004024
 30
0.0
 11
0.0
 21
18.4500004426
 31
0.0
  0
LINE
  5
89
330
1F
100
AcDbEntity
  8
1
  6
Continuous
370
    50
100
AcDbLine
 10
0.0
 20
-18.4500004426
 30
0.0
 11
1.0499869212
 21
-19.5000004023
 31
0.0
  0
LINE
  5
8A
330
1F
100
AcDbEntity
  8
SK1
100
AcDbLine
 10
-19.2000056878
 20
-10.9999999404
 30
0.0
 11
-10.7539530173
 21
-10.9999999404
 31
0.0
  0
LINE
  5
8B
330
1F
100
AcDbEntity
  8
SK1
100
AcDbLine
 10
-10.7555772439
 20
10.9999999404
 30
0.0
 11
-19.2000056878
 21
10.9999999404
 31
0.0
  0
LINE
  5
8C
330
1F
100
AcDbEntity
  8
SK1
100
AcDbLine
 10
-0.6309832707
 20
-10.964830406
 30
0.0
 11
-0.0794158064
 21
-10.8170370869
 31
0.0
  0
LINE
  5
8D
330
1F
100
AcDbEntity
  8
SK1
100
AcDbLine
 10
-0.0794158064
 20
10.8170370868
 30
0.0
 11
-0.6309832707
 21
10.9648304061
 31
0.0
  0
LINE
  5
8E
330
1F
100
AcDbEntity
  8
SK1
100
AcDbLine
 10
-19.2000056878
 20
10.9999999404
 30
0.0
 11
-21.3410194293
 21
10.6990998611
 31
0.0
  0
LINE
  5
8F
330
1F
100
AcDbEntity
  8
SK1
100
AcDbLine
 10
-21.3410194293
 20
-10.699099861
 30
0.0
 11
-19.2000056878
 21
-10.9999999404
 31
0.0
  0
LINE
  5
90
330
1F
100
AcDbEntity
  8
SK1
100
AcDbLine
 10
-22.9958173772
 20
-10.9908846519
 30
0.0
 11
-21.3410194293
 21
-10.699099861
 31
0.0
  0
LINE
  5
91
330
1F
100
AcDbEntity
  8
SK1
100
AcDbLine
 10
-21.3410194293
 20
10.6990998611
 30
0.0
 11
-22.9958173772
 21
10.9908846518
 31
0.0
  0
LINE
  5
92
330
1F
100
AcDbEntity
  8
1
100
AcDbLine
 10
180.9999932274
 20
19.5000004024
 30
0.0
 11
153.3999937136
 21
19.5000004024
 31
0.0
  0
LINE
  5
93
330
1F
100
AcDbEntity
  8
1
100
AcDbLine
 10
153.3999937136
 20
-19.5000004023
 30
0.0
 11
180.9999932274
 21
-19.5000004023
 31
0.0
  0
LINE
  5
94
330
1F
100
AcDbEntity
  8
1
  6
Continuous
370
    50
100
AcDbLine
 10
153.3999937136
 20
19.5000004024
 30
0.0
 11
153.2999937162
 21
19.4000005722
 31
0.0
  0
LINE
  5
95
330
1F
100
AcDbEntity
  8
1
  6
Continuous
370
    50
100
AcDbLine
 10
153.2999937162
 20
-19.4000005722
 30
0.0
 11
153.3999937136
 21
-19.5000004023
 31
0.0
  0
LINE
  5
96
330
1F
100
AcDbEntity
  8
1
100
AcDbLine
 10
180.9999932274
 20
-19.5000004023
 30
0.0
 11
181.0028654262
 21
-19.4971282035
 31
0.0
  0
LINE
  5
97
330
1F
100
AcDbEntity
  8
1
100
AcDbLine
 10
181.0028654262
 20
19.4971282036
 30
0.0
 11
180.9999932274
 21
19.5000004024
 31
0.0
  0
LINE
  5
98
330
1F
100
AcDbEntity
  8
SK1
100
AcDbLine
 10
-3.1243213847
 20
13.2749997994
 30
0.0
 11
-8.2756898234
 21
13.2749997994
 31
0.0
  0
LINE
  5
99
330
1F
100
AcDbEntity
  8
SK1
100
AcDbLine
 10
-3.1243213847
 20
-13.2749997995
 30
0.0
 11
-8.2756898234
 21
-13.2749997995
 31
0.0
  0
LINE
  5
9A
330
1F
100
AcDbEntity
  8
1
  6
Continuous
370
    50
100
AcDbLine
 10
91.1885154173
 20
5.5222320371
 30
0.0
 11
91.2208546624
 21
5.3497804329
 31
0.0
  0
LINE
  5
9B
330
1F
100
AcDbEntity
  8
1
  6
Continuous
370
    50
100
AcDbLine
 10
91.2208546624
 20
5.3497804329
 30
0.0
 11
91.2914004847
 21
5.2415649407
 31
0.0
  0
LINE
  5
9C
330
1F
100
AcDbEntity
  8
1
  6
Continuous
370
    50
100
AcDbLine
 10
91.2914004847
 20
5.2415649407
 30
0.0
 11
91.3934324607
 21
5.1606111229
 31
0.0
  0
LINE
  5
9D
330
1F
100
AcDbEntity
  8
1
  6
Continuous
370
    50
100
AcDbLine
 10
91.3934324607
 20
5.1606111229
 30
0.0
 11
91.7683531269
 21
5.03756525
 31
0.0
  0
LINE
  5
9E
330
1F
100
AcDbEntity
  8
1
  6
Continuous
370
    50
100
AcDbLine
 10
91.7683531269
 20
5.03756525
 30
0.0
 11
91.9007722959
 21
5.0056087785
 31
0.0
  0
LINE
  5
9F
330
1F
100
AcDbEntity
  8
1
  6
Continuous
370
    50
100
AcDbLine
 10
92.3129309639
 20
4.7582183032
 30
0.0
 11
92.298789762
 21
4.6899742446
 31
0.0
  0
LINE
  5
A0
330
1F
100
AcDbEntity
  8
1
  6
Continuous
370
    50
100
AcDbLine
 10
92.298789762
 20
4.6899742446
 30
0.0
 11
92.2609706148
 21
4.6364534646
 31
0.0
  0
LINE
  5
A1
330
1F
100
AcDbEntity
  8
1
  6
Continuous
370
    50
100
AcDbLine
 10
92.2609706148
 20
4.6364534646
 30
0.0
 11
92.1928983852
 21
4.5885141007
 31
0.0
  0
LINE
  5
A2
330
1F
100
AcDbEntity
  8
1
  6
Continuous
370
    50
100
AcDbLine
 10
92.1928983852
 20
4.5885141007
 30
0.0
 11
92.0754288062
 21
4.5527257025
 31
0.0
  0
LINE
  5
A3
330
1F
100
AcDbEntity
  8
1
  6
Continuous
370
    50
100
AcDbLine
 10
92.0754288062
 20
4.5527257025
 30
0.0
 11
91.9321094379
 21
4.5421672984
 31
0.0
  0
LINE
  5
A4
330
1F
100
AcDbEntity
  8
1
  6
Continuous
370
    50
100
AcDbLine
 10
91.9321094379
 20
4.5421672984
 30
0.0
 11
91.7228040025
 21
4.5793098397
 31
0.0
  0
LINE
  5
A5
330
1F
100
AcDbEntity
  8
1
  6
Continuous
370
    50
100
AcDbLine
 10
91.7228040025
 20
4.5793098397
 30
0.0
 11
91.6441109702
 21
4.6300906687
 31
0.0
  0
LINE
  5
A6
330
1F
100
AcDbEntity
  8
1
  6
Continuous
370
    50
100
AcDbLine
 10
91.6441109702
 20
4.6300906687
 30
0.0
 11
91.5874493048
 21
4.7037703916
 31
0.0
  0
LINE
  5
A7
330
1F
100
AcDbEntity
  8
1
  6
Continuous
370
    50
100
AcDbLine
 10
91.5874493048
 20
4.7037703916
 30
0.0
 11
91.5531915352
 21
4.8156734555
 31
0.0
  0
LINE
  5
A8
330
1F
100
AcDbEntity
  8
1
  6
Continuous
370
    50
100
AcDbLine
 10
91.5531915352
 20
4.8156734555
 30
0.0
 11
91.2492935285
 21
4.7852839343
 31
0.0
  0
LINE
  5
A9
330
1F
100
AcDbEntity
  8
1
  6
Continuous
370
    50
100
AcDbLine
 10
91.94208204
 20
4.2990501969
 30
0.0
 11
92.2776189372
 21
4.3494477868
 31
0.0
  0
LINE
  5
AA
330
1F
100
AcDbEntity
  8
1
  6
Continuous
370
    50
100
AcDbLine
 10
92.2776189372
 20
4.3494477868
 30
0.0
 11
92.4358655438
 21
4.4324337504
 31
0.0
  0
LINE
  5
AB
330
1F
100
AcDbEntity
  8
1
  6
Continuous
370
    50
100
AcDbLine
 10
92.4358655438
 20
4.4324337504
 30
0.0
 11
92.5573696122
 21
4.5625790953
 31
0.0
  0
LINE
  5
AC
330
1F
100
AcDbEntity
  8
1
  6
Continuous
370
    50
100
AcDbLine
 10
92.5573696122
 20
4.5625790953
 30
0.0
 11
92.6111553535
 21
4.7107767313
 31
0.0
  0
LINE
  5
AD
330
1F
100
AcDbEntity
  8
1
  6
Continuous
370
    50
100
AcDbLine
 10
92.6111553535
 20
4.7107767313
 30
0.0
 11
92.6168252453
 21
4.7843344509
 31
0.0
  0
LINE
  5
AE
330
1F
100
AcDbEntity
  8
1
  6
Continuous
370
    50
100
AcDbLine
 10
92.6168252453
 20
4.7843344509
 30
0.0
 11
92.5893549547
 21
4.9341688863
 31
0.0
  0
LINE
  5
AF
330
1F
100
AcDbEntity
  8
1
  6
Continuous
370
    50
100
AcDbLine
 10
92.5893549547
 20
4.9341688863
 30
0.0
 11
92.5049659535
 21
5.064014811
 31
0.0
  0
LINE
  5
B0
330
1F
100
AcDbEntity
  8
1
  6
Continuous
370
    50
100
AcDbLine
 10
92.5049659535
 20
5.064014811
 30
0.0
 11
92.3938070163
 21
5.1486724987
 31
0.0
  0
LINE
  5
B1
330
1F
100
AcDbEntity
  8
1
  6
Continuous
370
    50
100
AcDbLine
 10
92.3938070163
 20
5.1486724987
 30
0.0
 11
91.9460494742
 21
5.2927844226
 31
0.0
  0
LINE
  5
B2
330
1F
100
AcDbEntity
  8
1
  6
Continuous
370
    50
100
AcDbLine
 10
91.9460494742
 20
5.2927844226
 30
0.0
 11
91.8903265819
 21
5.3061810322
 31
0.0
  0
LINE
  5
B3
330
1F
100
AcDbEntity
  8
1
  6
Continuous
370
    50
100
AcDbLine
 10
91.4924096987
 20
5.5545209907
 30
0.0
 11
91.5119674727
 21
5.6451219133
 31
0.0
  0
LINE
  5
B4
330
1F
100
AcDbEntity
  8
1
  6
Continuous
370
    50
100
AcDbLine
 10
91.5119674727
 20
5.6451219133
 30
0.0
 11
91.5621918365
 21
5.7128658518
 31
0.0
  0
LINE
  5
B5
330
1F
100
AcDbEntity
  8
1
  6
Continuous
370
    50
100
AcDbLine
 10
91.5621918365
 20
5.7128658518
 30
0.0
 11
91.6559052393
 21
5.7747387327
 31
0.0
  0
LINE
  5
B6
330
1F
100
AcDbEntity
  8
1
  6
Continuous
370
    50
100
AcDbLine
 10
91.6559052393
 20
5.7747387327
 30
0.0
 11
91.8054495677
 21
5.8127827942
 31
0.0
  0
LINE
  5
B7
330
1F
100
AcDbEntity
  8
1
  6
Continuous
370
    50
100
AcDbLine
 10
91.8054495677
 20
5.8127827942
 30
0.0
 11
91.9083681628
 21
5.8185309171
 31
0.0
  0
LINE
  5
B8
330
1F
100
AcDbEntity
  8
1
  6
Continuous
370
    50
100
AcDbLine
 10
92.3737090751
 20
5.4842452518
 30
0.0
 11
92.6776070818
 21
5.5146347732
 31
0.0
  0
LINE
  5
B9
330
1F
100
AcDbEntity
  8
1
  6
Continuous
370
    50
100
AcDbLine
 10
91.9297364279
 20
6.061647553
 30
0.0
 11
91.5586975142
 21
6.0040578247
 31
0.0
  0
LINE
  5
BA
330
1F
100
AcDbEntity
  8
1
  6
Continuous
370
    50
100
AcDbLine
 10
91.5586975142
 20
6.0040578247
 30
0.0
 11
91.3825993165
 21
5.9091998265
 31
0.0
  0
LINE
  5
BB
330
1F
100
AcDbEntity
  8
1
  6
Continuous
370
    50
100
AcDbLine
 10
91.3825993165
 20
5.9091998265
 30
0.0
 11
91.2498597726
 21
5.7618748397
 31
0.0
  0
LINE
  5
BC
330
1F
100
AcDbEntity
  8
1
  6
Continuous
370
    50
100
AcDbLine
 10
91.2498597726
 20
5.7618748397
 30
0.0
 11
91.1940921768
 21
5.6000663899
 31
0.0
  0
LINE
  5
BD
330
1F
100
AcDbEntity
  8
1
  6
Continuous
370
    50
100
AcDbLine
 10
91.1940921768
 20
5.6000663899
 30
0.0
 11
91.1885154173
 21
5.5222320371
 31
0.0
  0
LINE
  5
BE
330
1F
100
AcDbEntity
  8
1
  6
Continuous
370
    50
100
AcDbLine
 10
82.6364596113
 20
5.3218547255
 30
0.0
 11
82.6364596113
 21
4.9391351641
 31
0.0
  0
LINE
  5
BF
330
1F
100
AcDbEntity
  8
1
  6
Continuous
370
    50
100
AcDbLine
 10
82.6364596113
 20
4.9391351641
 30
0.0
 11
82.6604802832
 21
4.653706681
 31
0.0
  0
LINE
  5
C0
330
1F
100
AcDbEntity
  8
1
  6
Continuous
370
    50
100
AcDbLine
 10
82.6604802832
 20
4.653706681
 30
0.0
 11
82.7057053074
 21
4.5307790861
 31
0.0
  0
LINE
  5
C1
330
1F
100
AcDbEntity
  8
1
  6
Continuous
370
    50
100
AcDbLine
 10
82.7057053074
 20
4.5307790861
 30
0.0
 11
82.7981968149
 21
4.4341678732
 31
0.0
  0
LINE
  5
C2
330
1F
100
AcDbEntity
  8
1
  6
Continuous
370
    50
100
AcDbLine
 10
82.7981968149
 20
4.4341678732
 30
0.0
 11
82.9848934635
 21
4.3420298025
 31
0.0
  0
LINE
  5
C3
330
1F
100
AcDbEntity
  8
1
  6
Continuous
370
    50
100
AcDbLine
 10
82.9848934635
 20
4.3420298025
 30
0.0
 11
83.3316211328
 21
4.2995288969
 31
0.0
  0
LINE
  5
C4
330
1F
100
AcDbEntity
  8
1
  6
Continuous
370
    50
100
AcDbLine
 10
84.1559384689
 20
4.8161526211
 30
0.0
 11
83.8520441875
 21
4.8465421423
 31
0.0
  0
LINE
  5
C5
330
1F
100
AcDbEntity
  8
1
  6
Continuous
370
    50
100
AcDbLine
 10
83.8520441875
 20
4.8465421423
 30
0.0
 11
83.7881554589
 21
4.6987314708
 31
0.0
  0
LINE
  5
C6
330
1F
100
AcDbEntity
  8
1
  6
Continuous
370
    50
100
AcDbLine
 10
83.7881554589
 20
4.6987314708
 30
0.0
 11
83.7224711403
 21
4.6250121667
 31
0.0
  0
LINE
  5
C7
330
1F
100
AcDbEntity
  8
1
  6
Continuous
370
    50
100
AcDbLine
 10
83.7224711403
 20
4.6250121667
 30
0.0
 11
83.6341594085
 21
4.5777577906
 31
0.0
  0
LINE
  5
C8
330
1F
100
AcDbEntity
  8
1
  6
Continuous
370
    50
100
AcDbLine
 10
83.6341594085
 20
4.5777577906
 30
0.0
 11
83.4588472471
 21
4.545208998
 31
0.0
  0
LINE
  5
C9
330
1F
100
AcDbEntity
  8
1
  6
Continuous
370
    50
100
AcDbLine
 10
83.4588472471
 20
4.545208998
 30
0.0
 11
83.3743576631
 21
4.5426459982
 31
0.0
  0
LINE
  5
CA
330
1F
100
AcDbEntity
  8
1
  6
Continuous
370
    50
100
AcDbLine
 10
82.9403538926
 20
4.8683844506
 30
0.0
 11
82.9403538926
 21
4.9377107061
 31
0.0
  0
LINE
  5
CB
330
1F
100
AcDbEntity
  8
1
  6
Continuous
370
    50
100
AcDbLine
 10
83.4963907225
 20
5.059269257
 30
0.0
 11
83.8057090266
 21
5.1129609347
 31
0.0
  0
LINE
  5
CC
330
1F
100
AcDbEntity
  8
1
  6
Continuous
370
    50
100
AcDbLine
 10
83.8057090266
 20
5.1129609347
 30
0.0
 11
83.9950133785
 21
5.1941499114
 31
0.0
  0
LINE
  5
CD
330
1F
100
AcDbEntity
  8
1
  6
Continuous
370
    50
100
AcDbLine
 10
83.9950133785
 20
5.1941499114
 30
0.0
 11
84.1227535828
 21
5.3088506684
 31
0.0
  0
LINE
  5
CE
330
1F
100
AcDbEntity
  8
1
  6
Continuous
370
    50
100
AcDbLine
 10
84.1227535828
 20
5.3088506684
 30
0.0
 11
84.2004407867
 21
5.4601589218
 31
0.0
  0
LINE
  5
CF
330
1F
100
AcDbEntity
  8
1
  6
Continuous
370
    50
100
AcDbLine
 10
84.2004407867
 20
5.4601589218
 30
0.0
 11
84.2167203053
 21
5.5844397285
 31
0.0
  0
LINE
  5
D0
330
1F
100
AcDbEntity
  8
1
  6
Continuous
370
    50
100
AcDbLine
 10
82.8795720561
 20
6.0317367315
 30
0.0
 11
82.5756777748
 21
6.0317367315
 31
0.0
  0
LINE
  5
D1
330
1F
100
AcDbEntity
  8
1
  6
Continuous
370
    50
100
AcDbLine
 10
76.9106362685
 20
5.5810334161
 30
0.0
 11
76.9106362685
 21
4.5734276063
 31
0.0
  0
LINE
  5
D2
330
1F
100
AcDbEntity
  8
1
  6
Continuous
370
    50
100
AcDbLine
 10
76.9106362685
 20
4.5734276063
 30
0.0
 11
76.6067419872
 21
4.5734276063
 31
0.0
  0
LINE
  5
D3
330
1F
100
AcDbEntity
  8
1
  6
Continuous
370
    50
100
AcDbLine
 10
76.6067419872
 20
4.5734276063
 30
0.0
 11
76.6067419872
 21
4.3303109705
 31
0.0
  0
LINE
  5
D4
330
1F
100
AcDbEntity
  8
1
  6
Continuous
370
    50
100
AcDbLine
 10
76.6067419872
 20
4.3303109705
 30
0.0
 11
76.9106362685
 21
4.3303109705
 31
0.0
  0
LINE
  5
D5
330
1F
100
AcDbEntity
  8
1
  6
Continuous
370
    50
100
AcDbLine
 10
76.9106362685
 20
4.3303109705
 30
0.0
 11
76.9106362685
 21
3.7225186824
 31
0.0
  0
LINE
  5
D6
330
1F
100
AcDbEntity
  8
1
  6
Continuous
370
    50
100
AcDbLine
 10
76.9106362685
 20
3.7225186824
 30
0.0
 11
77.2145305499
 21
3.9048562757
 31
0.0
  0
LINE
  5
D7
330
1F
100
AcDbEntity
  8
1
  6
Continuous
370
    50
100
AcDbLine
 10
77.2145305499
 20
3.9048562757
 30
0.0
 11
77.2145305499
 21
4.3303109705
 31
0.0
  0
LINE
  5
D8
330
1F
100
AcDbEntity
  8
1
  6
Continuous
370
    50
100
AcDbLine
 10
77.2145305499
 20
4.3303109705
 30
0.0
 11
77.4272595271
 21
4.3303109705
 31
0.0
  0
LINE
  5
D9
330
1F
100
AcDbEntity
  8
1
  6
Continuous
370
    50
100
AcDbLine
 10
77.4272595271
 20
4.3303109705
 30
0.0
 11
77.4272595271
 21
4.5734276064
 31
0.0
  0
LINE
  5
DA
330
1F
100
AcDbEntity
  8
1
  6
Continuous
370
    50
100
AcDbLine
 10
77.4272595271
 20
4.5734276064
 30
0.0
 11
77.2145305499
 21
4.5734276064
 31
0.0
  0
LINE
  5
DB
330
1F
100
AcDbEntity
  8
1
  6
Continuous
370
    50
100
AcDbLine
 10
77.2145305499
 20
4.5734276064
 30
0.0
 11
77.2145305499
 21
5.5454205722
 31
0.0
  0
LINE
  5
DC
330
1F
100
AcDbEntity
  8
1
  6
Continuous
370
    50
100
AcDbLine
 10
77.2145305499
 20
5.5454205722
 30
0.0
 11
77.2029672489
 21
5.776136648
 31
0.0
  0
LINE
  5
DD
330
1F
100
AcDbEntity
  8
1
  6
Continuous
370
    50
100
AcDbLine
 10
77.2029672489
 20
5.776136648
 30
0.0
 11
77.1797512397
 21
5.8756018989
 31
0.0
  0
LINE
  5
DE
330
1F
100
AcDbEntity
  8
1
  6
Continuous
370
    50
100
AcDbLine
 10
77.1797512397
 20
5.8756018989
 30
0.0
 11
77.1377299651
 21
5.9430939146
 31
0.0
  0
LINE
  5
DF
330
1F
100
AcDbEntity
  8
1
  6
Continuous
370
    50
100
AcDbLine
 10
77.1377299651
 20
5.9430939146
 30
0.0
 11
77.0760987624
 21
5.9945238755
 31
0.0
  0
LINE
  5
E0
330
1F
100
AcDbEntity
  8
1
  6
Continuous
370
    50
100
AcDbLine
 10
77.0760987624
 20
5.9945238755
 30
0.0
 11
76.9593779668
 21
6.0433419422
 31
0.0
  0
LINE
  5
E1
330
1F
100
AcDbEntity
  8
1
  6
Continuous
370
    50
100
AcDbLine
 10
76.9593779668
 20
6.0433419422
 30
0.0
 11
76.7786343321
 21
6.0625188053
 31
0.0
  0
LINE
  5
E2
330
1F
100
AcDbEntity
  8
1
  6
Continuous
370
    50
100
AcDbLine
 10
76.7786343321
 20
6.0625188053
 30
0.0
 11
76.5459601507
 21
6.0625188053
 31
0.0
  0
LINE
  5
E3
330
1F
100
AcDbEntity
  8
1
  6
Continuous
370
    50
100
AcDbLine
 10
76.5459601507
 20
6.0625188053
 30
0.0
 11
76.6067419872
 21
5.8194017038
 31
0.0
  0
LINE
  5
E4
330
1F
100
AcDbEntity
  8
1
  6
Continuous
370
    50
100
AcDbLine
 10
76.6067419872
 20
5.8194017038
 30
0.0
 11
76.7392207608
 21
5.8194017038
 31
0.0
  0
LINE
  5
E5
330
1F
100
AcDbEntity
  8
1
  6
Continuous
370
    50
100
AcDbLine
 10
66.1794383749
 20
5.3227925673
 30
0.0
 11
66.1794383749
 21
4.9400734716
 31
0.0
  0
LINE
  5
E6
330
1F
100
AcDbEntity
  8
1
  6
Continuous
370
    50
100
AcDbLine
 10
66.1794383749
 20
4.9400734716
 30
0.0
 11
66.2034590468
 21
4.6546314843
 31
0.0
  0
LINE
  5
E7
330
1F
100
AcDbEntity
  8
1
  6
Continuous
370
    50
100
AcDbLine
 10
66.2034590468
 20
4.6546314843
 30
0.0
 11
66.2486915216
 21
4.5317057521
 31
0.0
  0
LINE
  5
E8
330
1F
100
AcDbEntity
  8
1
  6
Continuous
370
    50
100
AcDbLine
 10
66.2486915216
 20
4.5317057521
 30
0.0
 11
66.3411830291
 21
4.4350977988
 31
0.0
  0
LINE
  5
E9
330
1F
100
AcDbEntity
  8
1
  6
Continuous
370
    50
100
AcDbLine
 10
66.3411830291
 20
4.4350977988
 30
0.0
 11
66.5278945789
 21
4.3429625221
 31
0.0
  0
LINE
  5
EA
330
1F
100
AcDbEntity
  8
1
  6
Continuous
370
    50
100
AcDbLine
 10
66.5278945789
 20
4.3429625221
 30
0.0
 11
66.8745998964
 21
4.3004672043
 31
0.0
  0
LINE
  5
EB
330
1F
100
AcDbEntity
  8
1
  6
Continuous
370
    50
100
AcDbLine
 10
67.6989172324
 20
4.8170904629
 30
0.0
 11
67.3950229511
 21
4.8474799841
 31
0.0
  0
LINE
  5
EC
330
1F
100
AcDbEntity
  8
1
  6
Continuous
370
    50
100
AcDbLine
 10
67.3950229511
 20
4.8474799841
 30
0.0
 11
67.3311342224
 21
4.6996697783
 31
0.0
  0
LINE
  5
ED
330
1F
100
AcDbEntity
  8
1
  6
Continuous
370
    50
100
AcDbLine
 10
67.3311342224
 20
4.6996697783
 30
0.0
 11
67.2654499039
 21
4.6259504742
 31
0.0
  0
LINE
  5
EE
330
1F
100
AcDbEntity
  8
1
  6
Continuous
370
    50
100
AcDbLine
 10
67.2654499039
 20
4.6259504742
 30
0.0
 11
67.1771381721
 21
4.5786960981
 31
0.0
  0
LINE
  5
EF
330
1F
100
AcDbEntity
  8
1
  6
Continuous
370
    50
100
AcDbLine
 10
67.1771381721
 20
4.5786960981
 30
0.0
 11
67.0018260106
 21
4.5461473055
 31
0.0
  0
LINE
  5
F0
330
1F
100
AcDbEntity
  8
1
  6
Continuous
370
    50
100
AcDbLine
 10
67.0018260106
 20
4.5461473055
 30
0.0
 11
66.9173364267
 21
4.5435838401
 31
0.0
  0
LINE
  5
F1
330
1F
100
AcDbEntity
  8
1
  6
Continuous
370
    50
100
AcDbLine
 10
66.4833326563
 20
4.8693227581
 30
0.0
 11
66.4833326563
 21
4.9386490136
 31
0.0
  0
LINE
  5
F2
330
1F
100
AcDbEntity
  8
1
  6
Continuous
370
    50
100
AcDbLine
 10
67.0393694863
 20
5.0602075643
 30
0.0
 11
67.3486803397
 21
5.113897845
 31
0.0
  0
LINE
  5
F3
330
1F
100
AcDbEntity
  8
1
  6
Continuous
370
    50
100
AcDbLine
 10
67.3486803397
 20
5.113897845
 30
0.0
 11
67.5379846916
 21
5.1950863561
 31
0.0
  0
LINE
  5
F4
330
1F
100
AcDbEntity
  8
1
  6
Continuous
370
    50
100
AcDbLine
 10
67.5379846916
 20
5.1950863561
 30
0.0
 11
67.6657323465
 21
5.3097866474
 31
0.0
  0
LINE
  5
F5
330
1F
100
AcDbEntity
  8
1
  6
Continuous
370
    50
100
AcDbLine
 10
67.6657323465
 20
5.3097866474
 30
0.0
 11
67.7434120998
 21
5.4610944351
 31
0.0
  0
LINE
  5
F6
330
1F
100
AcDbEntity
  8
1
  6
Continuous
370
    50
100
AcDbLine
 10
67.7434120998
 20
5.4610944351
 30
0.0
 11
67.7596916184
 21
5.5853775701
 31
0.0
  0
LINE
  5
F7
330
1F
100
AcDbEntity
  8
1
  6
Continuous
370
    50
100
AcDbLine
 10
66.4225508198
 20
6.032675039
 30
0.0
 11
66.1186565384
 21
6.032675039
 31
0.0
  0
LINE
  5
F8
330
1F
100
AcDbEntity
  8
1
  6
Continuous
370
    50
100
AcDbLine
 10
58.8429634198
 20
4.5768371783
 30
0.0
 11
58.8429634198
 21
4.3313456699
 31
0.0
  0
LINE
  5
F9
330
1F
100
AcDbEntity
  8
1
  6
Continuous
370
    50
100
AcDbLine
 10
58.8429634198
 20
4.3313456699
 30
0.0
 11
59.116466783
 21
4.3313456699
 31
0.0
  0
LINE
  5
FA
330
1F
100
AcDbEntity
  8
1
  6
Continuous
370
    50
100
AcDbLine
 10
59.116466783
 20
4.3313456699
 30
0.0
 11
59.116466783
 21
6.6713457928
 31
0.0
  0
LINE
  5
FB
330
1F
100
AcDbEntity
  8
1
  6
Continuous
370
    50
100
AcDbLine
 10
59.116466783
 20
6.6713457928
 30
0.0
 11
58.8125725016
 21
6.6713457928
 31
0.0
  0
LINE
  5
FC
330
1F
100
AcDbEntity
  8
1
  6
Continuous
370
    50
100
AcDbLine
 10
58.8125725016
 20
6.6713457928
 30
0.0
 11
58.8125725016
 21
5.8432291262
 31
0.0
  0
LINE
  5
FD
330
1F
100
AcDbEntity
  8
1
  6
Continuous
370
    50
100
AcDbLine
 10
50.5948056205
 20
4.6356776729
 30
0.0
 11
50.5036328658
 21
4.3925605715
 31
0.0
  0
LINE
  5
FE
330
1F
100
AcDbEntity
  8
1
  6
Continuous
370
    50
100
AcDbLine
 10
51.1722032651
 20
4.6033887193
 30
0.0
 11
51.1722032651
 21
4.3317815288
 31
0.0
  0
LINE
  5
FF
330
1F
100
AcDbEntity
  8
1
  6
Continuous
370
    50
100
AcDbLine
 10
51.1722032651
 20
4.3317815288
 30
0.0
 11
51.4761049971
 21
4.3317815288
 31
0.0
  0
LINE
  5
100
330
1F
100
AcDbEntity
  8
1
  6
Continuous
370
    50
100
AcDbLine
 10
51.4761049971
 20
4.3317815288
 30
0.0
 11
51.4761049971
 21
6.0335993767
 31
0.0
  0
LINE
  5
101
330
1F
100
AcDbEntity
  8
1
  6
Continuous
370
    50
100
AcDbLine
 10
51.4761049971
 20
6.0335993767
 30
0.0
 11
51.1722032651
 21
6.0335993767
 31
0.0
  0
LINE
  5
102
330
1F
100
AcDbEntity
  8
1
  6
Continuous
370
    50
100
AcDbLine
 10
51.1722032651
 20
6.0335993767
 30
0.0
 11
51.1722032651
 21
5.1513509825
 31
0.0
  0
LINE
  5
103
330
1F
100
AcDbEntity
  8
1
  6
Continuous
370
    50
100
AcDbLine
 10
104.5997281298
 20
-0.3601350182
 30
0.0
 11
104.4935089275
 21
0.6115772412
 31
0.0
  0
LINE
  5
104
330
1F
100
AcDbEntity
  8
1
  6
Continuous
370
    50
100
AcDbLine
 10
104.4935089275
 20
0.6115772412
 30
0.0
 11
104.3874573633
 21
1.5817708335
 31
0.0
  0
LINE
  5
105
330
1F
100
AcDbEntity
  8
1
  6
Continuous
370
    50
100
AcDbLine
 10
104.3874573633
 20
1.5817708335
 30
0.0
 11
104.2818304822
 21
2.5480363983
 31
0.0
  0
LINE
  5
106
330
1F
100
AcDbEntity
  8
1
  6
Continuous
370
    50
100
AcDbLine
 10
103.2564145252
 20
2.6864081156
 30
0.0
 11
102.8099049553
 21
1.5577459708
 31
0.0
  0
LINE
  5
107
330
1F
100
AcDbEntity
  8
1
  6
Continuous
370
    50
100
AcDbLine
 10
102.8099049553
 20
1.5577459708
 30
0.0
 11
102.3613054976
 21
0.4238026741
 31
0.0
  0
LINE
  5
108
330
1F
100
AcDbEntity
  8
1
  6
Continuous
370
    50
100
AcDbLine
 10
102.3613054976
 20
0.4238026741
 30
0.0
 11
101.9121397957
 21
-0.7115774205
 31
0.0
  0
LINE
  5
109
330
1F
100
AcDbEntity
  8
1
  6
Continuous
370
    50
100
AcDbLine
 10
101.9121397957
 20
-0.7115774205
 30
0.0
 11
101.8429797813
 21
0.9379994008
 31
0.0
  0
LINE
  5
10A
330
1F
100
AcDbEntity
  8
1
  6
Continuous
370
    50
100
AcDbLine
 10
101.8429797813
 20
0.9379994008
 30
0.0
 11
101.7740991637
 21
2.5808636565
 31
0.0
  0
LINE
  5
10B
330
1F
100
AcDbEntity
  8
1
  6
Continuous
370
    50
100
AcDbLine
 10
101.7740991637
 20
2.5808636565
 30
0.0
 11
101.7059934065
 21
4.2052580975
 31
0.0
  0
LINE
  5
10C
330
1F
100
AcDbEntity
  8
1
  6
Continuous
370
    50
100
AcDbLine
 10
100.6670136675
 20
4.3498906307
 30
0.0
 11
100.1602289006
 21
2.8131741565
 31
0.0
  0
LINE
  5
10D
330
1F
100
AcDbEntity
  8
1
  6
Continuous
370
    50
100
AcDbLine
 10
100.1602289006
 20
2.8131741565
 30
0.0
 11
99.6474836692
 21
1.2583758217
 31
0.0
  0
LINE
  5
10E
330
1F
100
AcDbEntity
  8
1
  6
Continuous
370
    50
100
AcDbLine
 10
99.6474836692
 20
1.2583758217
 30
0.0
 11
99.1320674047
 21
-0.3045107296
 31
0.0
  0
LINE
  5
10F
330
1F
100
AcDbEntity
  8
1
  6
Continuous
370
    50
100
AcDbLine
 10
99.1320674047
 20
-0.3045107296
 30
0.0
 11
98.6172993407
 21
-1.8654400482
 31
0.0
  0
LINE
  5
110
330
1F
100
AcDbEntity
  8
1
  6
Continuous
370
    50
100
AcDbLine
 10
98.6172993407
 20
-1.8654400482
 30
0.0
 11
98.5792566761
 21
-0.2337432088
 31
0.0
  0
LINE
  5
111
330
1F
100
AcDbEntity
  8
1
  6
Continuous
370
    50
100
AcDbLine
 10
98.5792566761
 20
-0.2337432088
 30
0.0
 11
98.5411767587
 21
1.3995950576
 31
0.0
  0
LINE
  5
112
330
1F
100
AcDbEntity
  8
1
  6
Continuous
370
    50
100
AcDbLine
 10
98.5411767587
 20
1.3995950576
 30
0.0
 11
98.503324084
 21
3.023104975
 31
0.0
  0
LINE
  5
113
330
1F
100
AcDbEntity
  8
1
  6
Continuous
370
    50
100
AcDbLine
 10
98.503324084
 20
3.023104975
 30
0.0
 11
98.4659668729
 21
4.6253860929
 31
0.0
  0
LINE
  5
114
330
1F
100
AcDbEntity
  8
1
  6
Continuous
370
    50
100
AcDbLine
 10
98.4659668729
 20
4.6253860929
 30
0.0
 11
98.4293658957
 21
6.195187103
 31
0.0
  0
LINE
  5
115
330
1F
100
AcDbEntity
  8
1
  6
Continuous
370
    50
100
AcDbLine
 10
97.3917309865
 20
6.3553201035
 30
0.0
 11
96.8175370917
 21
4.6763760038
 31
0.0
  0
LINE
  5
116
330
1F
100
AcDbEntity
  8
1
  6
Continuous
370
    50
100
AcDbLine
 10
96.8175370917
 20
4.6763760038
 30
0.0
 11
96.2304574177
 21
2.9597436078
 31
0.0
  0
LINE
  5
117
330
1F
100
AcDbEntity
  8
1
  6
Continuous
370
    50
100
AcDbLine
 10
96.2304574177
 20
2.9597436078
 30
0.0
 11
95.6352193579
 21
1.2192579452
 31
0.0
  0
LINE
  5
118
330
1F
100
AcDbEntity
  8
1
  6
Continuous
370
    50
100
AcDbLine
 10
95.6352193579
 20
1.2192579452
 30
0.0
 11
95.0366210863
 21
-0.5310541018
 31
0.0
  0
LINE
  5
119
330
1F
100
AcDbEntity
  8
1
  6
Continuous
370
    50
100
AcDbLine
 10
95.0366210863
 20
-0.5310541018
 30
0.0
 11
94.4394868538
 21
-2.277086256
 31
0.0
  0
LINE
  5
11A
330
1F
100
AcDbEntity
  8
1
  6
Continuous
370
    50
100
AcDbLine
 10
94.4394868538
 20
-2.277086256
 30
0.0
 11
93.8486260101
 21
-4.0047666989
 31
0.0
  0
LINE
  5
11B
330
1F
100
AcDbEntity
  8
1
  6
Continuous
370
    50
100
AcDbLine
 10
93.8486260101
 20
-4.0047666989
 30
0.0
 11
93.2688069269
 21
-5.7001714594
 31
0.0
  0
LINE
  5
11C
330
1F
100
AcDbEntity
  8
1
  6
Continuous
370
    50
100
AcDbLine
 10
93.2688069269
 20
-5.7001714594
 30
0.0
 11
92.7046973929
 21
-7.3496368713
 31
0.0
  0
LINE
  5
11D
330
1F
100
AcDbEntity
  8
1
  6
Continuous
370
    50
100
AcDbLine
 10
93.713856183
 20
-7.6948809437
 30
0.0
 11
94.2204956636
 21
-6.2133111059
 31
0.0
  0
LINE
  5
11E
330
1F
100
AcDbEntity
  8
1
  6
Continuous
370
    50
100
AcDbLine
 10
94.2204956636
 20
-6.2133111059
 30
0.0
 11
94.7411906645
 21
-4.690637812
 31
0.0
  0
LINE
  5
11F
330
1F
100
AcDbEntity
  8
1
  6
Continuous
370
    50
100
AcDbLine
 10
94.7411906645
 20
-4.690637812
 30
0.0
 11
95.2724990174
 21
-3.1369344797
 31
0.0
  0
LINE
  5
120
330
1F
100
AcDbEntity
  8
1
  6
Continuous
370
    50
100
AcDbLine
 10
95.2724990174
 20
-3.1369344797
 30
0.0
 11
95.8109040484
 21
-1.5624789521
 31
0.0
  0
LINE
  5
121
330
1F
100
AcDbEntity
  8
1
  6
Continuous
370
    50
100
AcDbLine
 10
95.8109040484
 20
-1.5624789521
 30
0.0
 11
96.3528406545
 21
0.0223130046
 31
0.0
  0
LINE
  5
122
330
1F
100
AcDbEntity
  8
1
  6
Continuous
370
    50
100
AcDbLine
 10
96.3528406545
 20
0.0223130046
 30
0.0
 11
96.8947288319
 21
1.6069572885
 31
0.0
  0
LINE
  5
123
330
1F
100
AcDbEntity
  8
1
  6
Continuous
370
    50
100
AcDbLine
 10
96.8947288319
 20
1.6069572885
 30
0.0
 11
97.432981126
 21
3.1809709035
 31
0.0
  0
LINE
  5
124
330
1F
100
AcDbEntity
  8
1
  6
Continuous
370
    50
100
AcDbLine
 10
97.432981126
 20
3.1809709035
 30
0.0
 11
97.4710461423
 21
1.5478829155
 31
0.0
  0
LINE
  5
125
330
1F
100
AcDbEntity
  8
1
  6
Continuous
370
    50
100
AcDbLine
 10
97.4710461423
 20
1.5478829155
 30
0.0
 11
97.5093682036
 21
-0.0962239573
 31
0.0
  0
LINE
  5
126
330
1F
100
AcDbEntity
  8
1
  6
Continuous
370
    50
100
AcDbLine
 10
97.5093682036
 20
-0.0962239573
 30
0.0
 11
97.5476716384
 21
-1.7396458424
 31
0.0
  0
LINE
  5
127
330
1F
100
AcDbEntity
  8
1
  6
Continuous
370
    50
100
AcDbLine
 10
97.5476716384
 20
-1.7396458424
 30
0.0
 11
97.5856882259
 21
-3.370683873
 31
0.0
  0
LINE
  5
128
330
1F
100
AcDbEntity
  8
1
  6
Continuous
370
    50
100
AcDbLine
 10
97.5856882259
 20
-3.370683873
 30
0.0
 11
97.6231460199
 21
-4.9777273088
 31
0.0
  0
LINE
  5
129
330
1F
100
AcDbEntity
  8
1
  6
Continuous
370
    50
100
AcDbLine
 10
98.6625727936
 20
-5.1321964711
 30
0.0
 11
99.179333888
 21
-3.5651950165
 31
0.0
  0
LINE
  5
12A
330
1F
100
AcDbEntity
  8
1
  6
Continuous
370
    50
100
AcDbLine
 10
99.179333888
 20
-3.5651950165
 30
0.0
 11
99.70408573
 21
-1.9739638082
 31
0.0
  0
LINE
  5
12B
330
1F
100
AcDbEntity
  8
1
  6
Continuous
370
    50
100
AcDbLine
 10
99.70408573
 20
-1.9739638082
 30
0.0
 11
100.2332632169
 21
-0.369317393
 31
0.0
  0
LINE
  5
12C
330
1F
100
AcDbEntity
  8
1
  6
Continuous
370
    50
100
AcDbLine
 10
100.2332632169
 20
-0.369317393
 30
0.0
 11
100.7632677182
 21
1.2378391112
 31
0.0
  0
LINE
  5
12D
330
1F
100
AcDbEntity
  8
1
  6
Continuous
370
    50
100
AcDbLine
 10
100.7632677182
 20
1.2378391112
 30
0.0
 11
100.8264709935
 21
-0.2672742703
 31
0.0
  0
LINE
  5
12E
330
1F
100
AcDbEntity
  8
1
  6
Continuous
370
    50
100
AcDbLine
 10
100.8264709935
 20
-0.2672742703
 30
0.0
 11
100.8896072134
 21
-1.7707942752
 31
0.0
  0
LINE
  5
12F
330
1F
100
AcDbEntity
  8
1
  6
Continuous
370
    50
100
AcDbLine
 10
100.8896072134
 20
-1.7707942752
 30
0.0
 11
100.9522963986
 21
-3.2637580297
 31
0.0
  0
LINE
  5
130
330
1F
100
AcDbEntity
  8
1
  6
Continuous
370
    50
100
AcDbLine
 10
101.9803945646
 20
-3.4376024268
 30
0.0
 11
102.469361268
 21
-2.2016828879
 31
0.0
  0
LINE
  5
131
330
1F
100
AcDbEntity
  8
1
  6
Continuous
370
    50
100
AcDbLine
 10
102.469361268
 20
-2.2016828879
 30
0.0
 11
102.9619042501
 21
-0.9567301021
 31
0.0
  0
LINE
  5
132
330
1F
100
AcDbEntity
  8
1
  6
Continuous
370
    50
100
AcDbLine
 10
102.9619042501
 20
-0.9567301021
 30
0.0
 11
103.4559969529
 21
0.2921482374
 31
0.0
  0
LINE
  5
133
330
1F
100
AcDbEntity
  8
1
  6
Continuous
370
    50
100
AcDbLine
 10
103.4559969529
 20
0.2921482374
 30
0.0
 11
103.5389442667
 21
-0.4670867929
 31
0.0
  0
LINE
  5
134
330
1F
100
AcDbEntity
  8
1
  6
Continuous
370
    50
100
AcDbLine
 10
103.5389442667
 20
-0.4670867929
 30
0.0
 11
103.6218096241
 21
-1.2256137561
 31
0.0
  0
LINE
  5
135
330
1F
100
AcDbEntity
  8
1
  6
Continuous
370
    50
100
AcDbLine
 10
103.6218096241
 20
-1.2256137561
 30
0.0
 11
103.7044738159
 21
-1.9822826143
 31
0.0
  0
LINE
  5
136
330
1F
100
AcDbEntity
  8
1
  6
Continuous
370
    50
100
AcDbLine
 10
104.6838302836
 20
-2.2111216094
 30
0.0
 11
105.0388131961
 21
-1.6545268008
 31
0.0
  0
LINE
  5
137
330
1F
100
AcDbEntity
  8
1
  6
Continuous
370
    50
100
AcDbLine
 10
105.0388131961
 20
-1.6545268008
 30
0.0
 11
105.394660376
 21
-1.0965707479
 31
0.0
  0
LINE
  5
138
330
1F
100
AcDbEntity
  8
1
  6
Continuous
370
    50
100
AcDbLine
 10
105.394660376
 20
-1.0965707479
 30
0.0
 11
105.7510849759
 21
-0.5377124762
 31
0.0
  0
LINE
  5
139
330
1F
100
AcDbEntity
  8
1
  6
Continuous
370
    50
100
AcDbLine
 10
105.7510849759
 20
-0.5377124762
 30
0.0
 11
114.7527311668
 21
-0.5382255767
 31
0.0
  0
LINE
  5
13A
330
1F
100
AcDbEntity
  8
1
  6
Continuous
370
    50
100
AcDbLine
 10
114.7527907713
 20
0.5278886529
 30
0.0
 11
105.458720468
 21
0.5284184008
 31
0.0
  0
LINE
  5
13B
330
1F
100
AcDbEntity
  8
1
  6
Continuous
370
    50
100
AcDbLine
 10
105.0091896876
 20
0.2822227834
 30
0.0
 11
104.8044551834
 21
-0.0389613998
 31
0.0
  0
LINE
  5
13C
330
1F
100
AcDbEntity
  8
1
  6
Continuous
370
    50
100
AcDbLine
 10
104.8044551834
 20
-0.0389613998
 30
0.0
 11
104.5997281298
 21
-0.3601350182
 31
0.0
  0
LINE
  5
13D
330
1F
100
AcDbEntity
  8
1
  6
Continuous
370
    50
100
AcDbLine
 10
73.8848437293
 20
-2.470645588
 30
0.0
 11
89.837661825
 21
-2.4715550244
 31
0.0
  0
LINE
  5
13E
330
1F
100
AcDbEntity
  8
1
  6
Continuous
370
    50
100
AcDbLine
 10
88.9552374109
 20
-3.8087305147
 30
0.0
 11
70.4010043964
 21
-3.8076729979
 31
0.0
  0
LINE
  5
13F
330
1F
100
AcDbEntity
  8
1
  6
Continuous
370
    50
100
AcDbLine
 10
70.4010043964
 20
-3.8076729979
 30
0.0
 11
70.2221159562
 21
-4.4189263135
 31
0.0
  0
LINE
  5
140
330
1F
100
AcDbEntity
  8
1
  6
Continuous
370
    50
100
AcDbLine
 10
70.2221159562
 20
-4.4189263135
 30
0.0
 11
70.04456117
 21
-5.0256350077
 31
0.0
  0
LINE
  5
141
330
1F
100
AcDbEntity
  8
1
  6
Continuous
370
    50
100
AcDbLine
 10
70.04456117
 20
-5.0256350077
 30
0.0
 11
69.8685188517
 21
-5.627175793
 31
0.0
  0
LINE
  5
142
330
1F
100
AcDbEntity
  8
1
  6
Continuous
370
    50
100
AcDbLine
 10
69.8685188517
 20
-5.627175793
 30
0.0
 11
88.8057936653
 21
-5.6282551959
 31
0.0
  0
LINE
  5
143
330
1F
100
AcDbEntity
  8
1
  6
Continuous
370
    50
100
AcDbLine
 10
89.9871055706
 20
-0.6520300523
 30
0.0
 11
74.0342949255
 21
-0.6511207904
 31
0.0
  0
LINE
  5
144
330
1F
100
AcDbEntity
  8
1
  6
Continuous
370
    50
100
AcDbLine
 10
73.3934555872
 20
0.3203868109
 30
0.0
 11
73.5395689233
 21
0.6296348874
 31
0.0
  0
LINE
  5
145
330
1F
100
AcDbEntity
  8
1
  6
Continuous
370
    50
100
AcDbLine
 10
73.5395689233
 20
0.6296348874
 30
0.0
 11
73.779291354
 21
0.8732406422
 31
0.0
  0
LINE
  5
146
330
1F
100
AcDbEntity
  8
1
  6
Continuous
370
    50
100
AcDbLine
 10
73.779291354
 20
0.8732406422
 30
0.0
 11
74.2267583235
 21
1.1006457498
 31
0.0
  0
LINE
  5
147
330
1F
100
AcDbEntity
  8
1
  6
Continuous
370
    50
100
AcDbLine
 10
74.2267583235
 20
1.1006457498
 30
0.0
 11
75.1474936231
 21
1.2534637935
 31
0.0
  0
LINE
  5
148
330
1F
100
AcDbEntity
  8
1
  6
Continuous
370
    50
100
AcDbLine
 10
75.1474936231
 20
1.2534637935
 30
0.0
 11
75.3623832687
 21
1.2577635934
 31
0.0
  0
LINE
  5
149
330
1F
100
AcDbEntity
  8
1
  6
Continuous
370
    50
100
AcDbLine
 10
75.3623832687
 20
1.2577635934
 30
0.0
 11
93.4927378519
 21
1.2567301746
 31
0.0
  0
LINE
  5
14A
330
1F
100
AcDbEntity
  8
1
  6
Continuous
370
    50
100
AcDbLine
 10
93.4927378519
 20
1.2567301746
 30
0.0
 11
93.6772067769
 21
1.8651570426
 31
0.0
  0
LINE
  5
14B
330
1F
100
AcDbEntity
  8
1
  6
Continuous
370
    50
100
AcDbLine
 10
93.6772067769
 20
1.8651570426
 30
0.0
 11
93.861124359
 21
2.4717564228
 31
0.0
  0
LINE
  5
14C
330
1F
100
AcDbEntity
  8
1
  6
Continuous
370
    50
100
AcDbLine
 10
93.861124359
 20
2.4717564228
 30
0.0
 11
94.0443043335
 21
3.0759340152
 31
0.0
  0
LINE
  5
14D
330
1F
100
AcDbEntity
  8
1
  6
Continuous
370
    50
100
AcDbLine
 10
94.0443043335
 20
3.0759340152
 30
0.0
 11
75.5112384184
 21
3.0769903678
 31
0.0
  0
LINE
  5
14E
330
1F
100
AcDbEntity
  8
1
  6
Continuous
370
    50
100
AcDbLine
 10
1.0499869212
 20
-19.5000004023
 30
0.0
 11
1.0499869212
 21
19.5000004024
 31
0.0
  0
LINE
  5
14F
330
1F
100
AcDbEntity
  8
1
  6
Continuous
370
    50
100
AcDbLine
 10
153.1999937187
 20
-19.5000004023
 30
0.0
 11
153.1999937187
 21
19.5000004024
 31
0.0
  0
LINE
  5
150
330
1F
100
AcDbEntity
  8
1
  6
Continuous
370
    50
100
AcDbLine
 10
47.0258434042
 20
7.6897479593
 30
0.0
 11
46.519144319
 21
6.2080677598
 31
0.0
  0
LINE
  5
151
330
1F
100
AcDbEntity
  8
1
  6
Continuous
370
    50
100
AcDbLine
 10
46.519144319
 20
6.2080677598
 30
0.0
 11
45.9984008893
 21
4.6853218227
 31
0.0
  0
LINE
  5
152
330
1F
100
AcDbEntity
  8
1
  6
Continuous
370
    50
100
AcDbLine
 10
45.9984008893
 20
4.6853218227
 30
0.0
 11
45.4670627341
 21
3.1315831001
 31
0.0
  0
LINE
  5
153
330
1F
100
AcDbEntity
  8
1
  6
Continuous
370
    50
100
AcDbLine
 10
45.4670627341
 20
3.1315831001
 30
0.0
 11
44.9286390766
 21
1.5571289695
 31
0.0
  0
LINE
  5
154
330
1F
100
AcDbEntity
  8
1
  6
Continuous
370
    50
100
AcDbLine
 10
44.9286390766
 20
1.5571289695
 30
0.0
 11
44.3866912946
 21
-0.0276253723
 31
0.0
  0
LINE
  5
155
330
1F
100
AcDbEntity
  8
1
  6
Continuous
370
    50
100
AcDbLine
 10
44.3866912946
 20
-0.0276253723
 30
0.0
 11
43.8448031172
 21
-1.6121970257
 31
0.0
  0
LINE
  5
156
330
1F
100
AcDbEntity
  8
1
  6
Continuous
370
    50
100
AcDbLine
 10
43.8448031172
 20
-1.6121970257
 30
0.0
 11
43.3065657243
 21
-3.1861041207
 31
0.0
  0
LINE
  5
157
330
1F
100
AcDbEntity
  8
1
  6
Continuous
370
    50
100
AcDbLine
 10
43.3065657243
 20
-3.1861041207
 30
0.0
 11
43.2684187517
 21
-1.5530904057
 31
0.0
  0
LINE
  5
158
330
1F
100
AcDbEntity
  8
1
  6
Continuous
370
    50
100
AcDbLine
 10
43.2684187517
 20
-1.5530904057
 30
0.0
 11
43.2300035581
 21
0.0909787922
 31
0.0
  0
LINE
  5
159
330
1F
100
AcDbEntity
  8
1
  6
Continuous
370
    50
100
AcDbLine
 10
43.2300035581
 20
0.0909787922
 30
0.0
 11
43.1916107163
 21
1.7344004008
 31
0.0
  0
LINE
  5
15A
330
1F
100
AcDbEntity
  8
1
  6
Continuous
370
    50
100
AcDbLine
 10
43.1916107163
 20
1.7344004008
 30
0.0
 11
43.1535084471
 21
3.3654756843
 31
0.0
  0
LINE
  5
15B
330
1F
100
AcDbEntity
  8
1
  6
Continuous
370
    50
100
AcDbLine
 10
43.1535084471
 20
3.3654756843
 30
0.0
 11
43.1159575209
 21
4.9725943244
 31
0.0
  0
LINE
  5
15C
330
1F
100
AcDbEntity
  8
1
  6
Continuous
370
    50
100
AcDbLine
 10
42.0765344725
 20
5.1267654635
 30
0.0
 11
41.559747301
 21
3.5598531831
 31
0.0
  0
LINE
  5
15D
330
1F
100
AcDbEntity
  8
1
  6
Continuous
370
    50
100
AcDbLine
 10
41.559747301
 20
3.5598531831
 30
0.0
 11
41.034995459
 21
1.9687535241
 31
0.0
  0
LINE
  5
15E
330
1F
100
AcDbEntity
  8
1
  6
Continuous
370
    50
100
AcDbLine
 10
41.034995459
 20
1.9687535241
 30
0.0
 11
40.5058254227
 21
0.3642773372
 31
0.0
  0
LINE
  5
15F
330
1F
100
AcDbEntity
  8
1
  6
Continuous
370
    50
100
AcDbLine
 10
40.5058254227
 20
0.3642773372
 30
0.0
 11
39.9758358225
 21
-1.2426740723
 31
0.0
  0
LINE
  5
160
330
1F
100
AcDbEntity
  8
1
  6
Continuous
370
    50
100
AcDbLine
 10
39.9758358225
 20
-1.2426740723
 30
0.0
 11
39.9129305705
 21
0.2623597683
 31
0.0
  0
LINE
  5
161
330
1F
100
AcDbEntity
  8
1
  6
Continuous
370
    50
100
AcDbLine
 10
39.9129305705
 20
0.2623597683
 30
0.0
 11
39.8500998244
 21
1.7658297438
 31
0.0
  0
LINE
  5
162
330
1F
100
AcDbEntity
  8
1
  6
Continuous
370
    50
100
AcDbLine
 10
39.8500998244
 20
1.7658297438
 30
0.0
 11
39.7877012119
 21
3.258774057
 31
0.0
  0
LINE
  5
163
330
1F
100
AcDbEntity
  8
1
  6
Continuous
370
    50
100
AcDbLine
 10
38.7596030459
 20
3.432320198
 30
0.0
 11
38.2704798803
 21
2.1964281332
 31
0.0
  0
LINE
  5
164
330
1F
100
AcDbEntity
  8
1
  6
Continuous
370
    50
100
AcDbLine
 10
38.2704798803
 20
2.1964281332
 30
0.0
 11
37.7777878866
 21
0.9515251732
 31
0.0
  0
LINE
  5
165
330
1F
100
AcDbEntity
  8
1
  6
Continuous
370
    50
100
AcDbLine
 10
37.7777878866
 20
0.9515251732
 30
0.0
 11
37.2835536227
 21
-0.2972813381
 31
0.0
  0
LINE
  5
166
330
1F
100
AcDbEntity
  8
1
  6
Continuous
370
    50
100
AcDbLine
 10
37.2835536227
 20
-0.2972813381
 30
0.0
 11
37.2006063089
 21
0.4619458924
 31
0.0
  0
LINE
  5
167
330
1F
100
AcDbEntity
  8
1
  6
Continuous
370
    50
100
AcDbLine
 10
37.2006063089
 20
0.4619458924
 30
0.0
 11
37.1177409515
 21
1.2204728555
 31
0.0
  0
LINE
  5
168
330
1F
100
AcDbEntity
  8
1
  6
Continuous
370
    50
100
AcDbLine
 10
37.1177409515
 20
1.2204728555
 30
0.0
 11
37.0350767597
 21
1.97714963
 31
0.0
  0
LINE
  5
169
330
1F
100
AcDbEntity
  8
1
  6
Continuous
370
    50
100
AcDbLine
 10
36.0558693036
 20
2.2058393807
 30
0.0
 11
35.7009832486
 21
1.6492402647
 31
0.0
  0
LINE
  5
16A
330
1F
100
AcDbEntity
  8
1
  6
Continuous
370
    50
100
AcDbLine
 10
35.7009832486
 20
1.6492402647
 30
0.0
 11
35.3452329263
 21
1.0912842118
 31
0.0
  0
LINE
  5
16B
330
1F
100
AcDbEntity
  8
1
  6
Continuous
370
    50
100
AcDbLine
 10
35.3452329263
 20
1.0912842118
 30
0.0
 11
34.9889163598
 21
0.5324303057
 31
0.0
  0
LINE
  5
16C
330
1F
100
AcDbEntity
  8
1
  6
Continuous
370
    50
100
AcDbLine
 10
34.9889163598
 20
0.5324303057
 30
0.0
 11
25.8644138202
 21
0.5329503911
 31
0.0
  0
LINE
  5
16D
330
1F
100
AcDbEntity
  8
1
  6
Continuous
370
    50
100
AcDbLine
 10
25.8643542155
 20
-0.5331638386
 30
0.0
 11
35.2809791192
 21
-0.5337005714
 31
0.0
  0
LINE
  5
16E
330
1F
100
AcDbEntity
  8
1
  6
Continuous
370
    50
100
AcDbLine
 10
35.7308079227
 20
-0.2873558843
 30
0.0
 11
35.9354679212
 21
0.0338276004
 31
0.0
  0
LINE
  5
16F
330
1F
100
AcDbEntity
  8
1
  6
Continuous
370
    50
100
AcDbLine
 10
35.9354679212
 20
0.0338276004
 30
0.0
 11
36.140120469
 21
0.3550019173
 31
0.0
  0
LINE
  5
170
330
1F
100
AcDbEntity
  8
1
  6
Continuous
370
    50
100
AcDbLine
 10
36.140120469
 20
0.3550019173
 30
0.0
 11
36.2462390885
 21
-0.6167232059
 31
0.0
  0
LINE
  5
171
330
1F
100
AcDbEntity
  8
1
  6
Continuous
370
    50
100
AcDbLine
 10
36.2462390885
 20
-0.6167232059
 30
0.0
 11
36.3521937951
 21
-1.5869167401
 31
0.0
  0
LINE
  5
172
330
1F
100
AcDbEntity
  8
1
  6
Continuous
370
    50
100
AcDbLine
 10
36.3521937951
 20
-1.5869167401
 30
0.0
 11
36.4577163681
 21
-2.5531696156
 31
0.0
  0
LINE
  5
173
330
1F
100
AcDbEntity
  8
1
  6
Continuous
370
    50
100
AcDbLine
 10
37.4834303483
 20
-2.6912430767
 30
0.0
 11
37.9297424778
 21
-1.5628453111
 31
0.0
  0
LINE
  5
174
330
1F
100
AcDbEntity
  8
1
  6
Continuous
370
    50
100
AcDbLine
 10
37.9297424778
 20
-1.5628453111
 30
0.0
 11
38.3781407699
 21
-0.4291511722
 31
0.0
  0
LINE
  5
175
330
1F
100
AcDbEntity
  8
1
  6
Continuous
370
    50
100
AcDbLine
 10
38.3781407699
 20
-0.4291511722
 30
0.0
 11
38.8271127567
 21
0.7059972268
 31
0.0
  0
LINE
  5
176
330
1F
100
AcDbEntity
  8
1
  6
Continuous
370
    50
100
AcDbLine
 10
38.8271127567
 20
0.7059972268
 30
0.0
 11
38.8963286504
 21
-0.9435695828
 31
0.0
  0
LINE
  5
177
330
1F
100
AcDbEntity
  8
1
  6
Continuous
370
    50
100
AcDbLine
 10
38.8963286504
 20
-0.9435695828
 30
0.0
 11
38.9652539715
 21
-2.5863838382
 31
0.0
  0
LINE
  5
178
330
1F
100
AcDbEntity
  8
1
  6
Continuous
370
    50
100
AcDbLine
 10
38.9652539715
 20
-2.5863838382
 30
0.0
 11
39.0334118828
 21
-4.2106895707
 31
0.0
  0
LINE
  5
179
330
1F
100
AcDbEntity
  8
1
  6
Continuous
370
    50
100
AcDbLine
 10
40.0722388848
 20
-4.3553216383
 30
0.0
 11
40.579079531
 21
-2.818584675
 31
0.0
  0
LINE
  5
17A
330
1F
100
AcDbEntity
  8
1
  6
Continuous
370
    50
100
AcDbLine
 10
40.579079531
 20
-2.818584675
 30
0.0
 11
41.0918955429
 21
-1.263728831
 31
0.0
  0
LINE
  5
17B
330
1F
100
AcDbEntity
  8
1
  6
Continuous
370
    50
100
AcDbLine
 10
41.0918955429
 20
-1.263728831
 30
0.0
 11
41.6073937639
 21
0.2992509107
 31
0.0
  0
LINE
  5
17C
330
1F
100
AcDbEntity
  8
1
  6
Continuous
370
    50
100
AcDbLine
 10
41.6073937639
 20
0.2992509107
 30
0.0
 11
42.1222512348
 21
1.8603069474
 31
0.0
  0
LINE
  5
17D
330
1F
100
AcDbEntity
  8
1
  6
Continuous
370
    50
100
AcDbLine
 10
42.1222512348
 20
1.8603069474
 30
0.0
 11
42.1602342947
 21
0.2284726069
 31
0.0
  0
LINE
  5
17E
330
1F
100
AcDbEntity
  8
1
  6
Continuous
370
    50
100
AcDbLine
 10
42.1602342947
 20
0.2284726069
 30
0.0
 11
42.1982546075
 21
-1.4049663442
 31
0.0
  0
LINE
  5
17F
330
1F
100
AcDbEntity
  8
1
  6
Continuous
370
    50
100
AcDbLine
 10
42.1982546075
 20
-1.4049663442
 30
0.0
 11
42.2360514029
 21
-3.0285380781
 31
0.0
  0
LINE
  5
180
330
1F
100
AcDbEntity
  8
1
  6
Continuous
370
    50
100
AcDbLine
 10
42.2360514029
 20
-3.0285380781
 30
0.0
 11
42.2733490093
 21
-4.6308399179
 31
0.0
  0
LINE
  5
181
330
1F
100
AcDbEntity
  8
1
  6
Continuous
370
    50
100
AcDbLine
 10
42.2733490093
 20
-4.6308399179
 30
0.0
 11
42.3098866566
 21
-6.2006181107
 31
0.0
  0
LINE
  5
182
330
1F
100
AcDbEntity
  8
1
  6
Continuous
370
    50
100
AcDbLine
 10
43.3475215658
 20
-6.3607511111
 30
0.0
 11
43.9217303619
 21
-4.6819285489
 31
0.0
  0
LINE
  5
183
330
1F
100
AcDbEntity
  8
1
  6
Continuous
370
    50
100
AcDbLine
 10
43.9217303619
 20
-4.6819285489
 30
0.0
 11
44.5088510141
 21
-2.9653718229
 31
0.0
  0
LINE
  5
184
330
1F
100
AcDbEntity
  8
1
  6
Continuous
370
    50
100
AcDbLine
 10
44.5088510141
 20
-2.9653718229
 30
0.0
 11
45.1041449532
 21
-1.2249156134
 31
0.0
  0
LINE
  5
185
330
1F
100
AcDbEntity
  8
1
  6
Continuous
370
    50
100
AcDbLine
 10
45.1041449532
 20
-1.2249156134
 30
0.0
 11
45.7028065547
 21
0.5254128483
 31
0.0
  0
LINE
  5
186
330
1F
100
AcDbEntity
  8
1
  6
Continuous
370
    50
100
AcDbLine
 10
45.7028065547
 20
0.5254128483
 30
0.0
 11
46.3000301942
 21
2.2715067026
 31
0.0
  0
LINE
  5
187
330
1F
100
AcDbEntity
  8
1
  6
Continuous
370
    50
100
AcDbLine
 10
46.3000301942
 20
2.2715067026
 30
0.0
 11
46.8909878954
 21
3.9992933162
 31
0.0
  0
LINE
  5
188
330
1F
100
AcDbEntity
  8
1
  6
Continuous
370
    50
100
AcDbLine
 10
46.8909878954
 20
3.9992933162
 30
0.0
 11
47.4709187373
 21
5.694847554
 31
0.0
  0
LINE
  5
189
330
1F
100
AcDbEntity
  8
1
  6
Continuous
370
    50
100
AcDbLine
 10
47.4709187373
 20
5.694847554
 30
0.0
 11
48.0351512059
 21
7.3445038871
 31
0.0
  0
LINE
  5
18A
330
1F
100
AcDbEntity
  8
1
  6
Continuous
370
    50
100
AcDbLine
 10
46.7403744087
 20
-1.0130841984
 30
0.0
 11
46.6929738149
 21
-1.1813525343
 31
0.0
  0
LINE
  5
18B
330
1F
100
AcDbEntity
  8
1
  6
Continuous
370
    50
100
AcDbLine
 10
50.892784141
 20
-5.6260945275
 30
0.0
 11
68.5333748087
 21
-5.6270998903
 31
0.0
  0
LINE
  5
18C
330
1F
100
AcDbEntity
  8
1
  6
Continuous
370
    50
100
AcDbLine
 10
68.5333748087
 20
-5.6270998903
 30
0.0
 11
69.0017332062
 21
-3.9216591977
 31
0.0
  0
LINE
  5
18D
330
1F
100
AcDbEntity
  8
1
  6
Continuous
370
    50
100
AcDbLine
 10
69.0017332062
 20
-3.9216591977
 30
0.0
 11
69.4788534865
 21
-2.1843046416
 31
0.0
  0
LINE
  5
18E
330
1F
100
AcDbEntity
  8
1
  6
Continuous
370
    50
100
AcDbLine
 10
69.4788534865
 20
-2.1843046416
 30
0.0
 11
69.960853897
 21
-0.4291744845
 31
0.0
  0
LINE
  5
18F
330
1F
100
AcDbEntity
  8
1
  6
Continuous
370
    50
100
AcDbLine
 10
69.960853897
 20
-0.4291744845
 30
0.0
 11
70.4438079819
 21
1.329448074
 31
0.0
  0
LINE
  5
190
330
1F
100
AcDbEntity
  8
1
  6
Continuous
370
    50
100
AcDbLine
 10
70.4438079819
 20
1.329448074
 30
0.0
 11
70.9237967357
 21
3.0772518366
 31
0.0
  0
LINE
  5
191
330
1F
100
AcDbEntity
  8
1
  6
Continuous
370
    50
100
AcDbLine
 10
70.9237967357
 20
3.0772518366
 30
0.0
 11
52.9334013089
 21
3.0782772228
 31
0.0
  0
LINE
  5
192
330
1F
100
AcDbEntity
  8
1
  6
Continuous
370
    50
100
AcDbLine
 10
55.1139478311
 20
5.2432520316
 30
0.0
 11
53.7464161143
 21
5.2432520316
 31
0.0
  0
LINE
  5
193
330
1F
100
AcDbEntity
  8
1
  6
Continuous
370
    50
100
AcDbLine
 10
53.7464161143
 20
5.2432520316
 30
0.0
 11
53.7445162162
 21
5.1682274789
 31
0.0
  0
LINE
  5
194
330
1F
100
AcDbEntity
  8
1
  6
Continuous
370
    50
100
AcDbLine
 10
53.7768070325
 20
5.5167586543
 30
0.0
 11
54.0807013139
 21
5.4863686674
 31
0.0
  0
LINE
  5
195
330
1F
100
AcDbEntity
  8
1
  6
Continuous
370
    50
100
AcDbLine
 10
63.5748346075
 20
5.1506441087
 30
0.0
 11
63.5553662404
 21
4.9079763703
 31
0.0
  0
LINE
  5
196
330
1F
100
AcDbEntity
  8
1
  6
Continuous
370
    50
100
AcDbLine
 10
63.5553662404
 20
4.9079763703
 30
0.0
 11
63.5084871873
 21
4.7554336489
 31
0.0
  0
LINE
  5
197
330
1F
100
AcDbEntity
  8
1
  6
Continuous
370
    50
100
AcDbLine
 10
63.5084871873
 20
4.7554336489
 30
0.0
 11
63.4392712936
 21
4.658468999
 31
0.0
  0
LINE
  5
198
330
1F
100
AcDbEntity
  8
1
  6
Continuous
370
    50
100
AcDbLine
 10
63.4392712936
 20
4.658468999
 30
0.0
 11
63.3413408622
 21
4.589102231
 31
0.0
  0
LINE
  5
199
330
1F
100
AcDbEntity
  8
1
  6
Continuous
370
    50
100
AcDbLine
 10
63.3413408622
 20
4.589102231
 30
0.0
 11
63.2184584364
 21
4.5506753959
 31
0.0
  0
LINE
  5
19A
330
1F
100
AcDbEntity
  8
1
  6
Continuous
370
    50
100
AcDbLine
 10
63.2184584364
 20
4.5506753959
 30
0.0
 11
63.1270621642
 21
4.5438017697
 31
0.0
  0
LINE
  5
19B
330
1F
100
AcDbEntity
  8
1
  6
Continuous
370
    50
100
AcDbLine
 10
62.8150989041
 20
4.9279453233
 30
0.0
 11
62.8150989041
 21
6.0328925029
 31
0.0
  0
LINE
  5
19C
330
1F
100
AcDbEntity
  8
1
  6
Continuous
370
    50
100
AcDbLine
 10
62.8150989041
 20
6.0328925029
 30
0.0
 11
62.5111971721
 21
6.0328925029
 31
0.0
  0
LINE
  5
19D
330
1F
100
AcDbEntity
  8
1
  6
Continuous
370
    50
100
AcDbLine
 10
62.5111971721
 20
6.0328925029
 30
0.0
 11
62.5111971721
 21
5.0447555259
 31
0.0
  0
LINE
  5
19E
330
1F
100
AcDbEntity
  8
1
  6
Continuous
370
    50
100
AcDbLine
 10
62.0672245248
 20
4.5438017696
 30
0.0
 11
61.9560916647
 21
4.5600067825
 31
0.0
  0
LINE
  5
19F
330
1F
100
AcDbEntity
  8
1
  6
Continuous
370
    50
100
AcDbLine
 10
61.9560916647
 20
4.5600067825
 30
0.0
 11
61.8681971654
 21
4.6025007032
 31
0.0
  0
LINE
  5
1A0
330
1F
100
AcDbEntity
  8
1
  6
Continuous
370
    50
100
AcDbLine
 10
61.8681971654
 20
4.6025007032
 30
0.0
 11
61.8012984022
 21
4.6731624753
 31
0.0
  0
LINE
  5
1A1
330
1F
100
AcDbEntity
  8
1
  6
Continuous
370
    50
100
AcDbLine
 10
61.8012984022
 20
4.6731624753
 30
0.0
 11
61.7697600946
 21
4.7504440882
 31
0.0
  0
LINE
  5
1A2
330
1F
100
AcDbEntity
  8
1
  6
Continuous
370
    50
100
AcDbLine
 10
61.7697600946
 20
4.7504440882
 30
0.0
 11
61.7514614686
 21
4.9616587349
 31
0.0
  0
LINE
  5
1A3
330
1F
100
AcDbEntity
  8
1
  6
Continuous
370
    50
100
AcDbLine
 10
61.7514614686
 20
4.9616587349
 30
0.0
 11
61.7514614686
 21
6.0328925029
 31
0.0
  0
LINE
  5
1A4
330
1F
100
AcDbEntity
  8
1
  6
Continuous
370
    50
100
AcDbLine
 10
61.7514614686
 20
6.0328925029
 30
0.0
 11
61.4475597367
 21
6.0328925029
 31
0.0
  0
LINE
  5
1A5
330
1F
100
AcDbEntity
  8
1
  6
Continuous
370
    50
100
AcDbLine
 10
61.4475597367
 20
6.0328925029
 30
0.0
 11
61.4475597367
 21
4.8700151965
 31
0.0
  0
LINE
  5
1A6
330
1F
100
AcDbEntity
  8
1
  6
Continuous
370
    50
100
AcDbLine
 10
63.6052255258
 20
4.5708674007
 30
0.0
 11
63.6052255258
 21
4.3310746551
 31
0.0
  0
LINE
  5
1A7
330
1F
100
AcDbEntity
  8
1
  6
Continuous
370
    50
100
AcDbLine
 10
63.6052255258
 20
4.3310746551
 30
0.0
 11
63.8787288889
 21
4.3310746551
 31
0.0
  0
LINE
  5
1A8
330
1F
100
AcDbEntity
  8
1
  6
Continuous
370
    50
100
AcDbLine
 10
63.8787288889
 20
4.3310746551
 30
0.0
 11
63.8787288889
 21
6.0328925029
 31
0.0
  0
LINE
  5
1A9
330
1F
100
AcDbEntity
  8
1
  6
Continuous
370
    50
100
AcDbLine
 10
63.8787288889
 20
6.0328925029
 30
0.0
 11
63.5748346075
 21
6.0328925029
 31
0.0
  0
LINE
  5
1AA
330
1F
100
AcDbEntity
  8
1
  6
Continuous
370
    50
100
AcDbLine
 10
63.5748346075
 20
6.0328925029
 30
0.0
 11
63.5748346075
 21
5.1506441087
 31
0.0
  0
LINE
  5
1AB
330
1F
100
AcDbEntity
  8
1
  6
Continuous
370
    50
100
AcDbLine
 10
70.0907845721
 20
3.6924572196
 30
0.0
 11
70.4250772222
 21
3.6924572196
 31
0.0
  0
LINE
  5
1AC
330
1F
100
AcDbEntity
  8
1
  6
Continuous
370
    50
100
AcDbLine
 10
70.4250772222
 20
3.6924572196
 30
0.0
 11
70.4250772222
 21
4.5400424861
 31
0.0
  0
LINE
  5
1AD
330
1F
100
AcDbEntity
  8
1
  6
Continuous
370
    50
100
AcDbLine
 10
70.394686304
 20
5.804060027
 30
0.0
 11
70.394686304
 21
6.0324571096
 31
0.0
  0
LINE
  5
1AE
330
1F
100
AcDbEntity
  8
1
  6
Continuous
370
    50
100
AcDbLine
 10
70.394686304
 20
6.0324571096
 30
0.0
 11
70.0907845721
 21
6.0324571096
 31
0.0
  0
LINE
  5
1AF
330
1F
100
AcDbEntity
  8
1
  6
Continuous
370
    50
100
AcDbLine
 10
70.0907845721
 20
6.0324571096
 30
0.0
 11
70.0907845721
 21
3.6924572196
 31
0.0
  0
LINE
  5
1B0
330
1F
100
AcDbEntity
  8
1
  6
Continuous
370
    50
100
AcDbLine
 10
79.4544581994
 20
4.6340324916
 30
0.0
 11
79.3632854447
 21
4.3909153901
 31
0.0
  0
LINE
  5
1B1
330
1F
100
AcDbEntity
  8
1
  6
Continuous
370
    50
100
AcDbLine
 10
80.0318558439
 20
4.6017435379
 30
0.0
 11
80.0318558439
 21
4.3301363475
 31
0.0
  0
LINE
  5
1B2
330
1F
100
AcDbEntity
  8
1
  6
Continuous
370
    50
100
AcDbLine
 10
80.0318558439
 20
4.3301363475
 30
0.0
 11
80.3357575758
 21
4.3301363475
 31
0.0
  0
LINE
  5
1B3
330
1F
100
AcDbEntity
  8
1
  6
Continuous
370
    50
100
AcDbLine
 10
80.3357575758
 20
4.3301363475
 30
0.0
 11
80.3357575758
 21
6.031954661
 31
0.0
  0
LINE
  5
1B4
330
1F
100
AcDbEntity
  8
1
  6
Continuous
370
    50
100
AcDbLine
 10
80.3357575758
 20
6.031954661
 30
0.0
 11
80.0318558439
 21
6.031954661
 31
0.0
  0
LINE
  5
1B5
330
1F
100
AcDbEntity
  8
1
  6
Continuous
370
    50
100
AcDbLine
 10
80.0318558439
 20
6.031954661
 30
0.0
 11
80.0318558439
 21
5.1497062668
 31
0.0
  0
LINE
  5
1B6
330
1F
100
AcDbEntity
  8
1
  6
Continuous
370
    50
100
AcDbLine
 10
88.6143062934
 20
5.1492168569
 30
0.0
 11
88.5948379263
 21
4.9065439962
 31
0.0
  0
LINE
  5
1B7
330
1F
100
AcDbEntity
  8
1
  6
Continuous
370
    50
100
AcDbLine
 10
88.5948379263
 20
4.9065439962
 30
0.0
 11
88.5479588732
 21
4.7540082597
 31
0.0
  0
LINE
  5
1B8
330
1F
100
AcDbEntity
  8
1
  6
Continuous
370
    50
100
AcDbLine
 10
88.5479588732
 20
4.7540082597
 30
0.0
 11
88.4787429795
 21
4.6570440755
 31
0.0
  0
LINE
  5
1B9
330
1F
100
AcDbEntity
  8
1
  6
Continuous
370
    50
100
AcDbLine
 10
88.4787429795
 20
4.6570440755
 30
0.0
 11
88.3808125481
 21
4.5876773075
 31
0.0
  0
LINE
  5
1BA
330
1F
100
AcDbEntity
  8
1
  6
Continuous
370
    50
100
AcDbLine
 10
88.3808125481
 20
4.5876773075
 30
0.0
 11
88.2579301223
 21
4.5492490754
 31
0.0
  0
LINE
  5
1BB
330
1F
100
AcDbEntity
  8
1
  6
Continuous
370
    50
100
AcDbLine
 10
88.2579301223
 20
4.5492490754
 30
0.0
 11
88.1665338501
 21
4.5423745178
 31
0.0
  0
LINE
  5
1BC
330
1F
100
AcDbEntity
  8
1
  6
Continuous
370
    50
100
AcDbLine
 10
87.8545631394
 20
4.9265180715
 30
0.0
 11
87.8545631394
 21
6.031465251
 31
0.0
  0
LINE
  5
1BD
330
1F
100
AcDbEntity
  8
1
  6
Continuous
370
    50
100
AcDbLine
 10
87.8545631394
 20
6.031465251
 30
0.0
 11
87.550668858
 21
6.031465251
 31
0.0
  0
LINE
  5
1BE
330
1F
100
AcDbEntity
  8
1
  6
Continuous
370
    50
100
AcDbLine
 10
87.550668858
 20
6.031465251
 30
0.0
 11
87.550668858
 21
5.0433282741
 31
0.0
  0
LINE
  5
1BF
330
1F
100
AcDbEntity
  8
1
  6
Continuous
370
    50
100
AcDbLine
 10
87.1066962108
 20
4.5423745177
 30
0.0
 11
86.9955559
 21
4.5585795306
 31
0.0
  0
LINE
  5
1C0
330
1F
100
AcDbEntity
  8
1
  6
Continuous
370
    50
100
AcDbLine
 10
86.9955559
 20
4.5585795306
 30
0.0
 11
86.9076688513
 21
4.6010734514
 31
0.0
  0
LINE
  5
1C1
330
1F
100
AcDbEntity
  8
1
  6
Continuous
370
    50
100
AcDbLine
 10
86.9076688513
 20
4.6010734514
 30
0.0
 11
86.8407700881
 21
4.6717356891
 31
0.0
  0
LINE
  5
1C2
330
1F
100
AcDbEntity
  8
1
  6
Continuous
370
    50
100
AcDbLine
 10
86.8407700881
 20
4.6717356891
 30
0.0
 11
86.8092317805
 21
4.7490182333
 31
0.0
  0
LINE
  5
1C3
330
1F
100
AcDbEntity
  8
1
  6
Continuous
370
    50
100
AcDbLine
 10
86.8092317805
 20
4.7490182333
 30
0.0
 11
86.7909257039
 21
4.960231483
 31
0.0
  0
LINE
  5
1C4
330
1F
100
AcDbEntity
  8
1
  6
Continuous
370
    50
100
AcDbLine
 10
86.7909257039
 20
4.960231483
 30
0.0
 11
86.7909257039
 21
6.031465251
 31
0.0
  0
LINE
  5
1C5
330
1F
100
AcDbEntity
  8
1
  6
Continuous
370
    50
100
AcDbLine
 10
86.7909257039
 20
6.031465251
 30
0.0
 11
86.4870314225
 21
6.031465251
 31
0.0
  0
LINE
  5
1C6
330
1F
100
AcDbEntity
  8
1
  6
Continuous
370
    50
100
AcDbLine
 10
86.4870314225
 20
6.031465251
 30
0.0
 11
86.4870314225
 21
4.8685879447
 31
0.0
  0
LINE
  5
1C7
330
1F
100
AcDbEntity
  8
1
  6
Continuous
370
    50
100
AcDbLine
 10
88.6446972116
 20
4.5694401488
 30
0.0
 11
88.6446972116
 21
4.3296474032
 31
0.0
  0
LINE
  5
1C8
330
1F
100
AcDbEntity
  8
1
  6
Continuous
370
    50
100
AcDbLine
 10
88.6446972116
 20
4.3296474032
 30
0.0
 11
88.9182005747
 21
4.3296474032
 31
0.0
  0
LINE
  5
1C9
330
1F
100
AcDbEntity
  8
1
  6
Continuous
370
    50
100
AcDbLine
 10
88.9182005747
 20
4.3296474032
 30
0.0
 11
88.9182005747
 21
6.031465251
 31
0.0
  0
LINE
  5
1CA
330
1F
100
AcDbEntity
  8
1
  6
Continuous
370
    50
100
AcDbLine
 10
88.9182005747
 20
6.031465251
 30
0.0
 11
88.6143062934
 21
6.031465251
 31
0.0
  0
LINE
  5
1CB
330
1F
100
AcDbEntity
  8
1
  6
Continuous
370
    50
100
AcDbLine
 10
88.6143062934
 20
6.031465251
 30
0.0
 11
88.6143062934
 21
5.1492168569
 31
0.0
  0
LINE
  5
1CC
330
1F
100
AcDbEntity
  8
1
  6
Continuous
370
    50
100
AcDbLine
 10
48.4492917284
 20
-1.5331973555
 30
0.0
 11
48.4969903454
 21
-1.3644818683
 31
0.0
  0
LINE
  5
1CD
330
1F
100
AcDbEntity
  8
1
  6
Continuous
370
    50
100
AcDbLine
 10
52.7845536098
 20
1.2590504484
 30
0.0
 11
68.5716260895
 21
1.258150558
 31
0.0
  0
LINE
  5
1CE
330
1F
100
AcDbEntity
  8
1
  6
Continuous
370
    50
100
AcDbLine
 10
68.5716260895
 20
1.258150558
 30
0.0
 11
68.105718933
 21
-0.4379821766
 31
0.0
  0
LINE
  5
1CF
330
1F
100
AcDbEntity
  8
1
  6
Continuous
370
    50
100
AcDbLine
 10
68.105718933
 20
-0.4379821766
 30
0.0
 11
67.640728198
 21
-2.1307999268
 31
0.0
  0
LINE
  5
1D0
330
1F
100
AcDbEntity
  8
1
  6
Continuous
370
    50
100
AcDbLine
 10
67.640728198
 20
-2.1307999268
 30
0.0
 11
67.1801556572
 21
-3.8074892945
 31
0.0
  0
LINE
  5
1D1
330
1F
100
AcDbEntity
  8
1
  6
Continuous
370
    50
100
AcDbLine
 10
67.1801556572
 20
-3.8074892945
 30
0.0
 11
51.0416392907
 21
-3.8065693807
 31
0.0
  0
LINE
  5
1D2
330
1F
100
AcDbEntity
  8
1
  6
Continuous
370
    50
100
AcDbLine
 10
153.2999937162
 20
-19.4000005722
 30
0.0
 11
153.2999937162
 21
19.4000005722
 31
0.0
  0
LINE
  5
1D3
330
1F
100
AcDbEntity
  8
1
  6
Continuous
370
    50
100
AcDbLine
 10
0.0
 20
-18.4500004426
 30
0.0
 11
0.0
 21
18.4500004426
 31
0.0
  0
LINE
  5
1D4
330
1F
100
AcDbEntity
  8
1
  6
Continuous
370
    50
100
AcDbLine
 10
58.8481862768
 20
5.1969750785
 30
0.0
 11
58.782472156
 21
4.8432373442
 31
0.0
  0
LINE
  5
1D5
330
1F
100
AcDbEntity
  8
1
  6
Continuous
370
    50
100
AcDbLine
 10
58.782472156
 20
4.8432373442
 30
0.0
 11
58.6798106059
 21
4.6933433041
 31
0.0
  0
LINE
  5
1D6
330
1F
100
AcDbEntity
  8
1
  6
Continuous
370
    50
100
AcDbLine
 10
58.6798106059
 20
4.6933433041
 30
0.0
 11
58.5334364995
 21
4.5838095248
 31
0.0
  0
LINE
  5
1D7
330
1F
100
AcDbEntity
  8
1
  6
Continuous
370
    50
100
AcDbLine
 10
58.5334364995
 20
4.5838095248
 30
0.0
 11
58.3949227557
 21
4.5458427631
 31
0.0
  0
LINE
  5
1D8
330
1F
100
AcDbEntity
  8
1
  6
Continuous
370
    50
100
AcDbLine
 10
58.3949227557
 20
4.5458427631
 30
0.0
 11
58.3614770994
 21
4.5440732502
 31
0.0
  0
LINE
  5
1D9
330
1F
100
AcDbEntity
  8
1
  6
Continuous
370
    50
100
AcDbLine
 10
71.3367600664
 20
5.1829726436
 30
0.0
 11
71.2949623093
 21
4.8703826033
 31
0.0
  0
LINE
  5
1DA
330
1F
100
AcDbEntity
  8
1
  6
Continuous
370
    50
100
AcDbLine
 10
71.2949623093
 20
4.8703826033
 30
0.0
 11
71.2207023725
 21
4.7220811248
 31
0.0
  0
LINE
  5
1DB
330
1F
100
AcDbEntity
  8
1
  6
Continuous
370
    50
100
AcDbLine
 10
71.2207023725
 20
4.7220811248
 30
0.0
 11
71.0974697694
 21
4.6069961973
 31
0.0
  0
LINE
  5
1DC
330
1F
100
AcDbEntity
  8
1
  6
Continuous
370
    50
100
AcDbLine
 10
71.0974697694
 20
4.6069961973
 30
0.0
 11
70.9783722386
 21
4.5553101227
 31
0.0
  0
LINE
  5
1DD
330
1F
100
AcDbEntity
  8
1
  6
Continuous
370
    50
100
AcDbLine
 10
70.9783722386
 20
4.5553101227
 30
0.0
 11
70.8775956854
 21
4.5433663764
 31
0.0
  0
LINE
  5
1DE
330
1F
100
AcDbEntity
  8
1
  6
Continuous
370
    50
100
AcDbLine
 10
70.8775956854
 20
4.5433663764
 30
0.0
 11
70.7168568596
 21
4.570176825
 31
0.0
  0
LINE
  5
1DF
330
1F
100
AcDbEntity
  8
1
  6
Continuous
370
    50
100
AcDbLine
 10
70.7168568596
 20
4.570176825
 30
0.0
 11
70.5763240084
 21
4.652815871
 31
0.0
  0
LINE
  5
1E0
330
1F
100
AcDbEntity
  8
1
  6
Continuous
370
    50
100
AcDbLine
 10
70.5763240084
 20
4.652815871
 30
0.0
 11
70.4823870882
 21
4.7629047186
 31
0.0
  0
LINE
  5
1E1
330
1F
100
AcDbEntity
  8
1
  6
Continuous
370
    50
100
AcDbLine
 10
70.4823870882
 20
4.7629047186
 30
0.0
 11
70.4119418487
 21
4.946674686
 31
0.0
  0
LINE
  5
1E2
330
1F
100
AcDbEntity
  8
1
  6
Continuous
370
    50
100
AcDbLine
 10
70.4119418487
 20
4.946674686
 30
0.0
 11
70.3856636509
 21
5.2143116481
 31
0.0
  0
LINE
  5
1E3
330
1F
100
AcDbEntity
  8
1
  6
Continuous
370
    50
100
AcDbLine
 10
54.0503103957
 20
5.00013493
 30
0.0
 11
55.094479464
 21
5.00013493
 31
0.0
  0
LINE
  5
1E4
330
1F
100
AcDbEntity
  8
1
  6
Continuous
370
    50
100
AcDbLine
 10
82.9403538927
 20
5.1808278077
 30
0.0
 11
82.9403538927
 21
5.2819680423
 31
0.0
  0
LINE
  5
1E5
330
1F
100
AcDbEntity
  8
1
  6
Continuous
370
    50
100
AcDbLine
 10
82.9403538927
 20
5.2819680423
 30
0.0
 11
82.963443242
 21
5.4816827178
 31
0.0
  0
LINE
  5
1E6
330
1F
100
AcDbEntity
  8
1
  6
Continuous
370
    50
100
AcDbLine
 10
82.963443242
 20
5.4816827178
 30
0.0
 11
83.0183838233
 21
5.6004906074
 31
0.0
  0
LINE
  5
1E7
330
1F
100
AcDbEntity
  8
1
  6
Continuous
370
    50
100
AcDbLine
 10
83.0183838233
 20
5.6004906074
 30
0.0
 11
83.1117395982
 21
5.6943725795
 31
0.0
  0
LINE
  5
1E8
330
1F
100
AcDbEntity
  8
1
  6
Continuous
370
    50
100
AcDbLine
 10
83.1117395982
 20
5.6943725795
 30
0.0
 11
83.2883183584
 21
5.7827541605
 31
0.0
  0
LINE
  5
1E9
330
1F
100
AcDbEntity
  8
1
  6
Continuous
370
    50
100
AcDbLine
 10
83.2883183584
 20
5.7827541605
 30
0.0
 11
83.4898416623
 21
5.8178654872
 31
0.0
  0
LINE
  5
1EA
330
1F
100
AcDbEntity
  8
1
  6
Continuous
370
    50
100
AcDbLine
 10
83.4898416623
 20
5.8178654872
 30
0.0
 11
83.5296277627
 21
5.819009617
 31
0.0
  0
LINE
  5
1EB
330
1F
100
AcDbEntity
  8
1
  6
Continuous
370
    50
100
AcDbLine
 10
83.5296277627
 20
5.819009617
 30
0.0
 11
83.7165628299
 21
5.7947230526
 31
0.0
  0
LINE
  5
1EC
330
1F
100
AcDbEntity
  8
1
  6
Continuous
370
    50
100
AcDbLine
 10
83.7165628299
 20
5.7947230526
 30
0.0
 11
83.8006351814
 21
5.7576084509
 31
0.0
  0
LINE
  5
1ED
330
1F
100
AcDbEntity
  8
1
  6
Continuous
370
    50
100
AcDbLine
 10
83.8006351814
 20
5.7576084509
 30
0.0
 11
83.869798921
 21
5.6982031092
 31
0.0
  0
LINE
  5
1EE
330
1F
100
AcDbEntity
  8
1
  6
Continuous
370
    50
100
AcDbLine
 10
83.869798921
 20
5.6982031092
 30
0.0
 11
83.902611278
 21
5.6382799522
 31
0.0
  0
LINE
  5
1EF
330
1F
100
AcDbEntity
  8
1
  6
Continuous
370
    50
100
AcDbLine
 10
83.902611278
 20
5.6382799522
 30
0.0
 11
83.912826024
 21
5.5711441674
 31
0.0
  0
LINE
  5
1F0
330
1F
100
AcDbEntity
  8
1
  6
Continuous
370
    50
100
AcDbLine
 10
83.912826024
 20
5.5711441674
 30
0.0
 11
83.8939984068
 21
5.4836217314
 31
0.0
  0
LINE
  5
1F1
330
1F
100
AcDbEntity
  8
1
  6
Continuous
370
    50
100
AcDbLine
 10
83.8939984068
 20
5.4836217314
 30
0.0
 11
83.8462923393
 21
5.418532528
 31
0.0
  0
LINE
  5
1F2
330
1F
100
AcDbEntity
  8
1
  6
Continuous
370
    50
100
AcDbLine
 10
83.8462923393
 20
5.418532528
 30
0.0
 11
83.7838415727
 21
5.3742094897
 31
0.0
  0
LINE
  5
1F3
330
1F
100
AcDbEntity
  8
1
  6
Continuous
370
    50
100
AcDbLine
 10
83.7838415727
 20
5.3742094897
 30
0.0
 11
83.6606983766
 21
5.3334715777
 31
0.0
  0
LINE
  5
1F4
330
1F
100
AcDbEntity
  8
1
  6
Continuous
370
    50
100
AcDbLine
 10
83.6606983766
 20
5.3334715777
 30
0.0
 11
83.4622000083
 21
5.3023863584
 31
0.0
  0
LINE
  5
1F5
330
1F
100
AcDbEntity
  8
1
  6
Continuous
370
    50
100
AcDbLine
 10
66.4833326563
 20
5.1817656495
 30
0.0
 11
66.4833326563
 21
5.2829063498
 31
0.0
  0
LINE
  5
1F6
330
1F
100
AcDbEntity
  8
1
  6
Continuous
370
    50
100
AcDbLine
 10
66.4833326563
 20
5.2829063498
 30
0.0
 11
66.506414555
 21
5.482620094
 31
0.0
  0
LINE
  5
1F7
330
1F
100
AcDbEntity
  8
1
  6
Continuous
370
    50
100
AcDbLine
 10
66.506414555
 20
5.482620094
 30
0.0
 11
66.5613625869
 21
5.6014284492
 31
0.0
  0
LINE
  5
1F8
330
1F
100
AcDbEntity
  8
1
  6
Continuous
370
    50
100
AcDbLine
 10
66.5613625869
 20
5.6014284492
 30
0.0
 11
66.6547183618
 21
5.6953118183
 31
0.0
  0
LINE
  5
1F9
330
1F
100
AcDbEntity
  8
1
  6
Continuous
370
    50
100
AcDbLine
 10
66.6547183618
 20
5.6953118183
 30
0.0
 11
66.8312971219
 21
5.783692468
 31
0.0
  0
LINE
  5
1FA
330
1F
100
AcDbEntity
  8
1
  6
Continuous
370
    50
100
AcDbLine
 10
66.8312971219
 20
5.783692468
 30
0.0
 11
67.0328204259
 21
5.8188037947
 31
0.0
  0
LINE
  5
1FB
330
1F
100
AcDbEntity
  8
1
  6
Continuous
370
    50
100
AcDbLine
 10
67.0328204259
 20
5.8188037947
 30
0.0
 11
67.0726065263
 21
5.8199474588
 31
0.0
  0
LINE
  5
1FC
330
1F
100
AcDbEntity
  8
1
  6
Continuous
370
    50
100
AcDbLine
 10
67.0726065263
 20
5.8199474588
 30
0.0
 11
67.2595415935
 21
5.7956608944
 31
0.0
  0
LINE
  5
1FD
330
1F
100
AcDbEntity
  8
1
  6
Continuous
370
    50
100
AcDbLine
 10
67.2595415935
 20
5.7956608944
 30
0.0
 11
67.3436064944
 21
5.7585458272
 31
0.0
  0
LINE
  5
1FE
330
1F
100
AcDbEntity
  8
1
  6
Continuous
370
    50
100
AcDbLine
 10
67.3436064944
 20
5.7585458272
 30
0.0
 11
67.4127776846
 21
5.6991395541
 31
0.0
  0
LINE
  5
1FF
330
1F
100
AcDbEntity
  8
1
  6
Continuous
370
    50
100
AcDbLine
 10
67.4127776846
 20
5.6991395541
 30
0.0
 11
67.4455900416
 21
5.6392159313
 31
0.0
  0
LINE
  5
200
330
1F
100
AcDbEntity
  8
1
  6
Continuous
370
    50
100
AcDbLine
 10
67.4455900416
 20
5.6392159313
 30
0.0
 11
67.455797337
 21
5.5720824748
 31
0.0
  0
LINE
  5
201
330
1F
100
AcDbEntity
  8
1
  6
Continuous
370
    50
100
AcDbLine
 10
67.455797337
 20
5.5720824748
 30
0.0
 11
67.4369771704
 21
5.4845609703
 31
0.0
  0
LINE
  5
202
330
1F
100
AcDbEntity
  8
1
  6
Continuous
370
    50
100
AcDbLine
 10
67.4369771704
 20
5.4845609703
 30
0.0
 11
67.3892711028
 21
5.4194703699
 31
0.0
  0
LINE
  5
203
330
1F
100
AcDbEntity
  8
1
  6
Continuous
370
    50
100
AcDbLine
 10
67.3892711028
 20
5.4194703699
 30
0.0
 11
67.3268203363
 21
5.3751473316
 31
0.0
  0
LINE
  5
204
330
1F
100
AcDbEntity
  8
1
  6
Continuous
370
    50
100
AcDbLine
 10
67.3268203363
 20
5.3751473316
 30
0.0
 11
67.2036696896
 21
5.3344094195
 31
0.0
  0
LINE
  5
205
330
1F
100
AcDbEntity
  8
1
  6
Continuous
370
    50
100
AcDbLine
 10
67.2036696896
 20
5.3344094195
 30
0.0
 11
67.0051787719
 21
5.3033242003
 31
0.0
  0
LINE
  5
206
330
1F
100
AcDbEntity
  8
SK1
100
AcDbLine
 10
-5.4500038996
 20
0.86803484
 30
0.0
 11
-5.4500038996
 21
5.7504354045
 31
0.0
  0
LINE
  5
207
330
1F
100
AcDbEntity
  8
SK1
100
AcDbLine
 10
-19.2000056878
 20
5.7504354045
 30
0.0
 11
-5.4500038996
 21
5.7504354045
 31
0.0
  0
LINE
  5
208
330
1F
100
AcDbEntity
  8
SK1
100
AcDbLine
 10
-19.2000056878
 20
5.7504354045
 30
0.0
 11
-19.2000056878
 21
10.9999999404
 31
0.0
  0
LINE
  5
209
330
1F
100
AcDbEntity
  8
SK1
100
AcDbLine
 10
-19.2000056878
 20
-10.9999999404
 30
0.0
 11
-19.2000056878
 21
-5.7504354044
 31
0.0
  0
LINE
  5
20A
330
1F
100
AcDbEntity
  8
SK1
100
AcDbLine
 10
-5.4500038996
 20
-5.7504354044
 30
0.0
 11
-19.2000056878
 21
-5.7504354044
 31
0.0
  0
LINE
  5
20B
330
1F
100
AcDbEntity
  8
SK1
100
AcDbLine
 10
-5.4500038996
 20
-5.7504354044
 30
0.0
 11
-5.4500038996
 21
-0.8680348401
 31
0.0
  0
LINE
  5
20C
330
1F
100
AcDbEntity
  8
SK1
100
AcDbLine
 10
-0.7622475997
 20
10.9379524365
 30
0.0
 11
-0.7622475997
 21
-10.9379524365
 31
0.0
  0
LINE
  5
20D
330
1F
100
AcDbEntity
  8
SK1
  6
LONGDASH_DASH
370
    25
100
AcDbLine
 10
-0.6330545321
 20
-10.9571255743
 30
0.0
 11
-0.6461824551
 21
-10.9551157802
 31
0.0
  0
LINE
  5
20E
330
1F
100
AcDbEntity
  8
SK1
100
AcDbLine
 10
-0.6461824551
 20
-10.9551157802
 30
0.0
 11
-0.7622475997
 21
-10.9379524365
 31
0.0
  0
LINE
  5
20F
330
1F
100
AcDbEntity
  8
SK1
100
AcDbLine
 10
-0.7622475997
 20
10.9379524365
 30
0.0
 11
-0.625186719
 21
10.9583297745
 31
0.0
  0
LINE
  5
210
330
1F
100
AcDbEntity
  8
SK2
  6
LONGDASH_DASH
370
    25
100
AcDbLine
 10
-0.625186719
 20
10.9583297745
 30
0.0
 11
-0.6330545321
 21
10.9571255744
 31
0.0
  0
LINE
  5
211
330
1F
100
AcDbEntity
  8
SK1
100
AcDbLine
 10
-5.4500038996
 20
0.7791752578
 30
0.0
 11
-5.9103007689
 21
1.919415081
 31
0.0
  0
LINE
  5
212
330
1F
100
AcDbEntity
  8
SK1
100
AcDbLine
 10
-5.9103007689
 20
1.919415081
 30
0.0
 11
-6.7046369687
 21
2.8433629778
 31
0.0
  0
LINE
  5
213
330
1F
100
AcDbEntity
  8
SK1
100
AcDbLine
 10
-6.7046369687
 20
2.8433629778
 30
0.0
 11
-7.8254278079
 21
3.5125075374
 31
0.0
  0
LINE
  5
214
330
1F
100
AcDbEntity
  8
SK1
100
AcDbLine
 10
-7.8254278079
 20
3.5125075374
 30
0.0
 11
-9.1565038338
 21
3.7971027196
 31
0.0
  0
LINE
  5
215
330
1F
100
AcDbEntity
  8
SK1
100
AcDbLine
 10
-9.1565038338
 20
3.7971027196
 30
0.0
 11
-10.4794736281
 21
3.6457728129
 31
0.0
  0
LINE
  5
216
330
1F
100
AcDbEntity
  8
SK1
100
AcDbLine
 10
-10.4794736281
 20
3.6457728129
 30
0.0
 11
-11.6669322625
 21
3.0932317023
 31
0.0
  0
LINE
  5
217
330
1F
100
AcDbEntity
  8
SK1
100
AcDbLine
 10
-11.6669322625
 20
3.0932317023
 30
0.0
 11
-12.6281167641
 21
2.1616260056
 31
0.0
  0
LINE
  5
218
330
1F
100
AcDbEntity
  8
SK1
100
AcDbLine
 10
-12.6281167641
 20
2.1616260056
 30
0.0
 11
-12.9703368321
 21
1.5871657525
 31
0.0
  0
LINE
  5
219
330
1F
100
AcDbEntity
  8
SK1
100
AcDbLine
 10
-12.9703368321
 20
1.5871657525
 30
0.0
 11
-13.2059837952
 21
0.9581900086
 31
0.0
  0
LINE
  5
21A
330
1F
100
AcDbEntity
  8
SK1
100
AcDbLine
 10
-13.2059837952
 20
0.9581900086
 30
0.0
 11
-13.323643364
 21
-0.2809042052
 31
0.0
  0
LINE
  5
21B
330
1F
100
AcDbEntity
  8
SK1
100
AcDbLine
 10
-13.323643364
 20
-0.2809042052
 30
0.0
 11
-13.0504156724
 21
-1.4102621936
 31
0.0
  0
LINE
  5
21C
330
1F
100
AcDbEntity
  8
SK1
100
AcDbLine
 10
-13.0504156724
 20
-1.4102621936
 30
0.0
 11
-12.435549058
 21
-2.4058984126
 31
0.0
  0
LINE
  5
21D
330
1F
100
AcDbEntity
  8
SK1
100
AcDbLine
 10
-12.435549058
 20
-2.4058984126
 30
0.0
 11
-11.4764507189
 21
-3.2153252977
 31
0.0
  0
LINE
  5
21E
330
1F
100
AcDbEntity
  8
SK1
100
AcDbLine
 10
-11.4764507189
 20
-3.2153252977
 30
0.0
 11
-10.2255876437
 21
-3.7087374366
 31
0.0
  0
LINE
  5
21F
330
1F
100
AcDbEntity
  8
SK1
100
AcDbLine
 10
-10.2255876437
 20
-3.7087374366
 30
0.0
 11
-8.8740225211
 21
-3.7743838038
 31
0.0
  0
LINE
  5
220
330
1F
100
AcDbEntity
  8
SK1
100
AcDbLine
 10
-8.8740225211
 20
-3.7743838038
 30
0.0
 11
-7.6092864648
 21
-3.4198814537
 31
0.0
  0
LINE
  5
221
330
1F
100
AcDbEntity
  8
SK1
100
AcDbLine
 10
-7.6092864648
 20
-3.4198814537
 30
0.0
 11
-6.5182830468
 21
-2.6750091929
 31
0.0
  0
LINE
  5
222
330
1F
100
AcDbEntity
  8
SK1
100
AcDbLine
 10
-6.5182830468
 20
-2.6750091929
 30
0.0
 11
-5.7275231257
 21
-1.5838525723
 31
0.0
  0
LINE
  5
223
330
1F
100
AcDbEntity
  8
SK1
  6
LONGDASH_DASH
370
    25
100
AcDbLine
 10
-5.7275231257
 20
-1.5838525723
 30
0.0
 11
-5.4500038996
 21
-0.7791752577
 31
0.0
  0
LINE
  5
224
330
1F
100
AcDbEntity
  8
SK1
  6
LONGDASH_DASH
370
    25
100
AcDbLine
 10
-5.4500038996
 20
0.7791752578
 30
0.0
 11
-5.4500038996
 21
0.86803484
 31
0.0
  0
LINE
  5
225
330
1F
100
AcDbEntity
  8
SK1
  6
LONGDASH_DASH
370
    25
100
AcDbLine
 10
-5.4500038996
 20
-0.8680348401
 30
0.0
 11
-5.4500038996
 21
-0.7791752577
 31
0.0
  0
LINE
  5
226
330
1F
100
AcDbEntity
  8
SK1
100
AcDbLine
 10
-19.7336609737
 20
4.6171043069
 30
0.0
 11
-19.7336609737
 21
-4.6171043068
 31
0.0
  0
LINE
  5
227
330
1F
100
AcDbEntity
  8
SK1
100
AcDbLine
 10
-23.7000062838
 20
-10.4
 30
0.0
 11
-23.7000062838
 21
10.4
 31
0.0
  0
LINE
  5
228
330
1F
100
AcDbEntity
  8
1
100
AcDbLine
 10
196.6637628172
 20
-19.1648119656
 30
0.0
 11
198.0458715949
 21
-19.4127225844
 31
0.0
  0
LINE
  5
229
330
1F
100
AcDbEntity
  8
1
100
AcDbLine
 10
198.0458715949
 20
-19.4127225844
 30
0.0
 11
198.6932115648
 21
-19.5288007675
 31
0.0
  0
LINE
  5
22A
330
1F
100
AcDbEntity
  8
1
100
AcDbLine
 10
196.6637628172
 20
-16.3430051474
 30
0.0
 11
196.6637628172
 21
-19.1648119656
 31
0.0
  0
LINE
  5
22B
330
1F
100
AcDbEntity
  8
1
100
AcDbLine
 10
196.6637628171
 20
-0.0000001459
 30
0.0
 11
196.6637628171
 21
-13.0449460416
 31
0.0
  0
LINE
  5
22C
330
1F
100
AcDbEntity
  8
1
100
AcDbLine
 10
197.4999936315
 20
-1.305036509
 30
0.0
 11
197.3622845503
 21
-1.7641617745
 31
0.0
  0
LINE
  5
22D
330
1F
100
AcDbEntity
  8
1
100
AcDbLine
 10
197.3622845503
 20
-1.7641617745
 30
0.0
 11
197.302724609
 21
-1.8420347773
 31
0.0
  0
LINE
  5
22E
330
1F
100
AcDbEntity
  8
1
100
AcDbLine
 10
197.302724609
 20
-1.8420347773
 30
0.0
 11
197.275723705
 21
-1.8600288607
 31
0.0
  0
LINE
  5
22F
330
1F
100
AcDbEntity
  8
1
100
AcDbLine
 10
197.275723705
 20
-1.8600288607
 30
0.0
 11
197.2440103086
 21
-1.8683740931
 31
0.0
  0
LINE
  5
230
330
1F
100
AcDbEntity
  8
1
100
AcDbLine
 10
197.2440103086
 20
-1.8683740931
 30
0.0
 11
197.2161861154
 21
-1.8646030516
 31
0.0
  0
LINE
  5
231
330
1F
100
AcDbEntity
  8
1
100
AcDbLine
 10
197.2161861154
 20
-1.8646030516
 30
0.0
 11
197.1857877466
 21
-1.8486762714
 31
0.0
  0
LINE
  5
232
330
1F
100
AcDbEntity
  8
1
100
AcDbLine
 10
197.1857877466
 20
-1.8486762714
 30
0.0
 11
197.1438298019
 21
-1.8059199505
 31
0.0
  0
LINE
  5
233
330
1F
100
AcDbEntity
  8
1
100
AcDbLine
 10
197.1438298019
 20
-1.8059199505
 30
0.0
 11
197.1001284215
 21
-1.7339787741
 31
0.0
  0
LINE
  5
234
330
1F
100
AcDbEntity
  8
1
100
AcDbLine
 10
197.4999936315
 20
-1.305036509
 30
0.0
 11
197.4999936315
 21
-2.0000002409
 31
0.0
  0
LINE
  5
235
330
1F
100
AcDbEntity
  8
1
100
AcDbLine
 10
181.0155545066
 20
16.1179980819
 30
0.0
 11
182.446057789
 21
16.0235408694
 31
0.0
  0
LINE
  5
236
330
1F
100
AcDbEntity
  8
1
100
AcDbLine
 10
182.446057789
 20
16.0235408694
 30
0.0
 11
183.8884045109
 21
16.0563085229
 31
0.0
  0
LINE
  5
237
330
1F
100
AcDbEntity
  8
1
100
AcDbLine
 10
183.8884045109
 20
16.0563085229
 30
0.0
 11
185.4043257162
 21
16.2056516856
 31
0.0
  0
LINE
  5
238
330
1F
100
AcDbEntity
  8
1
100
AcDbLine
 10
185.4043257162
 20
16.2056516856
 30
0.0
 11
186.8445266709
 21
16.4911095053
 31
0.0
  0
LINE
  5
239
330
1F
100
AcDbEntity
  8
1
100
AcDbLine
 10
186.8445266709
 20
16.4911095053
 30
0.0
 11
187.5841420814
 21
16.7363882065
 31
0.0
  0
LINE
  5
23A
330
1F
100
AcDbEntity
  8
1
100
AcDbLine
 10
187.5841420814
 20
16.7363882065
 30
0.0
 11
187.9208077416
 21
16.9148370624
 31
0.0
  0
LINE
  5
23B
330
1F
100
AcDbEntity
  8
1
100
AcDbLine
 10
187.9208077416
 20
16.9148370624
 30
0.0
 11
188.0859126076
 21
17.0703455806
 31
0.0
  0
LINE
  5
23C
330
1F
100
AcDbEntity
  8
1
100
AcDbLine
 10
188.0859126076
 20
17.0703455806
 30
0.0
 11
188.1284032687
 21
17.2023717314
 31
0.0
  0
LINE
  5
23D
330
1F
100
AcDbEntity
  8
1
100
AcDbLine
 10
188.1284032687
 20
17.2023717314
 30
0.0
 11
188.0746100768
 21
17.3303242773
 31
0.0
  0
LINE
  5
23E
330
1F
100
AcDbEntity
  8
1
100
AcDbLine
 10
188.0746100768
 20
17.3303242773
 30
0.0
 11
187.8976699635
 21
17.4657851458
 31
0.0
  0
LINE
  5
23F
330
1F
100
AcDbEntity
  8
1
100
AcDbLine
 10
187.8976699635
 20
17.4657851458
 30
0.0
 11
187.4740895554
 21
17.6277644933
 31
0.0
  0
LINE
  5
240
330
1F
100
AcDbEntity
  8
1
100
AcDbLine
 10
187.4740895554
 20
17.6277644933
 30
0.0
 11
186.4268471226
 21
17.8248863668
 31
0.0
  0
LINE
  5
241
330
1F
100
AcDbEntity
  8
1
100
AcDbLine
 10
186.4268471226
 20
17.8248863668
 30
0.0
 11
185.6553916559
 21
17.9016310722
 31
0.0
  0
LINE
  5
242
330
1F
100
AcDbEntity
  8
1
100
AcDbLine
 10
181.2825254708
 20
18.8012752015
 30
0.0
 11
181.3343939111
 21
18.8130717725
 31
0.0
  0
LINE
  5
243
330
1F
100
AcDbEntity
  8
1
100
AcDbLine
 10
181.3343939111
 20
18.8130717725
 30
0.0
 11
181.3687038347
 21
18.8285447658
 31
0.0
  0
LINE
  5
244
330
1F
100
AcDbEntity
  8
1
100
AcDbLine
 10
181.3687038347
 20
18.8285447658
 30
0.0
 11
181.3824147656
 21
18.8463162631
 31
0.0
  0
LINE
  5
245
330
1F
100
AcDbEntity
  8
1
100
AcDbLine
 10
181.3824147656
 20
18.8463162631
 30
0.0
 11
181.3726768568
 21
18.8644118607
 31
0.0
  0
LINE
  5
246
330
1F
100
AcDbEntity
  8
1
100
AcDbLine
 10
181.3726768568
 20
18.8644118607
 30
0.0
 11
181.3397844061
 21
18.8804250211
 31
0.0
  0
LINE
  5
247
330
1F
100
AcDbEntity
  8
1
100
AcDbLine
 10
181.3397844061
 20
18.8804250211
 30
0.0
 11
181.2825248316
 21
18.8931748271
 31
0.0
  0
LINE
  5
248
330
1F
100
AcDbEntity
  8
1
100
AcDbLine
 10
181.2825254709
 20
19.3158995288
 30
0.0
 11
181.3342728391
 21
19.3217918277
 31
0.0
  0
LINE
  5
249
330
1F
100
AcDbEntity
  8
1
100
AcDbLine
 10
181.3342728391
 20
19.3217918277
 30
0.0
 11
181.3687951043
 21
19.3295255304
 31
0.0
  0
LINE
  5
24A
330
1F
100
AcDbEntity
  8
1
100
AcDbLine
 10
181.3687951043
 20
19.3295255304
 30
0.0
 11
181.3824073151
 21
19.3381905556
 31
0.0
  0
LINE
  5
24B
330
1F
100
AcDbEntity
  8
1
100
AcDbLine
 10
181.3824073151
 20
19.3381905556
 30
0.0
 11
181.3732486889
 21
19.3467661739
 31
0.0
  0
LINE
  5
24C
330
1F
100
AcDbEntity
  8
1
100
AcDbLine
 10
181.3732486889
 20
19.3467661739
 30
0.0
 11
181.3421834931
 21
19.3542707712
 31
0.0
  0
LINE
  5
24D
330
1F
100
AcDbEntity
  8
1
100
AcDbLine
 10
181.3421834931
 20
19.3542707712
 30
0.0
 11
181.2929295674
 21
19.3599071354
 31
0.0
  0
LINE
  5
24E
330
1F
100
AcDbEntity
  8
1
100
AcDbLine
 10
181.2929295674
 20
19.3599071354
 30
0.0
 11
181.2825248316
 21
19.3606819958
 31
0.0
  0
LINE
  5
24F
330
1F
100
AcDbEntity
  8
1
100
AcDbLine
 10
181.2825259645
 20
19.4992306085
 30
0.0
 11
181.3342211787
 21
19.4995643975
 31
0.0
  0
LINE
  5
250
330
1F
100
AcDbEntity
  8
1
100
AcDbLine
 10
181.3342211787
 20
19.4995643975
 30
0.0
 11
181.3557310048
 21
19.4997432114
 31
0.0
  0
LINE
  5
251
330
1F
100
AcDbEntity
  8
1
100
AcDbLine
 10
181.3557310048
 20
19.4997432114
 30
0.0
 11
187.8999950383
 21
19.4997432114
 31
0.0
  0
LINE
  5
252
330
1F
100
AcDbEntity
  8
1
100
AcDbLine
 10
189.8999953661
 20
16.035642329
 30
0.0
 11
189.3854508195
 21
16.9268584283
 31
0.0
  0
LINE
  5
253
330
1F
100
AcDbEntity
  8
1
100
AcDbLine
 10
189.3854508195
 20
16.9268584283
 30
0.0
 11
188.9427000675
 21
17.6937243374
 31
0.0
  0
LINE
  5
254
330
1F
100
AcDbEntity
  8
1
100
AcDbLine
 10
188.9427000675
 20
17.6937243374
 30
0.0
 11
188.5749952886
 21
18.33060928
 31
0.0
  0
LINE
  5
255
330
1F
100
AcDbEntity
  8
1
100
AcDbLine
 10
188.5749952886
 20
18.33060928
 30
0.0
 11
188.2850335929
 21
18.8328342916
 31
0.0
  0
LINE
  5
256
330
1F
100
AcDbEntity
  8
1
100
AcDbLine
 10
188.2850335929
 20
18.8328342916
 30
0.0
 11
188.0749532971
 21
19.1967057468
 31
0.0
  0
LINE
  5
257
330
1F
100
AcDbEntity
  8
1
100
AcDbLine
 10
188.0749532971
 20
19.1967057468
 30
0.0
 11
187.9462892208
 21
19.4195544751
 31
0.0
  0
LINE
  5
258
330
1F
100
AcDbEntity
  8
1
100
AcDbLine
 10
187.9462892208
 20
19.4195544751
 30
0.0
 11
187.8999950383
 21
19.4997432114
 31
0.0
  0
LINE
  5
259
330
1F
100
AcDbEntity
  8
1
100
AcDbLine
 10
189.8999953661
 20
11.171067919
 30
0.0
 11
189.8999953661
 21
16.035642329
 31
0.0
  0
LINE
  5
25A
330
1F
100
AcDbEntity
  8
1
100
AcDbLine
 10
197.4999936315
 20
1.4999998672
 30
0.0
 11
195.9253953787
 21
3.0746002154
 31
0.0
  0
LINE
  5
25B
330
1F
100
AcDbEntity
  8
1
100
AcDbLine
 10
195.9253953787
 20
3.0746002154
 30
0.0
 11
194.3711223098
 21
4.6288728187
 31
0.0
  0
LINE
  5
25C
330
1F
100
AcDbEntity
  8
1
100
AcDbLine
 10
194.3711223098
 20
4.6288728187
 30
0.0
 11
192.8474525007
 21
6.1525421621
 31
0.0
  0
LINE
  5
25D
330
1F
100
AcDbEntity
  8
1
100
AcDbLine
 10
192.8474525007
 20
6.1525421621
 30
0.0
 11
191.3644591365
 21
7.6355336638
 31
0.0
  0
LINE
  5
25E
330
1F
100
AcDbEntity
  8
1
100
AcDbLine
 10
197.4999936315
 20
-0.0000001459
 30
0.0
 11
197.4999936315
 21
1.4999998672
 31
0.0
  0
LINE
  5
25F
330
1F
100
AcDbEntity
  8
1
100
AcDbLine
 10
190.9766601417
 20
-19.1648119656
 30
0.0
 11
196.6637628172
 21
-19.1648119656
 31
0.0
  0
LINE
  5
260
330
1F
100
AcDbEntity
  8
1
100
AcDbLine
 10
190.9766601417
 20
-19.4496793268
 30
0.0
 11
190.9766601417
 21
-19.1648119656
 31
0.0
  0
LINE
  5
261
330
1F
100
AcDbEntity
  8
1
100
AcDbLine
 10
190.8285441535
 20
-19.4997440631
 30
0.0
 11
181.3557312127
 21
-19.4997438324
 31
0.0
  0
LINE
  5
262
330
1F
100
AcDbEntity
  8
1
100
AcDbLine
 10
181.2825254709
 20
-19.3606824626
 30
0.0
 11
181.3342337236
 21
-19.3554814904
 31
0.0
  0
LINE
  5
263
330
1F
100
AcDbEntity
  8
1
100
AcDbLine
 10
181.3342337236
 20
-19.3554814904
 30
0.0
 11
181.3687578514
 21
-19.348366186
 31
0.0
  0
LINE
  5
264
330
1F
100
AcDbEntity
  8
1
100
AcDbLine
 10
181.3687578514
 20
-19.348366186
 30
0.0
 11
181.3823980018
 21
-19.339999184
 31
0.0
  0
LINE
  5
265
330
1F
100
AcDbEntity
  8
1
100
AcDbLine
 10
181.3823980018
 20
-19.339999184
 30
0.0
 11
181.3733623102
 21
-19.3312484771
 31
0.0
  0
LINE
  5
266
330
1F
100
AcDbEntity
  8
1
100
AcDbLine
 10
181.3733623102
 20
-19.3312484771
 30
0.0
 11
181.3424107358
 21
-19.3231664598
 31
0.0
  0
LINE
  5
267
330
1F
100
AcDbEntity
  8
1
100
AcDbLine
 10
181.3424107358
 20
-19.3231664598
 30
0.0
 11
181.2931474969
 21
-19.3168092519
 31
0.0
  0
LINE
  5
268
330
1F
100
AcDbEntity
  8
1
100
AcDbLine
 10
181.2931474969
 20
-19.3168092519
 30
0.0
 11
181.2825248316
 21
-19.315900281
 31
0.0
  0
LINE
  5
269
330
1F
100
AcDbEntity
  8
1
100
AcDbLine
 10
181.2825254709
 20
-18.8931747153
 30
0.0
 11
181.3343119547
 21
-18.8821442425
 31
0.0
  0
LINE
  5
26A
330
1F
100
AcDbEntity
  8
1
100
AcDbLine
 10
181.3343119547
 20
-18.8821442425
 30
0.0
 11
181.368623741
 21
-18.8673604279
 31
0.0
  0
LINE
  5
26B
330
1F
100
AcDbEntity
  8
1
100
AcDbLine
 10
181.368623741
 20
-18.8673604279
 30
0.0
 11
181.3823980018
 21
-18.8499744981
 31
0.0
  0
LINE
  5
26C
330
1F
100
AcDbEntity
  8
1
100
AcDbLine
 10
181.3823980018
 20
-18.8499744981
 30
0.0
 11
181.3729283139
 21
-18.8317317515
 31
0.0
  0
LINE
  5
26D
330
1F
100
AcDbEntity
  8
1
100
AcDbLine
 10
181.3729283139
 20
-18.8317317515
 30
0.0
 11
181.340289183
 21
-18.815036863
 31
0.0
  0
LINE
  5
26E
330
1F
100
AcDbEntity
  8
1
100
AcDbLine
 10
181.340289183
 20
-18.815036863
 30
0.0
 11
181.2825248316
 21
-18.8012756407
 31
0.0
  0
LINE
  5
26F
330
1F
100
AcDbEntity
  8
1
100
AcDbLine
 10
181.2825254708
 20
-18.0711946541
 30
0.0
 11
181.3344702795
 21
-18.0536378175
 31
0.0
  0
LINE
  5
270
330
1F
100
AcDbEntity
  8
1
100
AcDbLine
 10
181.3344702795
 20
-18.0536378175
 30
0.0
 11
181.3684095368
 21
-18.0305745452
 31
0.0
  0
LINE
  5
271
330
1F
100
AcDbEntity
  8
1
100
AcDbLine
 10
181.3684095368
 20
-18.0305745452
 30
0.0
 11
181.3824035898
 21
-18.0029142648
 31
0.0
  0
LINE
  5
272
330
1F
100
AcDbEntity
  8
1
100
AcDbLine
 10
181.3824035898
 20
-18.0029142648
 30
0.0
 11
181.3720063046
 21
-17.9731957614
 31
0.0
  0
LINE
  5
273
330
1F
100
AcDbEntity
  8
1
100
AcDbLine
 10
181.3720063046
 20
-17.9731957614
 30
0.0
 11
181.3359939232
 21
-17.9460253566
 31
0.0
  0
LINE
  5
274
330
1F
100
AcDbEntity
  8
1
100
AcDbLine
 10
181.3359939232
 20
-17.9460253566
 30
0.0
 11
181.2825248316
 21
-17.9268494248
 31
0.0
  0
LINE
  5
275
330
1F
100
AcDbEntity
  8
1
100
AcDbLine
 10
181.2825254709
 20
-16.8429243787
 30
0.0
 11
181.3347329125
 21
-16.8174896389
 31
0.0
  0
LINE
  5
276
330
1F
100
AcDbEntity
  8
1
100
AcDbLine
 10
181.3347329125
 20
-16.8174896389
 30
0.0
 11
181.3681152388
 21
-16.7849715799
 31
0.0
  0
LINE
  5
277
330
1F
100
AcDbEntity
  8
1
100
AcDbLine
 10
181.3681152388
 20
-16.7849715799
 30
0.0
 11
181.3824259415
 21
-16.7444348335
 31
0.0
  0
LINE
  5
278
330
1F
100
AcDbEntity
  8
1
100
AcDbLine
 10
181.3824259415
 20
-16.7444348335
 30
0.0
 11
181.3701958135
 21
-16.6991762816
 31
0.0
  0
LINE
  5
279
330
1F
100
AcDbEntity
  8
1
100
AcDbLine
 10
181.3701958135
 20
-16.6991762816
 30
0.0
 11
181.3278970048
 21
-16.6578497737
 31
0.0
  0
LINE
  5
27A
330
1F
100
AcDbEntity
  8
1
100
AcDbLine
 10
181.3278970048
 20
-16.6578497737
 30
0.0
 11
181.2825248316
 21
-16.6359823197
 31
0.0
  0
LINE
  5
27B
330
1F
100
AcDbEntity
  8
1
100
AcDbLine
 10
180.0999928936
 20
-5.3560715168
 30
0.0
 11
188.1999921724
 21
-5.3560715168
 31
0.0
  0
LINE
  5
27C
330
1F
100
AcDbEntity
  8
1
100
AcDbLine
 10
188.1999921724
 20
5.3560720022
 30
0.0
 11
180.0999963507
 21
5.3560720022
 31
0.0
  0
LINE
  5
27D
330
1F
100
AcDbEntity
  8
1
100
AcDbLine
 10
180.0999963507
 20
6.5810089853
 30
0.0
 11
180.0999963507
 21
5.3560720022
 31
0.0
  0
LINE
  5
27E
330
1F
100
AcDbEntity
  8
1
100
AcDbLine
 10
181.2825248387
 20
12.2484224368
 30
0.0
 11
181.3419034641
 21
12.3130280543
 31
0.0
  0
LINE
  5
27F
330
1F
100
AcDbEntity
  8
1
100
AcDbLine
 10
181.3419034641
 20
12.3130280543
 30
0.0
 11
181.3767181646
 21
12.4021155778
 31
0.0
  0
LINE
  5
280
330
1F
100
AcDbEntity
  8
1
100
AcDbLine
 10
184.0999935493
 20
19.1060192883
 30
0.0
 11
183.5611824617
 21
19.1242620349
 31
0.0
  0
LINE
  5
281
330
1F
100
AcDbEntity
  8
1
100
AcDbLine
 10
183.5611824617
 20
19.1242620349
 30
0.0
 11
183.083203502
 21
19.174233079
 31
0.0
  0
LINE
  5
282
330
1F
100
AcDbEntity
  8
1
100
AcDbLine
 10
183.083203502
 20
19.174233079
 30
0.0
 11
182.7137385234
 21
19.2447341979
 31
0.0
  0
LINE
  5
283
330
1F
100
AcDbEntity
  8
1
100
AcDbLine
 10
182.7137385234
 20
19.2447341979
 30
0.0
 11
182.4951403513
 21
19.3213745952
 31
0.0
  0
LINE
  5
284
330
1F
100
AcDbEntity
  8
1
100
AcDbLine
 10
182.4951403513
 20
19.3213745952
 30
0.0
 11
182.4593831524
 21
19.3893667311
 31
0.0
  0
LINE
  5
285
330
1F
100
AcDbEntity
  8
1
100
AcDbLine
 10
182.4593831524
 20
19.3893667311
 30
0.0
 11
182.6119524166
 21
19.4393247366
 31
0.0
  0
LINE
  5
286
330
1F
100
AcDbEntity
  8
1
100
AcDbLine
 10
182.6119524166
 20
19.4393247366
 30
0.0
 11
182.9323683605
 21
19.4698367268
 31
0.0
  0
LINE
  5
287
330
1F
100
AcDbEntity
  8
1
100
AcDbLine
 10
182.9323683605
 20
19.4698367268
 30
0.0
 11
183.383230932
 21
19.4850359112
 31
0.0
  0
LINE
  5
288
330
1F
100
AcDbEntity
  8
1
100
AcDbLine
 10
183.383230932
 20
19.4850359112
 30
0.0
 11
183.9147479013
 21
19.4904431701
 31
0.0
  0
LINE
  5
289
330
1F
100
AcDbEntity
  8
1
100
AcDbLine
 10
183.9147479013
 20
19.4904431701
 30
0.0
 11
184.467510201
 21
19.489446655
 31
0.0
  0
LINE
  5
28A
330
1F
100
AcDbEntity
  8
1
100
AcDbLine
 10
184.467510201
 20
19.489446655
 30
0.0
 11
184.9789459929
 21
19.4813087583
 31
0.0
  0
LINE
  5
28B
330
1F
100
AcDbEntity
  8
1
100
AcDbLine
 10
184.9789459929
 20
19.4813087583
 30
0.0
 11
185.3910897598
 21
19.4616355002
 31
0.0
  0
LINE
  5
28C
330
1F
100
AcDbEntity
  8
1
100
AcDbLine
 10
185.3910897598
 20
19.4616355002
 30
0.0
 11
185.65769016
 21
19.4252431393
 31
0.0
  0
LINE
  5
28D
330
1F
100
AcDbEntity
  8
1
100
AcDbLine
 10
185.65769016
 20
19.4252431393
 30
0.0
 11
185.7499916777
 21
19.3698834628
 31
0.0
  0
LINE
  5
28E
330
1F
100
AcDbEntity
  8
1
100
AcDbLine
 10
185.7499916777
 20
19.3698834628
 30
0.0
 11
185.6579397544
 21
19.2988812924
 31
0.0
  0
LINE
  5
28F
330
1F
100
AcDbEntity
  8
1
100
AcDbLine
 10
185.6579397544
 20
19.2988812924
 30
0.0
 11
185.3885863647
 21
19.2220713944
 31
0.0
  0
LINE
  5
290
330
1F
100
AcDbEntity
  8
1
100
AcDbLine
 10
185.3885863647
 20
19.2220713944
 30
0.0
 11
184.9693310186
 21
19.1548932344
 31
0.0
  0
LINE
  5
291
330
1F
100
AcDbEntity
  8
1
100
AcDbLine
 10
184.9693310186
 20
19.1548932344
 30
0.0
 11
184.4521247521
 21
19.1137399525
 31
0.0
  0
LINE
  5
292
330
1F
100
AcDbEntity
  8
1
100
AcDbLine
 10
184.4521247521
 20
19.1137399525
 30
0.0
 11
184.0999935493
 21
19.1060192883
 31
0.0
  0
LINE
  5
293
330
1F
100
AcDbEntity
  8
1
100
AcDbLine
 10
188.1999921724
 20
5.3560720022
 30
0.0
 11
188.1999921724
 21
-5.3560715168
 31
0.0
  0
LINE
  5
294
330
1F
100
AcDbEntity
  8
1
100
AcDbLine
 10
197.4999936315
 20
-0.0000001459
 30
0.0
 11
197.4999936315
 21
-1.305036509
 31
0.0
  0
LINE
  5
295
330
1F
100
AcDbEntity
  8
1
100
AcDbLine
 10
180.0999928936
 20
-5.3560715168
 30
0.0
 11
179.9029008225
 21
-5.3284014575
 31
0.0
  0
LINE
  5
296
330
1F
100
AcDbEntity
  8
1
100
AcDbLine
 10
179.9029008225
 20
5.3284014576
 30
0.0
 11
179.9029008225
 21
-5.3284014575
 31
0.0
  0
LINE
  5
297
330
1F
100
AcDbEntity
  8
1
100
AcDbLine
 10
179.9029008225
 20
5.3284014576
 30
0.0
 11
180.0999963507
 21
5.3560720022
 31
0.0
  0
LINE
  5
298
330
1F
100
AcDbEntity
  8
1
100
AcDbLine
 10
179.9999930635
 20
-6.107091438
 30
0.0
 11
180.0999937162
 21
-6.5809925365
 31
0.0
  0
LINE
  5
299
330
1F
100
AcDbEntity
  8
1
100
AcDbLine
 10
179.9029008225
 20
-5.3284014575
 30
0.0
 11
179.9173568115
 21
-5.5418144911
 31
0.0
  0
LINE
  5
29A
330
1F
100
AcDbEntity
  8
1
100
AcDbLine
 10
179.9173568115
 20
-5.5418144911
 30
0.0
 11
179.9999930635
 21
-6.107091438
 31
0.0
  0
LINE
  5
29B
330
1F
100
AcDbEntity
  8
1
100
AcDbLine
 10
179.9999930635
 20
6.1070914381
 30
0.0
 11
179.94258634
 21
5.7649896481
 31
0.0
  0
LINE
  5
29C
330
1F
100
AcDbEntity
  8
1
100
AcDbLine
 10
179.94258634
 20
5.7649896481
 30
0.0
 11
179.9029008225
 21
5.3284014576
 31
0.0
  0
LINE
  5
29D
330
1F
100
AcDbEntity
  8
1
100
AcDbLine
 10
180.0999963507
 20
6.5810089853
 30
0.0
 11
179.9999930635
 21
6.1070914381
 31
0.0
  0
LINE
  5
29E
330
1F
100
AcDbEntity
  8
1
100
AcDbLine
 10
199.9999936061
 20
-7.8094749029
 30
0.0
 11
199.9999949726
 21
-10.9095193042
 31
0.0
  0
LINE
  5
29F
330
1F
100
AcDbEntity
  8
1
100
AcDbLine
 10
199.9999949726
 20
-10.9095193042
 30
0.0
 11
199.863358775
 21
-11.0357284142
 31
0.0
  0
LINE
  5
2A0
330
1F
100
AcDbEntity
  8
1
100
AcDbLine
 10
199.6321300062
 20
-10.9947483583
 30
0.0
 11
199.863358775
 21
-11.0357284142
 31
0.0
  0
LINE
  5
2A1
330
1F
100
AcDbEntity
  8
1
100
AcDbLine
 10
199.6321300062
 20
-18.7271164373
 30
0.0
 11
199.6321300062
 21
-10.9947483583
 31
0.0
  0
LINE
  5
2A2
330
1F
100
AcDbEntity
  8
1
100
AcDbLine
 10
199.6321300062
 20
-18.7271164373
 30
0.0
 11
199.6319623683
 21
-18.7434574185
 31
0.0
  0
LINE
  5
2A3
330
1F
100
AcDbEntity
  8
1
100
AcDbLine
 10
197.849630259
 20
-4.3217586353
 30
0.0
 11
198.1436599716
 21
-5.1116053946
 31
0.0
  0
LINE
  5
2A4
330
1F
100
AcDbEntity
  8
1
100
AcDbLine
 10
181.374613703
 20
12.5111100396
 30
0.0
 11
181.3785625107
 21
12.4918763658
 31
0.0
  0
LINE
  5
2A5
330
1F
100
AcDbEntity
  8
1
100
AcDbLine
 10
181.3785625107
 20
12.4918763658
 30
0.0
 11
181.3784544773
 21
12.3957256919
 31
0.0
  0
LINE
  5
2A6
330
1F
100
AcDbEntity
  8
CUT
100
AcDbLine
 10
199.8125378713
 20
-19.9957750737
 30
0.0
 11
199.8999927863
 21
-20.099999383
 31
0.0
  0
LINE
  5
2A7
330
1F
100
AcDbEntity
  8
CUT
100
AcDbLine
 10
199.8999927863
 20
-20.099999383
 30
0.0
 11
199.8305348758
 21
-20.4939220342
 31
0.0
  0
LINE
  5
2A8
330
1F
100
AcDbEntity
  8
CUT
100
AcDbLine
 10
199.8305348758
 20
-20.4939220342
 30
0.0
 11
192.2927675848
 21
-19.1648110988
 31
0.0
  0
LINE
  5
2A9
330
1F
100
AcDbEntity
  8
CUT
100
AcDbLine
 10
195.099907808
 20
-19.1648118197
 30
0.0
 11
199.8125378713
 21
-19.9957750737
 31
0.0
  0
LINE
  5
2AA
330
1F
100
AcDbEntity
  8
CUT
100
AcDbLine
 10
199.8125378713
 20
-11.3137857988
 30
0.0
 11
199.6321295127
 21
-11.2819746136
 31
0.0
  0
LINE
  5
2AB
330
1F
100
AcDbEntity
  8
CUT
100
AcDbLine
 10
199.8125378713
 20
-19.9957750737
 30
0.0
 11
199.8125378713
 21
-11.3137857988
 31
0.0
  0
LINE
  5
2AC
330
1F
100
AcDbEntity
  8
CUT
100
AcDbLine
 10
199.8999927863
 20
-11.2404031679
 30
0.0
 11
199.9502320513
 21
-10.9554827213
 31
0.0
  0
LINE
  5
2AD
330
1F
100
AcDbEntity
  8
CUT
100
AcDbLine
 10
199.8125378713
 20
-11.3137857988
 30
0.0
 11
199.8999927863
 21
-11.2404031679
 31
0.0
  0
LINE
  5
2AE
330
1F
100
AcDbEntity
  8
CUT
100
AcDbLine
 10
199.8999927863
 20
-11.2404031679
 30
0.0
 11
200.2999921068
 21
-11.2404031679
 31
0.0
  0
LINE
  5
2AF
330
1F
100
AcDbEntity
  8
CUT
100
AcDbLine
 10
200.2999921068
 20
-11.2404031679
 30
0.0
 11
200.2999921068
 21
-20.099999383
 31
0.0
  0
LINE
  5
2B0
330
1F
100
AcDbEntity
  8
CUT
100
AcDbLine
 10
199.8999927863
 20
-20.099999383
 30
0.0
 11
200.2999921068
 21
-20.099999383
 31
0.0
  0
LINE
  5
2B2
330
1F
100
AcDbEntity
  8
CUT
100
AcDbLine
 10
199.8305304504
 20
20.4939226306
 30
0.0
 11
191.1055304263
 21
18.9554684828
 31
0.0
  0
LINE
  5
2B3
330
1F
100
AcDbEntity
  8
CUT
100
AcDbLine
 10
200.0
 20
11.5653036522
 30
0.0
 11
200.0
 21
20.4249012108
 31
0.0
  0
LINE
  5
2B5
330
1F
100
AcDbEntity
  8
1
100
AcDbLine
 10
190.8285425994
 20
18.7614782186
 30
0.0
 11
190.8285425994
 21
19.4997432114
 31
0.0
  0
LINE
  5
2B6
330
1F
100
AcDbEntity
  8
1
100
AcDbLine
 10
189.9582807645
 20
12.5301480294
 30
0.0
 11
190.7749947831
 21
12.67489139
 31
0.0
  0
LINE
  5
2B7
330
1F
100
AcDbEntity
  8
1
100
AcDbLine
 10
189.8999948725
 20
12.5186983496
 30
0.0
 11
189.9582807645
 21
12.5301480294
 31
0.0
  0
LINE
  5
2B8
330
1F
100
AcDbEntity
  8
1
100
AcDbLine
 10
191.0473358557
 20
9.3228667975
 30
0.0
 11
190.6840740167
 21
9.2584872324
 31
0.0
  0
LINE
  5
2B9
330
1F
100
AcDbEntity
  8
1
100
AcDbLine
 10
199.9999945577
 20
7.8094750969
 30
0.0
 11
199.9999945577
 21
10.853104326
 31
0.0
  0
LINE
  5
2BA
330
1F
100
AcDbEntity
  8
1
100
AcDbLine
 10
197.4999936315
 20
1.4999998672
 30
0.0
 11
197.4999942097
 21
1.9999998541
 31
0.0
  0
LINE
  5
2BB
330
1F
100
AcDbEntity
  8
1
100
AcDbLine
 10
190.8285425994
 20
19.4997432114
 30
0.0
 11
187.8999950383
 21
19.4997432114
 31
0.0
  0
LINE
  5
2BC
330
1F
100
AcDbEntity
  8
1
100
AcDbLine
 10
190.5167055055
 20
9.3792490662
 30
0.0
 11
190.5605968758
 21
9.3870284036
 31
0.0
  0
LINE
  5
2BD
330
1F
100
AcDbEntity
  8
1
100
AcDbLine
 10
190.5605968758
 20
9.3870284036
 30
0.0
 11
190.6148110256
 21
9.3966368585
 31
0.0
  0
LINE
  5
2BE
330
1F
100
AcDbEntity
  8
1
100
AcDbLine
 10
190.6148110256
 20
9.3966368585
 30
0.0
 11
190.6555917785
 21
9.4038639218
 31
0.0
  0
LINE
  5
2BF
330
1F
100
AcDbEntity
  8
1
100
AcDbLine
 10
190.6555917785
 20
9.4038639218
 30
0.0
 11
190.6582255587
 21
9.4043305144
 31
0.0
  0
LINE
  5
2C0
330
1F
100
AcDbEntity
  8
1
100
AcDbLine
 10
190.243466638
 20
9.35716182
 30
0.0
 11
190.265371345
 21
9.354941547
 31
0.0
  0
LINE
  5
2C1
330
1F
100
AcDbEntity
  8
1
100
AcDbLine
 10
190.265371345
 20
9.354941547
 30
0.0
 11
190.5167055055
 21
9.3792490662
 31
0.0
  0
LINE
  5
2C2
330
1F
100
AcDbEntity
  8
1
100
AcDbLine
 10
190.8709508106
 20
9.4420313836
 30
0.0
 11
190.6582255587
 21
9.4043305144
 31
0.0
  0
LINE
  5
2C3
330
1F
100
AcDbEntity
  8
1
100
AcDbLine
 10
190.9766601545
 20
19.4496783971
 30
0.0
 11
190.9766601545
 21
18.9089133948
 31
0.0
  0
LINE
  5
2C4
330
1F
100
AcDbEntity
  8
1
100
AcDbLine
 10
190.9766596481
 20
19.1648118198
 30
0.0
 11
192.2927674577
 21
19.1648118198
 31
0.0
  0
LINE
  5
2C5
330
1F
100
AcDbEntity
  8
1
100
AcDbLine
 10
180.9999932274
 20
19.5000004024
 30
0.0
 11
180.9999932498
 21
19.497099411
 31
0.0
  0
LINE
  5
2C6
330
1F
100
AcDbEntity
  8
1
100
AcDbLine
 10
179.7174614593
 20
19.4479953498
 30
0.0
 11
179.6657488421
 21
19.4510854781
 31
0.0
  0
LINE
  5
2C7
330
1F
100
AcDbEntity
  8
1
100
AcDbLine
 10
179.6657488421
 20
19.4510854781
 30
0.0
 11
179.6311744228
 21
19.4550827146
 31
0.0
  0
LINE
  5
2C8
330
1F
100
AcDbEntity
  8
1
100
AcDbLine
 10
179.6311744228
 20
19.4550827146
 30
0.0
 11
179.6175827011
 21
19.4594468922
 31
0.0
  0
LINE
  5
2C9
330
1F
100
AcDbEntity
  8
1
100
AcDbLine
 10
179.6175827011
 20
19.4594468922
 30
0.0
 11
179.6265941784
 21
19.4636397064
 31
0.0
  0
LINE
  5
2CA
330
1F
100
AcDbEntity
  8
1
100
AcDbLine
 10
179.6265941784
 20
19.4636397064
 30
0.0
 11
179.6572235152
 21
19.4672122598
 31
0.0
  0
LINE
  5
2CB
330
1F
100
AcDbEntity
  8
1
100
AcDbLine
 10
179.6572235152
 20
19.4672122598
 30
0.0
 11
179.7059540376
 21
19.4698479027
 31
0.0
  0
LINE
  5
2CC
330
1F
100
AcDbEntity
  8
1
100
AcDbLine
 10
179.7059540376
 20
19.4698479027
 30
0.0
 11
179.7174619614
 21
19.4702468581
 31
0.0
  0
LINE
  5
2CD
330
1F
100
AcDbEntity
  8
1
100
AcDbLine
 10
179.7174614593
 20
19.1012676806
 30
0.0
 11
179.7111377791
 21
19.1020499915
 31
0.0
  0
LINE
  5
2CE
330
1F
100
AcDbEntity
  8
1
100
AcDbLine
 10
179.7111377791
 20
19.1020499915
 30
0.0
 11
179.6619155183
 21
19.1109608859
 31
0.0
  0
LINE
  5
2CF
330
1F
100
AcDbEntity
  8
1
100
AcDbLine
 10
179.6619155183
 20
19.1109608859
 30
0.0
 11
179.6292558983
 21
19.1226415337
 31
0.0
  0
LINE
  5
2D0
330
1F
100
AcDbEntity
  8
1
100
AcDbLine
 10
179.6292558983
 20
19.1226415337
 30
0.0
 11
179.6174653545
 21
19.1358160228
 31
0.0
  0
LINE
  5
2D1
330
1F
100
AcDbEntity
  8
1
100
AcDbLine
 10
179.6174653545
 20
19.1358160228
 30
0.0
 11
179.6287995502
 21
19.1489160061
 31
0.0
  0
LINE
  5
2D2
330
1F
100
AcDbEntity
  8
1
100
AcDbLine
 10
179.6287995502
 20
19.1489160061
 30
0.0
 11
179.6623308882
 21
19.1603321583
 31
0.0
  0
LINE
  5
2D3
330
1F
100
AcDbEntity
  8
1
100
AcDbLine
 10
179.6623308882
 20
19.1603321583
 30
0.0
 11
179.713741757
 21
19.1687457263
 31
0.0
  0
LINE
  5
2D4
330
1F
100
AcDbEntity
  8
1
100
AcDbLine
 10
179.713741757
 20
19.1687457263
 30
0.0
 11
179.7174619614
 21
19.1691559052
 31
0.0
  0
LINE
  5
2D5
330
1F
100
AcDbEntity
  8
1
100
AcDbLine
 10
179.7174614593
 20
18.4117481113
 30
0.0
 11
179.7135610804
 21
18.412552774
 31
0.0
  0
LINE
  5
2D6
330
1F
100
AcDbEntity
  8
1
100
AcDbLine
 10
179.7135610804
 20
18.412552774
 30
0.0
 11
179.6652384773
 21
18.4268597514
 31
0.0
  0
LINE
  5
2D7
330
1F
100
AcDbEntity
  8
1
100
AcDbLine
 10
179.6652384773
 20
18.4268597514
 30
0.0
 11
179.6314854845
 21
18.4462033213
 31
0.0
  0
LINE
  5
2D8
330
1F
100
AcDbEntity
  8
1
100
AcDbLine
 10
179.6314854845
 20
18.4462033213
 30
0.0
 11
179.6175771132
 21
18.4689704329
 31
0.0
  0
LINE
  5
2D9
330
1F
100
AcDbEntity
  8
1
100
AcDbLine
 10
179.6175771132
 20
18.4689704329
 30
0.0
 11
179.6276726499
 21
18.4924881906
 31
0.0
  0
LINE
  5
2DA
330
1F
100
AcDbEntity
  8
1
100
AcDbLine
 10
179.6276726499
 20
18.4924881906
 30
0.0
 11
179.6619676724
 21
18.513346091
 31
0.0
  0
LINE
  5
2DB
330
1F
100
AcDbEntity
  8
1
100
AcDbLine
 10
179.6619676724
 20
18.513346091
 30
0.0
 11
179.7151610926
 21
18.5285229236
 31
0.0
  0
LINE
  5
2DC
330
1F
100
AcDbEntity
  8
1
100
AcDbLine
 10
179.7151610926
 20
18.5285229236
 30
0.0
 11
179.7174619614
 21
18.5289655275
 31
0.0
  0
LINE
  5
2DD
330
1F
100
AcDbEntity
  8
1
100
AcDbLine
 10
180.9999938648
 20
18.1364766521
 30
0.0
 11
180.9999931107
 21
17.8561476006
 31
0.0
  0
LINE
  5
2DE
330
1F
100
AcDbEntity
  8
1
100
AcDbLine
 10
179.7174614593
 20
17.3385813833
 30
0.0
 11
179.7165878788
 21
17.3388421536
 31
0.0
  0
LINE
  5
2DF
330
1F
100
AcDbEntity
  8
1
100
AcDbLine
 10
179.7165878788
 20
17.3388421536
 30
0.0
 11
179.6699230298
 21
17.3581764102
 31
0.0
  0
LINE
  5
2E0
330
1F
100
AcDbEntity
  8
1
100
AcDbLine
 10
179.6699230298
 20
17.3581764102
 30
0.0
 11
179.6349555924
 21
17.3853188754
 31
0.0
  0
LINE
  5
2E1
330
1F
100
AcDbEntity
  8
1
100
AcDbLine
 10
179.6349555924
 20
17.3853188754
 30
0.0
 11
179.6180260107
 21
17.419083044
 31
0.0
  0
LINE
  5
2E2
330
1F
100
AcDbEntity
  8
1
100
AcDbLine
 10
179.6180260107
 20
17.419083044
 30
0.0
 11
179.6262011602
 21
17.455868423
 31
0.0
  0
LINE
  5
2E3
330
1F
100
AcDbEntity
  8
1
100
AcDbLine
 10
179.6262011602
 20
17.455868423
 30
0.0
 11
179.6621334478
 21
17.4893233926
 31
0.0
  0
LINE
  5
2E4
330
1F
100
AcDbEntity
  8
1
100
AcDbLine
 10
179.6621334478
 20
17.4893233926
 30
0.0
 11
179.7174619614
 21
17.5125266287
 31
0.0
  0
LINE
  5
2E5
330
1F
100
AcDbEntity
  8
1
100
AcDbLine
 10
180.9999932135
 20
16.7146567639
 30
0.0
 11
180.798164356
 21
16.8209259043
 31
0.0
  0
LINE
  5
2E6
330
1F
100
AcDbEntity
  8
1
100
AcDbLine
 10
180.798164356
 20
16.8209259043
 30
0.0
 11
180.6707780543
 21
16.9528179446
 31
0.0
  0
LINE
  5
2E7
330
1F
100
AcDbEntity
  8
1
100
AcDbLine
 10
180.6707780543
 20
16.9528179446
 30
0.0
 11
180.6550116373
 21
17.0491417625
 31
0.0
  0
LINE
  5
2E8
330
1F
100
AcDbEntity
  8
1
100
AcDbLine
 10
180.9999932135
 20
16.7146567639
 30
0.0
 11
180.9999932135
 21
16.5351257112
 31
0.0
  0
LINE
  5
2E9
330
1F
100
AcDbEntity
  8
1
100
AcDbLine
 10
179.7174614593
 20
15.8038083464
 30
0.0
 11
179.6887580976
 21
15.8183313907
 31
0.0
  0
LINE
  5
2EA
330
1F
100
AcDbEntity
  8
1
100
AcDbLine
 10
179.6887580976
 20
15.8183313907
 30
0.0
 11
179.6497356817
 21
15.8500615508
 31
0.0
  0
LINE
  5
2EB
330
1F
100
AcDbEntity
  8
1
100
AcDbLine
 10
179.6497356817
 20
15.8500615508
 30
0.0
 11
179.6232507303
 21
15.8937219531
 31
0.0
  0
LINE
  5
2EC
330
1F
100
AcDbEntity
  8
1
100
AcDbLine
 10
179.6232507303
 20
15.8937219531
 30
0.0
 11
179.6194490716
 21
15.9473940731
 31
0.0
  0
LINE
  5
2ED
330
1F
100
AcDbEntity
  8
1
100
AcDbLine
 10
179.6194490716
 20
15.9473940731
 30
0.0
 11
179.6483070329
 21
16.0024091602
 31
0.0
  0
LINE
  5
2EE
330
1F
100
AcDbEntity
  8
1
100
AcDbLine
 10
179.6483070329
 20
16.0024091602
 30
0.0
 11
179.6936941072
 21
16.0373821855
 31
0.0
  0
LINE
  5
2EF
330
1F
100
AcDbEntity
  8
1
100
AcDbLine
 10
179.6936941072
 20
16.0373821855
 30
0.0
 11
179.7174619614
 21
16.0485081651
 31
0.0
  0
LINE
  5
2F0
330
1F
100
AcDbEntity
  8
1
100
AcDbLine
 10
179.6174612688
 20
5.3560713214
 30
0.0
 11
172.799993716
 21
5.3560713214
 31
0.0
  0
LINE
  5
2F1
330
1F
100
AcDbEntity
  8
1
100
AcDbLine
 10
179.6174616292
 20
-5.3560715168
 30
0.0
 11
172.799993716
 21
-5.3560713215
 31
0.0
  0
LINE
  5
2F2
330
1F
100
AcDbEntity
  8
1
100
AcDbLine
 10
179.7174614593
 20
-5.9289704076
 30
0.0
 11
179.6747081652
 21
-5.8241505175
 31
0.0
  0
LINE
  5
2F3
330
1F
100
AcDbEntity
  8
1
100
AcDbLine
 10
179.6747081652
 20
-5.8241505175
 30
0.0
 11
179.6174616292
 21
-5.3560715168
 31
0.0
  0
LINE
  5
2F4
330
1F
100
AcDbEntity
  8
1
100
AcDbLine
 10
179.7174614593
 20
-16.0485077649
 30
0.0
 11
179.7089081928
 21
-16.0448979586
 31
0.0
  0
LINE
  5
2F5
330
1F
100
AcDbEntity
  8
1
100
AcDbLine
 10
179.7089081928
 20
-16.0448979586
 30
0.0
 11
179.6661958769
 21
-16.0191841423
 31
0.0
  0
LINE
  5
2F6
330
1F
100
AcDbEntity
  8
1
100
AcDbLine
 10
179.6661958769
 20
-16.0191841423
 30
0.0
 11
179.6331972554
 21
-15.9822106361
 31
0.0
  0
LINE
  5
2F7
330
1F
100
AcDbEntity
  8
1
100
AcDbLine
 10
179.6331972554
 20
-15.9822106361
 30
0.0
 11
179.6176590696
 21
-15.933830291
 31
0.0
  0
LINE
  5
2F8
330
1F
100
AcDbEntity
  8
1
100
AcDbLine
 10
179.6176590696
 20
-15.933830291
 30
0.0
 11
179.6299972311
 21
-15.8781148493
 31
0.0
  0
LINE
  5
2F9
330
1F
100
AcDbEntity
  8
1
100
AcDbLine
 10
179.6299972311
 20
-15.8781148493
 30
0.0
 11
179.6760436818
 21
-15.8267319202
 31
0.0
  0
LINE
  5
2FA
330
1F
100
AcDbEntity
  8
1
100
AcDbLine
 10
179.6760436818
 20
-15.8267319202
 30
0.0
 11
179.7174619614
 21
-15.8038092147
 31
0.0
  0
LINE
  5
2FB
330
1F
100
AcDbEntity
  8
1
100
AcDbLine
 10
179.7174614593
 20
-17.5125263631
 30
0.0
 11
179.7020275816
 21
-17.5076834857
 31
0.0
  0
LINE
  5
2FC
330
1F
100
AcDbEntity
  8
1
100
AcDbLine
 10
179.7020275816
 20
-17.5076834857
 30
0.0
 11
179.6581138596
 21
-17.486795783
 31
0.0
  0
LINE
  5
2FD
330
1F
100
AcDbEntity
  8
1
100
AcDbLine
 10
179.6581138596
 20
-17.486795783
 30
0.0
 11
179.6278216615
 21
-17.4583885818
 31
0.0
  0
LINE
  5
2FE
330
1F
100
AcDbEntity
  8
1
100
AcDbLine
 10
179.6278216615
 20
-17.4583885818
 30
0.0
 11
179.6175379977
 21
-17.4238737672
 31
0.0
  0
LINE
  5
2FF
330
1F
100
AcDbEntity
  8
1
100
AcDbLine
 10
179.6175379977
 20
-17.4238737672
 30
0.0
 11
179.6334077343
 21
-17.3871181905
 31
0.0
  0
LINE
  5
300
330
1F
100
AcDbEntity
  8
1
100
AcDbLine
 10
179.6334077343
 20
-17.3871181905
 30
0.0
 11
179.6762951389
 21
-17.3547714948
 31
0.0
  0
LINE
  5
301
330
1F
100
AcDbEntity
  8
1
100
AcDbLine
 10
179.6762951389
 20
-17.3547714948
 30
0.0
 11
179.7174619614
 21
-17.3385815769
 31
0.0
  0
LINE
  5
302
330
1F
100
AcDbEntity
  8
1
100
AcDbLine
 10
179.7174614593
 20
-18.5289662331
 30
0.0
 11
179.6971865669
 21
-18.5245610773
 31
0.0
  0
LINE
  5
303
330
1F
100
AcDbEntity
  8
1
100
AcDbLine
 10
179.6971865669
 20
-18.5245610773
 30
0.0
 11
179.6527662054
 21
-18.509266898
 31
0.0
  0
LINE
  5
304
330
1F
100
AcDbEntity
  8
1
100
AcDbLine
 10
179.6527662054
 20
-18.509266898
 30
0.0
 11
179.6247650608
 21
-18.4892937541
 31
0.0
  0
LINE
  5
305
330
1F
100
AcDbEntity
  8
1
100
AcDbLine
 10
179.6247650608
 20
-18.4892937541
 30
0.0
 11
179.6180073842
 21
-18.4662640094
 31
0.0
  0
LINE
  5
306
330
1F
100
AcDbEntity
  8
1
100
AcDbLine
 10
179.6180073842
 20
-18.4662640094
 30
0.0
 11
179.63562987
 21
-18.442871049
 31
0.0
  0
LINE
  5
307
330
1F
100
AcDbEntity
  8
1
100
AcDbLine
 10
179.63562987
 20
-18.442871049
 30
0.0
 11
179.6765223816
 21
-18.4226389974
 31
0.0
  0
LINE
  5
308
330
1F
100
AcDbEntity
  8
1
100
AcDbLine
 10
179.6765223816
 20
-18.4226389974
 30
0.0
 11
179.7174619614
 21
-18.411747242
 31
0.0
  0
LINE
  5
309
330
1F
100
AcDbEntity
  8
1
100
AcDbLine
 10
179.7174614593
 20
-19.1691555082
 30
0.0
 11
179.6941169277
 21
-19.166206941
 31
0.0
  0
LINE
  5
30A
330
1F
100
AcDbEntity
  8
1
100
AcDbLine
 10
179.6941169277
 20
-19.166206941
 30
0.0
 11
179.6495196149
 21
-19.1569905728
 31
0.0
  0
LINE
  5
30B
330
1F
100
AcDbEntity
  8
1
100
AcDbLine
 10
179.6495196149
 20
-19.1569905728
 30
0.0
 11
179.6231203452
 21
-19.1452223807
 31
0.0
  0
LINE
  5
30C
330
1F
100
AcDbEntity
  8
1
100
AcDbLine
 10
179.6231203452
 20
-19.1452223807
 30
0.0
 11
179.6184935346
 21
-19.132040441
 31
0.0
  0
LINE
  5
30D
330
1F
100
AcDbEntity
  8
1
100
AcDbLine
 10
179.6184935346
 20
-19.132040441
 30
0.0
 11
179.6369672492
 21
-19.1189423203
 31
0.0
  0
LINE
  5
30E
330
1F
100
AcDbEntity
  8
1
100
AcDbLine
 10
179.6369672492
 20
-19.1189423203
 30
0.0
 11
179.6767086461
 21
-19.1076342016
 31
0.0
  0
LINE
  5
30F
330
1F
100
AcDbEntity
  8
1
100
AcDbLine
 10
179.6767086461
 20
-19.1076342016
 30
0.0
 11
179.7174619615
 21
-19.1012685942
 31
0.0
  0
LINE
  5
310
330
1F
100
AcDbEntity
  8
1
100
AcDbLine
 10
179.7174614593
 20
-19.4702465087
 30
0.0
 11
179.6657674685
 21
-19.4678287953
 31
0.0
  0
LINE
  5
311
330
1F
100
AcDbEntity
  8
1
100
AcDbLine
 10
179.6657674685
 20
-19.4678287953
 30
0.0
 11
179.6311930492
 21
-19.4644350558
 31
0.0
  0
LINE
  5
312
330
1F
100
AcDbEntity
  8
1
100
AcDbLine
 10
179.6311930492
 20
-19.4644350558
 30
0.0
 11
179.6175864264
 21
-19.4603484123
 31
0.0
  0
LINE
  5
313
330
1F
100
AcDbEntity
  8
1
100
AcDbLine
 10
179.6175864264
 20
-19.4603484123
 30
0.0
 11
179.6265401617
 21
-19.4559767842
 31
0.0
  0
LINE
  5
314
330
1F
100
AcDbEntity
  8
1
100
AcDbLine
 10
179.6265401617
 20
-19.4559767842
 30
0.0
 11
179.6571136191
 21
-19.4518472999
 31
0.0
  0
LINE
  5
315
330
1F
100
AcDbEntity
  8
1
100
AcDbLine
 10
179.6571136191
 20
-19.4518472999
 30
0.0
 11
179.7058478668
 21
-19.4485224783
 31
0.0
  0
LINE
  5
316
330
1F
100
AcDbEntity
  8
1
100
AcDbLine
 10
179.7058478668
 20
-19.4485224783
 30
0.0
 11
179.7174619614
 21
-19.4479944291
 31
0.0
  0
LINE
  5
317
330
1F
100
AcDbEntity
  8
1
100
AcDbLine
 10
180.9999937268
 20
-19.497099082
 30
0.0
 11
180.9999932274
 21
-19.5000004023
 31
0.0
  0
LINE
  5
318
330
1F
100
AcDbEntity
  8
1
  6
Continuous
370
    50
100
AcDbLine
 10
153.3999937136
 20
-19.5000004023
 30
0.0
 11
153.3999937136
 21
19.5000004024
 31
0.0
  0
LINE
  5
319
330
1F
100
AcDbEntity
  8
1
100
AcDbLine
 10
172.799993716
 20
-5.3560713215
 30
0.0
 11
172.799993716
 21
5.3560713214
 31
0.0
  0
LINE
  5
31A
330
1F
100
AcDbEntity
  8
1
100
AcDbLine
 10
179.6174612688
 20
5.3560713214
 30
0.0
 11
179.6174612688
 21
-2.4499999696
 31
0.0
  0
LINE
  5
31B
330
1F
100
AcDbEntity
  8
1
100
AcDbLine
 10
179.6174616292
 20
-2.550000092
 30
0.0
 11
179.6174616292
 21
-5.3560715168
 31
0.0
  0
LINE
  5
31C
330
1F
100
AcDbEntity
  8
1
100
AcDbLine
 10
181.092158772
 20
16.112940386
 30
0.0
 11
181.0921159312
 21
16.1151401699
 31
0.0
  0
LINE
  5
31D
330
1F
100
AcDbEntity
  8
1
100
AcDbLine
 10
181.099993901
 20
17.8223636126
 30
0.0
 11
181.099993901
 21
16.5248934304
 31
0.0
  0
LINE
  5
31E
330
1F
100
AcDbEntity
  8
1
100
AcDbLine
 10
181.0999930575
 20
16.5247153491
 30
0.0
 11
181.0999930575
 21
16.1124225706
 31
0.0
  0
LINE
  5
31F
330
1F
100
AcDbEntity
  8
1
100
AcDbLine
 10
181.099993901
 20
17.8223636126
 30
0.0
 11
181.099993901
 21
17.95912647
 31
0.0
  0
LINE
  5
320
330
1F
100
AcDbEntity
  8
SK1
100
AcDbLine
 10
-0.0794158064
 20
-10.8170370869
 30
0.0
 11
-0.0794158064
 21
10.8170370868
 31
0.0
  0
LINE
  5
321
330
1F
100
AcDbEntity
  8
1
100
AcDbLine
 10
198.6932115648
 20
-19.5091386853
 30
0.0
 11
198.5475899669
 21
-19.1523471443
 31
0.0
  0
LINE
  5
322
330
1F
100
AcDbEntity
  8
1
100
AcDbLine
 10
198.5475899669
 20
-19.1523471443
 30
0.0
 11
198.3418980631
 21
-18.443873298
 31
0.0
  0
LINE
  5
323
330
1F
100
AcDbEntity
  8
1
100
AcDbLine
 10
198.3418980631
 20
-18.443873298
 30
0.0
 11
198.1444763037
 21
-17.5169502912
 31
0.0
  0
LINE
  5
324
330
1F
100
AcDbEntity
  8
1
100
AcDbLine
 10
198.1444763037
 20
-17.5169502912
 30
0.0
 11
197.9587668571
 21
-16.3874385474
 31
0.0
  0
LINE
  5
325
330
1F
100
AcDbEntity
  8
1
100
AcDbLine
 10
197.9587668571
 20
-16.3874385474
 30
0.0
 11
197.7865541371
 21
-15.0621926008
 31
0.0
  0
LINE
  5
326
330
1F
100
AcDbEntity
  8
1
100
AcDbLine
 10
197.7865541371
 20
-15.0621926008
 30
0.0
 11
197.6292351278
 21
-13.5552595897
 31
0.0
  0
LINE
  5
327
330
1F
100
AcDbEntity
  8
1
100
AcDbLine
 10
197.6292351278
 20
-13.5552595897
 30
0.0
 11
197.4895888957
 21
-11.8928320302
 31
0.0
  0
LINE
  5
328
330
1F
100
AcDbEntity
  8
1
100
AcDbLine
 10
197.4895888957
 20
-11.8928320302
 30
0.0
 11
197.365283409
 21
-10.0218245356
 31
0.0
  0
LINE
  5
329
330
1F
100
AcDbEntity
  8
1
100
AcDbLine
 10
197.365283409
 20
-10.0218245356
 30
0.0
 11
197.2624691221
 21
-8.0173408209
 31
0.0
  0
LINE
  5
32A
330
1F
100
AcDbEntity
  8
1
100
AcDbLine
 10
197.2624691221
 20
-8.0173408209
 30
0.0
 11
197.1831278893
 21
-5.9172922341
 31
0.0
  0
LINE
  5
32B
330
1F
100
AcDbEntity
  8
1
100
AcDbLine
 10
197.1831278893
 20
-5.9172922341
 30
0.0
 11
197.1303517016
 21
-3.8478722857
 31
0.0
  0
LINE
  5
32C
330
1F
100
AcDbEntity
  8
1
100
AcDbLine
 10
197.1303517016
 20
-3.8478722857
 30
0.0
 11
197.1001284215
 21
-1.7339787741
 31
0.0
  0
LINE
  5
32D
330
1F
100
AcDbEntity
  8
1
100
AcDbLine
 10
198.6932115648
 20
-19.5091386853
 30
0.0
 11
198.6932115648
 21
-19.5288007675
 31
0.0
  0
LINE
  5
32E
330
1F
100
AcDbEntity
  8
4
  6
LONGDASH_DASH
370
    25
100
AcDbLine
 10
197.4999936315
 20
-0.0000001459
 30
0.0
 11
196.6637628171
 21
-0.0000001459
 31
0.0
  0
LINE
  5
32F
330
1F
100
AcDbEntity
  8
1
100
AcDbLine
 10
181.2825175883
 20
8.9460748967
 30
0.0
 11
181.2825182277
 21
8.2406259877
 31
0.0
  0
LINE
  5
330
330
1F
100
AcDbEntity
  8
1
100
AcDbLine
 10
181.2825250078
 20
-8.2406195733
 30
0.0
 11
181.2825256472
 21
-8.9460694921
 31
0.0
  0
LINE
  5
331
330
1F
100
AcDbEntity
  8
1
100
AcDbLine
 10
181.2825241994
 20
12.6655504126
 30
0.0
 11
181.2825248387
 21
12.2484224368
 31
0.0
  0
LINE
  5
332
330
1F
100
AcDbEntity
  8
1
100
AcDbLine
 10
181.2825248316
 20
-12.2484220192
 30
0.0
 11
181.2825254709
 21
-12.6655498274
 31
0.0
  0
LINE
  5
333
330
1F
100
AcDbEntity
  8
1
100
AcDbLine
 10
181.2825248316
 20
15.1096042245
 30
0.0
 11
181.2825254709
 21
14.8202521229
 31
0.0
  0
LINE
  5
334
330
1F
100
AcDbEntity
  8
1
100
AcDbLine
 10
181.2825248316
 20
-14.8202525452
 30
0.0
 11
181.2825254709
 21
-15.1096038012
 31
0.0
  0
LINE
  5
335
330
1F
100
AcDbEntity
  8
1
100
AcDbLine
 10
181.6216286942
 20
16.0779785365
 30
0.0
 11
185.6553916559
 21
17.9016310722
 31
0.0
  0
LINE
  5
336
330
1F
100
AcDbEntity
  8
1
100
AcDbLine
 10
181.2825248316
 20
-16.6359823197
 30
0.0
 11
181.2825254709
 21
-16.8429243787
 31
0.0
  0
LINE
  5
337
330
1F
100
AcDbEntity
  8
1
100
AcDbLine
 10
181.2825248316
 20
-17.9268494248
 30
0.0
 11
181.2825254708
 21
-18.0711946541
 31
0.0
  0
LINE
  5
338
330
1F
100
AcDbEntity
  8
1
100
AcDbLine
 10
181.2825248316
 20
18.8931748271
 30
0.0
 11
181.2825254708
 21
18.8012752015
 31
0.0
  0
LINE
  5
339
330
1F
100
AcDbEntity
  8
1
100
AcDbLine
 10
181.2825248316
 20
-18.8012756407
 30
0.0
 11
181.2825254709
 21
-18.8931747153
 31
0.0
  0
LINE
  5
33A
330
1F
100
AcDbEntity
  8
1
100
AcDbLine
 10
181.2825248316
 20
-19.315900281
 30
0.0
 11
181.2825254709
 21
-19.3606824626
 31
0.0
  0
LINE
  5
33B
330
1F
100
AcDbEntity
  8
1
100
AcDbLine
 10
181.2825248316
 20
19.3606819958
 30
0.0
 11
181.2825254709
 21
19.3158995288
 31
0.0
  0
LINE
  5
33C
330
1F
100
AcDbEntity
  8
1
100
AcDbLine
 10
190.6840740167
 20
9.2584872324
 30
0.0
 11
190.6582255587
 21
9.4043305144
 31
0.0
  0
LINE
  5
33D
330
1F
100
AcDbEntity
  8
1
100
AcDbLine
 10
179.7174619615
 20
5.9289704796
 30
0.0
 11
179.7174614593
 21
-5.9289704076
 31
0.0
  0
LINE
  5
33E
330
1F
100
AcDbEntity
  8
1
100
AcDbLine
 10
179.7174619614
 20
11.0356995758
 30
0.0
 11
179.7174614593
 21
10.5132460594
 31
0.0
  0
LINE
  5
33F
330
1F
100
AcDbEntity
  8
1
100
AcDbLine
 10
179.7174619614
 20
-10.5132456872
 30
0.0
 11
179.7174614593
 21
-11.0356993973
 31
0.0
  0
LINE
  5
340
330
1F
100
AcDbEntity
  8
1
100
AcDbLine
 10
179.7174619614
 20
-13.6526319912
 30
0.0
 11
179.7174614593
 21
-13.9971654862
 31
0.0
  0
LINE
  5
341
330
1F
100
AcDbEntity
  8
1
100
AcDbLine
 10
179.7174619614
 20
13.9971654176
 30
0.0
 11
179.7174614593
 21
13.6526320129
 31
0.0
  0
LINE
  5
342
330
1F
100
AcDbEntity
  8
1
100
AcDbLine
 10
179.7174619614
 20
-15.8038092147
 30
0.0
 11
179.7174614593
 21
-16.0485077649
 31
0.0
  0
LINE
  5
343
330
1F
100
AcDbEntity
  8
1
100
AcDbLine
 10
179.7174619614
 20
16.0485081651
 30
0.0
 11
179.7174614593
 21
15.8038083464
 31
0.0
  0
LINE
  5
344
330
1F
100
AcDbEntity
  8
1
100
AcDbLine
 10
180.9999932135
 20
16.5351257112
 30
0.0
 11
180.9999932135
 21
16.1198657389
 31
0.0
  0
LINE
  5
345
330
1F
100
AcDbEntity
  8
1
100
AcDbLine
 10
179.7174619614
 20
-17.3385815769
 30
0.0
 11
179.7174614593
 21
-17.5125263631
 31
0.0
  0
LINE
  5
346
330
1F
100
AcDbEntity
  8
1
100
AcDbLine
 10
179.7174619614
 20
17.5125266287
 30
0.0
 11
179.7174614593
 21
17.3385813833
 31
0.0
  0
LINE
  5
347
330
1F
100
AcDbEntity
  8
1
100
AcDbLine
 10
180.9999931107
 20
17.8561476006
 30
0.0
 11
180.9999932135
 21
16.7146567639
 31
0.0
  0
LINE
  5
348
330
1F
100
AcDbEntity
  8
1
100
AcDbLine
 10
179.7174619614
 20
18.5289655275
 30
0.0
 11
179.7174614593
 21
18.4117481113
 31
0.0
  0
LINE
  5
349
330
1F
100
AcDbEntity
  8
1
100
AcDbLine
 10
179.7174619614
 20
-18.411747242
 30
0.0
 11
179.7174614593
 21
-18.5289662331
 31
0.0
  0
LINE
  5
34A
330
1F
100
AcDbEntity
  8
1
100
AcDbLine
 10
179.7174619615
 20
-19.1012685942
 30
0.0
 11
179.7174614593
 21
-19.1691555082
 31
0.0
  0
LINE
  5
34B
330
1F
100
AcDbEntity
  8
1
100
AcDbLine
 10
179.7174619614
 20
19.1691559052
 30
0.0
 11
179.7174614593
 21
19.1012676806
 31
0.0
  0
LINE
  5
34C
330
1F
100
AcDbEntity
  8
1
100
AcDbLine
 10
179.7174619614
 20
19.4702468581
 30
0.0
 11
179.7174614593
 21
19.4479953498
 31
0.0
  0
LINE
  5
34D
330
1F
100
AcDbEntity
  8
1
100
AcDbLine
 10
179.7174619614
 20
-19.4479944291
 30
0.0
 11
179.7174614593
 21
-19.4702465087
 31
0.0
  0
ARC
  5
34E
330
1F
100
AcDbEntity
  8
1
100
AcDbCircle
 10
196.4499937162
 20
1.7
 30
0.0
 40
0.7999999999999964
100
AcDbArc
 50
3.703196634299998
 51
86.29680336570001
  0
ARC
  5
34F
330
1F
100
AcDbEntity
  8
SK1
100
AcDbCircle
 10
-2.2500022958
 20
10.9606439702
 30
0.0
 40
0.7999977946000363
100
AcDbArc
 50
359.9999813573
 51
30.0
  0
ARC
  5
350
330
1F
100
AcDbEntity
  8
SK1
100
AcDbCircle
 10
-9.1500059262
 20
10.9606406461
 30
0.0
 40
0.7999996424000597
100
AcDbArc
 50
150.0
 51
180.0000186426
  0
ARC
  5
351
330
1F
100
AcDbEntity
  8
SK1
100
AcDbCircle
 10
-2.2500022958
 20
-10.9606439702
 30
0.0
 40
0.7999977946000121
100
AcDbArc
 50
330.0
 51
0.0000186427
  0
ARC
  5
352
330
1F
100
AcDbEntity
  8
SK1
100
AcDbCircle
 10
-9.1500059262
 20
-10.9606406461
 30
0.0
 40
0.7999996424000697
100
AcDbArc
 50
179.9999813574
 51
210.0
  0
ARC
  5
353
330
1F
100
AcDbEntity
  8
SK1
100
AcDbCircle
 10
-3.1243213847
 20
12.4750014141
 30
0.0
 40
0.7999983853725912
100
AcDbArc
 50
30.0001347615
 51
90.0
  0
ARC
  5
354
330
1F
100
AcDbEntity
  8
SK1
100
AcDbCircle
 10
-8.2756898234
 20
12.4749998139
 30
0.0
 40
0.7999999855266005
100
AcDbArc
 50
90.0
 51
149.9999975708
  0
ARC
  5
355
330
1F
100
AcDbEntity
  8
SK1
100
AcDbCircle
 10
-3.1243213847
 20
-12.4750014142
 30
0.0
 40
0.7999983853725707
100
AcDbArc
 50
270.0
 51
329.9998652385
  0
ARC
  5
356
330
1F
100
AcDbEntity
  8
SK1
100
AcDbCircle
 10
-8.2756898234
 20
-12.474999814
 30
0.0
 40
0.7999999855265595
100
AcDbArc
 50
210.0000024292
 51
270.0
  0
ARC
  5
357
330
1F
100
AcDbEntity
  8
SK1
100
AcDbCircle
 10
0.0499937162
 20
-11.3
 30
0.0
 40
0.5000000000000011
100
AcDbArc
 50
60.0
 51
105.0
  0
ARC
  5
358
330
1F
100
AcDbEntity
  8
SK1
100
AcDbCircle
 10
0.0499937162
 20
11.3
 30
0.0
 40
0.5000000000000011
100
AcDbArc
 50
255.0
 51
300.0
  0
ARC
  5
359
330
1F
100
AcDbEntity
  8
SK1
100
AcDbCircle
 10
-23.1000062838
 20
-10.4
 30
0.0
 40
0.6000000000000142
100
AcDbArc
 50
180.0
 51
280.0
  0
ARC
  5
35A
330
1F
100
AcDbEntity
  8
SK1
100
AcDbCircle
 10
-23.1000062838
 20
10.4
 30
0.0
 40
0.6000000000000142
100
AcDbArc
 50
80.0
 51
180.0
  0
ARC
  5
35B
330
1F
100
AcDbEntity
  8
1
  6
Continuous
370
    50
100
AcDbCircle
 10
91.4908368003
 20
3.1329263474
 30
0.0
 40
1.917025455819674
100
AcDbArc
 50
67.57165810480001
 51
77.6525560096
  0
ARC
  5
35C
330
1F
100
AcDbEntity
  8
1
  6
Continuous
370
    50
100
AcDbCircle
 10
92.1489672883
 20
4.7582599784
 30
0.0
 40
0.1639636809204475
100
AcDbArc
 50
359.9854369599001
 51
63.45800849560001
  0
ARC
  5
35D
330
1F
100
AcDbEntity
  8
1
  6
Continuous
370
    50
100
AcDbCircle
 10
91.859021176
 20
4.917365935
 30
0.0
 40
0.6238697452699896
100
AcDbArc
 50
192.2228198546
 51
277.650971901
  0
ARC
  5
35E
330
1F
100
AcDbEntity
  8
1
  6
Continuous
370
    50
100
AcDbCircle
 10
92.1461798521
 20
6.6883560107
 30
0.0
 40
1.405655920621226
100
AcDbArc
 50
246.406754911
 51
259.5127337002
  0
ARC
  5
35F
330
1F
100
AcDbEntity
  8
1
  6
Continuous
370
    50
100
AcDbCircle
 10
91.6638880169
 20
5.5517344406
 30
0.0
 40
0.1715009576742732
100
AcDbArc
 50
179.0690163871
 51
242.0777406078
  0
ARC
  5
360
330
1F
100
AcDbEntity
  8
1
  6
Continuous
370
    50
100
AcDbCircle
 10
91.9740843451
 20
5.4189801108
 30
0.0
 40
0.4049190826547008
100
AcDbArc
 50
9.2754348888
 51
99.3401084308
  0
ARC
  5
361
330
1F
100
AcDbEntity
  8
1
  6
Continuous
370
    50
100
AcDbCircle
 10
92.0004451608
 20
5.3735726566
 30
0.0
 40
0.6916984805538705
100
AcDbArc
 50
11.7672117332
 51
95.8672983131
  0
ARC
  5
362
330
1F
100
AcDbEntity
  8
1
  6
Continuous
370
    50
100
AcDbCircle
 10
80.4179516821
 20
5.4894437894
 30
0.0
 40
2.22482887565382
100
AcDbArc
 50
355.6800048604999
 51
14.1077331106
  0
ARC
  5
363
330
1F
100
AcDbEntity
  8
1
  6
Continuous
370
    50
100
AcDbCircle
 10
83.4745668422
 20
4.9873930589
 30
0.0
 40
0.7025600196422819
100
AcDbArc
 50
258.2603990416
 51
345.8927457431001
  0
ARC
  5
364
330
1F
100
AcDbEntity
  8
1
  6
Continuous
370
    50
100
AcDbCircle
 10
83.3346846436
 20
5.0935353459
 30
0.0
 40
0.5523160525209121
100
AcDbArc
 50
235.4623463236
 51
274.1191195287
  0
ARC
  5
365
330
1F
100
AcDbEntity
  8
1
  6
Continuous
370
    50
100
AcDbCircle
 10
83.2342705455
 20
4.8429716109
 30
0.0
 40
0.2950132391480841
100
AcDbArc
 50
175.0583396384
 51
223.8585009183
  0
ARC
  5
366
330
1F
100
AcDbEntity
  8
1
  6
Continuous
370
    50
100
AcDbCircle
 10
83.7780509886
 20
2.438390693
 30
0.0
 40
2.635969831501069
100
AcDbArc
 50
96.1339140842
 51
108.5296066516
  0
ARC
  5
367
330
1F
100
AcDbEntity
  8
1
  6
Continuous
370
    50
100
AcDbCircle
 10
83.685617497
 20
5.5354727225
 30
0.0
 40
0.5333553793269777
100
AcDbArc
 50
5.2677057298
 51
99.0924813736
  0
ARC
  5
368
330
1F
100
AcDbEntity
  8
1
  6
Continuous
370
    50
100
AcDbCircle
 10
83.6188202517
 20
5.0615687413
 30
0.0
 40
1.000710331508094
100
AcDbArc
 50
91.0013341302
 51
132.6863654834
  0
ARC
  5
369
330
1F
100
AcDbEntity
  8
1
  6
Continuous
370
    50
100
AcDbCircle
 10
82.2443653453
 20
5.7419818828
 30
0.0
 40
0.6981729283123258
100
AcDbArc
 50
4.5334999945
 51
24.5204966125
  0
ARC
  5
36A
330
1F
100
AcDbEntity
  8
1
  6
Continuous
370
    50
100
AcDbCircle
 10
76.4683789908
 20
5.6076321939
 30
0.0
 40
0.4430564238232116
100
AcDbArc
 50
356.5581930957
 51
20.2520707653
  0
ARC
  5
36B
330
1F
100
AcDbEntity
  8
1
  6
Continuous
370
    50
100
AcDbCircle
 10
76.7584984425
 20
5.6584440024
 30
0.0
 40
0.1621080214584312
100
AcDbArc
 50
39.2436064273
 51
96.8297041278
  0
ARC
  5
36C
330
1F
100
AcDbEntity
  8
1
  6
Continuous
370
    50
100
AcDbCircle
 10
63.960912413
 20
5.4903804429
 30
0.0
 40
2.224846767679687
100
AcDbArc
 50
355.6800703561
 51
14.1076612257
  0
ARC
  5
36D
330
1F
100
AcDbEntity
  8
1
  6
Continuous
370
    50
100
AcDbCircle
 10
67.0175266154
 20
4.9883618213
 30
0.0
 40
0.7025859742373548
100
AcDbArc
 50
258.2624206366
 51
345.8906776805999
  0
ARC
  5
36E
330
1F
100
AcDbEntity
  8
1
  6
Continuous
370
    50
100
AcDbCircle
 10
66.8776586547
 20
5.094453498
 30
0.0
 40
0.5522967550039072
100
AcDbArc
 50
235.461567005
 51
274.1197580072
  0
ARC
  5
36F
330
1F
100
AcDbEntity
  8
1
  6
Continuous
370
    50
100
AcDbCircle
 10
66.7771918369
 20
4.8438896133
 30
0.0
 40
0.2949577306452524
100
AcDbArc
 50
175.0534483379
 51
223.8633922187
  0
ARC
  5
370
330
1F
100
AcDbEntity
  8
1
  6
Continuous
370
    50
100
AcDbCircle
 10
67.3209884711
 20
2.4395178259
 30
0.0
 40
2.635777676042167
100
AcDbArc
 50
96.1334604516
 51
108.5300602423
  0
ARC
  5
371
330
1F
100
AcDbEntity
  8
1
  6
Continuous
370
    50
100
AcDbCircle
 10
67.2285975894
 20
5.5364223877
 30
0.0
 40
0.5333455516956025
100
AcDbArc
 50
5.2665275075
 51
99.0936054768
  0
ARC
  5
372
330
1F
100
AcDbEntity
  8
1
  6
Continuous
370
    50
100
AcDbCircle
 10
67.1617940007
 20
5.0625200501
 30
0.0
 40
1.000697374677043
100
AcDbArc
 50
91.0014865886
 51
132.6866591279
  0
ARC
  5
373
330
1F
100
AcDbEntity
  8
1
  6
Continuous
370
    50
100
AcDbCircle
 10
65.7870675153
 20
5.7428485192
 30
0.0
 40
0.6984543234012286
100
AcDbArc
 50
4.5375674995
 51
24.516429099
  0
ARC
  5
374
330
1F
100
AcDbEntity
  8
1
  6
Continuous
370
    50
100
AcDbCircle
 10
58.3478262392
 20
5.4632645709
 30
0.0
 40
0.6003017172571758
100
AcDbArc
 50
39.26854687180001
 51
90.373918719
  0
ARC
  5
375
330
1F
100
AcDbEntity
  8
1
  6
Continuous
370
    50
100
AcDbCircle
 10
58.3729250247
 20
5.2532516717
 30
0.0
 40
0.8108211959245873
100
AcDbArc
 50
92.0508491938
 51
186.0346581881
  0
ARC
  5
376
330
1F
100
AcDbEntity
  8
1
  6
Continuous
370
    50
100
AcDbCircle
 10
58.3322744328
 20
5.0725457653
 30
0.0
 40
0.7716056914027387
100
AcDbArc
 50
172.8930672747
 51
269.630161901
  0
ARC
  5
377
330
1F
100
AcDbEntity
  8
1
  6
Continuous
370
    50
100
AcDbCircle
 10
58.3428360492
 20
4.8917835958
 30
0.0
 40
0.5910318373627722
100
AcDbArc
 50
268.4931337809
 51
327.8000489195
  0
ARC
  5
378
330
1F
100
AcDbEntity
  8
1
  6
Continuous
370
    50
100
AcDbCircle
 10
50.1528325916
 20
5.1439417028
 30
0.0
 40
1.019397600255696
100
AcDbArc
 50
340.5065843336999
 51
0.4164461410999999
  0
ARC
  5
379
330
1F
100
AcDbEntity
  8
1
  6
Continuous
370
    50
100
AcDbCircle
 10
50.8246126992
 20
4.9151022671
 30
0.0
 40
0.3098758739232339
100
AcDbArc
 50
268.8603913645
 51
338.9440464973
  0
ARC
  5
37A
330
1F
100
AcDbEntity
  8
1
  6
Continuous
370
    50
100
AcDbCircle
 10
50.8221845674
 20
5.4708817983
 30
0.0
 40
0.8656021698506798
100
AcDbArc
 50
254.770680296
 51
269.7527814677
  0
ARC
  5
37B
330
1F
100
AcDbEntity
  8
1
  6
Continuous
370
    50
100
AcDbCircle
 10
50.8208165921
 20
4.8964483785
 30
0.0
 40
0.5954061120779198
100
AcDbArc
 50
237.8106965667
 51
268.0360715808
  0
ARC
  5
37C
330
1F
100
AcDbEntity
  8
1
  6
Continuous
370
    50
100
AcDbCircle
 10
50.7301332118
 20
4.7677693705
 30
0.0
 40
0.4716427997376231
100
AcDbArc
 50
278.5694529997
 51
339.6027017171
  0
ARC
  5
37D
330
1F
100
AcDbEntity
  8
1
  6
Continuous
370
    50
100
AcDbCircle
 10
103.7529343436
 20
2.4908135916
 30
0.0
 40
0.5319826829873445
100
AcDbArc
 50
6.1749771095
 51
82.4206978521
  0
ARC
  5
37E
330
1F
100
AcDbEntity
  8
1
  6
Continuous
370
    50
100
AcDbCircle
 10
103.7522716293
 20
2.4892574513
 30
0.0
 40
0.53361282977861
100
AcDbArc
 50
82.37220032069999
 51
158.3174430767
  0
ARC
  5
37F
330
1F
100
AcDbEntity
  8
1
  6
Continuous
370
    50
100
AcDbCircle
 10
101.1741718108
 20
4.1838917821
 30
0.0
 40
0.5322506262054042
100
AcDbArc
 50
2.3006618905
 51
82.13911140579998
  0
ARC
  5
380
330
1F
100
AcDbEntity
  8
1
  6
Continuous
370
    50
100
AcDbCircle
 10
101.1745259192
 20
4.1812827824
 30
0.0
 40
0.5347871465794316
100
AcDbArc
 50
82.21492296910002
 51
161.6222643406
  0
ARC
  5
381
330
1F
100
AcDbEntity
  8
1
  6
Continuous
370
    50
100
AcDbCircle
 10
97.8958161419
 20
6.1826005342
 30
0.0
 40
0.5336981932636414
100
AcDbArc
 50
1.3513707686
 51
81.1970123677
  0
ARC
  5
382
330
1F
100
AcDbEntity
  8
1
  6
Continuous
370
    50
100
AcDbCircle
 10
97.8978093374
 20
6.1812009689
 30
0.0
 40
0.5347806981445565
100
AcDbArc
 50
81.4309937546
 51
90.1973161071
  0
ARC
  5
383
330
1F
100
AcDbEntity
  8
1
  6
Continuous
370
    50
100
AcDbCircle
 10
97.8959316362
 20
6.1832128955
 30
0.0
 40
0.5327656014760559
100
AcDbArc
 50
89.9961264072
 51
161.152832439
  0
ARC
  5
384
330
1F
100
AcDbEntity
  8
1
  6
Continuous
370
    50
100
AcDbCircle
 10
93.2094448642
 20
-7.5222138477
 30
0.0
 40
0.5334349281419772
100
AcDbArc
 50
161.1240539633
 51
251.1082639246
  0
ARC
  5
385
330
1F
100
AcDbEntity
  8
1
  6
Continuous
370
    50
100
AcDbCircle
 10
93.2087938966
 20
-7.5213502915
 30
0.0
 40
0.5340419462624844
100
AcDbArc
 50
251.2043399832
 51
341.0381664445
  0
ARC
  5
386
330
1F
100
AcDbEntity
  8
1
  6
Continuous
370
    50
100
AcDbCircle
 10
98.1563487274
 20
-4.9651363336
 30
0.0
 40
0.5333513475730962
100
AcDbArc
 50
181.3527232404
 51
261.5527701588
  0
ARC
  5
387
330
1F
100
AcDbEntity
  8
1
  6
Continuous
370
    50
100
AcDbCircle
 10
98.1558330224
 20
-4.9647047604
 30
0.0
 40
0.5337027907820767
100
AcDbArc
 50
261.614339231
 51
341.7098302891
  0
ARC
  5
388
330
1F
100
AcDbEntity
  8
1
  6
Continuous
370
    50
100
AcDbCircle
 10
101.4841311231
 20
-3.2421591825
 30
0.0
 40
0.5322731295278882
100
AcDbArc
 50
182.3256155361
 51
260.4828691187
  0
ARC
  5
389
330
1F
100
AcDbEntity
  8
1
  6
Continuous
370
    50
100
AcDbCircle
 10
101.4855957991
 20
-3.2429949152
 30
0.0
 40
0.5316934284842241
100
AcDbArc
 50
260.3123157869001
 51
338.5299690567001
  0
ARC
  5
38A
330
1F
100
AcDbEntity
  8
1
  6
Continuous
370
    50
100
AcDbCircle
 10
104.2341854101
 20
-1.9244935567
 30
0.0
 40
0.5328545281948627
100
AcDbArc
 50
186.2260790027
 51
256.8848486579
  0
ARC
  5
38B
330
1F
100
AcDbEntity
  8
1
  6
Continuous
370
    50
100
AcDbCircle
 10
104.2344793235
 20
-1.9243497565
 30
0.0
 40
0.5330613294115077
100
AcDbArc
 50
256.8575887392
 51
327.4543371007001
  0
ARC
  5
38C
330
1F
100
AcDbEntity
  8
1
  6
Continuous
370
    50
100
AcDbCircle
 10
114.7532081687
 20
-0.0056916794
 30
0.0
 40
0.5325341109312939
100
AcDbArc
 50
269.9486789695
 51
0.0610448226
  0
ARC
  5
38D
330
1F
100
AcDbEntity
  8
1
  6
Continuous
370
    50
100
AcDbCircle
 10
114.7533288237
 20
-0.0045245667
 30
0.0
 40
0.5324134914452636
100
AcDbArc
 50
359.9354595682
 51
90.0579026217
  0
ARC
  5
38E
330
1F
100
AcDbEntity
  8
1
  6
Continuous
370
    50
100
AcDbCircle
 10
105.4583560667
 20
-0.0044151812
 30
0.0
 40
0.532833706531496
100
AcDbArc
 50
89.9608158082
 51
147.4557955912
  0
ARC
  5
38F
330
1F
100
AcDbEntity
  8
1
  6
Continuous
370
    50
100
AcDbCircle
 10
73.8093901756
 20
-0.0967848794
 30
0.0
 40
2.37505955764995
100
AcDbArc
 50
218.4749304312
 51
271.8205428603999
  0
ARC
  5
390
330
1F
100
AcDbEntity
  8
1
  6
Continuous
370
    50
100
AcDbCircle
 10
89.8594290616
 20
-3.2108366913
 30
0.0
 40
0.7396020521519276
100
AcDbArc
 50
39.1940741918
 51
91.6865162854
  0
ARC
  5
391
330
1F
100
AcDbEntity
  8
1
  6
Continuous
370
    50
100
AcDbCircle
 10
90.1911244628
 20
-2.9578656658
 30
0.0
 40
0.3229548059162686
100
AcDbArc
 50
354.9058403759
 51
41.6004038323
  0
ARC
  5
392
330
1F
100
AcDbEntity
  8
1
  6
Continuous
370
    50
100
AcDbCircle
 10
89.2449932006
 20
-2.4712157564
 30
0.0
 40
1.368540882220592
100
AcDbArc
 50
257.7764761382
 51
337.8797698097
  0
ARC
  5
393
330
1F
100
AcDbEntity
  8
1
  6
Continuous
370
    50
100
AcDbCircle
 10
89.0756578133
 20
-2.2734291216
 30
0.0
 40
3.365662586734768
100
AcDbArc
 50
265.4009968984
 51
341.7379971845
  0
ARC
  5
394
330
1F
100
AcDbEntity
  8
1
  6
Continuous
370
    50
100
AcDbCircle
 10
90.3244931202
 20
-2.8042670705
 30
0.0
 40
2.016537176662911
100
AcDbArc
 50
344.9436002434
 51
37.2553656066
  0
ARC
  5
395
330
1F
100
AcDbEntity
  8
1
  6
Continuous
370
    50
100
AcDbCircle
 10
90.0415020839
 20
-3.0296344171
 30
0.0
 40
2.378226544358758
100
AcDbArc
 50
37.4496957203
 51
91.3106247002
  0
ARC
  5
396
330
1F
100
AcDbEntity
  8
1
  6
Continuous
370
    50
100
AcDbCircle
 10
73.9611007901
 20
0.0169577418
 30
0.0
 40
0.6720761167441698
100
AcDbArc
 50
220.5781921278
 51
276.2523420628
  0
ARC
  5
397
330
1F
100
AcDbEntity
  8
1
  6
Continuous
370
    50
100
AcDbCircle
 10
74.3384820865
 20
0.0208527607
 30
0.0
 40
0.9913605456898855
100
AcDbArc
 50
162.4135528352
 51
206.417861469
  0
ARC
  5
398
330
1F
100
AcDbEntity
  8
1
  6
Continuous
370
    50
100
AcDbCircle
 10
75.106616042
 20
-0.5936893367
 30
0.0
 40
3.692913316122027
100
AcDbArc
 50
83.70962965239997
 51
159.9132143602
  0
ARC
  5
399
330
1F
100
AcDbEntity
  8
1
  6
Continuous
370
    50
100
AcDbCircle
 10
74.2286838436
 20
-0.1125645731
 30
0.0
 40
2.707321166637028
100
AcDbArc
 50
163.0965356481
 51
212.6827031397
  0
ARC
  5
39A
330
1F
100
AcDbEntity
  8
1
  6
Continuous
370
    50
100
AcDbCircle
 10
47.5302117566
 20
7.5169873513
 30
0.0
 40
0.533586349989891
100
AcDbArc
 50
341.1402243269
 51
71.0916165315
  0
ARC
  5
39B
330
1F
100
AcDbEntity
  8
1
  6
Continuous
370
    50
100
AcDbCircle
 10
47.5282331954
 20
7.5019410716
 30
0.0
 40
0.5484700927743542
100
AcDbArc
 50
71.4054344181
 51
89.7599772407
  0
ARC
  5
39C
330
1F
100
AcDbEntity
  8
1
  6
Continuous
370
    50
100
AcDbCircle
 10
47.530402693
 20
7.5171392164
 30
0.0
 40
0.5332671507156965
100
AcDbArc
 50
89.98623230660002
 51
161.1142832185
  0
ARC
  5
39D
330
1F
100
AcDbEntity
  8
1
  6
Continuous
370
    50
100
AcDbCircle
 10
42.5833497114
 20
4.9604672034
 30
0.0
 40
0.532745854783084
100
AcDbArc
 50
1.3043609181
 51
81.5425692422
  0
ARC
  5
39E
330
1F
100
AcDbEntity
  8
1
  6
Continuous
370
    50
100
AcDbCircle
 10
42.5831028067
 20
4.9598992214
 30
0.0
 40
0.5333439978065219
100
AcDbArc
 50
81.5253073703
 51
161.7678483743
  0
ARC
  5
39F
330
1F
100
AcDbEntity
  8
1
  6
Continuous
370
    50
100
AcDbCircle
 10
39.2549619304
 20
3.2362223656
 30
0.0
 40
0.5332163920929608
100
AcDbArc
 50
2.4239732336
 51
80.4008918403
  0
ARC
  5
3A0
330
1F
100
AcDbEntity
  8
1
  6
Continuous
370
    50
100
AcDbCircle
 10
39.2553044104
 20
3.2363508824
 30
0.0
 40
0.5330326588749169
100
AcDbArc
 50
80.434886056
 51
158.4292568312
  0
ARC
  5
3A1
330
1F
100
AcDbEntity
  8
1
  6
Continuous
370
    50
100
AcDbCircle
 10
36.5057809229
 20
1.919767105
 30
0.0
 40
0.5323972549187033
100
AcDbArc
 50
6.1874391152
 51
76.9032697428
  0
ARC
  5
3A2
330
1F
100
AcDbEntity
  8
1
  6
Continuous
370
    50
100
AcDbCircle
 10
36.5056273437
 20
1.9183998163
 30
0.0
 40
0.533763803387154
100
AcDbArc
 50
76.920470091
 51
147.4174263002
  0
ARC
  5
3A3
330
1F
100
AcDbEntity
  8
1
  6
Continuous
370
    50
100
AcDbCircle
 10
25.8638289548
 20
0.0005278521
 30
0.0
 40
0.5324228602225011
100
AcDbArc
 50
89.9370606932
 51
179.3164148569
  0
ARC
  5
3A4
330
1F
100
AcDbEntity
  8
1
  6
Continuous
370
    50
100
AcDbCircle
 10
25.8639292003
 20
-0.0006258977
 30
0.0
 40
0.532538110432055
100
AcDbArc
 50
179.1924203203
 51
270.0457273963
  0
ARC
  5
3A5
330
1F
100
AcDbEntity
  8
1
  6
Continuous
370
    50
100
AcDbCircle
 10
35.2806256196
 20
0.0008140735
 30
0.0
 40
0.534514761891792
100
AcDbArc
 50
270.0378923803
 51
327.3759462094999
  0
ARC
  5
3A6
330
1F
100
AcDbEntity
  8
1
  6
Continuous
370
    50
100
AcDbCircle
 10
36.9876312662
 20
-2.4952869659
 30
0.0
 40
0.5330667879062596
100
AcDbArc
 50
186.2337093911
 51
262.3261312843001
  0
ARC
  5
3A7
330
1F
100
AcDbEntity
  8
1
  6
Continuous
370
    50
100
AcDbCircle
 10
36.9881964211
 20
-2.4961679071
 30
0.0
 40
0.5322696351200786
100
AcDbArc
 50
262.2531775862
 51
338.5002666351
  0
ARC
  5
3A8
330
1F
100
AcDbEntity
  8
1
  6
Continuous
370
    50
100
AcDbCircle
 10
39.5658038511
 20
-4.1887631174
 30
0.0
 40
0.532843295204272
100
AcDbArc
 50
182.3583820445
 51
262.117942163
  0
ARC
  5
3A9
330
1F
100
AcDbEntity
  8
1
  6
Continuous
370
    50
100
AcDbCircle
 10
39.565860003
 20
-4.18844322
 30
0.0
 40
0.5331678708274623
100
AcDbArc
 50
262.1166792075
 51
341.7602358539999
  0
ARC
  5
3AA
330
1F
100
AcDbEntity
  8
1
  6
Continuous
370
    50
100
AcDbCircle
 10
42.8435230881
 20
-6.1874505332
 30
0.0
 40
0.5337988629037438
100
AcDbArc
 50
181.4134971116
 51
261.2212356755999
  0
ARC
  5
3AB
330
1F
100
AcDbEntity
  8
1
  6
Continuous
370
    50
100
AcDbCircle
 10
42.842336914
 20
-6.1867514962
 30
0.0
 40
0.534310207991355
100
AcDbArc
 50
261.3583832603999
 51
340.9948706905
  0
ARC
  5
3AC
330
1F
100
AcDbEntity
  8
1
  6
Continuous
370
    50
100
AcDbCircle
 10
49.8613245806
 20
-2.1493790777
 30
0.0
 40
3.312932532225477
100
AcDbArc
 50
163.0105103885
 51
215.4605073265
  0
ARC
  5
3AD
330
1F
100
AcDbEntity
  8
1
  6
Continuous
370
    50
100
AcDbCircle
 10
50.6199876999
 20
-1.0290894346
 30
0.0
 40
4.605092151438875
100
AcDbArc
 50
221.3479016814
 51
273.3960754863
  0
ARC
  5
3AE
330
1F
100
AcDbEntity
  8
1
  6
Continuous
370
    50
100
AcDbCircle
 10
52.5502468318
 20
-3.0745706089
 30
0.0
 40
6.164766321134743
100
AcDbArc
 50
86.4366381874
 51
160.4640564972
  0
ARC
  5
3AF
330
1F
100
AcDbEntity
  8
1
  6
Continuous
370
    50
100
AcDbCircle
 10
54.5414318845
 20
5.1005373543
 30
0.0
 40
0.799785305783487
100
AcDbArc
 50
175.1449425023
 51
271.8614075384
  0
ARC
  5
3B0
330
1F
100
AcDbEntity
  8
1
  6
Continuous
370
    50
100
AcDbCircle
 10
54.5955703234
 20
5.1260006465
 30
0.0
 40
0.825307120963352
100
AcDbArc
 50
268.0446639658999
 51
4.9154821305
  0
ARC
  5
3B1
330
1F
100
AcDbEntity
  8
1
  6
Continuous
370
    50
100
AcDbCircle
 10
54.6117493317
 20
5.2567182395
 30
0.0
 40
0.8083227053417792
100
AcDbArc
 50
355.7431316684
 51
93.2115913791
  0
ARC
  5
3B2
330
1F
100
AcDbEntity
  8
1
  6
Continuous
370
    50
100
AcDbCircle
 10
54.4976272139
 20
5.3196698289
 30
0.0
 40
0.7472788896721857
100
AcDbArc
 50
84.7145944493
 51
164.7077846458
  0
ARC
  5
3B3
330
1F
100
AcDbEntity
  8
1
  6
Continuous
370
    50
100
AcDbCircle
 10
54.5469069698
 20
5.3288602146
 30
0.0
 40
0.4920941233998912
100
AcDbArc
 50
87.9992164651
 51
161.3323640905
  0
ARC
  5
3B4
330
1F
100
AcDbEntity
  8
1
  6
Continuous
370
    50
100
AcDbCircle
 10
54.5511814728
 20
5.2578467167
 30
0.0
 40
0.5629555744881818
100
AcDbArc
 50
358.5144341704
 51
88.6863483166
  0
ARC
  5
3B5
330
1F
100
AcDbEntity
  8
1
  6
Continuous
370
    50
100
AcDbCircle
 10
63.123263932
 20
4.8594617949
 30
0.0
 40
0.315682875827742
100
AcDbArc
 50
167.4707650996
 51
270.6893878077
  0
ARC
  5
3B6
330
1F
100
AcDbEntity
  8
1
  6
Continuous
370
    50
100
AcDbCircle
 10
62.0791970455
 20
4.9804043787
 30
0.0
 40
0.4367667335212968
100
AcDbArc
 50
268.4292282679
 51
8.472533328099999
  0
ARC
  5
3B7
330
1F
100
AcDbEntity
  8
1
  6
Continuous
370
    50
100
AcDbCircle
 10
61.9557308634
 20
4.8102074129
 30
0.0
 40
0.5116784781721531
100
AcDbArc
 50
173.2876114907
 51
275.2612528080999
  0
ARC
  5
3B8
330
1F
100
AcDbEntity
  8
1
  6
Continuous
370
    50
100
AcDbCircle
 10
62.0057701609
 20
4.9704513037
 30
0.0
 40
0.6697739016510897
100
AcDbArc
 50
269.7331143323
 51
325.5698325657
  0
ARC
  5
3B9
330
1F
100
AcDbEntity
  8
1
  6
Continuous
370
    50
100
AcDbCircle
 10
63.0217956819
 20
4.8124119139
 30
0.0
 40
0.5134184849375805
100
AcDbArc
 50
205.4529431442
 51
274.6518284696
  0
ARC
  5
3BA
330
1F
100
AcDbEntity
  8
1
  6
Continuous
370
    50
100
AcDbCircle
 10
63.082426441
 20
4.9409122723
 30
0.0
 40
0.6405092427536344
100
AcDbArc
 50
268.3008294603
 51
324.7085792527
  0
ARC
  5
3BB
330
1F
100
AcDbEntity
  8
1
  6
Continuous
370
    50
100
AcDbCircle
 10
70.8956994758
 20
4.8818674624
 30
0.0
 40
0.5816610869126431
100
AcDbArc
 50
215.9918630868
 51
270.6958740434001
  0
ARC
  5
3BC
330
1F
100
AcDbEntity
  8
1
  6
Continuous
370
    50
100
AcDbCircle
 10
70.8594669904
 20
5.0860657964
 30
0.0
 40
0.7870083955241505
100
AcDbArc
 50
273.1536823081
 51
6.9684752623
  0
ARC
  5
3BD
330
1F
100
AcDbEntity
  8
1
  6
Continuous
370
    50
100
AcDbCircle
 10
70.8552156938
 20
5.2724484103
 30
0.0
 40
0.7906885822374919
100
AcDbArc
 50
353.3984876687
 51
88.4471916306
  0
ARC
  5
3BE
330
1F
100
AcDbEntity
  8
1
  6
Continuous
370
    50
100
AcDbCircle
 10
70.8668199615
 20
5.5029563197
 30
0.0
 40
0.5599764575864021
100
AcDbArc
 50
88.9949740898
 51
147.4722654538
  0
ARC
  5
3BF
330
1F
100
AcDbEntity
  8
1
  6
Continuous
370
    50
100
AcDbCircle
 10
79.0124850851
 20
5.1422965456
 30
0.0
 40
1.019397688800656
100
AcDbArc
 50
340.5065846486
 51
0.4164709144
  0
ARC
  5
3C0
330
1F
100
AcDbEntity
  8
1
  6
Continuous
370
    50
100
AcDbCircle
 10
79.684268554
 20
4.9134529379
 30
0.0
 40
0.3098713265156586
100
AcDbArc
 50
268.8597687947
 51
338.9445445867
  0
ARC
  5
3C1
330
1F
100
AcDbEntity
  8
1
  6
Continuous
370
    50
100
AcDbCircle
 10
79.6818336382
 20
5.4692240637
 30
0.0
 40
0.8655891359981444
100
AcDbArc
 50
254.7706860794
 51
269.7530099569
  0
ARC
  5
3C2
330
1F
100
AcDbEntity
  8
1
  6
Continuous
370
    50
100
AcDbCircle
 10
79.6804691709
 20
4.8948031972
 30
0.0
 40
0.5954061120935915
100
AcDbArc
 50
237.81069658
 51
268.0360715808
  0
ARC
  5
3C3
330
1F
100
AcDbEntity
  8
1
  6
Continuous
370
    50
100
AcDbCircle
 10
79.5897786534
 20
4.7661329758
 30
0.0
 40
0.4716525519003347
100
AcDbArc
 50
278.5701512877
 51
339.6020034247
  0
ARC
  5
3C4
330
1F
100
AcDbEntity
  8
1
  6
Continuous
370
    50
100
AcDbCircle
 10
88.162735137
 20
4.8580401296
 30
0.0
 40
0.3156884677625692
100
AcDbArc
 50
167.4720292936
 51
270.6894628827
  0
ARC
  5
3C5
330
1F
100
AcDbEntity
  8
1
  6
Continuous
370
    50
100
AcDbCircle
 10
87.1186672038
 20
4.9789784807
 30
0.0
 40
0.436768044997899
100
AcDbArc
 50
268.4294334568
 51
8.4723281482
  0
ARC
  5
3C6
330
1F
100
AcDbEntity
  8
1
  6
Continuous
370
    50
100
AcDbCircle
 10
86.995192394
 20
4.808770874
 30
0.0
 40
0.5116694781754685
100
AcDbArc
 50
173.2864457386
 51
275.2616497636001
  0
ARC
  5
3C7
330
1F
100
AcDbEntity
  8
1
  6
Continuous
370
    50
100
AcDbCircle
 10
87.0452527783
 20
4.9689889668
 30
0.0
 40
0.6697389028533107
100
AcDbArc
 50
269.7315277922
 51
325.5714191126
  0
ARC
  5
3C8
330
1F
100
AcDbEntity
  8
1
  6
Continuous
370
    50
100
AcDbCircle
 10
88.0612661928
 20
4.8109944892
 30
0.0
 40
0.5134283750785622
100
AcDbArc
 50
205.4536323709
 51
274.6518702
  0
ARC
  5
3C9
330
1F
100
AcDbEntity
  8
1
  6
Continuous
370
    50
100
AcDbCircle
 10
88.1218846621
 20
4.9395120208
 30
0.0
 40
0.6405358322675
100
AcDbArc
 50
268.3021049603
 51
324.7073037535
  0
ARC
  5
3CA
330
1F
100
AcDbEntity
  8
1
  6
Continuous
370
    50
100
AcDbCircle
 10
50.7990165448
 20
-0.8330314983
 30
0.0
 40
2.983419738257203
100
AcDbArc
 50
224.2105123872
 51
274.6646563764
  0
ARC
  5
3CB
330
1F
100
AcDbEntity
  8
1
  6
Continuous
370
    50
100
AcDbCircle
 10
49.9181422865
 20
-2.0146108914
 30
0.0
 40
1.545729909921794
100
AcDbArc
 50
161.8535218017
 51
215.5518851558
  0
ARC
  5
3CC
330
1F
100
AcDbEntity
  8
1
  6
Continuous
370
    50
100
AcDbCircle
 10
52.470784113
 20
-3.0434518084
 30
0.0
 40
4.313928252481291
100
AcDbArc
 50
85.8289624338
 51
157.0954274526
  0
ARC
  5
3CD
330
1F
100
AcDbEntity
  8
1
  6
Continuous
370
    50
100
AcDbCircle
 10
58.4043107364
 20
5.0844111125
 30
0.0
 40
0.5420329564890459
100
AcDbArc
 50
170.0083670516
 51
265.4675299389
  0
ARC
  5
3CE
330
1F
100
AcDbEntity
  8
1
  6
Continuous
370
    50
100
AcDbCircle
 10
58.3960581892
 20
5.2853844762
 30
0.0
 40
0.5363267595172494
100
AcDbArc
 50
93.95053740230001
 51
191.5002096821
  0
ARC
  5
3CF
330
1F
100
AcDbEntity
  8
1
  6
Continuous
370
    50
100
AcDbCircle
 10
58.3266719447
 20
5.2914311406
 30
0.0
 40
0.5299991945033666
100
AcDbArc
 50
349.7339463472
 51
86.49131444300001
  0
ARC
  5
3D0
330
1F
100
AcDbEntity
  8
1
  6
Continuous
370
    50
100
AcDbCircle
 10
70.8859693465
 20
5.3110776332
 30
0.0
 40
0.5095777123649624
100
AcDbArc
 50
93.45343539129999
 51
190.9466251408
  0
ARC
  5
3D1
330
1F
100
AcDbEntity
  8
1
  6
Continuous
370
    50
100
AcDbCircle
 10
70.8021666319
 20
5.2791553964
 30
0.0
 40
0.5431770081367839
100
AcDbArc
 50
349.8006008988
 51
84.3891544649
  0
ARC
  5
3D2
330
1F
100
AcDbEntity
  8
1
  6
Continuous
370
    50
100
AcDbCircle
 10
54.5934631379
 20
5.0467171764
 30
0.0
 40
0.5031771702788557
100
AcDbArc
 50
266.8698392502999
 51
354.6881667339
  0
ARC
  5
3D3
330
1F
100
AcDbEntity
  8
1
  6
Continuous
370
    50
100
AcDbCircle
 10
54.5508737332
 20
5.0891079937
 30
0.0
 40
0.5450268729167345
100
AcDbArc
 50
226.7018235835
 51
271.5890263963
  0
ARC
  5
3D4
330
1F
100
AcDbEntity
  8
1
  6
Continuous
370
    50
100
AcDbCircle
 10
54.5570850173
 20
5.0289843781
 30
0.0
 40
0.5075951219076872
100
AcDbArc
 50
183.2581929081
 51
221.5303435681
  0
ARC
  5
3D5
330
1F
100
AcDbEntity
  8
1
  6
Continuous
370
    50
100
AcDbCircle
 10
83.7064452852
 20
3.0729391311
 30
0.0
 40
2.242786368420004
100
AcDbArc
 50
96.2520594033
 51
109.9731770192
  0
ARC
  5
3D6
330
1F
100
AcDbEntity
  8
1
  6
Continuous
370
    50
100
AcDbCircle
 10
67.2494240492
 20
3.073876973
 30
0.0
 40
2.242786368469802
100
AcDbArc
 50
96.2520594136
 51
109.9731770298
  0
ARC
  5
3D7
330
1F
100
AcDbEntity
  8
SK1
100
AcDbCircle
 10
-9.0008686282
 20
0.0
 30
0.0
 40
3.655424025224602
100
AcDbArc
 50
346.2630361117
 51
13.7369638883
  0
ARC
  5
3D8
330
1F
100
AcDbEntity
  8
SK1
100
AcDbCircle
 10
-5.703141354
 20
-24.0990642717
 30
0.0
 40
14.05799757545374
100
AcDbArc
 50
69.4230543181
 51
111.0562220674
  0
ARC
  5
3D9
330
1F
100
AcDbEntity
  8
SK1
100
AcDbCircle
 10
-5.703155692
 20
24.1018940968
 30
0.0
 40
14.06065193404696
100
AcDbArc
 50
248.9409125465
 51
290.5729475464
  0
CIRCLE
  5
3DA
330
1F
100
AcDbEntity
  8
SK1
100
AcDbCircle
 10
-9.3500062838
 20
0.0
 30
0.0
 40
3.000000000000003
  0
ARC
  5
3DB
330
1F
100
AcDbEntity
  8
SK1
100
AcDbCircle
 10
-18.1231946835
 20
4.5510863726
 30
0.0
 40
1.611818860557694
100
AcDbArc
 50
131.9184325007
 51
177.6525852207
  0
ARC
  5
3DC
330
1F
100
AcDbEntity
  8
SK1
100
AcDbCircle
 10
-17.9406761534
 20
-4.4651432809
 30
0.0
 40
1.799412881805307
100
AcDbArc
 50
184.8444179045
 51
225.5845643731
  0
ARC
  5
3DD
330
1F
100
AcDbEntity
  8
1
100
AcDbCircle
 10
195.363497983
 20
-14.6939755945
 30
0.0
 40
2.099996929854575
100
AcDbArc
 50
308.255887027
 51
51.7441129746
  0
ARC
  5
3DE
330
1F
100
AcDbEntity
  8
1
100
AcDbCircle
 10
200.4787200559
 20
0.0381593262
 30
0.0
 40
3.815148080841297
100
AcDbArc
 50
180.5730873649
 51
207.6778985185
  0
ARC
  5
3DF
330
1F
100
AcDbEntity
  8
1
100
AcDbCircle
 10
205.4990165288
 20
-2.0001923104
 30
0.0
 40
7.999022899534008
100
AcDbArc
 50
179.9986242358
 51
202.2935558819
  0
ARC
  5
3E0
330
1F
100
AcDbEntity
  8
1
100
AcDbCircle
 10
198.8261884523
 20
-18.7138622392
 30
0.0
 40
0.8063172318250802
100
AcDbArc
 50
260.5074813293
 51
357.8965353009
  0
ARC
  5
3E1
330
1F
100
AcDbEntity
  8
1
100
AcDbCircle
 10
181.1411807397
 20
12.471696181
 30
0.0
 40
0.2399113101206248
100
AcDbArc
 50
11.006449348
 51
53.9033725179
  0
ARC
  5
3E2
330
1F
100
AcDbEntity
  8
1
100
AcDbCircle
 10
181.2220584958
 20
14.9649280402
 30
0.0
 40
0.1568036227196007
100
AcDbArc
 50
292.682379412
 51
67.3178737529
  0
ARC
  5
3E3
330
1F
100
AcDbEntity
  8
1
100
AcDbCircle
 10
194.9000034591
 20
11.1710685983
 30
0.0
 40
5.000008092986064
100
AcDbArc
 50
180.0000077842
 51
224.9999239297
  0
ARC
  5
3E4
330
1F
100
AcDbEntity
  8
1
100
AcDbCircle
 10
195.363497983
 20
-14.6939755945
 30
0.0
 40
2.099996929854575
100
AcDbArc
 50
51.7441129746
 51
308.255887027
  0
ARC
  5
3E5
330
1F
100
AcDbEntity
  8
1
100
AcDbCircle
 10
181.1772543346
 20
-39.7756093736
 30
0.0
 40
20.2766510410651
100
AcDbArc
 50
89.49567096239998
 51
89.7052313883
  0
ARC
  5
3E6
330
1F
100
AcDbEntity
  8
1
100
AcDbCircle
 10
181.2220010527
 20
-14.9649283069
 30
0.0
 40
0.1568253928632118
100
AcDbArc
 50
292.7018025231001
 51
67.29845066180002
  0
ARC
  5
3E7
330
1F
100
AcDbEntity
  8
1
100
AcDbCircle
 10
181.1211388208
 20
-12.4569861706
 30
0.0
 40
0.2637128168161164
100
AcDbArc
 50
307.7327201891
 51
52.2674554404
  0
ARC
  5
3E8
330
1F
100
AcDbEntity
  8
1
100
AcDbCircle
 10
180.758449266
 20
-8.5933450076
 30
0.0
 40
0.6317203615836947
100
AcDbArc
 50
326.0578601541
 51
33.942243695
  0
ARC
  5
3E9
330
1F
100
AcDbEntity
  8
1
100
AcDbCircle
 10
180.7540140055
 20
8.5933499632
 30
0.0
 40
0.6353982339366079
100
AcDbArc
 50
326.2808343716
 51
33.7192694896
  0
ARC
  5
3EA
330
1F
100
AcDbEntity
  8
1
100
AcDbCircle
 10
205.4999933379
 20
-2.0000001669
 30
0.0
 40
7.999999609868619
100
AcDbArc
 50
223.1992054904
 51
226.5674634422
  0
ARC
  5
3EB
330
1F
100
AcDbEntity
  8
1
100
AcDbCircle
 10
205.4999933379
 20
-2.0000001669
 30
0.0
 40
7.999999586816976
100
AcDbArc
 50
202.292175244
 51
203.8045762134
  0
ARC
  5
3EC
330
1F
100
AcDbEntity
  8
1
100
AcDbCircle
 10
204.4807084784
 20
-2.6950890979
 30
0.0
 40
6.783839455090188
100
AcDbArc
 50
201.7702150203
 51
224.8128735016
  0
CIRCLE
  5
3ED
330
1F
100
AcDbEntity
  8
1
100
AcDbCircle
 10
195.363497983
 20
-14.6939755945
 30
0.0
 40
1.599996226793468
  0
ARC
  5
3EE
330
1F
100
AcDbEntity
  8
1
100
AcDbCircle
 10
198.8265123307
 20
-18.7342557937
 30
0.0
 40
0.805649309303371
100
AcDbArc
 50
260.4761841347
 51
0.5077399605
  0
ARC
  5
3EF
330
1F
100
AcDbEntity
  8
CUT
100
AcDbCircle
 10
199.8999927863
 20
-20.099999383
 30
0.0
 40
0.3999993205000156
100
AcDbArc
 50
260.0001807349
 51
0.0
  0
ARC
  5
3F0
330
1F
100
AcDbEntity
  8
CUT
100
AcDbCircle
 10
199.8999927863
 20
-11.2404031679
 30
0.0
 40
0.3999993205000121
100
AcDbArc
 50
0.0
 51
75.5223717012
  0
ARC
  5
3F1
330
1F
100
AcDbEntity
  8
CUT
100
AcDbCircle
 10
191.1749896763
 20
18.5615459196
 30
0.0
 40
0.3999994665501913
100
AcDbArc
 50
100.0000104081
 51
179.9999343478
  0
ARC
  5
3F2
330
1F
100
AcDbEntity
  8
CUT
100
AcDbCircle
 10
199.7683871668
 20
20.0987795479
 30
0.0
 40
0.3999998044015681
100
AcDbArc
 50
54.6174868297
 51
81.0624238104
  0
ARC
  5
3F3
330
1F
100
AcDbEntity
  8
CUT
100
AcDbCircle
 10
199.9000135733
 20
11.2404067389
 30
0.0
 40
0.3999991953001117
100
AcDbArc
 50
279.9967081784
 51
284.4747288398
  0
CIRCLE
  5
3F5
330
1F
100
AcDbEntity
  8
CUT
100
AcDbCircle
 10
195.5374937162
 20
14.90097495
 30
0.0
 40
3.031444667569843
  0
CIRCLE
  5
3F6
330
1F
100
AcDbEntity
  8
CUT
100
AcDbCircle
 10
195.5374937162
 20
14.90097495
 30
0.0
 40
3.000000000000057
  0
CIRCLE
  5
3F7
330
1F
100
AcDbEntity
  8
1
100
AcDbCircle
 10
195.363497983
 20
-14.6939755945
 30
0.0
 40
1.399996226793546
  0
CIRCLE
  5
3F8
330
1F
100
AcDbEntity
  8
1
100
AcDbCircle
 10
195.3634937162
 20
14.69397495
 30
0.0
 40
2.650000000007651
  0
ARC
  5
3F9
330
1F
100
AcDbEntity
  8
1
100
AcDbCircle
 10
195.3634937162
 20
14.69397495
 30
0.0
 40
1.725000000000072
100
AcDbArc
 50
330.0
 51
30.0
  0
ARC
  5
3FA
330
1F
100
AcDbEntity
  8
1
100
AcDbCircle
 10
195.3634937162
 20
14.69397495
 30
0.0
 40
1.725000000000088
100
AcDbArc
 50
30.0
 51
90.0
  0
ARC
  5
3FB
330
1F
100
AcDbEntity
  8
1
100
AcDbCircle
 10
195.3634937162
 20
14.69397495
 30
0.0
 40
1.725000000000088
100
AcDbArc
 50
90.0
 51
149.9999999995
  0
ARC
  5
3FC
330
1F
100
AcDbEntity
  8
1
100
AcDbCircle
 10
195.3634937162
 20
14.69397495
 30
0.0
 40
1.725000000000082
100
AcDbArc
 50
149.9999999995
 51
209.9999999999
  0
ARC
  5
3FD
330
1F
100
AcDbEntity
  8
1
100
AcDbCircle
 10
195.3634937162
 20
14.69397495
 30
0.0
 40
1.725000000000088
100
AcDbArc
 50
209.9999999999
 51
270.0
  0
ARC
  5
3FE
330
1F
100
AcDbEntity
  8
1
100
AcDbCircle
 10
195.3634937162
 20
14.69397495
 30
0.0
 40
1.725000000000088
100
AcDbArc
 50
270.0
 51
330.0
  0
ARC
  5
3FF
330
1F
100
AcDbEntity
  8
1
100
AcDbCircle
 10
194.0861062456
 20
15.4314749499
 30
0.0
 40
0.2499999999922909
100
AcDbArc
 50
149.9999999938
 51
240.1863532135
  0
ARC
  5
400
330
1F
100
AcDbEntity
  8
1
100
AcDbCircle
 10
193.663502708
 20
14.69397495
 30
0.0
 40
0.5999999999976268
100
AcDbArc
 50
299.8136467865
 51
60.18635321430001
  0
ARC
  5
401
330
1F
100
AcDbEntity
  8
1
100
AcDbCircle
 10
194.0861062456
 20
13.95647495
 30
0.0
 40
0.2499999999899591
100
AcDbArc
 50
119.8136467846
 51
210.0000000021
  0
ARC
  5
402
330
1F
100
AcDbEntity
  8
1
100
AcDbCircle
 10
194.0861062456
 20
13.95647495
 30
0.0
 40
0.2499999999899591
100
AcDbArc
 50
210.0000000021
 51
300.1863532135
  0
ARC
  5
403
330
1F
100
AcDbEntity
  8
1
100
AcDbCircle
 10
194.5134982121
 20
13.2217395507
 30
0.0
 40
0.600000000003953
100
AcDbArc
 50
359.8136467865
 51
120.1863532146
  0
ARC
  5
404
330
1F
100
AcDbEntity
  8
1
100
AcDbCircle
 10
195.3634937162
 20
13.21897495
 30
0.0
 40
0.2500000000021938
100
AcDbArc
 50
179.8136467834
 51
270.0000000003
  0
ARC
  5
405
330
1F
100
AcDbEntity
  8
1
100
AcDbCircle
 10
195.3634937162
 20
16.16897495
 30
0.0
 40
0.2500000000021956
100
AcDbArc
 50
89.99999999949999
 51
180.1863532173
  0
ARC
  5
406
330
1F
100
AcDbEntity
  8
1
100
AcDbCircle
 10
194.5134982121
 20
16.1662103492
 30
0.0
 40
0.6000000000021334
100
AcDbArc
 50
239.8136467865
 51
0.1863532134
  0
ARC
  5
407
330
1F
100
AcDbEntity
  8
1
100
AcDbCircle
 10
194.0861062456
 20
15.4314749499
 30
0.0
 40
0.2499999999922194
100
AcDbArc
 50
59.8136467839
 51
149.9999999938
  0
ARC
  5
408
330
1F
100
AcDbEntity
  8
1
100
AcDbCircle
 10
196.2134892203
 20
13.2217395507
 30
0.0
 40
0.6000000000000024
100
AcDbArc
 50
59.8136467865
 51
180.1863532135
  0
ARC
  5
409
330
1F
100
AcDbEntity
  8
1
100
AcDbCircle
 10
196.6408811868
 20
13.9564749499
 30
0.0
 40
0.2499999999921531
100
AcDbArc
 50
239.8136467847
 51
330.0000000015
  0
ARC
  5
40A
330
1F
100
AcDbEntity
  8
1
100
AcDbCircle
 10
195.3634937162
 20
13.21897495
 30
0.0
 40
0.2500000000021938
100
AcDbArc
 50
270.0000000003
 51
0.1863532133
  0
ARC
  5
40B
330
1F
100
AcDbEntity
  8
1
100
AcDbCircle
 10
196.6408811868
 20
15.43147495
 30
0.0
 40
0.2499999999898213
100
AcDbArc
 50
29.9999999992
 51
120.1863532126
  0
ARC
  5
40C
330
1F
100
AcDbEntity
  8
1
100
AcDbCircle
 10
196.2134892203
 20
16.1662103493
 30
0.0
 40
0.6000000000039585
100
AcDbArc
 50
179.8136467865
 51
300.1863532146
  0
ARC
  5
40D
330
1F
100
AcDbEntity
  8
1
100
AcDbCircle
 10
195.3634937162
 20
16.16897495
 30
0.0
 40
0.2500000000021956
100
AcDbArc
 50
359.8136467867
 51
89.99999999949999
  0
ARC
  5
40E
330
1F
100
AcDbEntity
  8
1
100
AcDbCircle
 10
196.6408811868
 20
13.9564749499
 30
0.0
 40
0.2499999999921796
100
AcDbArc
 50
330.0000000015
 51
60.18635321350001
  0
ARC
  5
40F
330
1F
100
AcDbEntity
  8
1
100
AcDbCircle
 10
197.0634847243
 20
14.69397495
 30
0.0
 40
0.5999999999977059
100
AcDbArc
 50
119.8136467835
 51
240.186353217
  0
ARC
  5
410
330
1F
100
AcDbEntity
  8
1
100
AcDbCircle
 10
196.6408811868
 20
15.43147495
 30
0.0
 40
0.2499999999898138
100
AcDbArc
 50
299.8136467846
 51
29.9999999992
  0
ARC
  5
411
330
1F
100
AcDbEntity
  8
1
100
AcDbCircle
 10
190.4749937162
 20
10.4382194369
 30
0.0
 40
1.198116290792185
100
AcDbArc
 50
260.682522368
 51
280.0500000000001
  0
ARC
  5
412
330
1F
100
AcDbEntity
  8
1
100
AcDbCircle
 10
205.4999939638
 20
1.9999998541
 30
0.0
 40
7.999999754088265
100
AcDbArc
 50
133.4325323685
 51
180.0
  0
ARC
  5
413
330
1F
100
AcDbEntity
  8
1
100
AcDbCircle
 10
179.8155177203
 20
13.8248985724
 30
0.0
 40
0.1982190651901455
100
AcDbArc
 50
119.6489014059
 51
240.3509316103
  0
ARC
  5
414
330
1F
100
AcDbEntity
  8
1
100
AcDbCircle
 10
179.9750816294
 20
10.77447257
 30
0.0
 40
0.3668888685930455
100
AcDbArc
 50
134.6016512934
 51
225.3982385779
  0
ARC
  5
415
330
1F
100
AcDbEntity
  8
1
100
AcDbCircle
 10
180.867832056
 20
5.4329938417
 30
0.0
 40
1.252734680484828
100
AcDbArc
 50
156.6769382019
 51
183.5203863372
  0
ARC
  5
416
330
1F
100
AcDbEntity
  8
1
100
AcDbCircle
 10
179.9762578755
 20
-10.774472791
 30
0.0
 40
0.3677158208153052
100
AcDbArc
 50
134.7321351464
 51
225.2677547342
  0
ARC
  5
417
330
1F
100
AcDbEntity
  8
1
100
AcDbCircle
 10
179.8163137974
 20
-13.8248988828
 30
0.0
 40
0.1986141167980491
100
AcDbArc
 50
119.848478359
 51
240.1513546358
  0
ARC
  5
418
330
1F
100
AcDbEntity
  8
1
100
AcDbCircle
 10
180.6376633462
 20
17.8153063468
 30
0.0
 40
0.4841836115768365
100
AcDbArc
 50
17.2796849119
 51
41.5538271883
  0
ARC
  5
419
330
1F
100
AcDbEntity
  8
1
100
AcDbCircle
 10
195.5374937162
 20
14.90097495
 30
0.0
 40
2.40096189432332
100
AcDbArc
 50
25.7881864913
 51
74.11235800619998
  0
ELLIPSE
  5
41A
330
1F
100
AcDbEntity
  8
1
100
AcDbEllipse
 10
155.6017633574
 20
0.0
 30
0.0
 11
33.77499043936987
 21
0.0
 31
0.0
210
0.0
220
0.0
230
1.0
 40
0.5773502692
 41
0.7069469390948071
 42
0.7592733734537767
  0
ELLIPSE
  5
41B
330
1F
100
AcDbEntity
  8
1
100
AcDbEllipse
 10
203.2331605655
 20
0.0
 30
0.0
 11
33.77499074759308
 21
0.0
 31
0.0
210
0.0
220
0.0
230
1.0
 40
0.5773502692
 41
2.278259644649319
 42
2.325290261081091
  0
ELLIPSE
  5
41C
330
1F
100
AcDbEntity
  8
1
100
AcDbEllipse
 10
159.9318903763
 20
0.0
 30
0.0
 11
33.77499091179649
 21
0.0
 31
0.0
210
0.0
220
0.0
230
1.0
 40
0.5773502692
 41
0.8864801380342872
 42
0.9308763229239874
  0
ELLIPSE
  5
41D
330
1F
100
AcDbEntity
  8
1
100
AcDbEllipse
 10
118.7707787355
 20
0.0
 30
0.0
 11
110.5899954825498
 21
0.0
 31
0.0
210
0.0
220
0.0
230
1.0
 40
0.1763269807
 41
0.9729753156400804
 42
0.9823526902546011
  0
ELLIPSE
  5
41E
330
1F
100
AcDbEntity
  8
1
100
AcDbEllipse
 10
141.8058606323
 20
-0.0000004701
 30
0.0
 11
110.5899954825498
 21
0.0
 31
0.0
210
0.0
220
0.0
230
1.0
 40
0.1763269807
 41
1.163089237671013
 42
1.214600256938004
  0
ELLIPSE
  5
41F
330
1F
100
AcDbEntity
  8
1
100
AcDbEllipse
 10
190.2427795087
 20
0.0
 30
0.0
 11
33.77499074759319
 21
0.0
 31
0.0
210
0.0
220
0.0
230
1.0
 40
0.5773502692
 41
1.83930367761289
 42
1.875808346981726
  0
ELLIPSE
  5
420
330
1F
100
AcDbEntity
  8
1
100
AcDbEllipse
 10
172.9222714331
 20
0.0
 30
0.0
 11
33.77499077706375
 21
0.0
 31
0.0
210
0.0
220
0.0
230
1.0
 40
0.5773502692
 41
1.320668381070268
 42
1.356647380464951
  0
ELLIPSE
  5
421
330
1F
100
AcDbEntity
  8
1
100
AcDbEllipse
 10
185.9126524898
 20
0.0
 30
0.0
 11
33.77499074759311
 21
0.0
 31
0.0
210
0.0
220
0.0
230
1.0
 40
0.5773502692
 41
1.708316819113545
 42
1.743756918351708
  0
ELLIPSE
  5
422
330
1F
100
AcDbEntity
  8
1
100
AcDbEllipse
 10
177.252398452
 20
0.0
 30
0.0
 11
33.77498986857901
 21
0.0
 31
0.0
210
0.0
220
0.0
230
1.0
 40
0.5773502692
 41
1.45118854492118
 42
1.486385356323434
  0
ELLIPSE
  5
423
330
1F
100
AcDbEntity
  8
1
100
AcDbEllipse
 10
181.5825254815
 20
0.000000333
 30
0.0
 11
33.77498991383587
 21
0.0
 31
0.0
210
0.0
220
0.0
230
1.0
 40
0.5773502692
 41
1.579678741347554
 42
1.614704823300826
  0
ELLIPSE
  5
424
330
1F
100
AcDbEntity
  8
1
100
AcDbEllipse
 10
190.8171505927
 20
-0.0000004751
 30
0.0
 11
1.136868377216160E-13
 21
19.50000000000005
 31
0.0
210
0.0
220
0.0
230
1.0
 40
0.1139356083
 41
3.146720881195834
 42
3.213449210138366
  0
ELLIPSE
  5
425
330
1F
100
AcDbEntity
  8
1
100
AcDbEllipse
 10
181.5825254815
 20
0.000000333
 30
0.0
 11
33.77499274453544
 21
0.0
 31
0.0
210
0.0
220
0.0
230
1.0
 40
0.5773502692
 41
4.668480510060779
 42
4.703478285596481
  0
ELLIPSE
  5
426
330
1F
100
AcDbEntity
  8
1
100
AcDbEllipse
 10
177.252398452
 20
0.0
 30
0.0
 11
33.77499074759297
 21
0.0
 31
0.0
210
0.0
220
0.0
230
1.0
 40
0.5773502692
 41
4.796799925184107
 42
4.831996778195704
  0
ELLIPSE
  5
427
330
1F
100
AcDbEntity
  8
1
100
AcDbEllipse
 10
185.9126524898
 20
0.0
 30
0.0
 11
33.77499212564845
 21
0.0
 31
0.0
210
0.0
220
0.0
230
1.0
 40
0.5773502692
 41
4.539428418497364
 42
4.574868474604724
  0
ELLIPSE
  5
428
330
1F
100
AcDbEntity
  8
1
100
AcDbEllipse
 10
172.9222714331
 20
0.0
 30
0.0
 11
33.77499074759308
 21
0.0
 31
0.0
210
0.0
220
0.0
230
1.0
 40
0.5773502692
 41
4.926537903706159
 42
4.962516945869767
  0
ELLIPSE
  5
429
330
1F
100
AcDbEntity
  8
1
100
AcDbEllipse
 10
190.2427795087
 20
0.0
 30
0.0
 11
33.77499165052632
 21
0.0
 31
0.0
210
0.0
220
0.0
230
1.0
 40
0.5773502692
 41
4.407376986282552
 42
4.443881617292267
  0
ELLIPSE
  5
42A
330
1F
100
AcDbEntity
  8
1
100
AcDbEllipse
 10
168.5921445628
 20
0.0000007382
 30
0.0
 11
33.77499187669235
 21
0.0
 31
0.0
210
0.0
220
0.0
230
1.0
 40
0.5773502692
 41
5.06007265216032
 42
5.097576643288492
  0
ELLIPSE
  5
42B
330
1F
100
AcDbEntity
  8
1
100
AcDbEllipse
 10
194.5729065277
 20
0.0
 30
0.0
 11
33.77499128781145
 21
0.0
 31
0.0
210
0.0
220
0.0
230
1.0
 40
0.5773502692
 41
4.269546206562503
 42
4.307955824747511
  0
ELLIPSE
  5
42C
330
1F
100
AcDbEntity
  8
1
100
AcDbEllipse
 10
164.2620173016
 20
-0.000000315
 30
0.0
 11
33.77499032356732
 21
0.0
 31
0.0
210
0.0
220
0.0
230
1.0
 40
0.5773502692
 41
5.20046352957672
 42
5.240541210387311
  0
ELLIPSE
  5
42D
330
1F
100
AcDbEntity
  8
1
100
AcDbEllipse
 10
198.9030335466
 20
0.0
 30
0.0
 11
33.77499149621906
 21
0.0
 31
0.0
210
0.0
220
0.0
230
1.0
 40
0.5773502692
 41
4.121963080284115
 42
4.163543256774883
  0
ELLIPSE
  5
42E
330
1F
100
AcDbEntity
  8
1
100
AcDbEllipse
 10
159.9318903763
 20
0.0
 30
0.0
 11
33.77499074759311
 21
0.0
 31
0.0
210
0.0
220
0.0
230
1.0
 40
0.5773502692
 41
5.352308955153645
 42
5.396705197539091
  0
ELLIPSE
  5
42F
330
1F
100
AcDbEntity
  8
1
100
AcDbEllipse
 10
203.2331605655
 20
0.0
 30
0.0
 11
33.7749917187389
 21
0.0
 31
0.0
210
0.0
220
0.0
230
1.0
 40
0.5773502692
 41
3.957895090405439
 42
4.004925662213521
  0
ELLIPSE
  5
430
330
1F
100
AcDbEntity
  8
1
100
AcDbEllipse
 10
155.6017633574
 20
0.0
 30
0.0
 11
33.77499074759294
 21
0.0
 31
0.0
210
0.0
220
0.0
230
1.0
 40
0.5773502692
 41
5.523911904058163
 42
5.576238415361008
  0
ELLIPSE
  5
431
330
1F
100
AcDbEntity
  8
1
100
AcDbEllipse
 10
207.5632875844
 20
0.0
 30
0.0
 11
33.77499099525221
 21
0.0
 31
0.0
210
0.0
220
0.0
230
1.0
 40
0.5773502692
 41
3.762888001602344
 42
3.820732810968034
  0
ELLIPSE
  5
432
330
1F
100
AcDbEntity
  8
1
100
AcDbEllipse
 10
151.2716363384
 20
0.0
 30
0.0
 11
33.77499008387949
 21
0.0
 31
0.0
210
0.0
220
0.0
230
1.0
 40
0.5773502692
 41
5.735134114522297
 42
5.806571718920483
  0
ELLIPSE
  5
433
330
1F
100
AcDbEntity
  8
1
100
AcDbEllipse
 10
211.8934139804
 20
0.0000003868
 30
0.0
 11
33.77499038728075
 21
-5.551115123125783E-14
 31
0.0
210
0.0
220
0.0
230
1.0
 40
0.5773502692
 41
3.48583845162774
 42
3.577900293157782
  0
ELLIPSE
  5
434
330
1F
100
AcDbEntity
  8
1
100
AcDbEllipse
 10
177.3746746971
 20
0.0000002427
 30
0.0
 11
0.0
 21
19.5000000000001
 31
0.0
210
0.0
220
0.0
230
1.0
 40
0.5773502692
 41
4.434142134283556
 42
4.990635826485848
  0
ELLIPSE
  5
435
330
1F
100
AcDbEntity
  8
1
100
AcDbEllipse
 10
211.8934139804
 20
0.0000003868
 30
0.0
 11
33.77499074759311
 21
-5.551115123125783E-14
 31
0.0
210
0.0
220
0.0
230
1.0
 40
0.5773512181
 41
2.705285466170595
 42
2.797346594670033
  0
ELLIPSE
  5
436
330
1F
100
AcDbEntity
  8
1
100
AcDbEllipse
 10
151.2716363384
 20
0.0
 30
0.0
 11
33.77498987231732
 21
0.0
 31
0.0
210
0.0
220
0.0
230
1.0
 40
0.5773500536
 41
0.4766140962195667
 42
0.5480512590635662
  0
ELLIPSE
  5
437
330
1F
100
AcDbEntity
  8
1
100
AcDbEllipse
 10
207.5632875844
 20
0.0
 30
0.0
 11
33.77499144417089
 21
0.0
 31
0.0
210
0.0
220
0.0
230
1.0
 40
0.5773502692
 41
2.46245247941109
 42
2.520297320524477
  0
ELLIPSE
  5
438
330
1F
100
AcDbEntity
  8
1
100
AcDbEllipse
 10
198.959461787
 20
-4.25
 30
0.0
 11
0.0
 21
7.475000000000064
 31
0.0
210
0.0
220
0.0
230
1.0
 40
0.1051042353
 41
1.702136415906827
 42
4.266110510415249
  0
ELLIPSE
  5
439
330
1F
100
AcDbEntity
  8
1
100
AcDbEllipse
 10
181.1825254709
 20
12.5573748836
 30
0.0
 11
0.1999999999999886
 21
0.0
 31
0.0
210
0.0
220
0.0
230
1.0
 40
0.8306583385
 41
6.000971051125029
 42
6.040798636536335
  0
ELLIPSE
  5
43A
330
1F
100
AcDbEntity
  8
1
100
AcDbEllipse
 10
190.8171505927
 20
-0.0000004751
 30
0.0
 11
-1.136868377216160E-13
 21
19.50000002841942
 31
0.0
210
0.0
220
0.0
230
1.0
 40
0.1139356083
 41
6.211328744950739
 42
6.278057779110714
  0
ELLIPSE
  5
43B
330
1F
100
AcDbEntity
  8
1
100
AcDbEllipse
 10
181.5825254815
 20
0.000000333
 30
0.0
 11
33.7749901722334
 21
0.0
 31
0.0
210
0.0
220
0.0
230
1.0
 40
0.5773502692
 41
1.588044625431865
 42
1.626044682533511
  0
ELLIPSE
  5
43C
330
1F
100
AcDbEntity
  8
1
100
AcDbEllipse
 10
177.252398452
 20
0.0
 30
0.0
 11
33.77499230150477
 21
0.0
 31
0.0
210
0.0
220
0.0
230
1.0
 40
0.5773502692
 41
1.459609682280474
 42
1.497746517442504
  0
ELLIPSE
  5
43D
330
1F
100
AcDbEntity
  8
1
100
AcDbEllipse
 10
185.9126524898
 20
0.0
 30
0.0
 11
33.77499074759339
 21
0.0
 31
0.0
210
0.0
220
0.0
230
1.0
 40
0.5773502692
 41
1.716766718050325
 42
1.755266152812748
  0
ELLIPSE
  5
43E
330
1F
100
AcDbEntity
  8
1
100
AcDbEllipse
 10
172.9222714331
 20
0.0
 30
0.0
 11
33.77498909652874
 21
0.0
 31
0.0
210
0.0
220
0.0
230
1.0
 40
0.5773502692
 41
1.329292753469453
 42
1.368223717362869
  0
ELLIPSE
  5
43F
330
1F
100
AcDbEntity
  8
1
100
AcDbEllipse
 10
190.2427795087
 20
0.0
 30
0.0
 11
33.77499074759342
 21
0.0
 31
0.0
210
0.0
220
0.0
230
1.0
 40
0.5773502692
 41
1.847990177117085
 42
1.887704835105996
  0
ELLIPSE
  5
440
330
1F
100
AcDbEntity
  8
1
100
AcDbEllipse
 10
168.5921445628
 20
0.0000007382
 30
0.0
 11
33.77499074759336
 21
0.0
 31
0.0
210
0.0
220
0.0
230
1.0
 40
0.5773502692
 41
1.194618818212651
 42
1.235133462918767
  0
ELLIPSE
  5
441
330
1F
100
AcDbEntity
  8
1
100
AcDbEllipse
 10
194.5729065277
 20
0.0
 30
0.0
 11
33.77499074759342
 21
0.0
 31
0.0
210
0.0
220
0.0
230
1.0
 40
0.5773502692
 41
1.984346592388364
 42
2.026211975519544
  0
ELLIPSE
  5
442
330
1F
100
AcDbEntity
  8
1
100
AcDbEllipse
 10
164.2620173016
 20
-0.000000315
 30
0.0
 11
33.77499074759334
 21
0.0
 31
0.0
210
0.0
220
0.0
230
1.0
 40
0.5773502692
 41
1.064022646068242
 42
1.095501911811955
  0
ELLIPSE
  5
443
330
1F
100
AcDbEntity
  8
1
100
AcDbEllipse
 10
198.9030335466
 20
0.0
 30
0.0
 11
33.77499074759345
 21
0.0
 31
0.0
210
0.0
220
0.0
230
1.0
 40
0.5773502692
 41
2.129477031982473
 42
2.174919620601928
  0
ELLIPSE
  5
444
330
1F
100
AcDbEntity
  8
1
100
AcDbEllipse
 10
159.9318903763
 20
0.0
 30
0.0
 11
33.77498923467996
 21
0.0
 31
0.0
210
0.0
220
0.0
230
1.0
 40
0.5773502692
 41
0.8972289366266614
 42
0.9449228586169666
  0
ELLIPSE
  5
445
330
1F
100
AcDbEntity
  8
1
100
AcDbEllipse
 10
203.2331605655
 20
0.0
 30
0.0
 11
33.77499074759342
 21
0.0
 31
0.0
210
0.0
220
0.0
230
1.0
 40
0.5773502692
 41
2.289318716289469
 42
2.340950472627654
  0
ELLIPSE
  5
446
330
1F
100
AcDbEntity
  8
1
100
AcDbEllipse
 10
155.6017633574
 20
0.0
 30
0.0
 11
33.77499041554699
 21
0.0
 31
0.0
210
0.0
220
0.0
230
1.0
 40
0.5773502692
 41
0.719730594560923
 42
0.7755865265832279
  0
ELLIPSE
  5
447
330
1F
100
AcDbEntity
  8
1
100
AcDbEllipse
 10
207.5632875844
 20
0.0
 30
0.0
 11
33.77499074759348
 21
0.0
 31
0.0
210
0.0
220
0.0
230
1.0
 40
0.5773502692
 41
2.475882226518329
 42
2.540027799218632
  0
ELLIPSE
  5
448
330
1F
100
AcDbEntity
  8
1
100
AcDbEllipse
 10
151.2716363384
 20
0.0
 30
0.0
 11
33.77499067233401
 21
0.0
 31
0.0
210
0.0
220
0.0
230
1.0
 40
0.5773502692
 41
0.4945371814360432
 42
0.5694166390083553
  0
ELLIPSE
  5
449
330
1F
100
AcDbEntity
  8
1
100
AcDbEllipse
 10
211.8934139804
 20
0.0000003868
 30
0.0
 11
33.77498995034023
 21
0.0
 31
0.0
210
0.0
220
0.0
230
1.0
 40
0.5773502726
 41
2.725520068000721
 42
2.832651853678103
  0
ELLIPSE
  5
44A
330
1F
100
AcDbEntity
  8
1
100
AcDbEllipse
 10
183.6253112635
 20
0.0
 30
0.0
 11
0.0
 21
19.49999999999999
 31
0.0
210
0.0
220
0.0
230
1.0
 40
0.5773502692
 41
1.292549504060097
 42
1.849043149529696
  0
ELLIPSE
  5
44B
330
1F
100
AcDbEntity
  8
1
100
AcDbEllipse
 10
211.8934139804
 20
0.0000003868
 30
0.0
 11
33.77499081688816
 21
0.0
 31
0.0
210
0.0
220
0.0
230
1.0
 40
0.5773502692
 41
3.450533484987554
 42
3.557665270122629
  0
ELLIPSE
  5
44C
330
1F
100
AcDbEntity
  8
1
100
AcDbEllipse
 10
151.2716363384
 20
0.0
 30
0.0
 11
33.77499074759331
 21
0.0
 31
0.0
210
0.0
220
0.0
230
1.0
 40
0.5773502692
 41
5.713768692263695
 42
5.788648110212884
  0
ELLIPSE
  5
44D
330
1F
100
AcDbEntity
  8
1
100
AcDbEllipse
 10
207.5632875844
 20
0.0
 30
0.0
 11
33.77499098644009
 21
0.0
 31
0.0
210
0.0
220
0.0
230
1.0
 40
0.5773502692
 41
3.743157491996187
 42
3.807303105357188
  0
ELLIPSE
  5
44E
330
1F
100
AcDbEntity
  8
1
100
AcDbEllipse
 10
155.6017633574
 20
0.0
 30
0.0
 11
33.77499074759334
 21
0.0
 31
0.0
210
0.0
220
0.0
230
1.0
 40
0.5773502692
 41
5.507598791803582
 42
5.563454698856978
  0
ELLIPSE
  5
44F
330
1F
100
AcDbEntity
  8
1
100
AcDbEllipse
 10
203.2331605655
 20
0.0
 30
0.0
 11
33.77499118235042
 21
0.0
 31
0.0
210
0.0
220
0.0
230
1.0
 40
0.5773502692
 41
3.942234826328046
 42
3.993866605482836
  0
ELLIPSE
  5
450
330
1F
100
AcDbEntity
  8
1
100
AcDbEllipse
 10
159.9318903763
 20
0.0
 30
0.0
 11
33.77499074759336
 21
0.0
 31
0.0
210
0.0
220
0.0
230
1.0
 40
0.5773502692
 41
5.338262434529736
 42
5.38595633719285
  0
ELLIPSE
  5
451
330
1F
100
AcDbEntity
  8
1
100
AcDbEllipse
 10
198.9030335466
 20
0.0
 30
0.0
 11
33.77499046231381
 21
0.0
 31
0.0
210
0.0
220
0.0
230
1.0
 40
0.5773502692
 41
4.108265662682843
 42
4.153708289632901
  0
ELLIPSE
  5
452
330
1F
100
AcDbEntity
  8
1
100
AcDbEllipse
 10
164.2620173016
 20
-0.000000315
 30
0.0
 11
33.77499030536507
 21
0.0
 31
0.0
210
0.0
220
0.0
230
1.0
 40
0.5773502692
 41
5.18768341882623
 42
5.230883482635617
  0
ELLIPSE
  5
453
330
1F
100
AcDbEntity
  8
1
100
AcDbEllipse
 10
194.5729065277
 20
0.0
 30
0.0
 11
33.77499055517268
 21
0.0
 31
0.0
210
0.0
220
0.0
230
1.0
 40
0.5773502692
 41
4.256973312314334
 42
4.298838732801187
  0
ELLIPSE
  5
454
330
1F
100
AcDbEntity
  8
1
100
AcDbEllipse
 10
168.5921445628
 20
0.0000007382
 30
0.0
 11
33.77499190591365
 21
0.0
 31
0.0
210
0.0
220
0.0
230
1.0
 40
0.5773502692
 41
5.04805184804134
 42
5.088566470277376
  0
ELLIPSE
  5
455
330
1F
100
AcDbEntity
  8
1
100
AcDbEllipse
 10
190.2427795087
 20
0.0
 30
0.0
 11
33.7749920652262
 21
0.0
 31
0.0
210
0.0
220
0.0
230
1.0
 40
0.5773502692
 41
4.395480469223152
 42
4.435195151004531
  0
ELLIPSE
  5
456
330
1F
100
AcDbEntity
  8
1
100
AcDbEllipse
 10
172.9222714331
 20
0.0
 30
0.0
 11
33.77499074759339
 21
0.0
 31
0.0
210
0.0
220
0.0
230
1.0
 40
0.5773502692
 41
4.914961594955284
 42
4.95389253450681
  0
ELLIPSE
  5
457
330
1F
100
AcDbEntity
  8
1
100
AcDbEllipse
 10
185.9126524898
 20
0.0
 30
0.0
 11
33.77499016369123
 21
0.0
 31
0.0
210
0.0
220
0.0
230
1.0
 40
0.5773502692
 41
4.527919136017951
 42
4.566418599784705
  0
ELLIPSE
  5
458
330
1F
100
AcDbEntity
  8
1
100
AcDbEllipse
 10
177.252398452
 20
0.0
 30
0.0
 11
33.77499074759336
 21
0.0
 31
0.0
210
0.0
220
0.0
230
1.0
 40
0.5773502692
 41
4.785438808011546
 42
4.823575614435781
  0
ELLIPSE
  5
459
330
1F
100
AcDbEntity
  8
1
100
AcDbEllipse
 10
181.5825254815
 20
0.000000333
 30
0.0
 11
33.77499074759348
 21
0.0
 31
0.0
210
0.0
220
0.0
230
1.0
 40
0.5773502692
 41
4.657140610698303
 42
4.695140696165351
  0
ELLIPSE
  5
45A
330
1F
100
AcDbEntity
  8
1
100
AcDbEllipse
 10
200.0390022964
 20
-0.0000002963
 30
0.0
 11
0.0
 21
19.13922783378999
 31
0.0
210
0.0
220
0.0
230
1.0
 40
0.1051222895
 41
1.83698198845324
 42
2.937876320056639
  0
DIMENSION
  5
45B
330
1F
100
AcDbEntity
  8
2
  6
Continuous
370
    25
100
AcDbDimension
280
     0
  2
_D
 10
200.0
 20
33.6999682184
 30
0.0
 11
100.0
 21
33.6999682184
 31
0.0
 70
   160
  1
<>
 71
     5
 42
200.0
 73
     0
 74
     0
 75
     0
  3
SLDDIMSTYLE0
100
AcDbAlignedDimension
 13
0.0
 23
18.4500004426
 33
0.0
 14
200.0
 24
20.4249012108
 34
0.0
100
AcDbRotatedDimension
1001
ACAD
1000
DSTYLE
1002
{
1070
   140
1040
3.5
1070
   340
1005
4CF
1070
   177
1070
   256
1070
   176
1070
   256
1070
   178
1070
   256
1070
   347
1005
14
1070
   346
1005
14
1070
   345
1005
14
1002
}
  0
DIMENSION
  5
467
330
1F
100
AcDbEntity
  8
2
100
AcDbDimension
280
     0
  2
_D_1
 10
0.0
 20
-31.0362242444
 30
0.0
 11
90.4999966137
 21
-31.0362242444
 31
0.0
 70
   160
  1
<>
 71
     5
 42
180.9999932274
 73
     0
 74
     0
 75
     0
  3
SLDDIMSTYLE0
100
AcDbAlignedDimension
 13
180.9999932274
 23
-19.5000004023
 33
0.0
 14
0.0
 24
-18.4500004426
 34
0.0
100
AcDbRotatedDimension
1001
ACAD
1000
DSTYLE
1002
{
1070
   140
1040
3.5
1070
   340
1005
4CF
1070
   177
1070
   256
1070
   176
1070
   256
1070
   178
1070
   256
1070
   347
1005
14
1070
   346
1005
14
1070
   345
1005
14
1002
}
  0
DIMENSION
  5
471
330
1F
100
AcDbEntity
  8
SK2
100
AcDbDimension
280
     0
  2
_D_2
 10
-29.9544200401
 20
-10.9999999404
 30
0.0
 11
-29.9544200401
 21
0.0
 31
0.0
 70
   160
  1
%%c<>
 71
     5
 42
21.9999998808
 73
     0
 74
     0
 75
     0
  3
SLDDIMSTYLE0
100
AcDbAlignedDimension
 13
-19.2000056878
 23
10.9999999404
 33
0.0
 14
-19.2000056878
 24
-10.9999999404
 34
0.0
 50
90.0
100
AcDbRotatedDimension
1001
ACAD
1000
DSTYLE
1002
{
1070
   140
1040
3.5
1070
   340
1005
4CF
1070
   177
1070
   256
1070
   176
1070
   256
1070
   178
1070
   256
1070
   347
1005
14
1070
   346
1005
14
1070
   345
1005
14
1002
}
  0
DIMENSION
  5
47C
330
1F
100
AcDbEntity
  8
2
  6
Continuous
370
    25
100
AcDbDimension
280
     0
  2
_D_3
 10
-36.2805141878
 20
-19.5000004023
 30
0.0
 11
-36.2805141878
 21
0.0
 31
0.0
 70
   160
  1
%%c<>
 71
     5
 42
39.0000008047
 73
     0
 74
     0
 75
     0
  3
SLDDIMSTYLE0
100
AcDbAlignedDimension
 13
1.0499869212
 23
19.5000004024
 33
0.0
 14
1.0499869212
 24
-19.5000004023
 34
0.0
 50
90.0
100
AcDbRotatedDimension
1001
ACAD
1000
DSTYLE
1002
{
1070
   140
1040
3.5
1070
   340
1005
4CF
1070
   177
1070
   256
1070
   176
1070
   256
1070
   178
1070
   256
1070
   347
1005
14
1070
   346
1005
14
1070
   345
1005
14
1002
}
  0
DIMENSION
  5
487
330
1F
100
AcDbEntity
  8
2
100
AcDbDimension
280
     0
  2
_D_4
 10
210.9715322893
 20
20.4939226306
 30
0.0
 11
210.9715322893
 21
-0.0030380365
 31
0.0
 70
   160
  1
%%c<> - 54
 71
     5
 42
40.9939213341
 73
     0
 74
     0
 75
     0
  3
SLDDIMSTYLE1
100
AcDbAlignedDimension
 13
199.8999927863
 23
-20.4999987035
 33
0.0
 14
200.2131084854
 24
20.4939226306
 34
0.0
 50
90.0
100
AcDbRotatedDimension
1001
ACAD
1000
DSTYLE
1002
{
1070
   140
1040
3.5
1070
   340
1005
4CF
1070
   177
1070
   256
1070
   176
1070
   256
1070
   178
1070
   256
1070
   347
1005
14
1070
   346
1005
14
1070
   345
1005
14
1002
}
  0
MTEXT
  5
494
330
1F
100
AcDbEntity
  8
SK6
  6
Continuous
370
    35
100
AcDbMText
 10
5.8027261985
 20
-13.2081358758
 30
0.0
 40
3.5
 41
0.0
 46
0.0
 71
     1
 72
     1
  1
389.405
  7
BMG_Text
 73
     1
 44
1.0
  0
LINE
  5
552
330
1F
100
AcDbEntity
  8
NOCUT
100
AcDbLine
 10
0.0
 20
0.0
 30
0.0
 11
0.0
 21
18.4500004426
 31
0.0
  0
LINE
  5
553
330
1F
100
AcDbEntity
  8
NOCUT
100
AcDbLine
 10
0.0
 20
18.4500004426
 30
0.0
 11
1.0499869212
 21
19.5000004024
 31
0.0
  0
LINE
  5
554
330
1F
100
AcDbEntity
  8
NOCUT
100
AcDbLine
 10
1.0499869212
 20
19.5000004024
 30
0.0
 11
190.8336389626357
 21
19.5000004024
 31
0.0
  0
LINE
  5
555
330
1F
100
AcDbEntity
  8
NOCUT
100
AcDbLine
 10
190.8336389626357
 20
19.5000004024
 30
0.0
 11
190.9766601544967
 21
19.44967839707779
 31
0.0
  0
LINE
  5
556
330
1F
100
AcDbEntity
  8
NOCUT
100
AcDbLine
 10
190.9766601544967
 20
19.44967839707779
 30
0.0
 11
190.9766596481
 21
19.1648118198
 31
0.0
  0
LINE
  5
557
330
1F
100
AcDbEntity
  8
NOCUT
100
AcDbLine
 10
190.9766596481
 20
19.1648118198
 30
0.0
 11
192.2927674577
 21
19.1648118198
 31
0.0
  0
LINE
  5
558
330
1F
100
AcDbEntity
  8
NOCUT
100
AcDbLine
 10
192.2927674577
 20
19.1648118198
 30
0.0
 11
199.8305304503924
 21
20.49392263062529
 31
0.0
  0
LINE
  5
559
330
1F
100
AcDbEntity
  8
NOCUT
100
AcDbLine
 10
199.8305304503924
 20
20.49392263062529
 30
0.0
 11
199.9999999999897
 21
20.42490121081607
 31
0.0
  0
LINE
  5
55A
330
1F
100
AcDbEntity
  8
NOCUT
100
AcDbLine
 10
199.9999999999897
 20
20.42490121081607
 30
0.0
 11
199.9999999999897
 21
7.783768637684535
 31
0.0
  0
ARC
  5
55B
330
1F
100
AcDbEntity
  8
NOCUT
100
AcDbCircle
 10
205.4568993838543
 20
1.973533499010472
 30
0.0
 40
7.970983832144254
100
AcDbArc
 50
133.2038010726068
 51
183.4057857000029
  0
LINE
  5
55C
330
1F
100
AcDbEntity
  8
NOCUT
100
AcDbLine
 10
197.4999936315
 20
1.4999998672
 30
0.0
 11
197.4999936315
 21
-0.0000001459
 31
0.0
  0
LINE
  5
55D
330
1F
100
AcDbEntity
  8
NOCUT
100
AcDbLine
 10
197.4999936315
 20
-0.0000001459
 30
0.0
 11
-0.0044983610624456
 21
-0.0000001458999758
 31
0.0
  0
LINE
  5
561
330
1F
100
AcDbEntity
  8
1
100
AcDbLine
 10
190.9766601545
 20
18.9089133948
 30
0.0
 11
193.2781553880858
 21
18.9089133948
 31
0.0
  0
LINE
  5
562
330
1F
100
AcDbEntity
  8
1
100
AcDbLine
 10
193.2781553880858
 20
18.9089133948
 30
0.0
 11
199.6540225371746
 21
19.968992115995
 31
0.0
  0
LINE
  5
567
330
1F
100
AcDbEntity
  8
1
100
AcDbLine
 10
199.6540225371746
 20
19.968992115995
 30
0.0
 11
199.6540225371746
 21
10.7908620125098
 31
0.0
  0
LINE
  5
568
330
1F
100
AcDbEntity
  8
1
100
AcDbLine
 10
199.6540225371746
 20
10.7908620125098
 30
0.0
 11
199.9999945576517
 21
10.85310432603792
 31
0.0
  0
LINE
  5
569
330
1F
100
AcDbEntity
  8
1
100
AcDbLine
 10
190.9766601545
 20
18.9089133948
 30
0.0
 11
190.7804536863877
 21
18.9089133948
 31
0.0
  0
LINE
  5
56A
330
1F
100
AcDbEntity
  8
1
100
AcDbLine
 10
190.7804536863877
 20
18.9089133948
 30
0.0
 11
190.7804536863877
 21
9.171933156909542
 31
0.0
  0
LINE
  5
56B
330
1F
100
AcDbEntity
  8
1
100
AcDbLine
 10
190.7804536863877
 20
9.171933156909542
 30
0.0
 11
199.6540225371746
 21
10.7908620125098
 31
0.0
  0
LINE
  5
578
330
1F
100
AcDbEntity
  8
CUT
100
AcDbLine
 10
190.7749902097501
 20
18.56154637793821
 30
0.0
 11
190.7749902097501
 21
9.274599976268783
 31
0.0
  0
LINE
  5
57A
330
1F
100
AcDbEntity
  8
CUT
100
AcDbLine
 10
190.7804536863877
 20
9.171933156909542
 30
0.0
 11
199.9847870355094
 21
10.84949393999753
 31
0.0
  0
LINE
  5
57B
330
1F
100
AcDbEntity
  8
CUT
100
AcDbLine
 10
199.9847870355094
 20
10.84949393999753
 30
0.0
 11
200.0
 21
11.5653036522
 31
0.0
  0
LINE
  5
57C
330
1F
100
AcDbEntity
  8
CUT
100
AcDbLine
 10
190.7749902097501
 20
9.275568248220592
 30
0.0
 11
190.7804536863877
 21
9.171933156909542
 31
0.0
  0
LWPOLYLINE
  5
57E
330
1F
100
AcDbEntity
  8
INFTOTAL
100
AcDbPolyline
 90
        4
 70
     1
 43
0.0
 10
-89.11513588775921
 20
67.73190685017751
 10
-89.11513588775921
 20
-66.13331054112685
 10
301.7196467209365
 20
-66.13331054112685
 10
301.7196467209365
 20
67.73190685017751
  0
ENDSEC
  0
SECTION
  2
OBJECTS
  0
DICTIONARY
  5
C
330
0
100
AcDbDictionary
281
     1
  3
ACAD_DETAILVIEWSTYLE
350
544
  3
ACAD_GROUP
350
D
  3
ACAD_LAYOUT
350
4B7
  3
ACAD_MATERIAL
350
4CB
  3
ACAD_MLEADERSTYLE
350
4E5
  3
ACAD_MLINESTYLE
350
17
  3
ACAD_PLOTSETTINGS
350
527
  3
ACAD_PLOTSTYLENAME
350
528
  3
ACAD_SCALELIST
350
495
  3
ACAD_SECTIONVIEWSTYLE
350
545
  3
ACAD_TABLESTYLE
350
534
  3
ACAD_VISUALSTYLE
350
4BA
  3
ACDB_RECOMPOSE_DATA
350
5CA
  3
AcDbVariableDictionary
350
4E3
  3
APPDATA
350
537
  0
DICTIONARY
  5
538
330
2
100
AcDbDictionary
280
     1
281
     1
  3
ACAD_LAYERSTATES
360
539
  0
DICTIONARY
  5
544
102
{ACAD_REACTORS
330
C
102
}
330
C
100
AcDbDictionary
281
     1
  0
DICTIONARY
  5
D
102
{ACAD_REACTORS
330
C
102
}
330
C
100
AcDbDictionary
281
     1
  0
DICTIONARY
  5
4B7
102
{ACAD_REACTORS
330
C
102
}
330
C
100
AcDbDictionary
281
     1
  3
Layout1
350
4B9
  3
Model
350
4B8
  0
DICTIONARY
  5
4CB
102
{ACAD_REACTORS
330
C
102
}
330
C
100
AcDbDictionary
281
     1
  3
ByBlock
350
4CD
  3
ByLayer
350
4CC
  3
Global
350
4CE
  0
DICTIONARY
  5
4E5
102
{ACAD_REACTORS
330
C
102
}
330
C
100
AcDbDictionary
281
     1
  3
Standard
350
536
  0
DICTIONARY
  5
17
102
{ACAD_REACTORS
330
C
102
}
330
C
100
AcDbDictionary
281
     1
  3
STANDARD
350
18
  0
DICTIONARY
  5
527
102
{ACAD_REACTORS
330
C
102
}
330
C
100
AcDbDictionary
281
     1
  0
ACDBDICTIONARYWDFLT
  5
528
102
{ACAD_REACTORS
330
C
102
}
330
C
100
AcDbDictionary
281
     1
  3
Normal
350
529
100
AcDbDictionaryWithDefault
340
529
  0
DICTIONARY
  5
495
102
{ACAD_REACTORS
330
C
102
}
330
C
100
AcDbDictionary
281
     1
  3
A0
350
496
  3
A1
350
497
  3
A2
350
498
  3
A3
350
499
  3
A4
350
49A
  3
A5
350
49B
  3
A6
350
49C
  3
A7
350
49D
  3
A8
350
49E
  3
A9
350
49F
  3
B0
350
4A0
  3
B1
350
4A1
  3
B2
350
4A2
  3
B3
350
4A3
  3
B4
350
4A4
  3
B5
350
4A5
  3
B6
350
4A6
  3
B7
350
4A7
  3
B8
350
4A8
  3
B9
350
4A9
  3
C0
350
4AA
  3
C1
350
4AB
  3
C2
350
4AC
  3
C3
350
4AD
  3
C4
350
4AE
  3
C5
350
4AF
  3
C6
350
4B0
  3
C7
350
4B1
  3
C8
350
4B2
  3
C9
350
4B3
  3
D0
350
4B4
  3
D1
350
4B5
  3
D2
350
4B6
  0
DICTIONARY
  5
545
102
{ACAD_REACTORS
330
C
102
}
330
C
100
AcDbDictionary
281
     1
  0
DICTIONARY
  5
534
102
{ACAD_REACTORS
330
C
102
}
330
C
100
AcDbDictionary
281
     1
  3
Standard
350
535
  0
DICTIONARY
  5
4BA
102
{ACAD_REACTORS
330
C
102
}
330
C
100
AcDbDictionary
281
     1
  3
2dWireframe
350
4BF
  3
3D Hidden
350
4C1
  3
3dWireframe
350
4C0
  3
Basic
350
4C2
  3
Brighten
350
4C6
  3
ColorChange
350
4CA
  3
Conceptual
350
4C4
  3
Dim
350
4C5
  3
EdgeColorOff
350
52E
  3
Facepattern
350
4C9
  3
Flat
350
4BB
  3
FlatWithEdges
350
4BC
  3
Gouraud
350
4BD
  3
GouraudWithEdges
350
4BE
  3
Hidden
350
52B
  3
JitterOff
350
52C
  3
Linepattern
350
4C8
  3
OverhangOff
350
52D
  3
Realistic
350
4C3
  3
Shaded
350
533
  3
Shaded with edges
350
532
  3
Shades of Gray
350
52F
  3
Sketchy
350
530
  3
Thicken
350
4C7
  3
Wireframe
350
52A
  3
X-Ray
350
531
  0
XRECORD
  5
5CA
102
{ACAD_REACTORS
330
C
102
}
330
C
100
AcDbXrecord
280
     1
 90
        1
330
535
  0
DICTIONARY
  5
4E3
102
{ACAD_REACTORS
330
C
102
}
330
C
100
AcDbDictionary
281
     1
  3
CANNOSCALE
350
541
  3
CMLEADERSTYLE
350
543
  3
CTABLESTYLE
350
542
  3
DIMASSOC
350
4E7
  3
HIDETEXT
350
4E8
  3
MSLTSCALE
350
4E6
  0
DICTIONARY
  5
537
102
{ACAD_REACTORS
330
C
102
}
330
C
100
AcDbDictionary
281
     1
  0
DICTIONARY
  5
539
102
{ACAD_REACTORS
330
538
102
}
330
538
100
AcDbDictionary
281
     1
  0
LAYOUT
  5
4B9
102
{ACAD_REACTORS
330
4B7
102
}
330
4B7
100
AcDbPlotSettings
  1

  2
none_device
  4

  6

 40
0.0
 41
0.0
 42
0.0
 43
0.0
 44
0.0
 45
0.0
 46
0.0
 47
0.0
 48
0.0
 49
0.0
140
0.0
141
0.0
142
1.0
143
1.0
 70
   688
 72
     0
 73
     0
 74
     5
  7

 75
    16
 76
     0
 77
     2
 78
   300
147
1.0
148
0.0
149
0.0
100
AcDbLayout
  1
Layout1
 70
     1
 71
     1
 10
0.0
 20
0.0
 11
420.0
 21
297.0
 12
0.0
 22
0.0
 32
0.0
 14
1.000000000000000E+20
 24
1.000000000000000E+20
 34
1.000000000000000E+20
 15
-1.000000000000000E+20
 25
-1.000000000000000E+20
 35
-1.000000000000000E+20
146
0.0
 13
0.0
 23
0.0
 33
0.0
 16
1.0
 26
0.0
 36
0.0
 17
0.0
 27
1.0
 37
0.0
 76
     0
330
1B
  0
LAYOUT
  5
4B8
102
{ACAD_REACTORS
330
4B7
102
}
330
4B7
100
AcDbPlotSettings
  1

  2
none_device
  4

  6

 40
0.0
 41
0.0
 42
0.0
 43
0.0
 44
0.0
 45
0.0
 46
0.0
 47
0.0
 48
0.0
 49
0.0
140
0.0
141
0.0
142
1.0
143
1.0
 70
  1712
 72
     0
 73
     0
 74
     0
  7

 75
     0
 76
     0
 77
     2
 78
   300
147
1.0
148
-0.0000001562100806
149
0.0
100
AcDbLayout
  1
Model
 70
     1
 71
     0
 10
0.0
 20
0.0
 11
420.0
 21
297.0
 12
0.0
 22
0.0
 32
0.0
 14
-89.11513588775921
 24
-66.13331054112683
 34
0.0
 15
301.7196467209365
 25
67.7319068501775
 35
0.0
146
0.0
 13
0.0
 23
0.0
 33
0.0
 16
1.0
 26
0.0
 36
0.0
 17
0.0
 27
1.0
 37
0.0
 76
     0
330
1F
331
29
  0
MATERIAL
  5
4CD
102
{ACAD_REACTORS
330
4CB
102
}
330
4CB
100
AcDbMaterial
  1
ByBlock
 72
     1
 94
      127
  0
MATERIAL
  5
4CC
102
{ACAD_REACTORS
330
4CB
102
}
330
4CB
100
AcDbMaterial
  1
ByLayer
 72
     1
 94
      127
  0
MATERIAL
  5
4CE
102
{ACAD_REACTORS
330
4CB
102
}
330
4CB
100
AcDbMaterial
  1
Global
 72
     1
 94
      127
  0
MLEADERSTYLE
  5
536
102
{ACAD_REACTORS
330
4E5
102
}
330
4E5
100
AcDbMLeaderStyle
179
     2
170
     2
171
     1
172
     0
 90
        2
 40
0.0
 41
0.0
173
     1
 91
-1056964608
340
14
 92
       -2
290
     1
 42
2.0
291
     1
 43
8.0
  3
Standard
341
0
 44
4.0
300

342
11
174
     1
178
     1
175
     1
176
     0
 93
-1056964608
 45
4.0
292
     0
297
     0
 46
4.0
343
0
 94
-1056964608
 47
1.0
 49
1.0
140
1.0
293
     1
141
0.0
294
     1
177
     0
142
1.0
295
     0
296
     0
143
3.75
271
     0
272
     9
273
     9
298
     0
  0
MLINESTYLE
  5
18
102
{ACAD_REACTORS
330
17
102
}
330
17
100
AcDbMlineStyle
  2
Standard
 70
     0
  3

 62
   256
 51
90.0
 52
90.0
 71
     2
 49
0.5
 62
   256
  6
BYLAYER
 49
-0.5
 62
   256
  6
BYLAYER
  0
ACDBPLACEHOLDER
  5
529
102
{ACAD_REACTORS
330
528
102
}
330
528
  0
SCALE
  5
496
102
{ACAD_REACTORS
330
495
102
}
330
495
100
AcDbScale
 70
     0
300
1:1
140
1.0
141
1.0
290
     1
  0
SCALE
  5
497
102
{ACAD_REACTORS
330
495
102
}
330
495
100
AcDbScale
 70
     0
300
1:2
140
1.0
141
2.0
290
     0
  0
SCALE
  5
498
102
{ACAD_REACTORS
330
495
102
}
330
495
100
AcDbScale
 70
     0
300
1:4
140
1.0
141
4.0
290
     0
  0
SCALE
  5
499
102
{ACAD_REACTORS
330
495
102
}
330
495
100
AcDbScale
 70
     0
300
1:5
140
1.0
141
5.0
290
     0
  0
SCALE
  5
49A
102
{ACAD_REACTORS
330
495
102
}
330
495
100
AcDbScale
 70
     0
300
1:8
140
1.0
141
8.0
290
     0
  0
SCALE
  5
49B
102
{ACAD_REACTORS
330
495
102
}
330
495
100
AcDbScale
 70
     0
300
1:10
140
1.0
141
10.0
290
     0
  0
SCALE
  5
49C
102
{ACAD_REACTORS
330
495
102
}
330
495
100
AcDbScale
 70
     0
300
1:16
140
1.0
141
16.0
290
     0
  0
SCALE
  5
49D
102
{ACAD_REACTORS
330
495
102
}
330
495
100
AcDbScale
 70
     0
300
1:20
140
1.0
141
20.0
290
     0
  0
SCALE
  5
49E
102
{ACAD_REACTORS
330
495
102
}
330
495
100
AcDbScale
 70
     0
300
1:30
140
1.0
141
30.0
290
     0
  0
SCALE
  5
49F
102
{ACAD_REACTORS
330
495
102
}
330
495
100
AcDbScale
 70
     0
300
1:40
140
1.0
141
40.0
290
     0
  0
SCALE
  5
4A0
102
{ACAD_REACTORS
330
495
102
}
330
495
100
AcDbScale
 70
     0
300
1:50
140
1.0
141
50.0
290
     0
  0
SCALE
  5
4A1
102
{ACAD_REACTORS
330
495
102
}
330
495
100
AcDbScale
 70
     0
300
1:100
140
1.0
141
100.0
290
     0
  0
SCALE
  5
4A2
102
{ACAD_REACTORS
330
495
102
}
330
495
100
AcDbScale
 70
     0
300
2:1
140
2.0
141
1.0
290
     0
  0
SCALE
  5
4A3
102
{ACAD_REACTORS
330
495
102
}
330
495
100
AcDbScale
 70
     0
300
4:1
140
4.0
141
1.0
290
     0
  0
SCALE
  5
4A4
102
{ACAD_REACTORS
330
495
102
}
330
495
100
AcDbScale
 70
     0
300
8:1
140
8.0
141
1.0
290
     0
  0
SCALE
  5
4A5
102
{ACAD_REACTORS
330
495
102
}
330
495
100
AcDbScale
 70
     0
300
10:1
140
10.0
141
1.0
290
     0
  0
SCALE
  5
4A6
102
{ACAD_REACTORS
330
495
102
}
330
495
100
AcDbScale
 70
     0
300
100:1
140
100.0
141
1.0
290
     0
  0
SCALE
  5
4A7
102
{ACAD_REACTORS
330
495
102
}
330
495
100
AcDbScale
 70
     0
300
1/128" = 1'-0"
140
0.0078125
141
12.0
290
     0
  0
SCALE
  5
4A8
102
{ACAD_REACTORS
330
495
102
}
330
495
100
AcDbScale
 70
     0
300
1/64" = 1'-0"
140
0.015625
141
12.0
290
     0
  0
SCALE
  5
4A9
102
{ACAD_REACTORS
330
495
102
}
330
495
100
AcDbScale
 70
     0
300
1/32" = 1'-0"
140
0.03125
141
12.0
290
     0
  0
SCALE
  5
4AA
102
{ACAD_REACTORS
330
495
102
}
330
495
100
AcDbScale
 70
     0
300
1/16" = 1'-0"
140
0.0625
141
12.0
290
     0
  0
SCALE
  5
4AB
102
{ACAD_REACTORS
330
495
102
}
330
495
100
AcDbScale
 70
     0
300
3/32" = 1'-0"
140
0.09375
141
12.0
290
     0
  0
SCALE
  5
4AC
102
{ACAD_REACTORS
330
495
102
}
330
495
100
AcDbScale
 70
     0
300
1/8" = 1'-0"
140
0.125
141
12.0
290
     0
  0
SCALE
  5
4AD
102
{ACAD_REACTORS
330
495
102
}
330
495
100
AcDbScale
 70
     0
300
3/16" = 1'-0"
140
0.1875
141
12.0
290
     0
  0
SCALE
  5
4AE
102
{ACAD_REACTORS
330
495
102
}
330
495
100
AcDbScale
 70
     0
300
1/4" = 1'-0"
140
0.25
141
12.0
290
     0
  0
SCALE
  5
4AF
102
{ACAD_REACTORS
330
495
102
}
330
495
100
AcDbScale
 70
     0
300
3/8" = 1'-0"
140
0.375
141
12.0
290
     0
  0
SCALE
  5
4B0
102
{ACAD_REACTORS
330
495
102
}
330
495
100
AcDbScale
 70
     0
300
1/2" = 1'-0"
140
0.5
141
12.0
290
     0
  0
SCALE
  5
4B1
102
{ACAD_REACTORS
330
495
102
}
330
495
100
AcDbScale
 70
     0
300
3/4" = 1'-0"
140
0.75
141
12.0
290
     0
  0
SCALE
  5
4B2
102
{ACAD_REACTORS
330
495
102
}
330
495
100
AcDbScale
 70
     0
300
1" = 1'-0"
140
1.0
141
12.0
290
     0
  0
SCALE
  5
4B3
102
{ACAD_REACTORS
330
495
102
}
330
495
100
AcDbScale
 70
     0
300
1-1/2" = 1'-0"
140
1.5
141
12.0
290
     0
  0
SCALE
  5
4B4
102
{ACAD_REACTORS
330
495
102
}
330
495
100
AcDbScale
 70
     0
300
3" = 1'-0"
140
3.0
141
12.0
290
     0
  0
SCALE
  5
4B5
102
{ACAD_REACTORS
330
495
102
}
330
495
100
AcDbScale
 70
     0
300
6" = 1'-0"
140
6.0
141
12.0
290
     0
  0
SCALE
  5
4B6
102
{ACAD_REACTORS
330
495
102
}
330
495
100
AcDbScale
 70
     0
300
1'-0" = 1'-0"
140
12.0
141
12.0
290
     0
  0
TABLESTYLE
  5
535
102
{ACAD_REACTORS
330
534
102
}
102
{ACAD_XDICTIONARY
360
5C8
102
}
330
534
100
AcDbTableStyle
  3
Standard
 70
     0
 71
     0
 40
0.06
 41
0.06
280
     0
281
     0
  7
STANDARD
140
4.5
170
     2
 62
     0
 63
   257
283
     0
 90
        4
 91
        0
  1

274
    -2
284
     1
 64
     0
275
    -2
285
     1
 65
     0
276
    -2
286
     1
 66
     0
277
    -2
287
     1
 67
     0
278
    -2
288
     1
 68
     0
279
    -2
289
     1
 69
     0
  7
STANDARD
140
6.0
170
     5
 62
     0
 63
   257
283
     0
 90
        4
 91
        0
  1

274
    -2
284
     1
 64
     0
275
    -2
285
     1
 65
     0
276
    -2
286
     1
 66
     0
277
    -2
287
     1
 67
     0
278
    -2
288
     1
 68
     0
279
    -2
289
     1
 69
     0
  7
STANDARD
140
4.5
170
     5
 62
     0
 63
   257
283
     0
 90
        4
 91
        0
  1

274
    -2
284
     1
 64
     0
275
    -2
285
     1
 65
     0
276
    -2
286
     1
 66
     0
277
    -2
287
     1
 67
     0
278
    -2
288
     1
 68
     0
279
    -2
289
     1
 69
     0
  0
VISUALSTYLE
  5
4BF
102
{ACAD_REACTORS
330
4BA
102
}
330
4BA
100
AcDbVisualStyle
  2
2dWireframe
 70
     4
177
     3
291
     0
 70
    58
 90
        0
176
     1
 90
        2
176
     1
 90
        0
176
     1
 90
        0
176
     1
 40
-0.6
176
     1
 40
-30.0
176
     1
 62
     7
176
     1
 90
        1
176
     1
 90
        4
176
     1
 62
     7
176
     1
 62
   257
176
     1
 90
        1
176
     1
 90
        1
176
     1
 40
1.0
176
     1
 90
        0
176
     1
 62
   257
176
     1
 40
1.0
176
     1
 90
        1
176
     1
 90
        6
176
     1
 90
        2
176
     1
 62
     7
176
     1
 90
        5
176
     1
 90
        0
176
     1
 90
        0
176
     1
290
     0
176
     1
 90
        1
176
     1
 40
0.0
176
     1
 90
        0
176
     1
290
     1
176
     1
290
     1
176
     1
290
     0
176
     1
290
     0
176
     1
290
     0
176
     1
290
     0
176
     1
290
     0
176
     1
290
     0
176
     1
290
     0
176
     1
 90
       50
176
     1
 40
0.0
176
     1
 40
1.0
176
     1
 90
        0
176
     1
 62
    18
420
        0
176
     1
 90
       50
176
     1
 90
        3
176
     1
 62
     5
420
      255
176
     1
290
     0
176
     1
 90
       50
176
     1
 90
       50
176
     1
 90
       50
176
     1
290
     0
176
     1
 90
       50
176
     1
 62
   256
176
     0
 40
1.0
176
     0
 90
        2
176
     1
  1
strokes_ogs.tif
176
     1
290
     0
176
     1
 40
1.0
176
     1
 40
1.0
176
     1
  0
VISUALSTYLE
  5
4C1
102
{ACAD_REACTORS
330
4BA
102
}
330
4BA
100
AcDbVisualStyle
  2
3D Hidden
 70
     6
177
     3
291
     0
 70
    58
 90
        1
176
     1
 90
        2
176
     1
 90
        2
176
     1
 90
        0
176
     1
 40
-0.6
176
     1
 40
-30.0
176
     1
 62
     7
176
     1
 90
        2
176
     1
 90
        2
176
     1
 62
     7
176
     1
 62
   257
176
     1
 90
        2
176
     1
 90
        1
176
     1
 40
40.0
176
     1
 90
        0
176
     1
 62
   257
176
     1
 40
1.0
176
     1
 90
        1
176
     1
 90
        6
176
     1
 90
        2
176
     1
 62
     7
176
     1
 90
        3
176
     1
 90
        0
176
     1
 90
        0
176
     1
290
     0
176
     1
 90
        1
176
     1
 40
0.0
176
     1
 90
        0
176
     1
290
     0
176
     1
290
     1
176
     1
290
     1
176
     1
290
     0
176
     1
290
     0
176
     1
290
     0
176
     1
290
     0
176
     1
290
     0
176
     1
290
     0
176
     1
 90
       50
176
     1
 40
0.0
176
     1
 40
1.0
176
     1
 90
        0
176
     1
 62
    18
420
        0
176
     1
 90
       50
176
     1
 90
        3
176
     1
 62
     5
420
      255
176
     1
290
     0
176
     1
 90
       50
176
     1
 90
       50
176
     1
 90
       50
176
     1
290
     0
176
     1
 90
       50
176
     1
 62
   256
176
     0
 40
1.0
176
     0
 90
        2
176
     1
  1
strokes_ogs.tif
176
     1
290
     0
176
     1
 40
1.0
176
     1
 40
1.0
176
     1
  0
VISUALSTYLE
  5
4C0
102
{ACAD_REACTORS
330
4BA
102
}
330
4BA
100
AcDbVisualStyle
  2
3dWireframe
 70
     5
177
     3
291
     0
 70
    58
 90
        0
176
     1
 90
        2
176
     1
 90
        0
176
     1
 90
        0
176
     1
 40
-0.6
176
     1
 40
-30.0
176
     1
 62
     7
176
     1
 90
        1
176
     1
 90
        4
176
     1
 62
     7
176
     1
 62
   257
176
     1
 90
        1
176
     1
 90
        1
176
     1
 40
1.0
176
     1
 90
        0
176
     1
 62
   257
176
     1
 40
1.0
176
     1
 90
        1
176
     1
 90
        6
176
     1
 90
        2
176
     1
 62
     7
176
     1
 90
        5
176
     1
 90
        0
176
     1
 90
        0
176
     1
290
     0
176
     1
 90
        1
176
     1
 40
0.0
176
     1
 90
        0
176
     1
290
     0
176
     1
290
     1
176
     1
290
     1
176
     1
290
     0
176
     1
290
     0
176
     1
290
     0
176
     1
290
     0
176
     1
290
     0
176
     1
290
     0
176
     1
 90
       50
176
     1
 40
0.0
176
     1
 40
1.0
176
     1
 90
        0
176
     1
 62
    18
420
        0
176
     1
 90
       50
176
     1
 90
        3
176
     1
 62
     5
420
      255
176
     1
290
     0
176
     1
 90
       50
176
     1
 90
       50
176
     1
 90
       50
176
     1
290
     0
176
     1
 90
       50
176
     1
 62
   256
176
     0
 40
1.0
176
     0
 90
        2
176
     1
  1
strokes_ogs.tif
176
     1
290
     0
176
     1
 40
1.0
176
     1
 40
1.0
176
     1
  0
VISUALSTYLE
  5
4C2
102
{ACAD_REACTORS
330
4BA
102
}
330
4BA
100
AcDbVisualStyle
  2
Basic
 70
     7
177
     3
291
     1
 70
    58
 90
        1
176
     1
 90
        0
176
     1
 90
        1
176
     1
 90
        0
176
     1
 40
-0.6
176
     1
 40
-30.0
176
     1
 62
     7
176
     1
 90
        0
176
     1
 90
        4
176
     1
 62
     7
176
     1
 62
   257
176
     1
 90
        1
176
     1
 90
        1
176
     1
 40
1.0
176
     1
 90
        8
176
     1
 62
     7
176
     1
 40
1.0
176
     1
 90
        1
176
     1
 90
        6
176
     1
 90
        2
176
     1
 62
     7
176
     1
 90
        5
176
     1
 90
        0
176
     1
 90
        0
176
     1
290
     0
176
     1
 90
        1
176
     1
 40
0.0
176
     1
 90
        0
176
     1
290
     0
176
     1
290
     1
176
     1
290
     1
176
     1
290
     0
176
     1
290
     0
176
     1
290
     0
176
     1
290
     0
176
     1
290
     0
176
     1
290
     0
176
     1
 90
       50
176
     1
 40
0.0
176
     1
 40
1.0
176
     1
 90
        0
176
     1
 62
    18
420
        0
176
     1
 90
       50
176
     1
 90
        3
176
     1
 62
     5
420
      255
176
     1
290
     0
176
     1
 90
       50
176
     1
 90
       50
176
     1
 90
       50
176
     1
290
     0
176
     1
 90
       50
176
     1
 62
   256
176
     0
 40
1.0
176
     0
 90
        2
176
     1
  1
strokes_ogs.tif
176
     1
290
     0
176
     1
 40
1.0
176
     1
 40
1.0
176
     1
  0
VISUALSTYLE
  5
4C6
102
{ACAD_REACTORS
330
4BA
102
}
330
4BA
100
AcDbVisualStyle
  2
Brighten
 70
    12
177
     3
291
     1
 70
    58
 90
        2
176
     1
 90
        2
176
     1
 90
        0
176
     1
 90
        0
176
     1
 40
-0.6
176
     1
 40
-30.0
176
     1
 62
     7
176
     1
 90
        1
176
     1
 90
        4
176
     1
 62
     7
176
     1
 62
   257
176
     1
 90
        1
176
     1
 90
        1
176
     1
 40
1.0
176
     1
 90
        8
176
     1
 62
     7
176
     1
 40
1.0
176
     1
 90
        1
176
     1
 90
        6
176
     1
 90
        2
176
     1
 62
     7
176
     1
 90
        5
176
     1
 90
        0
176
     1
 90
        0
176
     1
290
     0
176
     1
 90
        1
176
     1
 40
50.0
176
     1
 90
        0
176
     1
290
     0
176
     1
290
     1
176
     1
290
     1
176
     1
290
     0
176
     1
290
     0
176
     1
290
     0
176
     1
290
     0
176
     1
290
     0
176
     1
290
     0
176
     1
 90
       50
176
     1
 40
0.0
176
     1
 40
1.0
176
     1
 90
        0
176
     1
 62
    18
420
        0
176
     1
 90
       50
176
     1
 90
        3
176
     1
 62
     5
420
      255
176
     1
290
     0
176
     1
 90
       50
176
     1
 90
       50
176
     1
 90
       50
176
     1
290
     0
176
     1
 90
       50
176
     1
 62
   256
176
     0
 40
1.0
176
     0
 90
        2
176
     1
  1
strokes_ogs.tif
176
     1
290
     0
176
     1
 40
1.0
176
     1
 40
1.0
176
     1
  0
VISUALSTYLE
  5
4CA
102
{ACAD_REACTORS
330
4BA
102
}
330
4BA
100
AcDbVisualStyle
  2
ColorChange
 70
    16
177
     3
291
     1
 70
    58
 90
        2
176
     1
 90
        2
176
     1
 90
        3
176
     1
 90
        0
176
     1
 40
-0.6
176
     1
 40
-30.0
176
     1
 62
     8
176
     1
 90
        1
176
     1
 90
        4
176
     1
 62
     7
176
     1
 62
   257
176
     1
 90
        1
176
     1
 90
        1
176
     1
 40
1.0
176
     1
 90
        8
176
     1
 62
     8
176
     1
 40
1.0
176
     1
 90
        1
176
     1
 90
        6
176
     1
 90
        2
176
     1
 62
     7
176
     1
 90
        5
176
     1
 90
        0
176
     1
 90
        0
176
     1
290
     0
176
     1
 90
        1
176
     1
 40
0.0
176
     1
 90
        0
176
     1
290
     0
176
     1
290
     1
176
     1
290
     1
176
     1
290
     0
176
     1
290
     0
176
     1
290
     0
176
     1
290
     0
176
     1
290
     0
176
     1
290
     0
176
     1
 90
       50
176
     1
 40
0.0
176
     1
 40
1.0
176
     1
 90
        0
176
     1
 62
    18
420
        0
176
     1
 90
       50
176
     1
 90
        3
176
     1
 62
     5
420
      255
176
     1
290
     0
176
     1
 90
       50
176
     1
 90
       50
176
     1
 90
       50
176
     1
290
     0
176
     1
 90
       50
176
     1
 62
   256
176
     0
 40
1.0
176
     0
 90
        2
176
     1
  1
strokes_ogs.tif
176
     1
290
     0
176
     1
 40
1.0
176
     1
 40
1.0
176
     1
  0
VISUALSTYLE
  5
4C4
102
{ACAD_REACTORS
330
4BA
102
}
330
4BA
100
AcDbVisualStyle
  2
Conceptual
 70
     9
177
     3
291
     0
 70
    58
 90
        3
176
     1
 90
        2
176
     1
 90
        0
176
     1
 90
        0
176
     1
 40
-0.6
176
     1
 40
-30.0
176
     1
 62
     7
176
     1
 90
        2
176
     1
 90
        2
176
     1
 62
     7
176
     1
 62
   257
176
     1
 90
        1
176
     1
 90
        1
176
     1
 40
40.0
176
     1
 90
        8
176
     1
 62
     7
176
     1
 40
1.0
176
     1
 90
        1
176
     1
 90
        6
176
     1
 90
        2
176
     1
 62
     7
176
     1
 90
        3
176
     1
 90
        0
176
     1
 90
        0
176
     1
290
     0
176
     1
 90
        1
176
     1
 40
0.0
176
     1
 90
        0
176
     1
290
     0
176
     1
290
     1
176
     1
290
     1
176
     1
290
     0
176
     1
290
     0
176
     1
290
     0
176
     1
290
     0
176
     1
290
     0
176
     1
290
     0
176
     1
 90
       50
176
     1
 40
0.0
176
     1
 40
1.0
176
     1
 90
        0
176
     1
 62
    18
420
        0
176
     1
 90
       50
176
     1
 90
        3
176
     1
 62
     5
420
      255
176
     1
290
     0
176
     1
 90
       50
176
     1
 90
       50
176
     1
 90
       50
176
     1
290
     0
176
     1
 90
       50
176
     1
 62
   256
176
     0
 40
1.0
176
     0
 90
        2
176
     1
  1
strokes_ogs.tif
176
     1
290
     0
176
     1
 40
1.0
176
     1
 40
1.0
176
     1
  0
VISUALSTYLE
  5
4C5
102
{ACAD_REACTORS
330
4BA
102
}
330
4BA
100
AcDbVisualStyle
  2
Dim
 70
    11
177
     3
291
     1
 70
    58
 90
        2
176
     1
 90
        2
176
     1
 90
        0
176
     1
 90
        0
176
     1
 40
-0.6
176
     1
 40
-30.0
176
     1
 62
     7
176
     1
 90
        1
176
     1
 90
        4
176
     1
 62
     7
176
     1
 62
   257
176
     1
 90
        1
176
     1
 90
        1
176
     1
 40
1.0
176
     1
 90
        8
176
     1
 62
     7
176
     1
 40
1.0
176
     1
 90
        1
176
     1
 90
        6
176
     1
 90
        2
176
     1
 62
     7
176
     1
 90
        5
176
     1
 90
        0
176
     1
 90
        0
176
     1
290
     0
176
     1
 90
        1
176
     1
 40
-50.0
176
     1
 90
        0
176
     1
290
     0
176
     1
290
     1
176
     1
290
     1
176
     1
290
     0
176
     1
290
     0
176
     1
290
     0
176
     1
290
     0
176
     1
290
     0
176
     1
290
     0
176
     1
 90
       50
176
     1
 40
0.0
176
     1
 40
1.0
176
     1
 90
        0
176
     1
 62
    18
420
        0
176
     1
 90
       50
176
     1
 90
        3
176
     1
 62
     5
420
      255
176
     1
290
     0
176
     1
 90
       50
176
     1
 90
       50
176
     1
 90
       50
176
     1
290
     0
176
     1
 90
       50
176
     1
 62
   256
176
     0
 40
1.0
176
     0
 90
        2
176
     1
  1
strokes_ogs.tif
176
     1
290
     0
176
     1
 40
1.0
176
     1
 40
1.0
176
     1
  0
VISUALSTYLE
  5
52E
102
{ACAD_REACTORS
330
4BA
102
}
330
4BA
100
AcDbVisualStyle
  2
EdgeColorOff
 70
    22
177
     3
291
     1
 70
    58
 90
        2
176
     0
 90
        2
176
     0
 90
        0
176
     0
 90
        0
176
     0
 40
0.6
176
     0
 40
30.0
176
     0
 62
     7
420
 16777215
176
     0
 90
        1
176
     0
 90
        4
176
     0
 62
     7
176
     0
 62
   257
176
     0
 90
        1
176
     0
 90
        1
176
     0
 40
1.0
176
     0
 90
        8
176
     2
 62
     7
176
     0
 40
1.0
176
     0
 90
        1
176
     0
 90
        6
176
     0
 90
        2
176
     0
 62
     7
176
     0
 90
        5
176
     0
 90
        0
176
     0
 90
        0
176
     0
290
     0
176
     0
 90
        1
176
     0
 40
0.0
176
     0
 90
        0
176
     0
290
     0
176
     0
290
     1
176
     0
290
     1
176
     0
290
     0
176
     0
290
     0
176
     0
290
     0
176
     0
290
     0
176
     0
290
     0
176
     0
290
     0
176
     0
 90
       50
176
     0
 40
0.0
176
     0
 40
1.0
176
     0
 90
        0
176
     0
 62
    18
420
        0
176
     0
 90
       50
176
     0
 90
        3
176
     0
 62
     5
420
      255
176
     0
290
     0
176
     0
 90
       50
176
     0
 90
       50
176
     0
 90
       50
176
     0
290
     0
176
     0
 90
       50
176
     0
 62
   256
176
     0
 40
1.0
176
     0
 90
        2
176
     0
  1
strokes_ogs.tif
176
     0
290
     0
176
     0
 40
1.0
176
     0
 40
1.0
176
     0
  0
VISUALSTYLE
  5
4C9
102
{ACAD_REACTORS
330
4BA
102
}
330
4BA
100
AcDbVisualStyle
  2
Facepattern
 70
    15
177
     3
291
     1
 70
    58
 90
        2
176
     1
 90
        2
176
     1
 90
        0
176
     1
 90
        0
176
     1
 40
-0.6
176
     1
 40
-30.0
176
     1
 62
     7
176
     1
 90
        1
176
     1
 90
        4
176
     1
 62
     7
176
     1
 62
   257
176
     1
 90
        1
176
     1
 90
        1
176
     1
 40
1.0
176
     1
 90
        8
176
     1
 62
     7
176
     1
 40
1.0
176
     1
 90
        1
176
     1
 90
        6
176
     1
 90
        2
176
     1
 62
     7
176
     1
 90
        5
176
     1
 90
        0
176
     1
 90
        0
176
     1
290
     0
176
     1
 90
        1
176
     1
 40
0.0
176
     1
 90
        0
176
     1
290
     0
176
     1
290
     1
176
     1
290
     1
176
     1
290
     0
176
     1
290
     0
176
     1
290
     0
176
     1
290
     0
176
     1
290
     0
176
     1
290
     0
176
     1
 90
       50
176
     1
 40
0.0
176
     1
 40
1.0
176
     1
 90
        0
176
     1
 62
    18
420
        0
176
     1
 90
       50
176
     1
 90
        3
176
     1
 62
     5
420
      255
176
     1
290
     0
176
     1
 90
       50
176
     1
 90
       50
176
     1
 90
       50
176
     1
290
     0
176
     1
 90
       50
176
     1
 62
   256
176
     0
 40
1.0
176
     0
 90
        2
176
     1
  1
strokes_ogs.tif
176
     1
290
     0
176
     1
 40
1.0
176
     1
 40
1.0
176
     1
  0
VISUALSTYLE
  5
4BB
102
{ACAD_REACTORS
330
4BA
102
}
330
4BA
100
AcDbVisualStyle
  2
Flat
 70
     0
177
     3
291
     1
 70
    58
 90
        2
176
     1
 90
        1
176
     1
 90
        1
176
     1
 90
        2
176
     1
 40
-0.6
176
     1
 40
30.0
176
     1
 62
     7
176
     1
 90
        0
176
     1
 90
        4
176
     1
 62
     7
176
     1
 62
   257
176
     1
 90
        1
176
     1
 90
        1
176
     1
 40
1.0
176
     1
 90
        8
176
     1
 62
     7
176
     1
 40
1.0
176
     1
 90
        1
176
     1
 90
        6
176
     1
 90
        2
176
     1
 62
     7
176
     1
 90
        5
176
     1
 90
        0
176
     1
 90
        0
176
     1
290
     0
176
     1
 90
       13
176
     1
 40
0.0
176
     1
 90
        0
176
     1
290
     0
176
     1
290
     1
176
     1
290
     1
176
     1
290
     0
176
     1
290
     0
176
     1
290
     0
176
     1
290
     0
176
     1
290
     0
176
     1
290
     0
176
     1
 90
       50
176
     1
 40
0.0
176
     1
 40
1.0
176
     1
 90
        0
176
     1
 62
    18
420
        0
176
     1
 90
       50
176
     1
 90
        3
176
     1
 62
     5
420
      255
176
     1
290
     0
176
     1
 90
       50
176
     1
 90
       50
176
     1
 90
       50
176
     1
290
     0
176
     1
 90
       50
176
     1
 62
   256
176
     0
 40
1.0
176
     0
 90
        2
176
     1
  1
strokes_ogs.tif
176
     1
290
     0
176
     1
 40
1.0
176
     1
 40
1.0
176
     1
  0
VISUALSTYLE
  5
4BC
102
{ACAD_REACTORS
330
4BA
102
}
330
4BA
100
AcDbVisualStyle
  2
FlatWithEdges
 70
     1
177
     3
291
     1
 70
    58
 90
        2
176
     1
 90
        1
176
     1
 90
        1
176
     1
 90
        2
176
     1
 40
-0.6
176
     1
 40
30.0
176
     1
 62
     7
176
     1
 90
        1
176
     1
 90
        4
176
     1
 62
     7
176
     1
 62
   257
176
     1
 90
        1
176
     1
 90
        1
176
     1
 40
1.0
176
     1
 90
        0
176
     1
 62
   257
176
     1
 40
1.0
176
     1
 90
        1
176
     1
 90
        6
176
     1
 90
        2
176
     1
 62
     7
176
     1
 90
        5
176
     1
 90
        0
176
     1
 90
        0
176
     1
290
     0
176
     1
 90
       13
176
     1
 40
0.0
176
     1
 90
        0
176
     1
290
     0
176
     1
290
     1
176
     1
290
     1
176
     1
290
     0
176
     1
290
     0
176
     1
290
     0
176
     1
290
     0
176
     1
290
     0
176
     1
290
     0
176
     1
 90
       50
176
     1
 40
0.0
176
     1
 40
1.0
176
     1
 90
        0
176
     1
 62
    18
420
        0
176
     1
 90
       50
176
     1
 90
        3
176
     1
 62
     5
420
      255
176
     1
290
     0
176
     1
 90
       50
176
     1
 90
       50
176
     1
 90
       50
176
     1
290
     0
176
     1
 90
       50
176
     1
 62
   256
176
     0
 40
1.0
176
     0
 90
        2
176
     1
  1
strokes_ogs.tif
176
     1
290
     0
176
     1
 40
1.0
176
     1
 40
1.0
176
     1
  0
VISUALSTYLE
  5
4BD
102
{ACAD_REACTORS
330
4BA
102
}
330
4BA
100
AcDbVisualStyle
  2
Gouraud
 70
     2
177
     3
291
     1
 70
    58
 90
        2
176
     1
 90
        2
176
     1
 90
        1
176
     1
 90
        2
176
     1
 40
-0.6
176
     1
 40
30.0
176
     1
 62
     7
176
     1
 90
        0
176
     1
 90
        4
176
     1
 62
     7
176
     1
 62
   257
176
     1
 90
        1
176
     1
 90
        1
176
     1
 40
1.0
176
     1
 90
        0
176
     1
 62
     7
176
     1
 40
1.0
176
     1
 90
        1
176
     1
 90
        6
176
     1
 90
        2
176
     1
 62
     7
176
     1
 90
        5
176
     1
 90
        0
176
     1
 90
        0
176
     1
290
     0
176
     1
 90
       13
176
     1
 40
0.0
176
     1
 90
        0
176
     1
290
     0
176
     1
290
     1
176
     1
290
     1
176
     1
290
     0
176
     1
290
     0
176
     1
290
     0
176
     1
290
     0
176
     1
290
     0
176
     1
290
     0
176
     1
 90
       50
176
     1
 40
0.0
176
     1
 40
1.0
176
     1
 90
        0
176
     1
 62
    18
420
        0
176
     1
 90
       50
176
     1
 90
        3
176
     1
 62
     5
420
      255
176
     1
290
     0
176
     1
 90
       50
176
     1
 90
       50
176
     1
 90
       50
176
     1
290
     0
176
     1
 90
       50
176
     1
 62
   256
176
     0
 40
1.0
176
     0
 90
        2
176
     1
  1
strokes_ogs.tif
176
     1
290
     0
176
     1
 40
1.0
176
     1
 40
1.0
176
     1
  0
VISUALSTYLE
  5
4BE
102
{ACAD_REACTORS
330
4BA
102
}
330
4BA
100
AcDbVisualStyle
  2
GouraudWithEdges
 70
     3
177
     3
291
     1
 70
    58
 90
        2
176
     1
 90
        2
176
     1
 90
        1
176
     1
 90
        2
176
     1
 40
-0.6
176
     1
 40
30.0
176
     1
 62
     7
176
     1
 90
        1
176
     1
 90
        4
176
     1
 62
     7
176
     1
 62
   257
176
     1
 90
        1
176
     1
 90
        1
176
     1
 40
1.0
176
     1
 90
        0
176
     1
 62
   257
176
     1
 40
1.0
176
     1
 90
        1
176
     1
 90
        6
176
     1
 90
        2
176
     1
 62
     7
176
     1
 90
        5
176
     1
 90
        0
176
     1
 90
        0
176
     1
290
     0
176
     1
 90
       13
176
     1
 40
0.0
176
     1
 90
        0
176
     1
290
     0
176
     1
290
     1
176
     1
290
     1
176
     1
290
     0
176
     1
290
     0
176
     1
290
     0
176
     1
290
     0
176
     1
290
     0
176
     1
290
     0
176
     1
 90
       50
176
     1
 40
0.0
176
     1
 40
1.0
176
     1
 90
        0
176
     1
 62
    18
420
        0
176
     1
 90
       50
176
     1
 90
        3
176
     1
 62
     5
420
      255
176
     1
290
     0
176
     1
 90
       50
176
     1
 90
       50
176
     1
 90
       50
176
     1
290
     0
176
     1
 90
       50
176
     1
 62
   256
176
     0
 40
1.0
176
     0
 90
        2
176
     1
  1
strokes_ogs.tif
176
     1
290
     0
176
     1
 40
1.0
176
     1
 40
1.0
176
     1
  0
VISUALSTYLE
  5
52B
102
{ACAD_REACTORS
330
4BA
102
}
330
4BA
100
AcDbVisualStyle
  2
Hidden
 70
     6
177
     3
291
     0
 70
    58
 90
        1
176
     1
 90
        2
176
     1
 90
        2
176
     1
 90
        0
176
     1
 40
0.6
176
     1
 40
30.0
176
     1
 62
     7
420
 16777215
176
     1
 90
        2
176
     1
 90
        2
176
     1
 62
     7
176
     1
 62
   257
176
     1
 90
        2
176
     1
 90
        1
176
     1
 40
40.0
176
     1
 90
        0
176
     1
 62
   257
176
     1
 40
1.0
176
     1
 90
        1
176
     1
 90
        6
176
     1
 90
        2
176
     1
 62
     7
176
     1
 90
        3
176
     1
 90
        0
176
     1
 90
        0
176
     1
290
     0
176
     1
 90
        1
176
     1
 40
0.0
176
     1
 90
        0
176
     1
290
     0
176
     1
290
     1
176
     1
290
     1
176
     1
290
     0
176
     1
290
     0
176
     1
290
     0
176
     1
290
     0
176
     1
290
     0
176
     1
290
     0
176
     1
 90
       50
176
     1
 40
0.0
176
     1
 40
1.0
176
     1
 90
        0
176
     1
 62
    18
420
        0
176
     1
 90
       50
176
     1
 90
        3
176
     1
 62
     5
420
      255
176
     1
290
     0
176
     1
 90
       50
176
     1
 90
       50
176
     1
 90
       50
176
     1
290
     0
176
     1
 90
       50
176
     1
 62
   256
176
     0
 40
1.0
176
     0
 90
        2
176
     1
  1
strokes_ogs.tif
176
     1
290
     0
176
     1
 40
1.0
176
     1
 40
1.0
176
     1
  0
VISUALSTYLE
  5
52C
102
{ACAD_REACTORS
330
4BA
102
}
330
4BA
100
AcDbVisualStyle
  2
JitterOff
 70
    20
177
     3
291
     1
 70
    58
 90
        2
176
     0
 90
        2
176
     0
 90
        0
176
     0
 90
        0
176
     0
 40
0.6
176
     0
 40
30.0
176
     0
 62
     7
420
 16777215
176
     0
 90
        1
176
     0
 90
        4
176
     0
 62
     7
176
     0
 62
   257
176
     0
 90
        1
176
     0
 90
        1
176
     0
 40
1.0
176
     0
 90
       10
176
     2
 62
     7
176
     0
 40
1.0
176
     0
 90
        1
176
     0
 90
        6
176
     0
 90
        2
176
     0
 62
     7
176
     0
 90
        5
176
     0
 90
        0
176
     0
 90
        0
176
     0
290
     0
176
     0
 90
        1
176
     0
 40
0.0
176
     0
 90
        0
176
     0
290
     0
176
     0
290
     1
176
     0
290
     1
176
     0
290
     0
176
     0
290
     0
176
     0
290
     0
176
     0
290
     0
176
     0
290
     0
176
     0
290
     0
176
     0
 90
       50
176
     0
 40
0.0
176
     0
 40
1.0
176
     0
 90
        0
176
     0
 62
    18
420
        0
176
     0
 90
       50
176
     0
 90
        3
176
     0
 62
     5
420
      255
176
     0
290
     0
176
     0
 90
       50
176
     0
 90
       50
176
     0
 90
       50
176
     0
290
     0
176
     0
 90
       50
176
     0
 62
   256
176
     0
 40
1.0
176
     0
 90
        2
176
     0
  1
strokes_ogs.tif
176
     0
290
     0
176
     0
 40
1.0
176
     0
 40
1.0
176
     0
  0
VISUALSTYLE
  5
4C8
102
{ACAD_REACTORS
330
4BA
102
}
330
4BA
100
AcDbVisualStyle
  2
Linepattern
 70
    14
177
     3
291
     1
 70
    58
 90
        2
176
     1
 90
        2
176
     1
 90
        0
176
     1
 90
        0
176
     1
 40
-0.6
176
     1
 40
-30.0
176
     1
 62
     7
176
     1
 90
        1
176
     1
 90
        4
176
     1
 62
     7
176
     1
 62
   257
176
     1
 90
        7
176
     1
 90
        7
176
     1
 40
1.0
176
     1
 90
        8
176
     1
 62
     7
176
     1
 40
1.0
176
     1
 90
        1
176
     1
 90
        6
176
     1
 90
        2
176
     1
 62
     7
176
     1
 90
        5
176
     1
 90
        0
176
     1
 90
        0
176
     1
290
     0
176
     1
 90
        1
176
     1
 40
0.0
176
     1
 90
        0
176
     1
290
     0
176
     1
290
     1
176
     1
290
     1
176
     1
290
     0
176
     1
290
     0
176
     1
290
     0
176
     1
290
     0
176
     1
290
     0
176
     1
290
     0
176
     1
 90
       50
176
     1
 40
0.0
176
     1
 40
1.0
176
     1
 90
        0
176
     1
 62
    18
420
        0
176
     1
 90
       50
176
     1
 90
        3
176
     1
 62
     5
420
      255
176
     1
290
     0
176
     1
 90
       50
176
     1
 90
       50
176
     1
 90
       50
176
     1
290
     0
176
     1
 90
       50
176
     1
 62
   256
176
     0
 40
1.0
176
     0
 90
        2
176
     1
  1
strokes_ogs.tif
176
     1
290
     0
176
     1
 40
1.0
176
     1
 40
1.0
176
     1
  0
VISUALSTYLE
  5
52D
102
{ACAD_REACTORS
330
4BA
102
}
330
4BA
100
AcDbVisualStyle
  2
OverhangOff
 70
    21
177
     3
291
     1
 70
    58
 90
        2
176
     0
 90
        2
176
     0
 90
        0
176
     0
 90
        0
176
     0
 40
0.6
176
     0
 40
30.0
176
     0
 62
     7
420
 16777215
176
     0
 90
        1
176
     0
 90
        4
176
     0
 62
     7
176
     0
 62
   257
176
     0
 90
        1
176
     0
 90
        1
176
     0
 40
1.0
176
     0
 90
        9
176
     2
 62
     7
176
     0
 40
1.0
176
     0
 90
        1
176
     0
 90
        6
176
     0
 90
        2
176
     0
 62
     7
176
     0
 90
        5
176
     0
 90
        0
176
     0
 90
        0
176
     0
290
     0
176
     0
 90
        1
176
     0
 40
0.0
176
     0
 90
        0
176
     0
290
     0
176
     0
290
     1
176
     0
290
     1
176
     0
290
     0
176
     0
290
     0
176
     0
290
     0
176
     0
290
     0
176
     0
290
     0
176
     0
290
     0
176
     0
 90
       50
176
     0
 40
0.0
176
     0
 40
1.0
176
     0
 90
        0
176
     0
 62
    18
420
        0
176
     0
 90
       50
176
     0
 90
        3
176
     0
 62
     5
420
      255
176
     0
290
     0
176
     0
 90
       50
176
     0
 90
       50
176
     0
 90
       50
176
     0
290
     0
176
     0
 90
       50
176
     0
 62
   256
176
     0
 40
1.0
176
     0
 90
        2
176
     0
  1
strokes_ogs.tif
176
     0
290
     0
176
     0
 40
1.0
176
     0
 40
1.0
176
     0
  0
VISUALSTYLE
  5
4C3
102
{ACAD_REACTORS
330
4BA
102
}
330
4BA
100
AcDbVisualStyle
  2
Realistic
 70
     8
177
     3
291
     0
 70
    58
 90
        2
176
     1
 90
        2
176
     1
 90
        0
176
     1
 90
        0
176
     1
 40
-0.6
176
     1
 40
-30.0
176
     1
 62
     7
176
     1
 90
        1
176
     1
 90
        0
176
     1
 62
     7
176
     1
 62
   257
176
     1
 90
        1
176
     1
 90
        1
176
     1
 40
1.0
176
     1
 90
        8
176
     1
 62
     8
176
     1
 40
1.0
176
     1
 90
        1
176
     1
 90
        6
176
     1
 90
        2
176
     1
 62
     7
176
     1
 90
        5
176
     1
 90
        0
176
     1
 90
        0
176
     1
290
     0
176
     1
 90
       13
176
     1
 40
0.0
176
     1
 90
        0
176
     1
290
     0
176
     1
290
     1
176
     1
290
     1
176
     1
290
     0
176
     1
290
     0
176
     1
290
     0
176
     1
290
     0
176
     1
290
     0
176
     1
290
     0
176
     1
 90
       50
176
     1
 40
0.0
176
     1
 40
1.0
176
     1
 90
        0
176
     1
 62
    18
420
        0
176
     1
 90
       50
176
     1
 90
        3
176
     1
 62
     5
420
      255
176
     1
290
     0
176
     1
 90
       50
176
     1
 90
       50
176
     1
 90
       50
176
     1
290
     0
176
     1
 90
       50
176
     1
 62
   256
176
     0
 40
1.0
176
     0
 90
        2
176
     1
  1
strokes_ogs.tif
176
     1
290
     0
176
     1
 40
1.0
176
     1
 40
1.0
176
     1
  0
VISUALSTYLE
  5
533
102
{ACAD_REACTORS
330
4BA
102
}
330
4BA
100
AcDbVisualStyle
  2
Shaded
 70
    27
177
     3
291
     0
 70
    58
 90
        2
176
     1
 90
        2
176
     1
 90
        1
176
     1
 90
        2
176
     1
 40
0.6
176
     1
 40
30.0
176
     1
 62
     7
420
 16777215
176
     1
 90
        0
176
     1
 90
        4
176
     1
 62
     7
176
     1
 62
   257
176
     1
 90
        1
176
     1
 90
        1
176
     1
 40
1.0
176
     1
 90
        8
176
     1
 62
   257
176
     1
 40
1.0
176
     1
 90
        1
176
     1
 90
        6
176
     1
 90
        2
176
     1
 62
     8
420
  7895160
176
     1
 90
        3
176
     1
 90
        0
176
     1
 90
        0
176
     1
290
     0
176
     1
 90
        5
176
     1
 40
0.0
176
     1
 90
        0
176
     1
290
     0
176
     1
290
     1
176
     1
290
     1
176
     1
290
     0
176
     1
290
     0
176
     1
290
     0
176
     1
290
     0
176
     1
290
     0
176
     1
290
     0
176
     1
 90
       50
176
     1
 40
0.0
176
     1
 40
1.0
176
     1
 90
        0
176
     1
 62
    18
420
        0
176
     1
 90
       50
176
     1
 90
        3
176
     1
 62
     5
420
      255
176
     1
290
     0
176
     1
 90
       50
176
     1
 90
       50
176
     1
 90
       50
176
     1
290
     0
176
     1
 90
       50
176
     1
 62
   256
176
     0
 40
1.0
176
     0
 90
        2
176
     1
  1
strokes_ogs.tif
176
     1
290
     0
176
     1
 40
1.0
176
     1
 40
1.0
176
     1
  0
VISUALSTYLE
  5
532
102
{ACAD_REACTORS
330
4BA
102
}
330
4BA
100
AcDbVisualStyle
  2
Shaded with edges
 70
    26
177
     3
291
     0
 70
    58
 90
        2
176
     1
 90
        2
176
     1
 90
        1
176
     1
 90
        2
176
     1
 40
0.6
176
     1
 40
30.0
176
     1
 62
     7
420
 16777215
176
     1
 90
        1
176
     1
 90
       10
176
     1
 62
     7
176
     1
 62
   257
176
     1
 90
        2
176
     1
 90
        1
176
     1
 40
1.0
176
     1
 90
        8
176
     1
 62
   257
176
     1
 40
1.0
176
     1
 90
        1
176
     1
 90
        6
176
     1
 90
        2
176
     1
 62
     7
176
     1
 90
        3
176
     1
 90
        0
176
     1
 90
        0
176
     1
290
     0
176
     1
 90
        5
176
     1
 40
0.0
176
     1
 90
        0
176
     1
290
     0
176
     1
290
     1
176
     1
290
     1
176
     1
290
     0
176
     1
290
     0
176
     1
290
     0
176
     1
290
     0
176
     1
290
     0
176
     1
290
     0
176
     1
 90
       50
176
     1
 40
0.0
176
     1
 40
1.0
176
     1
 90
        0
176
     1
 62
    18
420
        0
176
     1
 90
       50
176
     1
 90
        3
176
     1
 62
     5
420
      255
176
     1
290
     0
176
     1
 90
       50
176
     1
 90
       50
176
     1
 90
       50
176
     1
290
     0
176
     1
 90
       50
176
     1
 62
   256
176
     0
 40
1.0
176
     0
 90
        2
176
     1
  1
strokes_ogs.tif
176
     1
290
     0
176
     1
 40
1.0
176
     1
 40
1.0
176
     1
  0
VISUALSTYLE
  5
52F
102
{ACAD_REACTORS
330
4BA
102
}
330
4BA
100
AcDbVisualStyle
  2
Shades of Gray
 70
    23
177
     3
291
     0
 70
    58
 90
        2
176
     1
 90
        2
176
     1
 90
        3
176
     1
 90
        0
176
     1
 40
0.6
176
     1
 40
30.0
176
     1
 62
     7
420
 16777215
176
     1
 90
        2
176
     1
 90
        2
176
     1
 62
     7
176
     1
 62
     7
176
     1
 90
        1
176
     1
 90
        1
176
     1
 40
40.0
176
     1
 90
        8
176
     1
 62
     7
176
     1
 40
1.0
176
     1
 90
        1
176
     1
 90
        6
176
     1
 90
        2
176
     1
 62
     7
176
     1
 90
        3
176
     1
 90
        0
176
     1
 90
        0
176
     1
290
     0
176
     1
 90
        1
176
     1
 40
0.0
176
     1
 90
        0
176
     1
290
     0
176
     1
290
     1
176
     1
290
     1
176
     1
290
     0
176
     1
290
     0
176
     1
290
     0
176
     1
290
     0
176
     1
290
     0
176
     1
290
     0
176
     1
 90
       50
176
     1
 40
0.0
176
     1
 40
1.0
176
     1
 90
        0
176
     1
 62
    18
420
        0
176
     1
 90
       50
176
     1
 90
        3
176
     1
 62
     5
420
      255
176
     1
290
     0
176
     1
 90
       50
176
     1
 90
       50
176
     1
 90
       50
176
     1
290
     0
176
     1
 90
       50
176
     1
 62
   256
176
     0
 40
1.0
176
     0
 90
        2
176
     1
  1
strokes_ogs.tif
176
     1
290
     0
176
     1
 40
1.0
176
     1
 40
1.0
176
     1
  0
VISUALSTYLE
  5
530
102
{ACAD_REACTORS
330
4BA
102
}
330
4BA
100
AcDbVisualStyle
  2
Sketchy
 70
    24
177
     3
291
     0
 70
    58
 90
        1
176
     1
 90
        2
176
     1
 90
        2
176
     1
 90
        0
176
     1
 40
0.6
176
     1
 40
30.0
176
     1
 62
     7
420
 16777215
176
     1
 90
        2
176
     1
 90
        2
176
     1
 62
     7
176
     1
 62
     7
176
     1
 90
        1
176
     1
 90
        1
176
     1
 40
40.0
176
     1
 90
       11
176
     1
 62
     7
176
     1
 40
1.0
176
     1
 90
        1
176
     1
 90
        6
176
     1
 90
        2
176
     1
 62
     7
176
     1
 90
        6
176
     1
 90
        0
176
     1
 90
        0
176
     1
290
     0
176
     1
 90
        1
176
     1
 40
0.0
176
     1
 90
        0
176
     1
290
     0
176
     1
290
     1
176
     1
290
     1
176
     1
290
     0
176
     1
290
     0
176
     1
290
     0
176
     1
290
     0
176
     1
290
     0
176
     1
290
     0
176
     1
 90
       50
176
     1
 40
0.0
176
     1
 40
1.0
176
     1
 90
        0
176
     1
 62
    18
420
        0
176
     1
 90
       50
176
     1
 90
        3
176
     1
 62
     5
420
      255
176
     1
290
     0
176
     1
 90
       50
176
     1
 90
       50
176
     1
 90
       50
176
     1
290
     0
176
     1
 90
       50
176
     1
 62
   256
176
     0
 40
1.0
176
     0
 90
        2
176
     1
  1
strokes_ogs.tif
176
     1
290
     0
176
     1
 40
1.0
176
     1
 40
1.0
176
     1
  0
VISUALSTYLE
  5
4C7
102
{ACAD_REACTORS
330
4BA
102
}
330
4BA
100
AcDbVisualStyle
  2
Thicken
 70
    13
177
     3
291
     1
 70
    58
 90
        2
176
     1
 90
        2
176
     1
 90
        0
176
     1
 90
        0
176
     1
 40
-0.6
176
     1
 40
-30.0
176
     1
 62
     7
176
     1
 90
        1
176
     1
 90
        4
176
     1
 62
     7
176
     1
 62
   257
176
     1
 90
        1
176
     1
 90
        1
176
     1
 40
1.0
176
     1
 90
       12
176
     1
 62
     7
176
     1
 40
1.0
176
     1
 90
        1
176
     1
 90
        6
176
     1
 90
        2
176
     1
 62
     7
176
     1
 90
        5
176
     1
 90
        0
176
     1
 90
        0
176
     1
290
     0
176
     1
 90
        1
176
     1
 40
0.0
176
     1
 90
        0
176
     1
290
     0
176
     1
290
     1
176
     1
290
     1
176
     1
290
     0
176
     1
290
     0
176
     1
290
     0
176
     1
290
     0
176
     1
290
     0
176
     1
290
     0
176
     1
 90
       50
176
     1
 40
0.0
176
     1
 40
1.0
176
     1
 90
        0
176
     1
 62
    18
420
        0
176
     1
 90
       50
176
     1
 90
        3
176
     1
 62
     5
420
      255
176
     1
290
     0
176
     1
 90
       50
176
     1
 90
       50
176
     1
 90
       50
176
     1
290
     0
176
     1
 90
       50
176
     1
 62
   256
176
     0
 40
1.0
176
     0
 90
        2
176
     1
  1
strokes_ogs.tif
176
     1
290
     0
176
     1
 40
1.0
176
     1
 40
1.0
176
     1
  0
VISUALSTYLE
  5
52A
102
{ACAD_REACTORS
330
4BA
102
}
330
4BA
100
AcDbVisualStyle
  2
Wireframe
 70
     5
177
     3
291
     0
 70
    58
 90
        0
176
     1
 90
        2
176
     1
 90
        0
176
     1
 90
        0
176
     1
 40
0.6
176
     1
 40
30.0
176
     1
 62
     7
420
 16777215
176
     1
 90
        1
176
     1
 90
        4
176
     1
 62
     7
176
     1
 62
   257
176
     1
 90
        1
176
     1
 90
        1
176
     1
 40
1.0
176
     1
 90
        0
176
     1
 62
   257
176
     1
 40
1.0
176
     1
 90
        1
176
     1
 90
        6
176
     1
 90
        2
176
     1
 62
     7
176
     1
 90
        3
176
     1
 90
        0
176
     1
 90
        0
176
     1
290
     0
176
     1
 90
        1
176
     1
 40
0.0
176
     1
 90
        0
176
     1
290
     0
176
     1
290
     1
176
     1
290
     1
176
     1
290
     0
176
     1
290
     0
176
     1
290
     0
176
     1
290
     0
176
     1
290
     0
176
     1
290
     0
176
     1
 90
       50
176
     1
 40
0.0
176
     1
 40
1.0
176
     1
 90
        0
176
     1
 62
    18
420
        0
176
     1
 90
       50
176
     1
 90
        3
176
     1
 62
     5
420
      255
176
     1
290
     0
176
     1
 90
       50
176
     1
 90
       50
176
     1
 90
       50
176
     1
290
     0
176
     1
 90
       50
176
     1
 62
   256
176
     0
 40
1.0
176
     0
 90
        2
176
     1
  1
strokes_ogs.tif
176
     1
290
     0
176
     1
 40
1.0
176
     1
 40
1.0
176
     1
  0
VISUALSTYLE
  5
531
102
{ACAD_REACTORS
330
4BA
102
}
330
4BA
100
AcDbVisualStyle
  2
X-Ray
 70
    25
177
     3
291
     0
 70
    58
 90
        2
176
     1
 90
        2
176
     1
 90
        1
176
     1
 90
        1
176
     1
 40
0.5
176
     1
 40
30.0
176
     1
 62
     7
420
 16777215
176
     1
 90
        1
176
     1
 90
        0
176
     1
 62
     7
176
     1
 62
   257
176
     1
 90
        1
176
     1
 90
        1
176
     1
 40
1.0
176
     1
 90
        8
176
     1
 62
     7
176
     1
 40
1.0
176
     1
 90
        1
176
     1
 90
        6
176
     1
 90
        2
176
     1
 62
     7
176
     1
 90
        3
176
     1
 90
        0
176
     1
 90
        0
176
     1
290
     0
176
     1
 90
       13
176
     1
 40
0.0
176
     1
 90
        0
176
     1
290
     0
176
     1
290
     1
176
     1
290
     1
176
     1
290
     0
176
     1
290
     0
176
     1
290
     0
176
     1
290
     0
176
     1
290
     0
176
     1
290
     0
176
     1
 90
       50
176
     1
 40
0.0
176
     1
 40
1.0
176
     1
 90
        0
176
     1
 62
    18
420
        0
176
     1
 90
       50
176
     1
 90
        3
176
     1
 62
     5
420
      255
176
     1
290
     0
176
     1
 90
       50
176
     1
 90
       50
176
     1
 90
       50
176
     1
290
     0
176
     1
 90
       50
176
     1
 62
   256
176
     0
 40
1.0
176
     0
 90
        2
176
     1
  1
strokes_ogs.tif
176
     1
290
     0
176
     1
 40
1.0
176
     1
 40
1.0
176
     1
  0
DICTIONARYVAR
  5
541
102
{ACAD_REACTORS
330
4E3
102
}
330
4E3
100
DictionaryVariables
280
     0
  1
1:1
  0
DICTIONARYVAR
  5
543
102
{ACAD_REACTORS
330
4E3
102
}
330
4E3
100
DictionaryVariables
280
     0
  1
Standard
  0
DICTIONARYVAR
  5
542
102
{ACAD_REACTORS
330
4E3
102
}
330
4E3
100
DictionaryVariables
280
     0
  1
Standard
  0
DICTIONARYVAR
  5
4E7
102
{ACAD_REACTORS
330
4E3
102
}
330
4E3
100
DictionaryVariables
280
     0
  1
2
  0
DICTIONARYVAR
  5
4E8
102
{ACAD_REACTORS
330
4E3
102
}
330
4E3
100
DictionaryVariables
280
     0
  1
1
  0
DICTIONARYVAR
  5
4E6
102
{ACAD_REACTORS
330
4E3
102
}
330
4E3
100
DictionaryVariables
280
     0
  1
0
  0
DICTIONARY
  5
5C8
330
535
100
AcDbDictionary
280
     1
281
     1
  3
ACAD_ROUNDTRIP_2008_TABLESTYLE_CELLSTYLEMAP
360
5C9
  0
CELLSTYLEMAP
  5
5C9
102
{ACAD_REACTORS
330
5C8
102
}
330
5C8
100
AcDbCellStyleMap
 90
        3
300
CELLSTYLE
  1
TABLEFORMAT_BEGIN
 90
        5
170
     1
 91
        0
 92
    32768
 62
   257
 93
        1
300
CONTENTFORMAT
  1
CONTENTFORMAT_BEGIN
 90
        0
 91
        0
 92
        4
 93
        0
300

 40
0.0
140
1.0
 94
        5
 62
     0
340
11
144
6.0
309
CONTENTFORMAT_END
171
     1
301
MARGIN
  1
CELLMARGIN_BEGIN
 40
1.5
 40
1.5
 40
1.5
 40
1.5
 40
1.5
 40
1.5
309
CELLMARGIN_END
 94
        6
 95
        1
302
GRIDFORMAT
  1
GRIDFORMAT_BEGIN
 90
        0
 91
        1
 62
     0
 92
       -2
340
14
 93
        0
 40
0.045
309
GRIDFORMAT_END
 95
        2
302
GRIDFORMAT
  1
GRIDFORMAT_BEGIN
 90
        0
 91
        1
 62
     0
 92
       -2
340
14
 93
        0
 40
0.045
309
GRIDFORMAT_END
 95
        4
302
GRIDFORMAT
  1
GRIDFORMAT_BEGIN
 90
        0
 91
        1
 62
     0
 92
       -2
340
14
 93
        0
 40
0.045
309
GRIDFORMAT_END
 95
        8
302
GRIDFORMAT
  1
GRIDFORMAT_BEGIN
 90
        0
 91
        1
 62
     0
 92
       -2
340
14
 93
        0
 40
0.045
309
GRIDFORMAT_END
 95
       16
302
GRIDFORMAT
  1
GRIDFORMAT_BEGIN
 90
        0
 91
        1
 62
     0
 92
       -2
340
14
 93
        0
 40
0.045
309
GRIDFORMAT_END
 95
       32
302
GRIDFORMAT
  1
GRIDFORMAT_BEGIN
 90
        0
 91
        1
 62
     0
 92
       -2
340
14
 93
        0
 40
0.045
309
GRIDFORMAT_END
309
TABLEFORMAT_END
  1
CELLSTYLE_BEGIN
 90
        1
 91
        1
300
_TITLE
309
CELLSTYLE_END
300
CELLSTYLE
  1
TABLEFORMAT_BEGIN
 90
        5
170
     1
 91
        0
 92
        0
 62
   257
 93
        1
300
CONTENTFORMAT
  1
CONTENTFORMAT_BEGIN
 90
        0
 91
        0
 92
        4
 93
        0
300

 40
0.0
140
1.0
 94
        5
 62
     0
340
11
144
4.5
309
CONTENTFORMAT_END
171
     1
301
MARGIN
  1
CELLMARGIN_BEGIN
 40
1.5
 40
1.5
 40
1.5
 40
1.5
 40
1.5
 40
1.5
309
CELLMARGIN_END
 94
        6
 95
        1
302
GRIDFORMAT
  1
GRIDFORMAT_BEGIN
 90
        0
 91
        1
 62
     0
 92
       -2
340
14
 93
        0
 40
0.045
309
GRIDFORMAT_END
 95
        2
302
GRIDFORMAT
  1
GRIDFORMAT_BEGIN
 90
        0
 91
        1
 62
     0
 92
       -2
340
14
 93
        0
 40
0.045
309
GRIDFORMAT_END
 95
        4
302
GRIDFORMAT
  1
GRIDFORMAT_BEGIN
 90
        0
 91
        1
 62
     0
 92
       -2
340
14
 93
        0
 40
0.045
309
GRIDFORMAT_END
 95
        8
302
GRIDFORMAT
  1
GRIDFORMAT_BEGIN
 90
        0
 91
        1
 62
     0
 92
       -2
340
14
 93
        0
 40
0.045
309
GRIDFORMAT_END
 95
       16
302
GRIDFORMAT
  1
GRIDFORMAT_BEGIN
 90
        0
 91
        1
 62
     0
 92
       -2
340
14
 93
        0
 40
0.045
309
GRIDFORMAT_END
 95
       32
302
GRIDFORMAT
  1
GRIDFORMAT_BEGIN
 90
        0
 91
        1
 62
     0
 92
       -2
340
14
 93
        0
 40
0.045
309
GRIDFORMAT_END
309
TABLEFORMAT_END
  1
CELLSTYLE_BEGIN
 90
        2
 91
        1
300
_HEADER
309
CELLSTYLE_END
300
CELLSTYLE
  1
TABLEFORMAT_BEGIN
 90
        5
170
     1
 91
        0
 92
        0
 62
   257
 93
        1
300
CONTENTFORMAT
  1
CONTENTFORMAT_BEGIN
 90
        0
 91
        0
 92
        4
 93
        0
300

 40
0.0
140
1.0
 94
        2
 62
     0
340
11
144
4.5
309
CONTENTFORMAT_END
171
     1
301
MARGIN
  1
CELLMARGIN_BEGIN
 40
1.5
 40
1.5
 40
1.5
 40
1.5
 40
1.5
 40
1.5
309
CELLMARGIN_END
 94
        6
 95
        1
302
GRIDFORMAT
  1
GRIDFORMAT_BEGIN
 90
        0
 91
        1
 62
     0
 92
       -2
340
14
 93
        0
 40
0.045
309
GRIDFORMAT_END
 95
        2
302
GRIDFORMAT
  1
GRIDFORMAT_BEGIN
 90
        0
 91
        1
 62
     0
 92
       -2
340
14
 93
        0
 40
0.045
309
GRIDFORMAT_END
 95
        4
302
GRIDFORMAT
  1
GRIDFORMAT_BEGIN
 90
        0
 91
        1
 62
     0
 92
       -2
340
14
 93
        0
 40
0.045
309
GRIDFORMAT_END
 95
        8
302
GRIDFORMAT
  1
GRIDFORMAT_BEGIN
 90
        0
 91
        1
 62
     0
 92
       -2
340
14
 93
        0
 40
0.045
309
GRIDFORMAT_END
 95
       16
302
GRIDFORMAT
  1
GRIDFORMAT_BEGIN
 90
        0
 91
        1
 62
     0
 92
       -2
340
14
 93
        0
 40
0.045
309
GRIDFORMAT_END
 95
       32
302
GRIDFORMAT
  1
GRIDFORMAT_BEGIN
 90
        0
 91
        1
 62
     0
 92
       -2
340
14
 93
        0
 40
0.045
309
GRIDFORMAT_END
309
TABLEFORMAT_END
  1
CELLSTYLE_BEGIN
 90
        3
 91
        2
300
_DATA
309
CELLSTYLE_END
  0
ENDSEC
  0
EOF
