  0
SECTION
  2
HEADER
  9
$ACADVER
  1
AC1027
  9
$ACADMAINTVER
 70
   105
  9
$DWGCODEPAGE
  3
ANSI_1252
  9
$REQUIREDVERSIONS
160
                 0
  9
$LASTSAVEDBY
  1
christoph.stuessi
  9
$INSBASE
 10
0.0
 20
0.0
 30
0.0
  9
$EXTMIN
 10
-108.8152346340158
 20
-71.20531535684768
 30
0.0
  9
$EXTMAX
 10
150.1343305833753
 20
55.2392063822828
 30
0.0
  9
$LIMMIN
 10
0.0
 20
0.0
  9
$LIMMAX
 10
210.0
 20
297.0
  9
$ORTHOMODE
 70
     0
  9
$REGENMODE
 70
     1
  9
$FILLMODE
 70
     1
  9
$QTEXTMODE
 70
     0
  9
$MIRRTEXT
 70
     1
  9
$LTSCALE
 40
1.0
  9
$ATTMODE
 70
     1
  9
$TEXTSIZE
 40
3.5
  9
$TRACEWID
 40
1.0
  9
$TEXTSTYLE
  7
STANDARD
  9
$CLAYER
  8
INFTOTAL
  9
$CELTYPE
  6
BYLAYER
  9
$CECOLOR
 62
   256
  9
$CELTSCALE
 40
1.0
  9
$DISPSILH
 70
     0
  9
$DIMSCALE
 40
1.0
  9
$DIMASZ
 40
3.5
  9
$DIMEXO
 40
0.0
  9
$DIMDLI
 40
3.75
  9
$DIMRND
 40
0.0
  9
$DIMDLE
 40
0.0
  9
$DIMEXE
 40
1.0
  9
$DIMTP
 40
0.0
  9
$DIMTM
 40
0.0
  9
$DIMTXT
 40
3.5
  9
$DIMCEN
 40
2.5
  9
$DIMTSZ
 40
0.0
  9
$DIMTOL
 70
     0
  9
$DIMLIM
 70
     0
  9
$DIMTIH
 70
     1
  9
$DIMTOH
 70
     1
  9
$DIMSE1
 70
     0
  9
$DIMSE2
 70
     0
  9
$DIMTAD
 70
     1
  9
$DIMZIN
 70
     0
  9
$DIMBLK
  1

  9
$DIMASO
 70
     1
  9
$DIMSHO
 70
     1
  9
$DIMPOST
  1

  9
$DIMAPOST
  1

  9
$DIMALT
 70
     0
  9
$DIMALTD
 70
     3
  9
$DIMALTF
 40
0.0393700787
  9
$DIMLFAC
 40
1.0
  9
$DIMTOFL
 70
     1
  9
$DIMTVP
 40
0.0
  9
$DIMTIX
 70
     0
  9
$DIMSOXD
 70
     0
  9
$DIMSAH
 70
     0
  9
$DIMBLK1
  1

  9
$DIMBLK2
  1

  9
$DIMSTYLE
  2
ISO-25
  9
$DIMCLRD
 70
     0
  9
$DIMCLRE
 70
     0
  9
$DIMCLRT
 70
     0
  9
$DIMTFAC
 40
1.0
  9
$DIMGAP
 40
1.5
  9
$DIMJUST
 70
     0
  9
$DIMSD1
 70
     0
  9
$DIMSD2
 70
     0
  9
$DIMTOLJ
 70
     0
  9
$DIMTZIN
 70
     0
  9
$DIMALTZ
 70
     0
  9
$DIMALTTZ
 70
     0
  9
$DIMUPT
 70
     0
  9
$DIMDEC
 70
     2
  9
$DIMTDEC
 70
     3
  9
$DIMALTU
 70
     2
  9
$DIMALTTD
 70
     3
  9
$DIMTXSTY
  7
STANDARD
  9
$DIMAUNIT
 70
     0
  9
$DIMADEC
 70
     0
  9
$DIMALTRND
 40
0.0
  9
$DIMAZIN
 70
     0
  9
$DIMDSEP
 70
    46
  9
$DIMATFIT
 70
     3
  9
$DIMFRAC
 70
     0
  9
$DIMLDRBLK
  1

  9
$DIMLUNIT
 70
     2
  9
$DIMLWD
 70
    -2
  9
$DIMLWE
 70
    -2
  9
$DIMTMOVE
 70
     2
  9
$DIMFXL
 40
1.0
  9
$DIMFXLON
 70
     0
  9
$DIMJOGANG
 40
0.7853981633974483
  9
$DIMTFILL
 70
     0
  9
$DIMTFILLCLR
 70
     0
  9
$DIMARCSYM
 70
     0
  9
$DIMLTYPE
  6

  9
$DIMLTEX1
  6

  9
$DIMLTEX2
  6

  9
$DIMTXTDIRECTION
 70
     0
  9
$LUNITS
 70
     2
  9
$LUPREC
 70
     2
  9
$SKETCHINC
 40
1.0
  9
$FILLETRAD
 40
10.0
  9
$AUNITS
 70
     0
  9
$AUPREC
 70
     2
  9
$MENU
  1
.
  9
$ELEVATION
 40
0.0
  9
$PELEVATION
 40
0.0
  9
$THICKNESS
 40
0.0
  9
$LIMCHECK
 70
     0
  9
$CHAMFERA
 40
0.0
  9
$CHAMFERB
 40
0.0
  9
$CHAMFERC
 40
0.0
  9
$CHAMFERD
 40
0.0
  9
$SKPOLY
 70
     0
  9
$TDCREATE
 40
2457396.398984896
  9
$TDUCREATE
 40
2457396.315651563
  9
$TDUPDATE
 40
2458359.665600058
  9
$TDUUPDATE
 40
2458359.582266725
  9
$TDINDWG
 40
0.0007416204
  9
$TDUSRTIMER
 40
0.0029813542
  9
$USRTIMER
 70
     1
  9
$ANGBASE
 50
0.0
  9
$ANGDIR
 70
     0
  9
$PDMODE
 70
     0
  9
$PDSIZE
 40
-1.0
  9
$PLINEWID
 40
0.0
  9
$SPLFRAME
 70
     0
  9
$SPLINETYPE
 70
     6
  9
$SPLINESEGS
 70
     8
  9
$HANDSEED
  5
244
  9
$SURFTAB1
 70
     6
  9
$SURFTAB2
 70
     6
  9
$SURFTYPE
 70
     6
  9
$SURFU
 70
     6
  9
$SURFV
 70
     6
  9
$UCSBASE
  2

  9
$UCSNAME
  2

  9
$UCSORG
 10
0.0
 20
0.0
 30
0.0
  9
$UCSXDIR
 10
1.0
 20
0.0
 30
0.0
  9
$UCSYDIR
 10
0.0
 20
1.0
 30
0.0
  9
$UCSORTHOREF
  2

  9
$UCSORTHOVIEW
 70
     0
  9
$UCSORGTOP
 10
0.0
 20
0.0
 30
0.0
  9
$UCSORGBOTTOM
 10
0.0
 20
0.0
 30
0.0
  9
$UCSORGLEFT
 10
0.0
 20
0.0
 30
0.0
  9
$UCSORGRIGHT
 10
0.0
 20
0.0
 30
0.0
  9
$UCSORGFRONT
 10
0.0
 20
0.0
 30
0.0
  9
$UCSORGBACK
 10
0.0
 20
0.0
 30
0.0
  9
$PUCSBASE
  2

  9
$PUCSNAME
  2

  9
$PUCSORG
 10
0.0
 20
0.0
 30
0.0
  9
$PUCSXDIR
 10
1.0
 20
0.0
 30
0.0
  9
$PUCSYDIR
 10
0.0
 20
1.0
 30
0.0
  9
$PUCSORTHOREF
  2

  9
$PUCSORTHOVIEW
 70
     0
  9
$PUCSORGTOP
 10
0.0
 20
0.0
 30
0.0
  9
$PUCSORGBOTTOM
 10
0.0
 20
0.0
 30
0.0
  9
$PUCSORGLEFT
 10
0.0
 20
0.0
 30
0.0
  9
$PUCSORGRIGHT
 10
0.0
 20
0.0
 30
0.0
  9
$PUCSORGFRONT
 10
0.0
 20
0.0
 30
0.0
  9
$PUCSORGBACK
 10
0.0
 20
0.0
 30
0.0
  9
$USERI1
 70
     0
  9
$USERI2
 70
     0
  9
$USERI3
 70
     0
  9
$USERI4
 70
     0
  9
$USERI5
 70
     0
  9
$USERR1
 40
0.0
  9
$USERR2
 40
0.0
  9
$USERR3
 40
0.0
  9
$USERR4
 40
0.0
  9
$USERR5
 40
0.0
  9
$WORLDVIEW
 70
     1
  9
$SHADEDGE
 70
     3
  9
$SHADEDIF
 70
    70
  9
$TILEMODE
 70
     1
  9
$MAXACTVP
 70
    64
  9
$PINSBASE
 10
0.0
 20
0.0
 30
0.0
  9
$PLIMCHECK
 70
     0
  9
$PEXTMIN
 10
1.000000000000000E+20
 20
1.000000000000000E+20
 30
1.000000000000000E+20
  9
$PEXTMAX
 10
-1.000000000000000E+20
 20
-1.000000000000000E+20
 30
-1.000000000000000E+20
  9
$PLIMMIN
 10
0.0
 20
0.0
  9
$PLIMMAX
 10
0.0
 20
0.0
  9
$UNITMODE
 70
     0
  9
$VISRETAIN
 70
     1
  9
$PLINEGEN
 70
     0
  9
$PSLTSCALE
 70
     1
  9
$TREEDEPTH
 70
  3020
  9
$CMLSTYLE
  2
STANDARD
  9
$CMLJUST
 70
     0
  9
$CMLSCALE
 40
20.0
  9
$PROXYGRAPHICS
 70
     1
  9
$MEASUREMENT
 70
     1
  9
$CELWEIGHT
370
    -1
  9
$ENDCAPS
280
     0
  9
$JOINSTYLE
280
     0
  9
$LWDISPLAY
290
     0
  9
$INSUNITS
 70
     0
  9
$HYPERLINKBASE
  1

  9
$STYLESHEET
  1

  9
$XEDIT
290
     1
  9
$CEPSNTYPE
380
     0
  9
$PSTYLEMODE
290
     1
  9
$FINGERPRINTGUID
  2
{9F271AC3-8EAA-4D2E-8FB7-AC5EFBB1BA27}
  9
$VERSIONGUID
  2
{FAEB1C32-E019-11D5-929B-00C0DF256EC4}
  9
$EXTNAMES
290
     1
  9
$PSVPSCALE
 40
0.0
  9
$OLESTARTUP
290
     0
  9
$SORTENTS
280
   127
  9
$INDEXCTL
280
     0
  9
$HIDETEXT
280
     1
  9
$XCLIPFRAME
280
     2
  9
$HALOGAP
280
     0
  9
$OBSCOLOR
 70
   257
  9
$OBSLTYPE
280
     0
  9
$INTERSECTIONDISPLAY
280
     0
  9
$INTERSECTIONCOLOR
 70
   257
  9
$DIMASSOC
280
     2
  9
$PROJECTNAME
  1

  9
$CAMERADISPLAY
290
     0
  9
$LENSLENGTH
 40
50.0
  9
$CAMERAHEIGHT
 40
0.0
  9
$STEPSPERSEC
 40
2.0
  9
$STEPSIZE
 40
6.0
  9
$3DDWFPREC
 40
2.0
  9
$PSOLWIDTH
 40
0.25
  9
$PSOLHEIGHT
 40
4.0
  9
$LOFTANG1
 40
1.570796326794897
  9
$LOFTANG2
 40
1.570796326794897
  9
$LOFTMAG1
 40
0.0
  9
$LOFTMAG2
 40
0.0
  9
$LOFTPARAM
 70
     7
  9
$LOFTNORMALS
280
     1
  9
$LATITUDE
 40
37.795
  9
$LONGITUDE
 40
-122.394
  9
$NORTHDIRECTION
 40
0.0
  9
$TIMEZONE
 70
 -8000
  9
$LIGHTGLYPHDISPLAY
280
     1
  9
$TILEMODELIGHTSYNCH
280
     1
  9
$SOLIDHIST
280
     0
  9
$SHOWHIST
280
     1
  9
$DWFFRAME
280
     2
  9
$DGNFRAME
280
     2
  9
$REALWORLDSCALE
290
     1
  9
$INTERFERECOLOR
 62
   256
  9
$CSHADOW
280
     0
  9
$SHADOWPLANELOCATION
 40
0.0
  0
ENDSEC
  0
SECTION
  2
CLASSES
  0
CLASS
  1
ACDBDICTIONARYWDFLT
  2
AcDbDictionaryWithDefault
  3
ObjectDBX Classes
 90
        0
 91
        5
280
     0
281
     0
  0
CLASS
  1
VISUALSTYLE
  2
AcDbVisualStyle
  3
ObjectDBX Classes
 90
     4095
 91
        5
280
     0
281
     0
  0
CLASS
  1
MATERIAL
  2
AcDbMaterial
  3
ObjectDBX Classes
 90
     1153
 91
        5
280
     0
281
     0
  0
CLASS
  1
SCALE
  2
AcDbScale
  3
ObjectDBX Classes
 90
     1153
 91
        5
280
     0
281
     0
  0
CLASS
  1
SUN
  2
AcDbSun
  3
SCENEOE
 90
     1153
 91
        5
280
     0
281
     0
  0
CLASS
  1
XRECORD
  2
AcDbXrecord
  3
ObjectDBX Classes
 90
        0
 91
        1
280
     0
281
     0
  0
CLASS
  1
LWPOLYLINE
  2
AcDbPolyline
  3
ObjectDBX Classes
 90
        0
 91
        1
280
     0
281
     1
  0
CLASS
  1
HATCH
  2
AcDbHatch
  3
ObjectDBX Classes
 90
        0
 91
        1
280
     0
281
     1
  0
CLASS
  1
DICTIONARYVAR
  2
AcDbDictionaryVar
  3
ObjectDBX Classes
 90
        0
 91
        5
280
     0
281
     0
  0
CLASS
  1
ACDBPLACEHOLDER
  2
AcDbPlaceHolder
  3
ObjectDBX Classes
 90
        0
 91
        1
280
     0
281
     0
  0
CLASS
  1
LAYOUT
  2
AcDbLayout
  3
ObjectDBX Classes
 90
        0
 91
        1
280
     0
281
     0
  0
CLASS
  1
TABLESTYLE
  2
AcDbTableStyle
  3
ObjectDBX Classes
 90
     4095
 91
        5
280
     0
281
     0
  0
CLASS
  1
MLEADERSTYLE
  2
AcDbMLeaderStyle
  3
ACDB_MLEADERSTYLE_CLASS
 90
     4095
 91
        5
280
     0
281
     0
  0
CLASS
  1
CELLSTYLEMAP
  2
AcDbCellStyleMap
  3
ObjectDBX Classes
 90
     1152
 91
        5
280
     0
281
     0
  0
ENDSEC
  0
SECTION
  2
TABLES
  0
TABLE
  2
VPORT
  5
8
330
0
100
AcDbSymbolTable
 70
     1
  0
VPORT
  5
29
330
8
100
AcDbSymbolTableRecord
100
AcDbViewportTableRecord
  2
*ACTIVE
 70
     0
 10
0.0
 20
0.0
 11
1.0
 21
1.0
 12
-12.12236506879842
 22
-21.61922840032585
 13
0.0
 23
0.0
 14
10.0
 24
10.0
 15
10.0
 25
10.0
 16
0.0
 26
0.0
 36
1.0
 17
0.0
 27
0.0
 37
0.0
 40
190.0799999999999
 41
2.246376811594203
 42
50.0
 43
0.0
 44
0.0
 50
0.0
 51
0.0
 71
    16
 72
  2000
 73
     1
 74
     3
 75
     0
 76
     0
 77
     0
 78
     0
281
     0
 65
     1
110
0.0
120
0.0
130
0.0
111
1.0
121
0.0
131
0.0
112
0.0
122
1.0
132
0.0
 79
     0
146
0.0
348
197
 60
     3
 61
     5
292
     1
282
     1
141
0.0
142
0.0
 63
   256
  0
ENDTAB
  0
TABLE
  2
LTYPE
  5
5
330
0
100
AcDbSymbolTable
 70
     9
  0
LTYPE
  5
14
330
5
100
AcDbSymbolTableRecord
100
AcDbLinetypeTableRecord
  2
BYBLOCK
 70
     0
  3

 72
    65
 73
     0
 40
0.0
  0
LTYPE
  5
15
330
5
100
AcDbSymbolTableRecord
100
AcDbLinetypeTableRecord
  2
BYLAYER
 70
     0
  3

 72
    65
 73
     0
 40
0.0
  0
LTYPE
  5
16
330
5
100
AcDbSymbolTableRecord
100
AcDbLinetypeTableRecord
  2
CONTINUOUS
 70
     0
  3
Solid line
 72
    65
 73
     0
 40
0.0
  0
LTYPE
  5
6A
330
5
100
AcDbSymbolTableRecord
100
AcDbLinetypeTableRecord
  2
HIDDEN
 70
     0
  3
Hidden __ __ __ __ __ __ __ __ __ __ __ __ __ __
 72
    65
 73
     2
 40
1.905
 49
1.27
 74
     0
 49
-0.635
 74
     0
  0
LTYPE
  5
6B
330
5
100
AcDbSymbolTableRecord
100
AcDbLinetypeTableRecord
  2
PHANTOM
 70
     0
  3
Phantom ______  __  __  ______  __  __  ______
 72
    65
 73
     6
 40
12.7
 49
6.35
 74
     0
 49
-1.27
 74
     0
 49
1.27
 74
     0
 49
-1.27
 74
     0
 49
1.27
 74
     0
 49
-1.27
 74
     0
  0
LTYPE
  5
6C
330
5
100
AcDbSymbolTableRecord
100
AcDbLinetypeTableRecord
  2
CENTER
 70
     0
  3
Center ____ _ ____ _ ____ _ ____ _ ____ _ ____
 72
    65
 73
     4
 40
10.16
 49
6.35
 74
     0
 49
-1.27
 74
     0
 49
1.27
 74
     0
 49
-1.27
 74
     0
  0
LTYPE
  5
6D
330
5
100
AcDbSymbolTableRecord
100
AcDbLinetypeTableRecord
  2
CENTERX2
 70
     0
  3
Center (2x) ________  __  ________  __  _____
 72
    65
 73
     4
 40
20.32
 49
12.7
 74
     0
 49
-2.54
 74
     0
 49
2.54
 74
     0
 49
-2.54
 74
     0
  0
LTYPE
  5
6E
330
5
100
AcDbSymbolTableRecord
100
AcDbLinetypeTableRecord
  2
DOT2
 70
     0
  3
Dot (.5x) ........................................
 72
    65
 73
     2
 40
0.635
 49
0.0
 74
     0
 49
-0.635
 74
     0
  0
LTYPE
  5
1F0
330
5
100
AcDbSymbolTableRecord
100
AcDbLinetypeTableRecord
  2
DASH
 70
     0
  3
DASH _ _ _ _ _
 72
    65
 73
     2
 40
0.75
 49
0.4
 74
     0
 49
-0.35
 74
     0
  0
LTYPE
  5
1F1
330
5
100
AcDbSymbolTableRecord
100
AcDbLinetypeTableRecord
  2
LONGDASH_DASH
 70
     0
  3
LONGDASH_DASH __ . __ . __
 72
    65
 73
     4
 40
0.85
 49
0.4
 74
     0
 49
-0.2
 74
     0
 49
0.05
 74
     0
 49
-0.2
 74
     0
  0
LTYPE
  5
1F2
330
5
100
AcDbSymbolTableRecord
100
AcDbLinetypeTableRecord
  2
LONGDASH_DASH_DASH
 70
     0
  3
LONGDASH_DASH_DASH __ . . __ . . __
 72
    65
 73
     6
 40
1.1
 49
0.4
 74
     0
 49
-0.2
 74
     0
 49
0.05
 74
     0
 49
-0.2
 74
     0
 49
0.05
 74
     0
 49
-0.2
 74
     0
  0
ENDTAB
  0
TABLE
  2
LAYER
  5
2
102
{ACAD_XDICTIONARY
360
212
102
}
330
0
100
AcDbSymbolTable
 70
    16
  0
LAYER
  5
1A8
330
2
100
AcDbSymbolTableRecord
100
AcDbLayerTableRecord
  2
200
 70
     0
 62
     2
  6
CONTINUOUS
370
    50
390
203
347
1A6
348
0
  0
LAYER
  5
1AB
330
2
100
AcDbSymbolTableRecord
100
AcDbLayerTableRecord
  2
Defpoints
 70
     0
 62
     7
  6
CONTINUOUS
290
     0
370
    -3
390
203
347
1A6
348
0
  0
LAYER
  5
1F3
330
2
100
AcDbSymbolTableRecord
100
AcDbLayerTableRecord
  2
0
 70
     0
 62
    -1
  6
CONTINUOUS
370
    -3
390
0
347
1A6
348
0
  0
LAYER
  5
1F4
330
2
100
AcDbSymbolTableRecord
100
AcDbLayerTableRecord
  2
1
 70
     0
 62
     4
  6
CONTINUOUS
370
    50
390
0
347
1A6
348
0
  0
LAYER
  5
1F5
330
2
100
AcDbSymbolTableRecord
100
AcDbLayerTableRecord
  2
2
 70
     0
 62
     7
  6
CONTINUOUS
370
    25
390
0
347
1A6
348
0
  0
LAYER
  5
1F6
330
2
100
AcDbSymbolTableRecord
100
AcDbLayerTableRecord
  2
3
 70
     0
 62
     1
  6
DASH
370
    35
390
0
347
1A6
348
0
  0
LAYER
  5
1F7
330
2
100
AcDbSymbolTableRecord
100
AcDbLayerTableRecord
  2
4
 70
     0
 62
     2
  6
LONGDASH_DASH
370
    25
390
0
347
1A6
348
0
  0
LAYER
  5
1F8
330
2
100
AcDbSymbolTableRecord
100
AcDbLayerTableRecord
  2
6
 70
     0
 62
     5
  6
CONTINUOUS
370
    -3
390
0
347
1A6
348
0
  0
LAYER
  5
1F9
330
2
100
AcDbSymbolTableRecord
100
AcDbLayerTableRecord
  2
CUT
 70
     0
 62
     1
  6
CONTINUOUS
370
    25
390
0
347
1A6
348
0
  0
LAYER
  5
1FA
330
2
100
AcDbSymbolTableRecord
100
AcDbLayerTableRecord
  2
NOCUT
 70
     0
 62
     7
  6
CONTINUOUS
370
    25
390
0
347
1A6
348
0
  0
LAYER
  5
1FB
330
2
100
AcDbSymbolTableRecord
100
AcDbLayerTableRecord
  2
SK1
 70
     0
 62
     4
  6
CONTINUOUS
370
    50
390
0
347
1A6
348
0
  0
LAYER
  5
1FC
330
2
100
AcDbSymbolTableRecord
100
AcDbLayerTableRecord
  2
SK2
 70
     0
 62
     7
  6
CONTINUOUS
370
    25
390
0
347
1A6
348
0
  0
LAYER
  5
1FD
330
2
100
AcDbSymbolTableRecord
100
AcDbLayerTableRecord
  2
SK3
 70
     0
 62
     1
  6
DASH
370
    35
390
0
347
1A6
348
0
  0
LAYER
  5
1FE
330
2
100
AcDbSymbolTableRecord
100
AcDbLayerTableRecord
  2
SK4
 70
     0
 62
     2
  6
LONGDASH_DASH
370
    25
390
0
347
1A6
348
0
  0
LAYER
  5
1FF
330
2
100
AcDbSymbolTableRecord
100
AcDbLayerTableRecord
  2
SK6
 70
     0
 62
     5
  6
CONTINUOUS
370
    -3
390
0
347
1A6
348
0
  0
LAYER
  5
200
330
2
100
AcDbSymbolTableRecord
100
AcDbLayerTableRecord
  2
INFTOTAL
 70
     0
 62
     9
  6
CONTINUOUS
370
    18
390
0
347
1A6
348
0
  0
ENDTAB
  0
TABLE
  2
STYLE
  5
3
330
0
100
AcDbSymbolTable
 70
     3
  0
STYLE
  5
11
330
3
100
AcDbSymbolTableRecord
100
AcDbTextStyleTableRecord
  2
STANDARD
 70
     0
 40
0.0
 41
1.0
 50
0.0
 71
     0
 42
3.5
  3
txt
  4

  0
STYLE
  5
11F
330
3
100
AcDbSymbolTableRecord
100
AcDbTextStyleTableRecord
  2
SLDTEXTSTYLE0
 70
     0
 40
0.0
 41
0.605
 50
0.0
 71
     0
 42
3.5
  3
TXT
  4

  0
STYLE
  5
1A7
330
3
100
AcDbSymbolTableRecord
100
AcDbTextStyleTableRecord
  2
BMG_Text
 70
     0
 40
3.5
 41
1.0
 50
0.0
 71
     0
 42
3.5
  3
monos.ttf
  4

1001
ACAD
1000
Monospac821 BT
1071
       49
  0
ENDTAB
  0
TABLE
  2
VIEW
  5
6
330
0
100
AcDbSymbolTable
 70
     0
  0
ENDTAB
  0
TABLE
  2
UCS
  5
7
330
0
100
AcDbSymbolTable
 70
     0
  0
ENDTAB
  0
TABLE
  2
APPID
  5
9
330
0
100
AcDbSymbolTable
 70
     4
  0
APPID
  5
12
330
9
100
AcDbSymbolTableRecord
100
AcDbRegAppTableRecord
  2
ACAD
 70
     0
  0
APPID
  5
1C3
330
9
100
AcDbSymbolTableRecord
100
AcDbRegAppTableRecord
  2
ACAD_DSTYLE_DIM_LINETYPE
 70
     0
  0
APPID
  5
1C4
330
9
100
AcDbSymbolTableRecord
100
AcDbRegAppTableRecord
  2
ACAD_DSTYLE_DIM_EXT1_LINETYPE
 70
     0
  0
APPID
  5
1C5
330
9
100
AcDbSymbolTableRecord
100
AcDbRegAppTableRecord
  2
ACAD_DSTYLE_DIM_EXT2_LINETYPE
 70
     0
  0
ENDTAB
  0
TABLE
  2
DIMSTYLE
  5
A
330
0
100
AcDbSymbolTable
 70
     4
100
AcDbDimStyleTable
  0
DIMSTYLE
105
27
330
A
100
AcDbSymbolTableRecord
100
AcDbDimStyleTableRecord
  2
ISO-25
 70
     0
 41
2.5
 42
0.625
 43
3.75
 44
1.25
 73
     0
 74
     0
 77
     1
 78
     8
140
2.5
141
2.5
143
0.0393700787
147
0.625
171
     3
172
     1
178
     0
271
     2
272
     2
274
     3
283
     0
284
     8
340
11
  0
DIMSTYLE
105
120
102
{ACAD_REACTORS
330
11E
102
}
330
A
100
AcDbSymbolTableRecord
100
AcDbDimStyleTableRecord
  2
SLDDIMSTYLE0
 70
     0
 41
3.5
 44
0.0
 45
0.000000001
 73
     0
 74
     0
 77
     1
 78
    12
140
3.5
147
0.875
172
     1
173
     1
178
     0
271
     2
272
     3
284
    12
340
11F
  0
DIMSTYLE
105
12E
102
{ACAD_REACTORS
330
12D
330
139
330
143
330
14D
330
157
102
}
330
A
100
AcDbSymbolTableRecord
100
AcDbDimStyleTableRecord
  2
SLDDIMSTYLE1
 70
     0
 41
3.5
 44
0.0
 45
0.000000001
 73
     0
 74
     0
 77
     1
 78
    12
140
3.5
147
0.875
173
     1
178
     0
271
     2
272
     3
284
    12
340
11F
  0
DIMSTYLE
105
168
330
A
100
AcDbSymbolTableRecord
100
AcDbDimStyleTableRecord
  2
SLDDIMSTYLE2
 70
     0
 41
3.5
 44
0.0
 45
0.000000001
146
3.5
147
0.0
173
     1
178
     0
271
     0
272
     0
340
11
341
169
343
169
344
169
  0
ENDTAB
  0
TABLE
  2
BLOCK_RECORD
  5
1
330
0
100
AcDbSymbolTable
 70
     8
  0
BLOCK_RECORD
  5
1F
330
1
100
AcDbSymbolTableRecord
100
AcDbBlockTableRecord
  2
*MODEL_SPACE
340
190
 70
     0
280
     1
281
     0
  0
BLOCK_RECORD
  5
1B
330
1
100
AcDbSymbolTableRecord
100
AcDbBlockTableRecord
  2
*PAPER_SPACE
340
191
 70
     0
280
     1
281
     0
  0
BLOCK_RECORD
  5
121
330
1
100
AcDbSymbolTableRecord
100
AcDbBlockTableRecord
  2
_D
340
0
 70
     0
280
     1
281
     0
  0
BLOCK_RECORD
  5
12F
330
1
100
AcDbSymbolTableRecord
100
AcDbBlockTableRecord
  2
_D_1
340
0
 70
     0
280
     1
281
     0
  0
BLOCK_RECORD
  5
13A
330
1
100
AcDbSymbolTableRecord
100
AcDbBlockTableRecord
  2
_D_2
340
0
 70
     0
280
     1
281
     0
  0
BLOCK_RECORD
  5
144
330
1
100
AcDbSymbolTableRecord
100
AcDbBlockTableRecord
  2
_D_3
340
0
 70
     0
280
     1
281
     0
  0
BLOCK_RECORD
  5
14E
330
1
100
AcDbSymbolTableRecord
100
AcDbBlockTableRecord
  2
_D_4
340
0
 70
     0
280
     1
281
     0
  0
BLOCK_RECORD
  5
158
330
1
100
AcDbSymbolTableRecord
100
AcDbBlockTableRecord
  2
_D_5
340
0
 70
     0
280
     1
281
     0
  0
BLOCK_RECORD
  5
162
330
1
100
AcDbSymbolTableRecord
100
AcDbBlockTableRecord
  2
SW_NOTE_0
340
0
102
{BLKREFS
331
167
102
}
 70
     0
280
     1
281
     0
  0
BLOCK_RECORD
  5
169
330
1
100
AcDbSymbolTableRecord
100
AcDbBlockTableRecord
  2
_NONE
340
0
 70
     0
280
     1
281
     0
  0
ENDTAB
  0
ENDSEC
  0
SECTION
  2
BLOCKS
  0
BLOCK
  5
20
330
1F
100
AcDbEntity
  8
0
100
AcDbBlockBegin
  2
*MODEL_SPACE
 70
     0
 10
0.0
 20
0.0
 30
0.0
  3
*MODEL_SPACE
  1

  0
ENDBLK
  5
21
330
1F
100
AcDbEntity
  8
0
100
AcDbBlockEnd
  0
BLOCK
  5
1C
330
1B
100
AcDbEntity
 67
     1
  8
0
100
AcDbBlockBegin
  2
*PAPER_SPACE
 70
     0
 10
0.0
 20
0.0
 30
0.0
  3
*PAPER_SPACE
  1

  0
ENDBLK
  5
1D
330
1B
100
AcDbEntity
 67
     1
  8
0
100
AcDbBlockEnd
  0
BLOCK
  5
122
330
121
100
AcDbEntity
  8
0
100
AcDbBlockBegin
  2
_D
 70
     0
 10
0.0
 20
0.0
 30
0.0
  3
_D
  1
_D
  0
LINE
  5
124
330
121
100
AcDbEntity
  8
2
  6
Continuous
370
    -2
100
AcDbLine
 10
89.5625
 20
7.0000000043
 30
0.0
 11
100.287971826
 21
7.000000004299999
 31
0.0
  0
LINE
  5
125
330
121
100
AcDbEntity
  8
2
  6
Continuous
370
    -2
100
AcDbLine
 10
89.5625
 20
-7.0013661797
 30
0.0
 11
100.287971826
 21
-7.001366179700001
 31
0.0
  0
LINE
  5
126
330
121
100
AcDbEntity
  8
2
  6
Continuous
370
    -2
100
AcDbLine
 10
100.287971826
 20
3.500000004299999
 30
0.0
 11
100.287971826
 21
-3.501366179700001
 31
0.0
  0
SOLID
  5
127
330
121
100
AcDbEntity
  8
2
100
AcDbTrace
 10
100.8713051593333
 20
3.500000004299999
 30
0.0
 11
99.70463849266667
 21
3.500000004299999
 31
0.0
 12
100.287971826
 22
7.000000004299999
 32
0.0
 13
100.287971826
 23
7.000000004299999
 33
0.0
  0
SOLID
  5
128
330
121
100
AcDbEntity
  8
2
100
AcDbTrace
 10
99.70463849266667
 20
-3.501366179700001
 30
0.0
 11
100.8713051593333
 21
-3.501366179700001
 31
0.0
 12
100.287971826
 22
-7.001366179700001
 32
0.0
 13
100.287971826
 23
-7.001366179700001
 33
0.0
  0
MTEXT
  5
129
330
121
100
AcDbEntity
  8
2
370
    25
100
AcDbMText
 10
97.55097182600001
 20
-0.0006830877
 30
0.0
 40
3.5
 41
0.0
 46
0.0
 71
     5
 72
     1
  1
\A1;%%c14
  7
BMG_Text
 11
0.0
 21
1.0
 31
0.0
 73
     1
 44
1.0
  0
POINT
  5
12A
330
121
100
AcDbEntity
  8
Defpoints
 62
     0
100
AcDbPoint
 10
89.5
 20
7.0000000043
 30
0.0
  0
POINT
  5
12B
330
121
100
AcDbEntity
  8
Defpoints
 62
     0
100
AcDbPoint
 10
89.5
 20
-7.0013661797
 30
0.0
  0
POINT
  5
12C
330
121
100
AcDbEntity
  8
Defpoints
 62
     0
100
AcDbPoint
 10
100.287971826
 20
-7.001366179700001
 30
0.0
  0
ENDBLK
  5
123
330
121
100
AcDbEntity
  8
0
100
AcDbBlockEnd
  0
BLOCK
  5
130
330
12F
100
AcDbEntity
  8
0
100
AcDbBlockBegin
  2
_D_1
 70
     0
 10
0.0
 20
0.0
 30
0.0
  3
_D_1
  1
_D_1
  0
LINE
  5
132
330
12F
100
AcDbEntity
  8
2
  6
Continuous
370
    -2
100
AcDbLine
 10
88.8125
 20
-12.0
 30
0.0
 11
113.9773285243
 21
-12.0
 31
0.0
  0
LINE
  5
133
330
12F
100
AcDbEntity
  8
2
  6
Continuous
370
    -2
100
AcDbLine
 10
88.8125
 20
12.0
 30
0.0
 11
113.9773285243
 21
12.0
 31
0.0
  0
LINE
  5
134
330
12F
100
AcDbEntity
  8
2
  6
Continuous
370
    -2
100
AcDbLine
 10
113.9773285243
 20
-8.500000000000002
 30
0.0
 11
113.9773285243
 21
8.499999999999998
 31
0.0
  0
SOLID
  5
135
330
12F
100
AcDbEntity
  8
2
100
AcDbTrace
 10
113.3939951909667
 20
-8.500000000000002
 30
0.0
 11
114.5606618576333
 21
-8.500000000000002
 31
0.0
 12
113.9773285243
 22
-12.0
 32
0.0
 13
113.9773285243
 23
-12.0
 33
0.0
  0
SOLID
  5
136
330
12F
100
AcDbEntity
  8
2
100
AcDbTrace
 10
114.5606618576333
 20
8.499999999999998
 30
0.0
 11
113.3939951909667
 21
8.499999999999998
 31
0.0
 12
113.9773285243
 22
12.0
 32
0.0
 13
113.9773285243
 23
12.0
 33
0.0
  0
MTEXT
  5
137
330
12F
100
AcDbEntity
  8
2
370
    25
100
AcDbMText
 10
111.2403285243
 20
0.0
 30
0.0
 40
3.5
 41
0.0
 46
0.0
 71
     5
 72
     1
  1
\A1;%%c24
  7
BMG_Text
 11
0.0
 21
1.0
 31
0.0
 73
     1
 44
1.0
  0
POINT
  5
138
330
12F
100
AcDbEntity
  8
Defpoints
 62
     0
100
AcDbPoint
 10
88.75
 20
-12.0
 30
0.0
  0
POINT
  5
1AC
330
12F
100
AcDbEntity
  8
Defpoints
 62
     0
100
AcDbPoint
 10
88.75
 20
12.0
 30
0.0
  0
POINT
  5
1AD
330
12F
100
AcDbEntity
  8
Defpoints
 62
     0
100
AcDbPoint
 10
113.9773285243
 20
12.0
 30
0.0
  0
ENDBLK
  5
131
330
12F
100
AcDbEntity
  8
0
100
AcDbBlockEnd
  0
BLOCK
  5
13B
330
13A
100
AcDbEntity
  8
0
100
AcDbBlockBegin
  2
_D_2
 70
     0
 10
0.0
 20
0.0
 30
0.0
  3
_D_2
  1
_D_2
  0
LINE
  5
13D
330
13A
100
AcDbEntity
  8
2
  6
Continuous
370
    -2
100
AcDbLine
 10
27.0
 20
-12.0625
 30
0.0
 11
27.0
 21
-39.626859649
 31
0.0
  0
LINE
  5
13E
330
13A
100
AcDbEntity
  8
2
  6
Continuous
370
    -2
100
AcDbLine
 10
89.5
 20
-11.3125
 30
0.0
 11
89.5
 21
-39.626859649
 31
0.0
  0
LINE
  5
13F
330
13A
100
AcDbEntity
  8
2
  6
Continuous
370
    -2
100
AcDbLine
 10
30.5
 20
-39.626859649
 30
0.0
 11
86.0
 21
-39.626859649
 31
0.0
  0
SOLID
  5
140
330
13A
100
AcDbEntity
  8
2
100
AcDbTrace
 10
30.5
 20
-39.04352631566666
 30
0.0
 11
30.5
 21
-40.21019298233333
 31
0.0
 12
27.0
 22
-39.626859649
 32
0.0
 13
27.0
 23
-39.626859649
 33
0.0
  0
SOLID
  5
141
330
13A
100
AcDbEntity
  8
2
100
AcDbTrace
 10
86.0
 20
-40.21019298233333
 30
0.0
 11
86.0
 21
-39.04352631566666
 31
0.0
 12
89.5
 22
-39.626859649
 32
0.0
 13
89.5
 23
-39.626859649
 33
0.0
  0
MTEXT
  5
142
330
13A
100
AcDbEntity
  8
2
370
    25
100
AcDbMText
 10
58.25
 20
-36.940609649
 30
0.0
 40
3.5
 41
0.0
 46
0.0
 71
     5
 72
     1
  1
\A1;62.5
  7
BMG_Text
 73
     1
 44
1.0
  0
POINT
  5
1AE
330
13A
100
AcDbEntity
  8
Defpoints
 62
     0
100
AcDbPoint
 10
27.0
 20
-12.0
 30
0.0
  0
POINT
  5
1AF
330
13A
100
AcDbEntity
  8
Defpoints
 62
     0
100
AcDbPoint
 10
89.5
 20
-11.25
 30
0.0
  0
POINT
  5
1B0
330
13A
100
AcDbEntity
  8
Defpoints
 62
     0
100
AcDbPoint
 10
89.5
 20
-39.626859649
 30
0.0
  0
ENDBLK
  5
13C
330
13A
100
AcDbEntity
  8
0
100
AcDbBlockEnd
  0
BLOCK
  5
145
330
144
100
AcDbEntity
  8
0
100
AcDbBlockBegin
  2
_D_3
 70
     0
 10
0.0
 20
0.0
 30
0.0
  3
_D_3
  1
_D_3
  0
LINE
  5
147
330
144
100
AcDbEntity
  8
2
  6
Continuous
370
    -2
100
AcDbLine
 10
0.0
 20
-31.2625
 30
0.0
 11
0.0
 21
-52.3904011871
 31
0.0
  0
LINE
  5
148
330
144
100
AcDbEntity
  8
2
  6
Continuous
370
    -2
100
AcDbLine
 10
89.5
 20
-11.3125
 30
0.0
 11
89.5
 21
-52.3904011871
 31
0.0
  0
LINE
  5
149
330
144
100
AcDbEntity
  8
2
  6
Continuous
370
    -2
100
AcDbLine
 10
3.5
 20
-52.3904011871
 30
0.0
 11
86.0
 21
-52.3904011871
 31
0.0
  0
SOLID
  5
14A
330
144
100
AcDbEntity
  8
2
100
AcDbTrace
 10
3.5
 20
-51.80706785376666
 30
0.0
 11
3.5
 21
-52.97373452043333
 31
0.0
 12
0.0
 22
-52.3904011871
 32
0.0
 13
0.0
 23
-52.3904011871
 33
0.0
  0
SOLID
  5
14B
330
144
100
AcDbEntity
  8
2
100
AcDbTrace
 10
86.0
 20
-52.97373452043333
 30
0.0
 11
86.0
 21
-51.80706785376666
 31
0.0
 12
89.5
 22
-52.3904011871
 32
0.0
 13
89.5
 23
-52.3904011871
 33
0.0
  0
MTEXT
  5
14C
330
144
100
AcDbEntity
  8
2
370
    25
100
AcDbMText
 10
44.75
 20
-49.7041511871
 30
0.0
 40
3.5
 41
0.0
 46
0.0
 71
     5
 72
     1
  1
\A1;89.5
  7
BMG_Text
 73
     1
 44
1.0
  0
POINT
  5
1B1
330
144
100
AcDbEntity
  8
Defpoints
 62
     0
100
AcDbPoint
 10
0.0
 20
-31.2
 30
0.0
  0
POINT
  5
1B2
330
144
100
AcDbEntity
  8
Defpoints
 62
     0
100
AcDbPoint
 10
89.5
 20
-11.25
 30
0.0
  0
POINT
  5
1B3
330
144
100
AcDbEntity
  8
Defpoints
 62
     0
100
AcDbPoint
 10
89.5
 20
-52.3904011871
 30
0.0
  0
ENDBLK
  5
146
330
144
100
AcDbEntity
  8
0
100
AcDbBlockEnd
  0
BLOCK
  5
14F
330
14E
100
AcDbEntity
  8
0
100
AcDbBlockBegin
  2
_D_4
 70
     0
 10
0.0
 20
0.0
 30
0.0
  3
_D_4
  1
_D_4
  0
LINE
  5
151
330
14E
100
AcDbEntity
  8
SK2
  6
ByBlock
370
    -2
100
AcDbLine
 10
-0.0625
 20
22.0
 30
0.0
 11
-53.3197058207
 21
22.0
 31
0.0
  0
LINE
  5
152
330
14E
100
AcDbEntity
  8
SK2
  6
ByBlock
370
    -2
100
AcDbLine
 10
-0.0625
 20
-22.0
 30
0.0
 11
-53.3197058207
 21
-22.0
 31
0.0
  0
LINE
  5
153
330
14E
100
AcDbEntity
  8
SK2
  6
ByBlock
370
    -2
100
AcDbLine
 10
-53.3197058207
 20
18.5
 30
0.0
 11
-53.3197058207
 21
-18.5
 31
0.0
  0
SOLID
  5
154
330
14E
100
AcDbEntity
  8
SK2
100
AcDbTrace
 10
-52.73637248736667
 20
18.5
 30
0.0
 11
-53.90303915403334
 21
18.5
 31
0.0
 12
-53.3197058207
 22
22.0
 32
0.0
 13
-53.3197058207
 23
22.0
 33
0.0
  0
SOLID
  5
155
330
14E
100
AcDbEntity
  8
SK2
100
AcDbTrace
 10
-53.90303915403334
 20
-18.5
 30
0.0
 11
-52.73637248736667
 21
-18.5
 31
0.0
 12
-53.3197058207
 22
-22.0
 32
0.0
 13
-53.3197058207
 23
-22.0
 33
0.0
  0
MTEXT
  5
156
330
14E
100
AcDbEntity
  8
SK2
100
AcDbMText
 10
-56.0409558207
 20
0.0
 30
0.0
 40
3.5
 41
0.0
 46
0.0
 71
     5
 72
     1
  1
\A1;PSC 63
  7
BMG_Text
 11
0.0
 21
1.0
 31
0.0
 73
     1
 44
1.0
  0
POINT
  5
1B4
330
14E
100
AcDbEntity
  8
Defpoints
 62
     0
100
AcDbPoint
 10
0.0
 20
22.0
 30
0.0
  0
POINT
  5
1B5
330
14E
100
AcDbEntity
  8
Defpoints
 62
     0
100
AcDbPoint
 10
0.0
 20
-22.0
 30
0.0
  0
POINT
  5
1B6
330
14E
100
AcDbEntity
  8
Defpoints
 62
     0
100
AcDbPoint
 10
-53.3197058207
 20
-22.0
 30
0.0
  0
ENDBLK
  5
150
330
14E
100
AcDbEntity
  8
0
100
AcDbBlockEnd
  0
BLOCK
  5
159
330
158
100
AcDbEntity
  8
0
100
AcDbBlockBegin
  2
_D_5
 70
     0
 10
0.0
 20
0.0
 30
0.0
  3
_D_5
  1
_D_5
  0
LINE
  5
15B
330
158
100
AcDbEntity
  8
2
  6
Continuous
370
    -2
100
AcDbLine
 10
0.2375
 20
31.5
 30
0.0
 11
-67.2303770374
 21
31.5
 31
0.0
  0
LINE
  5
15C
330
158
100
AcDbEntity
  8
2
  6
Continuous
370
    -2
100
AcDbLine
 10
0.2375
 20
-31.5
 30
0.0
 11
-67.2303770374
 21
-31.5
 31
0.0
  0
LINE
  5
15D
330
158
100
AcDbEntity
  8
2
  6
Continuous
370
    -2
100
AcDbLine
 10
-67.2303770374
 20
28.0
 30
0.0
 11
-67.2303770374
 21
-28.0
 31
0.0
  0
SOLID
  5
15E
330
158
100
AcDbEntity
  8
2
100
AcDbTrace
 10
-66.64704370406668
 20
28.0
 30
0.0
 11
-67.81371037073333
 21
28.0
 31
0.0
 12
-67.2303770374
 22
31.5
 32
0.0
 13
-67.2303770374
 23
31.5
 33
0.0
  0
SOLID
  5
15F
330
158
100
AcDbEntity
  8
2
100
AcDbTrace
 10
-67.81371037073333
 20
-28.0
 30
0.0
 11
-66.64704370406668
 21
-28.0
 31
0.0
 12
-67.2303770374
 22
-31.5
 32
0.0
 13
-67.2303770374
 23
-31.5
 33
0.0
  0
MTEXT
  5
160
330
158
100
AcDbEntity
  8
2
370
    25
100
AcDbMText
 10
-69.9673770374
 20
0.0
 30
0.0
 40
3.5
 41
0.0
 46
0.0
 71
     5
 72
     1
  1
\A1;%%c63
  7
BMG_Text
 11
0.0
 21
1.0
 31
0.0
 73
     1
 44
1.0
  0
POINT
  5
161
330
158
100
AcDbEntity
  8
Defpoints
 62
     0
100
AcDbPoint
 10
0.3
 20
31.5
 30
0.0
  0
POINT
  5
1B7
330
158
100
AcDbEntity
  8
Defpoints
 62
     0
100
AcDbPoint
 10
0.3
 20
-31.5
 30
0.0
  0
POINT
  5
1B8
330
158
100
AcDbEntity
  8
Defpoints
 62
     0
100
AcDbPoint
 10
-67.2303770374
 20
-31.5
 30
0.0
  0
ENDBLK
  5
15A
330
158
100
AcDbEntity
  8
0
100
AcDbBlockEnd
  0
BLOCK
  5
163
330
162
100
AcDbEntity
  8
0
100
AcDbBlockBegin
  2
SW_NOTE_0
 70
     0
 10
0.0
 20
0.0
 30
0.0
  3
SW_NOTE_0
  1
SW_NOTE_0
  0
LINE
  5
165
330
162
100
AcDbEntity
  8
SK6
  6
Continuous
370
    35
100
AcDbLine
 10
14.1537682417
 20
0.0
 30
0.0
 11
0.0
 21
0.0
 31
0.0
  0
MTEXT
  5
166
330
162
100
AcDbEntity
  8
SK6
  6
Continuous
370
    35
100
AcDbMText
 10
0.4322838283
 20
4.4657079213
 30
0.0
 40
3.5
 41
0.0
 46
0.0
 71
     1
 72
     1
  1
328.322
  7
BMG_Text
 73
     1
 44
1.0
  0
ENDBLK
  5
164
330
162
100
AcDbEntity
  8
0
100
AcDbBlockEnd
  0
BLOCK
  5
16A
330
169
100
AcDbEntity
  8
0
100
AcDbBlockBegin
  2
_NONE
 70
     0
 10
0.0
 20
0.0
 30
0.0
  3
_NONE
  1
_NONE
  0
ENDBLK
  5
16B
330
169
100
AcDbEntity
  8
0
100
AcDbBlockEnd
  0
ENDSEC
  0
SECTION
  2
ENTITIES
  0
LINE
  5
75
330
1F
100
AcDbEntity
  8
4
  6
LONGDASH_DASH
370
    25
100
AcDbLine
 10
-42.8308263812
 20
0.0
 30
0.0
 11
90.3020273358
 21
0.0
 31
0.0
  0
LINE
  5
76
330
1F
100
AcDbEntity
  8
SK3
100
AcDbLine
 10
-11.0
 20
13.6125000043
 30
0.0
 11
-11.0
 21
-13.6124999824
 31
0.0
  0
LINE
  5
77
330
1F
100
AcDbEntity
  8
SK3
100
AcDbLine
 10
-10.2783121635
 20
9.0000000043
 30
0.0
 11
-10.2783121635
 21
-8.9999999957
 31
0.0
  0
LINE
  5
78
330
1F
100
AcDbEntity
  8
SK3
100
AcDbLine
 10
74.2834936491
 20
-6.9999999957
 30
0.0
 11
74.2834936491
 21
7.0000000043
 31
0.0
  0
LINE
  5
79
330
1F
100
AcDbEntity
  8
SK3
100
AcDbLine
 10
73.8504809472
 20
-7.2499999957
 30
0.0
 11
73.8504809472
 21
7.2500000043
 31
0.0
  0
LINE
  5
7A
330
1F
100
AcDbEntity
  8
SK3
100
AcDbLine
 10
72.0
 20
-7.2499999957
 30
0.0
 11
72.0
 21
7.2500000043
 31
0.0
  0
LINE
  5
7B
330
1F
100
AcDbEntity
  8
SK3
100
AcDbLine
 10
71.2783121635
 20
-5.9999999957
 30
0.0
 11
71.2783121635
 21
6.0000000043
 31
0.0
  0
LINE
  5
7C
330
1F
100
AcDbEntity
  8
SK3
100
AcDbLine
 10
-38.0
 20
-15.697468884
 30
0.0
 11
-31.5675323367
 21
-14.0124999957
 31
0.0
  0
LINE
  5
7D
330
1F
100
AcDbEntity
  8
SK3
100
AcDbLine
 10
-31.5675323367
 20
14.0125000043
 30
0.0
 11
-38.0
 21
15.7103252889
 31
0.0
  0
LINE
  5
7E
330
1F
100
AcDbEntity
  8
SK3
100
AcDbLine
 10
-11.4551179135
 20
14.0125000043
 30
0.0
 11
-24.1675323367
 21
14.0125000043
 31
0.0
  0
LINE
  5
7F
330
1F
100
AcDbEntity
  8
SK3
100
AcDbLine
 10
-11.4
 20
14.0125000043
 30
0.0
 11
-11.4551179135
 21
14.0125000043
 31
0.0
  0
LINE
  5
80
330
1F
100
AcDbEntity
  8
SK3
100
AcDbLine
 10
-11.4551179135
 20
-14.0124999957
 30
0.0
 11
-11.4
 21
-14.0124999957
 31
0.0
  0
LINE
  5
81
330
1F
100
AcDbEntity
  8
SK3
100
AcDbLine
 10
-24.1675323367
 20
-14.0124999957
 30
0.0
 11
-11.4
 21
-14.0124999957
 31
0.0
  0
LINE
  5
82
330
1F
100
AcDbEntity
  8
SK3
100
AcDbLine
 10
-24.1675323367
 20
14.0125000043
 30
0.0
 11
-31.5675323367
 21
14.0125000043
 31
0.0
  0
LINE
  5
83
330
1F
100
AcDbEntity
  8
SK3
100
AcDbLine
 10
-31.5675323367
 20
-14.0124999957
 30
0.0
 11
-24.1675323367
 21
-14.0124999957
 31
0.0
  0
LINE
  5
84
330
1F
100
AcDbEntity
  8
SK3
100
AcDbLine
 10
-11.0
 20
-10.2499999957
 30
0.0
 11
-10.2783121635
 21
-8.9999999957
 31
0.0
  0
LINE
  5
85
330
1F
100
AcDbEntity
  8
SK3
100
AcDbLine
 10
-10.2783121635
 20
9.0000000043
 30
0.0
 11
-11.0
 21
10.2500000043
 31
0.0
  0
LINE
  5
86
330
1F
100
AcDbEntity
  8
SK3
100
AcDbLine
 10
73.8504809472
 20
-7.2499999957
 30
0.0
 11
74.2834936491
 21
-6.9999999957
 31
0.0
  0
LINE
  5
87
330
1F
100
AcDbEntity
  8
SK3
100
AcDbLine
 10
74.2834936491
 20
7.0000000043
 30
0.0
 11
73.8504809472
 21
7.2500000043
 31
0.0
  0
LINE
  5
88
330
1F
100
AcDbEntity
  8
SK3
100
AcDbLine
 10
72.0
 20
-7.2499999957
 30
0.0
 11
73.8504809472
 21
-7.2499999957
 31
0.0
  0
LINE
  5
89
330
1F
100
AcDbEntity
  8
SK3
100
AcDbLine
 10
73.8504809472
 20
7.2500000043
 30
0.0
 11
72.0
 21
7.2500000043
 31
0.0
  0
LINE
  5
8A
330
1F
100
AcDbEntity
  8
SK3
100
AcDbLine
 10
72.0
 20
7.2500000043
 30
0.0
 11
71.2783121635
 21
6.0000000043
 31
0.0
  0
LINE
  5
8B
330
1F
100
AcDbEntity
  8
SK3
100
AcDbLine
 10
71.2783121635
 20
-5.9999999957
 30
0.0
 11
72.0
 21
-7.2499999957
 31
0.0
  0
LINE
  5
8C
330
1F
100
AcDbEntity
  8
SK3
100
AcDbLine
 10
85.5109637304
 20
-7.0013661797
 30
0.0
 11
89.5
 21
-7.0013661797
 31
0.0
  0
LINE
  5
8D
330
1F
100
AcDbEntity
  8
SK3
100
AcDbLine
 10
74.2834936491
 20
-6.9999999957
 30
0.0
 11
85.5109637304
 21
-7.0013661797
 31
0.0
  0
LINE
  5
8E
330
1F
100
AcDbEntity
  8
SK3
100
AcDbLine
 10
89.5
 20
7.0000000043
 30
0.0
 11
74.2834936491
 21
7.0000000043
 31
0.0
  0
LINE
  5
8F
330
1F
100
AcDbEntity
  8
SK3
100
AcDbLine
 10
-10.2783121635
 20
-6.0675181941
 30
0.0
 11
71.2783121635
 21
-5.9999999957
 31
0.0
  0
LINE
  5
90
330
1F
100
AcDbEntity
  8
SK3
100
AcDbLine
 10
71.2783121635
 20
6.0000000043
 30
0.0
 11
-10.2783121635
 21
6.1080722676
 31
0.0
  0
LINE
  5
91
330
1F
100
AcDbEntity
  8
1
  6
Continuous
370
    50
100
AcDbLine
 10
21.6334725334
 20
-31.5
 30
0.0
 11
22.0502191057
 21
-31.2042331299
 31
0.0
  0
LINE
  5
92
330
1F
100
AcDbEntity
  8
1
  6
Continuous
370
    50
100
AcDbLine
 10
22.0502191057
 20
31.20423313
 30
0.0
 11
21.6334725334
 21
31.5
 31
0.0
  0
LINE
  5
93
330
1F
100
AcDbEntity
  8
1
  6
Continuous
370
    50
100
AcDbLine
 10
0.3
 20
31.5
 30
0.0
 11
0.0
 21
31.2
 31
0.0
  0
LINE
  5
94
330
1F
100
AcDbEntity
  8
1
  6
Continuous
370
    50
100
AcDbLine
 10
0.0
 20
-31.2
 30
0.0
 11
0.3
 21
-31.5
 31
0.0
  0
LINE
  5
95
330
1F
100
AcDbEntity
  8
1
  6
Continuous
370
    50
100
AcDbLine
 10
0.3
 20
-31.5
 30
0.0
 11
21.6334725334
 21
-31.5
 31
0.0
  0
LINE
  5
96
330
1F
100
AcDbEntity
  8
1
  6
Continuous
370
    50
100
AcDbLine
 10
21.6334725334
 20
31.5
 30
0.0
 11
0.3
 21
31.5
 31
0.0
  0
LINE
  5
97
330
1F
100
AcDbEntity
  8
1
  6
Continuous
370
    50
100
AcDbLine
 10
22.0502191057
 20
-31.2042331299
 30
0.0
 11
25.0282208663
 21
-13.6652059618
 31
0.0
  0
LINE
  5
98
330
1F
100
AcDbEntity
  8
1
  6
Continuous
370
    50
100
AcDbLine
 10
25.0282208663
 20
13.6652059618
 30
0.0
 11
22.0502191057
 21
31.20423313
 31
0.0
  0
LINE
  5
99
330
1F
100
AcDbEntity
  8
SK1
100
AcDbLine
 10
-3.0
 20
-21.821584086
 30
0.0
 11
0.0
 21
-22.0
 31
0.0
  0
LINE
  5
9A
330
1F
100
AcDbEntity
  8
SK1
100
AcDbLine
 10
0.0
 20
22.0
 30
0.0
 11
-3.0
 21
21.8297350152
 31
0.0
  0
LINE
  5
9B
330
1F
100
AcDbEntity
  8
SK1
100
AcDbLine
 10
-36.5012638984
 20
-20.9801162438
 30
0.0
 11
-3.0
 21
-21.821584086
 31
0.0
  0
LINE
  5
9C
330
1F
100
AcDbEntity
  8
SK1
100
AcDbLine
 10
-3.0
 20
21.8297350152
 30
0.0
 11
-36.5017620194
 21
20.9882522641
 31
0.0
  0
LINE
  5
9D
330
1F
100
AcDbEntity
  8
SK1
100
AcDbLine
 10
-36.4861616453
 20
21.1619554893
 30
0.0
 11
-37.2430808226
 21
20.7250579014
 31
0.0
  0
LINE
  5
9E
330
1F
100
AcDbEntity
  8
SK1
100
AcDbLine
 10
-37.2430808226
 20
20.7250579014
 30
0.0
 11
-38.0
 21
20.2881598362
 31
0.0
  0
LINE
  5
9F
330
1F
100
AcDbEntity
  8
SK1
100
AcDbLine
 10
-38.0
 20
-20.2881602669
 30
0.0
 11
-37.2430808226
 21
-20.725058325
 31
0.0
  0
LINE
  5
A0
330
1F
100
AcDbEntity
  8
SK1
100
AcDbLine
 10
-37.2430808226
 20
-20.725058325
 30
0.0
 11
-36.4861616453
 21
-21.1619559058
 31
0.0
  0
LINE
  5
A1
330
1F
100
AcDbEntity
  8
1
  6
Continuous
370
    50
100
AcDbLine
 10
88.75
 20
-12.0
 30
0.0
 11
89.5
 21
-11.25
 31
0.0
  0
LINE
  5
A2
330
1F
100
AcDbEntity
  8
1
  6
Continuous
370
    50
100
AcDbLine
 10
89.5
 20
11.25
 30
0.0
 11
88.75
 21
12.0
 31
0.0
  0
LINE
  5
A3
330
1F
100
AcDbEntity
  8
1
  6
Continuous
370
    50
100
AcDbLine
 10
27.0
 20
-12.0
 30
0.0
 11
88.75
 21
-12.0
 31
0.0
  0
LINE
  5
A4
330
1F
100
AcDbEntity
  8
1
  6
Continuous
370
    50
100
AcDbLine
 10
88.75
 20
12.0
 30
0.0
 11
27.0
 21
12.0
 31
0.0
  0
LINE
  5
A5
330
1F
100
AcDbEntity
  8
1
  6
Continuous
370
    50
100
AcDbLine
 10
21.6334725334
 20
-31.5
 30
0.0
 11
21.6334725334
 21
31.5
 31
0.0
  0
LINE
  5
A6
330
1F
100
AcDbEntity
  8
1
  6
Continuous
370
    50
100
AcDbLine
 10
22.0502191057
 20
31.20423313
 30
0.0
 11
22.0502191057
 21
-31.2042331299
 31
0.0
  0
LINE
  5
A7
330
1F
100
AcDbEntity
  8
1
  6
Continuous
370
    50
100
AcDbLine
 10
0.0
 20
0.0
 30
0.0
 11
0.0
 21
-31.2
 31
0.0
  0
LINE
  5
A8
330
1F
100
AcDbEntity
  8
1
  6
Continuous
370
    50
100
AcDbLine
 10
0.0
 20
31.2
 30
0.0
 11
0.0
 21
0.0
 31
0.0
  0
LINE
  5
A9
330
1F
100
AcDbEntity
  8
1
  6
Continuous
370
    50
100
AcDbLine
 10
0.3
 20
31.5
 30
0.0
 11
0.3
 21
-31.5
 31
0.0
  0
LINE
  5
AA
330
1F
100
AcDbEntity
  8
1
  6
Continuous
370
    50
100
AcDbLine
 10
10.5386751346
 20
30.0805927603
 30
0.0
 11
13.4613248648
 21
30.0805927603
 31
0.0
  0
LINE
  5
AB
330
1F
100
AcDbEntity
  8
1
  6
Continuous
370
    50
100
AcDbLine
 10
13.4613248648
 20
9.3492213147
 30
0.0
 11
10.5386751346
 21
9.3492213147
 31
0.0
  0
LINE
  5
AC
330
1F
100
AcDbEntity
  8
1
  6
Continuous
370
    50
100
AcDbLine
 10
13.8943375667
 20
9.8694126192
 30
0.0
 11
13.768416267
 21
9.5667920776
 31
0.0
  0
LINE
  5
AD
330
1F
100
AcDbEntity
  8
1
  6
Continuous
370
    50
100
AcDbLine
 10
13.768416267
 20
9.5667920776
 30
0.0
 11
13.6886562123
 21
9.4617345209
 31
0.0
  0
LINE
  5
AE
330
1F
100
AcDbEntity
  8
1
  6
Continuous
370
    50
100
AcDbLine
 10
13.6886562123
 20
9.4617345209
 30
0.0
 11
13.5819665153
 21
9.3795588394
 31
0.0
  0
LINE
  5
AF
330
1F
100
AcDbEntity
  8
1
  6
Continuous
370
    50
100
AcDbLine
 10
13.5819665153
 20
9.3795588394
 30
0.0
 11
13.5006466792
 21
9.3523992865
 31
0.0
  0
LINE
  5
B0
330
1F
100
AcDbEntity
  8
1
  6
Continuous
370
    50
100
AcDbLine
 10
13.5006466792
 20
9.3523992865
 30
0.0
 11
13.4613248648
 21
9.3492213147
 31
0.0
  0
LINE
  5
B1
330
1F
100
AcDbEntity
  8
1
  6
Continuous
370
    50
100
AcDbLine
 10
10.5386751352
 20
-9.3492213147
 30
0.0
 11
13.461324866
 21
-9.3492213147
 31
0.0
  0
LINE
  5
B2
330
1F
100
AcDbEntity
  8
1
  6
Continuous
370
    50
100
AcDbLine
 10
10.1056624333
 20
-9.8694126192
 30
0.0
 11
10.231583733
 21
-9.5667920776
 31
0.0
  0
LINE
  5
B3
330
1F
100
AcDbEntity
  8
1
  6
Continuous
370
    50
100
AcDbLine
 10
10.231583733
 20
-9.5667920776
 30
0.0
 11
10.3113437877
 21
-9.4617345209
 31
0.0
  0
LINE
  5
B4
330
1F
100
AcDbEntity
  8
1
  6
Continuous
370
    50
100
AcDbLine
 10
10.3113437877
 20
-9.4617345209
 30
0.0
 11
10.4180334847
 21
-9.3795588393
 31
0.0
  0
LINE
  5
B5
330
1F
100
AcDbEntity
  8
1
  6
Continuous
370
    50
100
AcDbLine
 10
10.4180334847
 20
-9.3795588393
 30
0.0
 11
10.4993533208
 21
-9.3523992864
 31
0.0
  0
LINE
  5
B6
330
1F
100
AcDbEntity
  8
1
  6
Continuous
370
    50
100
AcDbLine
 10
10.4993533208
 20
-9.3523992864
 30
0.0
 11
10.5386751352
 21
-9.3492213147
 31
0.0
  0
LINE
  5
B7
330
1F
100
AcDbEntity
  8
1
  6
Continuous
370
    50
100
AcDbLine
 10
13.461324866
 20
-30.0805927605
 30
0.0
 11
10.5386751352
 21
-30.0805927605
 31
0.0
  0
LINE
  5
B8
330
1F
100
AcDbEntity
  8
1
  6
Continuous
370
    50
100
AcDbLine
 10
10.5386751352
 20
-9.3492213147
 30
0.0
 11
10.5386751352
 21
-30.0805927605
 31
0.0
  0
LINE
  5
B9
330
1F
100
AcDbEntity
  8
1
  6
Continuous
370
    50
100
AcDbLine
 10
10.1056624328
 20
-29.9139548465
 30
0.0
 11
10.1056624333
 21
-9.8694126192
 31
0.0
  0
LINE
  5
BA
330
1F
100
AcDbEntity
  8
1
  6
Continuous
370
    50
100
AcDbLine
 10
13.8943375672
 20
29.9139548464
 30
0.0
 11
13.8943375667
 21
9.8694126192
 31
0.0
  0
LINE
  5
BB
330
1F
100
AcDbEntity
  8
1
  6
Continuous
370
    50
100
AcDbLine
 10
13.4613248648
 20
9.3492213147
 30
0.0
 11
13.4613248648
 21
30.0805927603
 31
0.0
  0
LINE
  5
BC
330
1F
100
AcDbEntity
  8
1
  6
Continuous
370
    50
100
AcDbLine
 10
13.8943375667
 20
-9.8694126191
 30
0.0
 11
13.8943375673
 21
-29.9139548464
 31
0.0
  0
LINE
  5
BD
330
1F
100
AcDbEntity
  8
1
  6
Continuous
370
    50
100
AcDbLine
 10
13.461324866
 20
-30.0805927605
 30
0.0
 11
13.461324866
 21
-9.3492213147
 31
0.0
  0
LINE
  5
BE
330
1F
100
AcDbEntity
  8
1
  6
Continuous
370
    50
100
AcDbLine
 10
10.5386751346
 20
30.0805927603
 30
0.0
 11
10.5386751346
 21
9.3492213147
 31
0.0
  0
LINE
  5
BF
330
1F
100
AcDbEntity
  8
1
  6
Continuous
370
    50
100
AcDbLine
 10
10.1056624333
 20
9.8694126192
 30
0.0
 11
10.1056624327
 21
29.9139548464
 31
0.0
  0
LINE
  5
C0
330
1F
100
AcDbEntity
  8
SK1
100
AcDbLine
 10
-2.1550243151
 20
0.0
 30
0.0
 11
-2.1550190292
 21
1.477708062
 31
0.0
  0
LINE
  5
C1
330
1F
100
AcDbEntity
  8
SK1
100
AcDbLine
 10
-2.1550190292
 20
1.477708062
 30
0.0
 11
-2.1550183561
 21
2.7127202822
 31
0.0
  0
LINE
  5
C2
330
1F
100
AcDbEntity
  8
SK1
100
AcDbLine
 10
-2.1550183561
 20
2.7127202822
 30
0.0
 11
-2.1550229907
 21
3.9319166023
 31
0.0
  0
LINE
  5
C3
330
1F
100
AcDbEntity
  8
SK1
100
AcDbLine
 10
-2.1550229907
 20
3.9319166023
 30
0.0
 11
-2.155029589
 21
5.397076645
 31
0.0
  0
LINE
  5
C4
330
1F
100
AcDbEntity
  8
SK1
100
AcDbLine
 10
-2.155029589
 20
5.397076645
 30
0.0
 11
-2.1550294197
 21
6.8190678902
 31
0.0
  0
LINE
  5
C5
330
1F
100
AcDbEntity
  8
SK1
100
AcDbLine
 10
-2.1550294197
 20
6.8190678902
 30
0.0
 11
-2.1550230942
 21
8.6062696917
 31
0.0
  0
LINE
  5
C6
330
1F
100
AcDbEntity
  8
SK1
100
AcDbLine
 10
-2.1550230942
 20
8.6062696917
 30
0.0
 11
-2.1550224013
 21
10.3068114552
 31
0.0
  0
LINE
  5
C7
330
1F
100
AcDbEntity
  8
SK1
100
AcDbLine
 10
-2.1550224013
 20
10.3068114552
 30
0.0
 11
-2.155025082
 21
11.9368846003
 31
0.0
  0
LINE
  5
C8
330
1F
100
AcDbEntity
  8
SK1
100
AcDbLine
 10
-2.155025082
 20
11.9368846003
 30
0.0
 11
-2.1550266562
 21
13.4673808417
 31
0.0
  0
LINE
  5
C9
330
1F
100
AcDbEntity
  8
SK1
100
AcDbLine
 10
-2.1550266562
 20
13.4673808417
 30
0.0
 11
-2.1550245513
 21
15.2184143199
 31
0.0
  0
LINE
  5
CA
330
1F
100
AcDbEntity
  8
SK1
100
AcDbLine
 10
-2.1550245513
 20
15.2184143199
 30
0.0
 11
-2.1550226105
 21
16.8039479241
 31
0.0
  0
LINE
  5
CB
330
1F
100
AcDbEntity
  8
SK1
100
AcDbLine
 10
-2.1550226105
 20
16.8039479241
 30
0.0
 11
-2.1550231247
 21
18.2314827628
 31
0.0
  0
LINE
  5
CC
330
1F
100
AcDbEntity
  8
SK1
100
AcDbLine
 10
-2.1550231247
 20
18.2314827628
 30
0.0
 11
-2.1550247337
 21
19.4643102691
 31
0.0
  0
LINE
  5
CD
330
1F
100
AcDbEntity
  8
SK1
100
AcDbLine
 10
-2.1550247337
 20
19.4643102691
 30
0.0
 11
-2.1550244863
 21
20.4511529934
 31
0.0
  0
LINE
  5
CE
330
1F
100
AcDbEntity
  8
SK1
100
AcDbLine
 10
-2.1550244863
 20
20.4511529934
 30
0.0
 11
-2.1550241219
 21
21.2232793196
 31
0.0
  0
LINE
  5
CF
330
1F
100
AcDbEntity
  8
SK1
100
AcDbLine
 10
-2.1550241219
 20
21.2232793196
 30
0.0
 11
-2.1550256617
 21
21.6698704132
 31
0.0
  0
LINE
  5
D0
330
1F
100
AcDbEntity
  8
SK1
100
AcDbLine
 10
-2.1550256617
 20
21.6698704132
 30
0.0
 11
-2.1550254051
 21
21.9436164097
 31
0.0
  0
LINE
  5
D1
330
1F
100
AcDbEntity
  8
SK1
100
AcDbLine
 10
-2.1550254051
 20
21.9436164097
 30
0.0
 11
-2.155024412
 21
22.0061136734
 31
0.0
  0
LINE
  5
D2
330
1F
100
AcDbEntity
  8
SK1
100
AcDbLine
 10
-2.1550244703
 20
-22.0034343226
 30
0.0
 11
-2.1550253449
 21
-21.9577612825
 31
0.0
  0
LINE
  5
D3
330
1F
100
AcDbEntity
  8
SK1
100
AcDbLine
 10
-2.1550253449
 20
-21.9577612825
 30
0.0
 11
-2.155025876
 21
-21.7749114505
 31
0.0
  0
LINE
  5
D4
330
1F
100
AcDbEntity
  8
SK1
100
AcDbLine
 10
-2.155025876
 20
-21.7749114505
 30
0.0
 11
-2.1550242126
 21
-21.3217261777
 31
0.0
  0
LINE
  5
D5
330
1F
100
AcDbEntity
  8
SK1
100
AcDbLine
 10
-2.1550242126
 20
-21.3217261777
 30
0.0
 11
-2.1550242126
 21
-20.6589801868
 31
0.0
  0
LINE
  5
D6
330
1F
100
AcDbEntity
  8
SK1
100
AcDbLine
 10
-2.1550242126
 20
-20.6589801868
 30
0.0
 11
-2.1550249126
 21
-19.8141399322
 31
0.0
  0
LINE
  5
D7
330
1F
100
AcDbEntity
  8
SK1
100
AcDbLine
 10
-2.1550249126
 20
-19.8141399322
 30
0.0
 11
-2.1550237585
 21
-18.7886463805
 31
0.0
  0
LINE
  5
D8
330
1F
100
AcDbEntity
  8
SK1
100
AcDbLine
 10
-2.1550237585
 20
-18.7886463805
 30
0.0
 11
-2.1550226746
 21
-17.5745582614
 31
0.0
  0
LINE
  5
D9
330
1F
100
AcDbEntity
  8
SK1
100
AcDbLine
 10
-2.1550226746
 20
-17.5745582614
 30
0.0
 11
-2.1550230108
 21
-16.1867548084
 31
0.0
  0
LINE
  5
DA
330
1F
100
AcDbEntity
  8
SK1
100
AcDbLine
 10
-2.1550230108
 20
-16.1867548084
 30
0.0
 11
-2.1550242392
 21
-15.3823551885
 31
0.0
  0
LINE
  5
DB
330
1F
100
AcDbEntity
  8
SK1
100
AcDbLine
 10
-2.1550242392
 20
-15.3823551885
 30
0.0
 11
-2.1550266342
 21
-13.639176027
 31
0.0
  0
LINE
  5
DC
330
1F
100
AcDbEntity
  8
SK1
100
AcDbLine
 10
-2.1550266342
 20
-13.639176027
 30
0.0
 11
-2.1550262302
 21
-12.6956647907
 31
0.0
  0
LINE
  5
DD
330
1F
100
AcDbEntity
  8
SK1
100
AcDbLine
 10
-2.1550262302
 20
-12.6956647907
 30
0.0
 11
-2.1550246226
 21
-11.7062847724
 31
0.0
  0
LINE
  5
DE
330
1F
100
AcDbEntity
  8
SK1
100
AcDbLine
 10
-2.1550246226
 20
-11.7062847724
 30
0.0
 11
-2.1550222421
 21
-10.0880195245
 31
0.0
  0
LINE
  5
DF
330
1F
100
AcDbEntity
  8
SK1
100
AcDbLine
 10
-2.1550222421
 20
-10.0880195245
 30
0.0
 11
-2.1550236379
 21
-8.3549135376
 31
0.0
  0
LINE
  5
E0
330
1F
100
AcDbEntity
  8
SK1
100
AcDbLine
 10
-2.1550236379
 20
-8.3549135376
 30
0.0
 11
-2.155028987
 21
-6.9528319338
 31
0.0
  0
LINE
  5
E1
330
1F
100
AcDbEntity
  8
SK1
100
AcDbLine
 10
-2.155028987
 20
-6.9528319338
 30
0.0
 11
-2.1550303314
 21
-5.7308011642
 31
0.0
  0
LINE
  5
E2
330
1F
100
AcDbEntity
  8
SK1
100
AcDbLine
 10
-2.1550303314
 20
-5.7308011642
 30
0.0
 11
-2.1550256769
 21
-4.4604733985
 31
0.0
  0
LINE
  5
E3
330
1F
100
AcDbEntity
  8
SK1
100
AcDbLine
 10
-2.1550256769
 20
-4.4604733985
 30
0.0
 11
-2.1550204752
 21
-3.3963417094
 31
0.0
  0
LINE
  5
E4
330
1F
100
AcDbEntity
  8
SK1
100
AcDbLine
 10
-2.1550204752
 20
-3.3963417094
 30
0.0
 11
-2.1550182283
 21
-1.7328889971
 31
0.0
  0
LINE
  5
E5
330
1F
100
AcDbEntity
  8
SK1
100
AcDbLine
 10
-2.1550182283
 20
-1.7328889971
 30
0.0
 11
-2.1550243151
 21
0.0
 31
0.0
  0
LINE
  5
E6
330
1F
100
AcDbEntity
  8
SK1
100
AcDbLine
 10
-36.5012671919
 20
-21.152055196
 30
0.0
 11
-36.5031444736
 21
-21.003682972
 31
0.0
  0
LINE
  5
E7
330
1F
100
AcDbEntity
  8
SK1
100
AcDbLine
 10
-36.5031444736
 20
-21.003682972
 30
0.0
 11
-36.5009813463
 21
-20.6742014909
 31
0.0
  0
LINE
  5
E8
330
1F
100
AcDbEntity
  8
SK1
100
AcDbLine
 10
-36.5009813463
 20
-20.6742014909
 30
0.0
 11
-36.4997204015
 21
-20.1706010141
 31
0.0
  0
LINE
  5
E9
330
1F
100
AcDbEntity
  8
SK1
100
AcDbLine
 10
-36.4997204015
 20
-20.1706010141
 30
0.0
 11
-36.4999505299
 21
-19.5079556212
 31
0.0
  0
LINE
  5
EA
330
1F
100
AcDbEntity
  8
SK1
100
AcDbLine
 10
-36.4999505299
 20
-19.5079556212
 30
0.0
 11
-36.4998550547
 21
-18.6851824968
 31
0.0
  0
LINE
  5
EB
330
1F
100
AcDbEntity
  8
SK1
100
AcDbLine
 10
-36.4998550547
 20
-18.6851824968
 30
0.0
 11
-36.4999032557
 21
-17.7157457595
 31
0.0
  0
LINE
  5
EC
330
1F
100
AcDbEntity
  8
SK1
100
AcDbLine
 10
-36.4999032557
 20
-17.7157457595
 30
0.0
 11
-36.4995489376
 21
-16.592720902
 31
0.0
  0
LINE
  5
ED
330
1F
100
AcDbEntity
  8
SK1
100
AcDbLine
 10
-36.4995489376
 20
-16.592720902
 30
0.0
 11
-36.4998510078
 21
-15.3278304141
 31
0.0
  0
LINE
  5
EE
330
1F
100
AcDbEntity
  8
SK1
100
AcDbLine
 10
-36.4998510078
 20
-15.3278304141
 30
0.0
 11
-36.5012274225
 21
-13.69054193
 31
0.0
  0
LINE
  5
EF
330
1F
100
AcDbEntity
  8
SK1
100
AcDbLine
 10
-36.5012274225
 20
-13.69054193
 30
0.0
 11
-36.500675183
 21
-12.3300763673
 31
0.0
  0
LINE
  5
F0
330
1F
100
AcDbEntity
  8
SK1
100
AcDbLine
 10
-36.500675183
 20
-12.3300763673
 30
0.0
 11
-36.4998848562
 21
-10.8638210182
 31
0.0
  0
LINE
  5
F1
330
1F
100
AcDbEntity
  8
SK1
100
AcDbLine
 10
-36.4998848562
 20
-10.8638210182
 30
0.0
 11
-36.4994309517
 21
-8.709622712
 31
0.0
  0
LINE
  5
F2
330
1F
100
AcDbEntity
  8
SK1
100
AcDbLine
 10
-36.4994309517
 20
-8.709622712
 30
0.0
 11
-36.4999685048
 21
-7.5559497744
 31
0.0
  0
LINE
  5
F3
330
1F
100
AcDbEntity
  8
SK1
100
AcDbLine
 10
-36.4999685048
 20
-7.5559497744
 30
0.0
 11
-36.501764935
 21
-6.0675181941
 31
0.0
  0
LINE
  5
F4
330
1F
100
AcDbEntity
  8
SK1
100
AcDbLine
 10
-36.501764935
 20
-6.0675181941
 30
0.0
 11
-36.5009816657
 21
-4.4984831867
 31
0.0
  0
LINE
  5
F5
330
1F
100
AcDbEntity
  8
SK1
100
AcDbLine
 10
-36.5009816657
 20
-4.4984831867
 30
0.0
 11
-36.4989318565
 21
-3.4047359585
 31
0.0
  0
LINE
  5
F6
330
1F
100
AcDbEntity
  8
SK1
100
AcDbLine
 10
-36.4989318565
 20
-3.4047359585
 30
0.0
 11
-36.4974448365
 21
-1.610609086
 31
0.0
  0
LINE
  5
F7
330
1F
100
AcDbEntity
  8
SK1
100
AcDbLine
 10
-36.4974448365
 20
-1.610609086
 30
0.0
 11
-36.4997535699
 21
0.277318988
 31
0.0
  0
LINE
  5
F8
330
1F
100
AcDbEntity
  8
SK1
100
AcDbLine
 10
-36.4997535699
 20
0.277318988
 30
0.0
 11
-36.4973105132
 21
2.111144562
 31
0.0
  0
LINE
  5
F9
330
1F
100
AcDbEntity
  8
SK1
100
AcDbLine
 10
-36.4973105132
 20
2.111144562
 30
0.0
 11
-36.4999238188
 21
3.9366237653
 31
0.0
  0
LINE
  5
FA
330
1F
100
AcDbEntity
  8
SK1
100
AcDbLine
 10
-36.4999238188
 20
3.9366237653
 30
0.0
 11
-36.501949462
 21
5.3676560336
 31
0.0
  0
LINE
  5
FB
330
1F
100
AcDbEntity
  8
SK1
100
AcDbLine
 10
-36.501949462
 20
5.3676560336
 30
0.0
 11
-36.5009343298
 21
6.7540022907
 31
0.0
  0
LINE
  5
FC
330
1F
100
AcDbEntity
  8
SK1
100
AcDbLine
 10
-36.5009343298
 20
6.7540022907
 30
0.0
 11
-36.4996058975
 21
8.1082147501
 31
0.0
  0
LINE
  5
FD
330
1F
100
AcDbEntity
  8
SK1
100
AcDbLine
 10
-36.4996058975
 20
8.1082147501
 30
0.0
 11
-36.499447537
 21
9.4085896889
 31
0.0
  0
LINE
  5
FE
330
1F
100
AcDbEntity
  8
SK1
100
AcDbLine
 10
-36.499447537
 20
9.4085896889
 30
0.0
 11
-36.5000227642
 21
11.2226752802
 31
0.0
  0
LINE
  5
FF
330
1F
100
AcDbEntity
  8
SK1
100
AcDbLine
 10
-36.5000227642
 20
11.2226752802
 30
0.0
 11
-36.5010158119
 21
12.9138454301
 31
0.0
  0
LINE
  5
100
330
1F
100
AcDbEntity
  8
SK1
100
AcDbLine
 10
-36.5010158119
 20
12.9138454301
 30
0.0
 11
-36.5007628578
 21
14.4967573675
 31
0.0
  0
LINE
  5
101
330
1F
100
AcDbEntity
  8
SK1
100
AcDbLine
 10
-36.5007628578
 20
14.4967573675
 30
0.0
 11
-36.4995421317
 21
15.9400947131
 31
0.0
  0
LINE
  5
102
330
1F
100
AcDbEntity
  8
SK1
100
AcDbLine
 10
-36.4995421317
 20
15.9400947131
 30
0.0
 11
-36.4997405092
 21
17.2213095964
 31
0.0
  0
LINE
  5
103
330
1F
100
AcDbEntity
  8
SK1
100
AcDbLine
 10
-36.4997405092
 20
17.2213095964
 30
0.0
 11
-36.4999281677
 21
18.3488241909
 31
0.0
  0
LINE
  5
104
330
1F
100
AcDbEntity
  8
SK1
100
AcDbLine
 10
-36.4999281677
 20
18.3488241909
 30
0.0
 11
-36.4999227539
 21
19.3231231846
 31
0.0
  0
LINE
  5
105
330
1F
100
AcDbEntity
  8
SK1
100
AcDbLine
 10
-36.4999227539
 20
19.3231231846
 30
0.0
 11
-36.4997647169
 21
20.1143077546
 31
0.0
  0
LINE
  5
106
330
1F
100
AcDbEntity
  8
SK1
100
AcDbLine
 10
-36.4997647169
 20
20.1143077546
 30
0.0
 11
-36.5002878596
 21
20.5683191108
 31
0.0
  0
LINE
  5
107
330
1F
100
AcDbEntity
  8
SK1
100
AcDbLine
 10
-36.5002878596
 20
20.5683191108
 30
0.0
 11
-36.5028372938
 21
20.9022994674
 31
0.0
  0
LINE
  5
108
330
1F
100
AcDbEntity
  8
SK1
100
AcDbLine
 10
-36.5028372938
 20
20.9022994674
 30
0.0
 11
-36.5024963082
 21
21.1055232192
 31
0.0
  0
LINE
  5
109
330
1F
100
AcDbEntity
  8
SK1
100
AcDbLine
 10
-36.5024963082
 20
21.1055232192
 30
0.0
 11
-36.5012441367
 21
21.1316376349
 31
0.0
  0
LINE
  5
10A
330
1F
100
AcDbEntity
  8
SK1
100
AcDbLine
 10
-38.0
 20
-20.254874992
 30
0.0
 11
-38.0
 21
20.2548744447
 31
0.0
  0
LINE
  5
10B
330
1F
100
AcDbEntity
  8
1
  6
Continuous
370
    50
100
AcDbLine
 10
89.5
 20
11.25
 30
0.0
 11
89.5
 21
-11.25
 31
0.0
  0
LINE
  5
10C
330
1F
100
AcDbEntity
  8
1
  6
Continuous
370
    50
100
AcDbLine
 10
88.75
 20
-12.0
 30
0.0
 11
88.75
 21
12.0
 31
0.0
  0
LINE
  5
10D
330
1F
100
AcDbEntity
  8
1
  6
Continuous
370
    50
100
AcDbLine
 10
25.0282208663
 20
-13.6652059618
 30
0.0
 11
25.0282208663
 21
13.6652059618
 31
0.0
  0
LINE
  5
10E
330
1F
100
AcDbEntity
  8
1
  6
Continuous
370
    50
100
AcDbLine
 10
27.0
 20
-12.0
 30
0.0
 11
27.0
 21
12.0
 31
0.0
  0
ARC
  5
10F
330
1F
100
AcDbEntity
  8
SK3
100
AcDbCircle
 10
-11.4
 20
13.6125000043
 30
0.0
 40
0.3999999999999844
100
AcDbArc
 50
0.0
 51
90.0
  0
ARC
  5
110
330
1F
100
AcDbEntity
  8
SK3
100
AcDbCircle
 10
-11.4
 20
-13.6124999957
 30
0.0
 40
0.400000000000011
100
AcDbArc
 50
270.0
 51
0.000001905
  0
ARC
  5
111
330
1F
100
AcDbEntity
  8
1
  6
Continuous
370
    50
100
AcDbCircle
 10
27.0
 20
-14.0
 30
0.0
 40
2.00000000001363
100
AcDbArc
 50
89.99999999949999
 51
170.3634894083
  0
ARC
  5
112
330
1F
100
AcDbEntity
  8
1
  6
Continuous
370
    50
100
AcDbCircle
 10
27.0
 20
14.0
 30
0.0
 40
2.00000000001363
100
AcDbArc
 50
189.6365105917
 51
270.0000000005
  0
ARC
  5
113
330
1F
100
AcDbEntity
  8
1
  6
Continuous
370
    50
100
AcDbCircle
 10
13.4970504242
 20
29.5275104858
 30
0.0
 40
0.5542348941935105
100
AcDbArc
 50
44.20737390810001
 51
93.6958046893
  0
ARC
  5
114
330
1F
100
AcDbEntity
  8
1
  6
Continuous
370
    50
100
AcDbCircle
 10
10.5196317235
 20
29.4841615162
 30
0.0
 40
0.5967351845136695
100
AcDbArc
 50
88.1712283818
 51
133.9255930751
  0
ARC
  5
115
330
1F
100
AcDbEntity
  8
1
  6
Continuous
370
    50
100
AcDbCircle
 10
10.7169692056
 20
9.9379529814
 30
0.0
 40
0.6151371807518756
100
AcDbArc
 50
186.3973454144
 51
253.1513589116
  0
ARC
  5
116
330
1F
100
AcDbEntity
  8
1
  6
Continuous
370
    50
100
AcDbCircle
 10
13.2830307941
 20
-9.9379529814
 30
0.0
 40
0.6151371810394772
100
AcDbArc
 50
6.3973454262
 51
73.1513588306
  0
ARC
  5
117
330
1F
100
AcDbEntity
  8
1
  6
Continuous
370
    50
100
AcDbCircle
 10
10.502949576
 20
-29.527510486
 30
0.0
 40
0.5542348941715359
100
AcDbArc
 50
224.2073738876
 51
273.6958046702001
  0
ARC
  5
118
330
1F
100
AcDbEntity
  8
1
  6
Continuous
370
    50
100
AcDbCircle
 10
13.4803682763
 20
-29.4841615164
 30
0.0
 40
0.5967351845134266
100
AcDbArc
 50
268.1712284599
 51
313.9255931025
  0
CIRCLE
  5
119
330
1F
100
AcDbEntity
  8
1
  6
Continuous
370
    50
100
AcDbCircle
 10
82.95
 20
0.0
 30
0.0
 40
2.599999999999994
  0
ELLIPSE
  5
11A
330
1F
100
AcDbEntity
  8
1
  6
Continuous
370
    50
100
AcDbEllipse
 10
26.3471541894
 20
0.0
 30
0.0
 11
-14.75368316065626
 21
31.09325491558118
 31
0.0
210
0.0
220
0.0
230
1.0
 40
0.3419987131
 41
0.1578061866560258
 42
1.091239585752834
  0
ELLIPSE
  5
11B
330
1F
100
AcDbEntity
  8
1
  6
Continuous
370
    50
100
AcDbEllipse
 10
-2.3471541894
 20
0.0
 30
0.0
 11
14.75368316065624
 21
31.09325491558117
 31
0.0
210
0.0
220
0.0
230
1.0
 40
0.3419987131
 41
5.191945721424782
 42
6.125379120526474
  0
ELLIPSE
  5
11C
330
1F
100
AcDbEntity
  8
1
  6
Continuous
370
    50
100
AcDbEllipse
 10
26.3471541894
 20
0.0
 30
0.0
 11
14.7536831606563
 21
31.09325491558115
 31
0.0
210
0.0
220
0.0
230
1.0
 40
0.3419987131
 41
2.050353067834977
 42
2.983786466944363
  0
ELLIPSE
  5
11D
330
1F
100
AcDbEntity
  8
1
  6
Continuous
370
    50
100
AcDbEllipse
 10
-2.3471541894
 20
0.0
 30
0.0
 11
-14.7536831606563
 21
31.09325491558115
 31
0.0
210
0.0
220
0.0
230
1.0
 40
0.3419987131
 41
3.299398840245859
 42
4.232832239347142
  0
DIMENSION
  5
11E
330
1F
100
AcDbEntity
  8
2
  6
Continuous
370
    25
100
AcDbDimension
280
     0
  2
_D
 10
100.287971826
 20
-7.001366179700001
 30
0.0
 11
100.287971826
 21
-0.0006830877
 31
0.0
 70
   160
  1
%%c<>
 71
     5
 42
14.001366184
 73
     0
 74
     0
 75
     0
  3
SLDDIMSTYLE0
100
AcDbAlignedDimension
 13
89.5
 23
7.0000000043
 33
0.0
 14
89.5
 24
-7.0013661797
 34
0.0
 50
90.0
100
AcDbRotatedDimension
1001
ACAD
1000
DSTYLE
1002
{
1070
   140
1040
3.5
1070
   340
1005
1A7
1070
   177
1070
   256
1070
   176
1070
   256
1070
   178
1070
   256
1070
   347
1005
14
1070
   346
1005
14
1070
   345
1005
14
1002
}
  0
DIMENSION
  5
12D
330
1F
100
AcDbEntity
  8
2
  6
Continuous
370
    25
100
AcDbDimension
280
     0
  2
_D_1
 10
113.9773285243
 20
12.0
 30
0.0
 11
113.9773285243
 21
0.0
 31
0.0
 70
   160
  1
%%c<>
 71
     5
 42
24.0
 73
     0
 74
     0
 75
     0
  3
SLDDIMSTYLE1
100
AcDbAlignedDimension
 13
88.75
 23
-12.0
 33
0.0
 14
88.75
 24
12.0
 34
0.0
 50
90.0
100
AcDbRotatedDimension
1001
ACAD
1000
DSTYLE
1002
{
1070
   140
1040
3.5
1070
   340
1005
1A7
1070
   177
1070
   256
1070
   176
1070
   256
1070
   178
1070
   256
1070
   347
1005
14
1070
   346
1005
14
1070
   345
1005
14
1002
}
  0
DIMENSION
  5
139
330
1F
100
AcDbEntity
  8
2
  6
Continuous
370
    25
100
AcDbDimension
280
     0
  2
_D_2
 10
89.5
 20
-39.626859649
 30
0.0
 11
58.25
 21
-39.626859649
 31
0.0
 70
   160
  1
<>
 71
     5
 42
62.50000000000001
 73
     0
 74
     0
 75
     0
  3
SLDDIMSTYLE1
100
AcDbAlignedDimension
 13
27.0
 23
-12.0
 33
0.0
 14
89.5
 24
-11.25
 34
0.0
100
AcDbRotatedDimension
1001
ACAD
1000
DSTYLE
1002
{
1070
   140
1040
3.5
1070
   340
1005
1A7
1070
   177
1070
   256
1070
   176
1070
   256
1070
   178
1070
   256
1070
   347
1005
14
1070
   346
1005
14
1070
   345
1005
14
1002
}
  0
DIMENSION
  5
143
330
1F
100
AcDbEntity
  8
2
  6
Continuous
370
    25
100
AcDbDimension
280
     0
  2
_D_3
 10
89.5
 20
-52.3904011871
 30
0.0
 11
44.75
 21
-52.3904011871
 31
0.0
 70
   160
  1
<>
 71
     5
 42
89.5
 73
     0
 74
     0
 75
     0
  3
SLDDIMSTYLE1
100
AcDbAlignedDimension
 13
0.0
 23
-31.2
 33
0.0
 14
89.5
 24
-11.25
 34
0.0
100
AcDbRotatedDimension
1001
ACAD
1000
DSTYLE
1002
{
1070
   140
1040
3.5
1070
   340
1005
1A7
1070
   177
1070
   256
1070
   176
1070
   256
1070
   178
1070
   256
1070
   347
1005
14
1070
   346
1005
14
1070
   345
1005
14
1002
}
  0
DIMENSION
  5
14D
330
1F
100
AcDbEntity
  8
SK2
100
AcDbDimension
280
     0
  2
_D_4
 10
-53.3197058207
 20
-22.0
 30
0.0
 11
-53.3197058207
 21
0.0
 31
0.0
 70
   160
  1
PSC 63
 71
     5
 42
44.0
 73
     0
 74
     0
 75
     0
  3
SLDDIMSTYLE1
100
AcDbAlignedDimension
 13
0.0
 23
22.0
 33
0.0
 14
0.0
 24
-22.0
 34
0.0
 50
90.0
100
AcDbRotatedDimension
1001
ACAD
1000
DSTYLE
1002
{
1070
   140
1040
3.5
1070
   340
1005
1A7
1070
   177
1070
   256
1070
   176
1070
   256
1070
   178
1070
   256
1070
   347
1005
14
1070
   346
1005
14
1070
   345
1005
14
1002
}
  0
DIMENSION
  5
157
330
1F
100
AcDbEntity
  8
2
  6
Continuous
370
    25
100
AcDbDimension
280
     0
  2
_D_5
 10
-67.2303770374
 20
-31.5
 30
0.0
 11
-67.2303770374
 21
0.0
 31
0.0
 70
   160
  1
%%c<>
 71
     5
 42
62.99999999999999
 73
     0
 74
     0
 75
     0
  3
SLDDIMSTYLE1
100
AcDbAlignedDimension
 13
0.3
 23
31.5
 33
0.0
 14
0.3
 24
-31.5
 34
0.0
 50
90.0
100
AcDbRotatedDimension
1001
ACAD
1000
DSTYLE
1002
{
1070
   140
1040
3.5
1070
   340
1005
1A7
1070
   177
1070
   256
1070
   176
1070
   256
1070
   178
1070
   256
1070
   347
1005
14
1070
   346
1005
14
1070
   345
1005
14
1002
}
  0
INSERT
  5
167
330
1F
100
AcDbEntity
  8
SK6
  6
Continuous
370
    35
100
AcDbBlockReference
  2
SW_NOTE_0
 10
66.3811881188
 20
20.0433444953
 30
0.0
  0
LEADER
  5
16C
330
1F
100
AcDbEntity
  8
SK6
  6
Continuous
370
    35
100
AcDbLeader
  3
SLDDIMSTYLE2
 71
     0
 76
     2
 10
57.7158655411
 20
12.0
 30
0.0
 10
66.3811881188
 20
20.0433444953
 30
0.0
1001
ACAD
1000
DSTYLE
1002
{
1070
   341
1005
169
1070
     6
1000
NONE
1002
}
  0
LINE
  5
21B
330
1F
100
AcDbEntity
  8
NOCUT
100
AcDbLine
 10
0.0
 20
0.0
 30
0.0
 11
0.0
 21
31.2
 31
0.0
  0
LINE
  5
21C
330
1F
100
AcDbEntity
  8
NOCUT
100
AcDbLine
 10
0.0
 20
31.2
 30
0.0
 11
0.3
 21
31.5
 31
0.0
  0
LINE
  5
21D
330
1F
100
AcDbEntity
  8
NOCUT
100
AcDbLine
 10
0.3
 20
31.5
 30
0.0
 11
21.6334725334
 21
31.5
 31
0.0
  0
LINE
  5
21E
330
1F
100
AcDbEntity
  8
NOCUT
100
AcDbLine
 10
21.6334725334
 20
31.5
 30
0.0
 11
22.0502191057
 21
31.20423313
 31
0.0
  0
LINE
  5
21F
330
1F
100
AcDbEntity
  8
NOCUT
100
AcDbLine
 10
22.0502191057
 20
31.20423313
 30
0.0
 11
25.02822086631608
 21
13.66520596178663
 31
0.0
  0
ARC
  5
220
330
1F
100
AcDbEntity
  8
NOCUT
100
AcDbCircle
 10
27.0
 20
14.0
 30
0.0
 40
2.000000000013633
100
AcDbArc
 50
189.6365105917
 51
270.0000000004998
  0
LINE
  5
221
330
1F
100
AcDbEntity
  8
NOCUT
100
AcDbLine
 10
27.0
 20
12.0
 30
0.0
 11
88.75
 21
12.0
 31
0.0
  0
LINE
  5
222
330
1F
100
AcDbEntity
  8
NOCUT
100
AcDbLine
 10
88.75
 20
12.0
 30
0.0
 11
89.5
 21
11.25
 31
0.0
  0
LINE
  5
223
330
1F
100
AcDbEntity
  8
NOCUT
100
AcDbLine
 10
89.5
 20
11.25
 30
0.0
 11
89.5
 21
0.0
 31
0.0
  0
LINE
  5
224
330
1F
100
AcDbEntity
  8
NOCUT
100
AcDbLine
 10
89.5
 20
0.0
 30
0.0
 11
0.0
 21
0.0
 31
0.0
  0
LWPOLYLINE
  5
240
330
1F
100
AcDbEntity
  8
INFTOTAL
100
AcDbPolyline
 90
        4
 70
     1
 43
0.0
 10
-108.8152346340158
 20
55.2392063822828
 10
-108.8152346340158
 20
-71.20531535684768
 10
150.1343305833753
 20
-71.20531535684768
 10
150.1343305833753
 20
55.2392063822828
  0
ENDSEC
  0
SECTION
  2
OBJECTS
  0
DICTIONARY
  5
C
330
0
100
AcDbDictionary
281
     1
  3
ACAD_DETAILVIEWSTYLE
350
234
  3
ACAD_GROUP
350
D
  3
ACAD_LAYOUT
350
18F
  3
ACAD_MATERIAL
350
1A3
  3
ACAD_MLEADERSTYLE
350
1BF
  3
ACAD_MLINESTYLE
350
17
  3
ACAD_PLOTSETTINGS
350
201
  3
ACAD_PLOTSTYLENAME
350
202
  3
ACAD_SCALELIST
350
16D
  3
ACAD_SECTIONVIEWSTYLE
350
235
  3
ACAD_TABLESTYLE
350
20E
  3
ACAD_VISUALSTYLE
350
192
  3
ACDB_RECOMPOSE_DATA
350
243
  3
AcDbVariableDictionary
350
1BD
  3
APPDATA
350
211
  0
DICTIONARY
  5
212
330
2
100
AcDbDictionary
280
     1
281
     1
  3
ACAD_LAYERSTATES
360
213
  0
DICTIONARY
  5
234
102
{ACAD_REACTORS
330
C
102
}
330
C
100
AcDbDictionary
281
     1
  0
DICTIONARY
  5
D
102
{ACAD_REACTORS
330
C
102
}
330
C
100
AcDbDictionary
281
     1
  0
DICTIONARY
  5
18F
102
{ACAD_REACTORS
330
C
102
}
330
C
100
AcDbDictionary
281
     1
  3
Layout1
350
191
  3
Model
350
190
  0
DICTIONARY
  5
1A3
102
{ACAD_REACTORS
330
C
102
}
330
C
100
AcDbDictionary
281
     1
  3
ByBlock
350
1A5
  3
ByLayer
350
1A4
  3
Global
350
1A6
  0
DICTIONARY
  5
1BF
102
{ACAD_REACTORS
330
C
102
}
330
C
100
AcDbDictionary
281
     1
  3
Standard
350
210
  0
DICTIONARY
  5
17
102
{ACAD_REACTORS
330
C
102
}
330
C
100
AcDbDictionary
281
     1
  3
STANDARD
350
18
  0
DICTIONARY
  5
201
102
{ACAD_REACTORS
330
C
102
}
330
C
100
AcDbDictionary
281
     1
  0
ACDBDICTIONARYWDFLT
  5
202
102
{ACAD_REACTORS
330
C
102
}
330
C
100
AcDbDictionary
281
     1
  3
Normal
350
203
100
AcDbDictionaryWithDefault
340
203
  0
DICTIONARY
  5
16D
102
{ACAD_REACTORS
330
C
102
}
330
C
100
AcDbDictionary
281
     1
  3
A0
350
16E
  3
A1
350
16F
  3
A2
350
170
  3
A3
350
171
  3
A4
350
172
  3
A5
350
173
  3
A6
350
174
  3
A7
350
175
  3
A8
350
176
  3
A9
350
177
  3
B0
350
178
  3
B1
350
179
  3
B2
350
17A
  3
B3
350
17B
  3
B4
350
17C
  3
B5
350
17D
  3
B6
350
17E
  3
B7
350
17F
  3
B8
350
180
  3
B9
350
181
  3
C0
350
182
  3
C1
350
183
  3
C2
350
184
  3
C3
350
185
  3
C4
350
186
  3
C5
350
187
  3
C6
350
188
  3
C7
350
189
  3
C8
350
18A
  3
C9
350
18B
  3
D0
350
18C
  3
D1
350
18D
  3
D2
350
18E
  0
DICTIONARY
  5
235
102
{ACAD_REACTORS
330
C
102
}
330
C
100
AcDbDictionary
281
     1
  0
DICTIONARY
  5
20E
102
{ACAD_REACTORS
330
C
102
}
330
C
100
AcDbDictionary
281
     1
  3
Standard
350
20F
  0
DICTIONARY
  5
192
102
{ACAD_REACTORS
330
C
102
}
330
C
100
AcDbDictionary
281
     1
  3
2dWireframe
350
197
  3
3D Hidden
350
199
  3
3dWireframe
350
198
  3
Basic
350
19A
  3
Brighten
350
19E
  3
ColorChange
350
1A2
  3
Conceptual
350
19C
  3
Dim
350
19D
  3
EdgeColorOff
350
208
  3
Facepattern
350
1A1
  3
Flat
350
193
  3
FlatWithEdges
350
194
  3
Gouraud
350
195
  3
GouraudWithEdges
350
196
  3
Hidden
350
205
  3
JitterOff
350
206
  3
Linepattern
350
1A0
  3
OverhangOff
350
207
  3
Realistic
350
19B
  3
Shaded
350
20D
  3
Shaded with edges
350
20C
  3
Shades of Gray
350
209
  3
Sketchy
350
20A
  3
Thicken
350
19F
  3
Wireframe
350
204
  3
X-Ray
350
20B
  0
XRECORD
  5
243
102
{ACAD_REACTORS
330
C
102
}
330
C
100
AcDbXrecord
280
     1
 90
        1
330
20F
  0
DICTIONARY
  5
1BD
102
{ACAD_REACTORS
330
C
102
}
330
C
100
AcDbDictionary
281
     1
  3
CANNOSCALE
350
231
  3
CMLEADERSTYLE
350
233
  3
CTABLESTYLE
350
232
  3
DIMASSOC
350
1C1
  3
HIDETEXT
350
1C2
  3
MSLTSCALE
350
1C0
  0
DICTIONARY
  5
211
102
{ACAD_REACTORS
330
C
102
}
330
C
100
AcDbDictionary
281
     1
  0
DICTIONARY
  5
213
102
{ACAD_REACTORS
330
212
102
}
330
212
100
AcDbDictionary
281
     1
  0
LAYOUT
  5
191
102
{ACAD_REACTORS
330
18F
102
}
330
18F
100
AcDbPlotSettings
  1

  2
none_device
  4

  6

 40
0.0
 41
0.0
 42
0.0
 43
0.0
 44
0.0
 45
0.0
 46
0.0
 47
0.0
 48
0.0
 49
0.0
140
0.0
141
0.0
142
1.0
143
1.0
 70
   688
 72
     0
 73
     0
 74
     5
  7

 75
    16
 76
     0
 77
     2
 78
   300
147
1.0
148
0.0
149
0.0
100
AcDbLayout
  1
Layout1
 70
     1
 71
     1
 10
0.0
 20
0.0
 11
420.0
 21
297.0
 12
0.0
 22
0.0
 32
0.0
 14
1.000000000000000E+20
 24
1.000000000000000E+20
 34
1.000000000000000E+20
 15
-1.000000000000000E+20
 25
-1.000000000000000E+20
 35
-1.000000000000000E+20
146
0.0
 13
0.0
 23
0.0
 33
0.0
 16
1.0
 26
0.0
 36
0.0
 17
0.0
 27
1.0
 37
0.0
 76
     0
330
1B
  0
LAYOUT
  5
190
102
{ACAD_REACTORS
330
18F
102
}
330
18F
100
AcDbPlotSettings
  1

  2
none_device
  4

  6

 40
0.0
 41
0.0
 42
0.0
 43
0.0
 44
0.0
 45
0.0
 46
0.0
 47
0.0
 48
0.0
 49
0.0
140
0.0
141
0.0
142
1.0
143
1.0
 70
  1712
 72
     0
 73
     0
 74
     0
  7

 75
     0
 76
     0
 77
     2
 78
   300
147
1.0
148
0.0000001104899866
149
0.0
100
AcDbLayout
  1
Model
 70
     1
 71
     0
 10
0.0
 20
0.0
 11
210.0
 21
297.0
 12
0.0
 22
0.0
 32
0.0
 14
-108.8152346340158
 24
-71.20531535684768
 34
0.0
 15
150.1343305833753
 25
55.2392063822828
 35
0.0
146
0.0
 13
0.0
 23
0.0
 33
0.0
 16
1.0
 26
0.0
 36
0.0
 17
0.0
 27
1.0
 37
0.0
 76
     0
330
1F
331
29
  0
MATERIAL
  5
1A5
102
{ACAD_REACTORS
330
1A3
102
}
330
1A3
100
AcDbMaterial
  1
ByBlock
 72
     1
 94
      127
  0
MATERIAL
  5
1A4
102
{ACAD_REACTORS
330
1A3
102
}
330
1A3
100
AcDbMaterial
  1
ByLayer
 72
     1
 94
      127
  0
MATERIAL
  5
1A6
102
{ACAD_REACTORS
330
1A3
102
}
330
1A3
100
AcDbMaterial
  1
Global
 72
     1
 94
      127
  0
MLEADERSTYLE
  5
210
102
{ACAD_REACTORS
330
1BF
102
}
330
1BF
100
AcDbMLeaderStyle
179
     2
170
     2
171
     1
172
     0
 90
        2
 40
0.0
 41
0.0
173
     1
 91
-1056964608
340
14
 92
       -2
290
     1
 42
2.0
291
     1
 43
8.0
  3
Standard
341
0
 44
4.0
300

342
11
174
     1
178
     1
175
     1
176
     0
 93
-1056964608
 45
4.0
292
     0
297
     0
 46
4.0
343
0
 94
-1056964608
 47
1.0
 49
1.0
140
1.0
293
     1
141
0.0
294
     1
177
     0
142
1.0
295
     0
296
     0
143
3.75
271
     0
272
     9
273
     9
298
     0
  0
MLINESTYLE
  5
18
102
{ACAD_REACTORS
330
17
102
}
330
17
100
AcDbMlineStyle
  2
Standard
 70
     0
  3

 62
   256
 51
90.0
 52
90.0
 71
     2
 49
0.5
 62
   256
  6
BYLAYER
 49
-0.5
 62
   256
  6
BYLAYER
  0
ACDBPLACEHOLDER
  5
203
102
{ACAD_REACTORS
330
202
102
}
330
202
  0
SCALE
  5
16E
102
{ACAD_REACTORS
330
16D
102
}
330
16D
100
AcDbScale
 70
     0
300
1:1
140
1.0
141
1.0
290
     1
  0
SCALE
  5
16F
102
{ACAD_REACTORS
330
16D
102
}
330
16D
100
AcDbScale
 70
     0
300
1:2
140
1.0
141
2.0
290
     0
  0
SCALE
  5
170
102
{ACAD_REACTORS
330
16D
102
}
330
16D
100
AcDbScale
 70
     0
300
1:4
140
1.0
141
4.0
290
     0
  0
SCALE
  5
171
102
{ACAD_REACTORS
330
16D
102
}
330
16D
100
AcDbScale
 70
     0
300
1:5
140
1.0
141
5.0
290
     0
  0
SCALE
  5
172
102
{ACAD_REACTORS
330
16D
102
}
330
16D
100
AcDbScale
 70
     0
300
1:8
140
1.0
141
8.0
290
     0
  0
SCALE
  5
173
102
{ACAD_REACTORS
330
16D
102
}
330
16D
100
AcDbScale
 70
     0
300
1:10
140
1.0
141
10.0
290
     0
  0
SCALE
  5
174
102
{ACAD_REACTORS
330
16D
102
}
330
16D
100
AcDbScale
 70
     0
300
1:16
140
1.0
141
16.0
290
     0
  0
SCALE
  5
175
102
{ACAD_REACTORS
330
16D
102
}
330
16D
100
AcDbScale
 70
     0
300
1:20
140
1.0
141
20.0
290
     0
  0
SCALE
  5
176
102
{ACAD_REACTORS
330
16D
102
}
330
16D
100
AcDbScale
 70
     0
300
1:30
140
1.0
141
30.0
290
     0
  0
SCALE
  5
177
102
{ACAD_REACTORS
330
16D
102
}
330
16D
100
AcDbScale
 70
     0
300
1:40
140
1.0
141
40.0
290
     0
  0
SCALE
  5
178
102
{ACAD_REACTORS
330
16D
102
}
330
16D
100
AcDbScale
 70
     0
300
1:50
140
1.0
141
50.0
290
     0
  0
SCALE
  5
179
102
{ACAD_REACTORS
330
16D
102
}
330
16D
100
AcDbScale
 70
     0
300
1:100
140
1.0
141
100.0
290
     0
  0
SCALE
  5
17A
102
{ACAD_REACTORS
330
16D
102
}
330
16D
100
AcDbScale
 70
     0
300
2:1
140
2.0
141
1.0
290
     0
  0
SCALE
  5
17B
102
{ACAD_REACTORS
330
16D
102
}
330
16D
100
AcDbScale
 70
     0
300
4:1
140
4.0
141
1.0
290
     0
  0
SCALE
  5
17C
102
{ACAD_REACTORS
330
16D
102
}
330
16D
100
AcDbScale
 70
     0
300
8:1
140
8.0
141
1.0
290
     0
  0
SCALE
  5
17D
102
{ACAD_REACTORS
330
16D
102
}
330
16D
100
AcDbScale
 70
     0
300
10:1
140
10.0
141
1.0
290
     0
  0
SCALE
  5
17E
102
{ACAD_REACTORS
330
16D
102
}
330
16D
100
AcDbScale
 70
     0
300
100:1
140
100.0
141
1.0
290
     0
  0
SCALE
  5
17F
102
{ACAD_REACTORS
330
16D
102
}
330
16D
100
AcDbScale
 70
     0
300
1/128" = 1'-0"
140
0.0078125
141
12.0
290
     0
  0
SCALE
  5
180
102
{ACAD_REACTORS
330
16D
102
}
330
16D
100
AcDbScale
 70
     0
300
1/64" = 1'-0"
140
0.015625
141
12.0
290
     0
  0
SCALE
  5
181
102
{ACAD_REACTORS
330
16D
102
}
330
16D
100
AcDbScale
 70
     0
300
1/32" = 1'-0"
140
0.03125
141
12.0
290
     0
  0
SCALE
  5
182
102
{ACAD_REACTORS
330
16D
102
}
330
16D
100
AcDbScale
 70
     0
300
1/16" = 1'-0"
140
0.0625
141
12.0
290
     0
  0
SCALE
  5
183
102
{ACAD_REACTORS
330
16D
102
}
330
16D
100
AcDbScale
 70
     0
300
3/32" = 1'-0"
140
0.09375
141
12.0
290
     0
  0
SCALE
  5
184
102
{ACAD_REACTORS
330
16D
102
}
330
16D
100
AcDbScale
 70
     0
300
1/8" = 1'-0"
140
0.125
141
12.0
290
     0
  0
SCALE
  5
185
102
{ACAD_REACTORS
330
16D
102
}
330
16D
100
AcDbScale
 70
     0
300
3/16" = 1'-0"
140
0.1875
141
12.0
290
     0
  0
SCALE
  5
186
102
{ACAD_REACTORS
330
16D
102
}
330
16D
100
AcDbScale
 70
     0
300
1/4" = 1'-0"
140
0.25
141
12.0
290
     0
  0
SCALE
  5
187
102
{ACAD_REACTORS
330
16D
102
}
330
16D
100
AcDbScale
 70
     0
300
3/8" = 1'-0"
140
0.375
141
12.0
290
     0
  0
SCALE
  5
188
102
{ACAD_REACTORS
330
16D
102
}
330
16D
100
AcDbScale
 70
     0
300
1/2" = 1'-0"
140
0.5
141
12.0
290
     0
  0
SCALE
  5
189
102
{ACAD_REACTORS
330
16D
102
}
330
16D
100
AcDbScale
 70
     0
300
3/4" = 1'-0"
140
0.75
141
12.0
290
     0
  0
SCALE
  5
18A
102
{ACAD_REACTORS
330
16D
102
}
330
16D
100
AcDbScale
 70
     0
300
1" = 1'-0"
140
1.0
141
12.0
290
     0
  0
SCALE
  5
18B
102
{ACAD_REACTORS
330
16D
102
}
330
16D
100
AcDbScale
 70
     0
300
1-1/2" = 1'-0"
140
1.5
141
12.0
290
     0
  0
SCALE
  5
18C
102
{ACAD_REACTORS
330
16D
102
}
330
16D
100
AcDbScale
 70
     0
300
3" = 1'-0"
140
3.0
141
12.0
290
     0
  0
SCALE
  5
18D
102
{ACAD_REACTORS
330
16D
102
}
330
16D
100
AcDbScale
 70
     0
300
6" = 1'-0"
140
6.0
141
12.0
290
     0
  0
SCALE
  5
18E
102
{ACAD_REACTORS
330
16D
102
}
330
16D
100
AcDbScale
 70
     0
300
1'-0" = 1'-0"
140
12.0
141
12.0
290
     0
  0
TABLESTYLE
  5
20F
102
{ACAD_REACTORS
330
20E
102
}
102
{ACAD_XDICTIONARY
360
241
102
}
330
20E
100
AcDbTableStyle
  3
Standard
 70
     0
 71
     0
 40
0.06
 41
0.06
280
     0
281
     0
  7
STANDARD
140
4.5
170
     2
 62
     0
 63
   257
283
     0
 90
        4
 91
        0
  1

274
    -2
284
     1
 64
     0
275
    -2
285
     1
 65
     0
276
    -2
286
     1
 66
     0
277
    -2
287
     1
 67
     0
278
    -2
288
     1
 68
     0
279
    -2
289
     1
 69
     0
  7
STANDARD
140
6.0
170
     5
 62
     0
 63
   257
283
     0
 90
        4
 91
        0
  1

274
    -2
284
     1
 64
     0
275
    -2
285
     1
 65
     0
276
    -2
286
     1
 66
     0
277
    -2
287
     1
 67
     0
278
    -2
288
     1
 68
     0
279
    -2
289
     1
 69
     0
  7
STANDARD
140
4.5
170
     5
 62
     0
 63
   257
283
     0
 90
        4
 91
        0
  1

274
    -2
284
     1
 64
     0
275
    -2
285
     1
 65
     0
276
    -2
286
     1
 66
     0
277
    -2
287
     1
 67
     0
278
    -2
288
     1
 68
     0
279
    -2
289
     1
 69
     0
  0
VISUALSTYLE
  5
197
102
{ACAD_REACTORS
330
192
102
}
330
192
100
AcDbVisualStyle
  2
2dWireframe
 70
     4
177
     3
291
     0
 70
    58
 90
        0
176
     1
 90
        2
176
     1
 90
        0
176
     1
 90
        0
176
     1
 40
-0.6
176
     1
 40
-30.0
176
     1
 62
     7
176
     1
 90
        1
176
     1
 90
        4
176
     1
 62
     7
176
     1
 62
   257
176
     1
 90
        1
176
     1
 90
        1
176
     1
 40
1.0
176
     1
 90
        0
176
     1
 62
   257
176
     1
 40
1.0
176
     1
 90
        1
176
     1
 90
        6
176
     1
 90
        2
176
     1
 62
     7
176
     1
 90
        5
176
     1
 90
        0
176
     1
 90
        0
176
     1
290
     0
176
     1
 90
        1
176
     1
 40
0.0
176
     1
 90
        0
176
     1
290
     1
176
     1
290
     1
176
     1
290
     0
176
     1
290
     0
176
     1
290
     0
176
     1
290
     0
176
     1
290
     0
176
     1
290
     0
176
     1
290
     0
176
     1
 90
       50
176
     1
 40
0.0
176
     1
 40
1.0
176
     1
 90
        0
176
     1
 62
    18
420
        0
176
     1
 90
       50
176
     1
 90
        3
176
     1
 62
     5
420
      255
176
     1
290
     0
176
     1
 90
       50
176
     1
 90
       50
176
     1
 90
       50
176
     1
290
     0
176
     1
 90
       50
176
     1
 62
   256
176
     0
 40
1.0
176
     0
 90
        2
176
     1
  1
strokes_ogs.tif
176
     1
290
     0
176
     1
 40
1.0
176
     1
 40
1.0
176
     1
  0
VISUALSTYLE
  5
199
102
{ACAD_REACTORS
330
192
102
}
330
192
100
AcDbVisualStyle
  2
3D Hidden
 70
     6
177
     3
291
     0
 70
    58
 90
        1
176
     1
 90
        2
176
     1
 90
        2
176
     1
 90
        0
176
     1
 40
-0.6
176
     1
 40
-30.0
176
     1
 62
     7
176
     1
 90
        2
176
     1
 90
        2
176
     1
 62
     7
176
     1
 62
   257
176
     1
 90
        2
176
     1
 90
        1
176
     1
 40
40.0
176
     1
 90
        0
176
     1
 62
   257
176
     1
 40
1.0
176
     1
 90
        1
176
     1
 90
        6
176
     1
 90
        2
176
     1
 62
     7
176
     1
 90
        3
176
     1
 90
        0
176
     1
 90
        0
176
     1
290
     0
176
     1
 90
        1
176
     1
 40
0.0
176
     1
 90
        0
176
     1
290
     0
176
     1
290
     1
176
     1
290
     1
176
     1
290
     0
176
     1
290
     0
176
     1
290
     0
176
     1
290
     0
176
     1
290
     0
176
     1
290
     0
176
     1
 90
       50
176
     1
 40
0.0
176
     1
 40
1.0
176
     1
 90
        0
176
     1
 62
    18
420
        0
176
     1
 90
       50
176
     1
 90
        3
176
     1
 62
     5
420
      255
176
     1
290
     0
176
     1
 90
       50
176
     1
 90
       50
176
     1
 90
       50
176
     1
290
     0
176
     1
 90
       50
176
     1
 62
   256
176
     0
 40
1.0
176
     0
 90
        2
176
     1
  1
strokes_ogs.tif
176
     1
290
     0
176
     1
 40
1.0
176
     1
 40
1.0
176
     1
  0
VISUALSTYLE
  5
198
102
{ACAD_REACTORS
330
192
102
}
330
192
100
AcDbVisualStyle
  2
3dWireframe
 70
     5
177
     3
291
     0
 70
    58
 90
        0
176
     1
 90
        2
176
     1
 90
        0
176
     1
 90
        0
176
     1
 40
-0.6
176
     1
 40
-30.0
176
     1
 62
     7
176
     1
 90
        1
176
     1
 90
        4
176
     1
 62
     7
176
     1
 62
   257
176
     1
 90
        1
176
     1
 90
        1
176
     1
 40
1.0
176
     1
 90
        0
176
     1
 62
   257
176
     1
 40
1.0
176
     1
 90
        1
176
     1
 90
        6
176
     1
 90
        2
176
     1
 62
     7
176
     1
 90
        5
176
     1
 90
        0
176
     1
 90
        0
176
     1
290
     0
176
     1
 90
        1
176
     1
 40
0.0
176
     1
 90
        0
176
     1
290
     0
176
     1
290
     1
176
     1
290
     1
176
     1
290
     0
176
     1
290
     0
176
     1
290
     0
176
     1
290
     0
176
     1
290
     0
176
     1
290
     0
176
     1
 90
       50
176
     1
 40
0.0
176
     1
 40
1.0
176
     1
 90
        0
176
     1
 62
    18
420
        0
176
     1
 90
       50
176
     1
 90
        3
176
     1
 62
     5
420
      255
176
     1
290
     0
176
     1
 90
       50
176
     1
 90
       50
176
     1
 90
       50
176
     1
290
     0
176
     1
 90
       50
176
     1
 62
   256
176
     0
 40
1.0
176
     0
 90
        2
176
     1
  1
strokes_ogs.tif
176
     1
290
     0
176
     1
 40
1.0
176
     1
 40
1.0
176
     1
  0
VISUALSTYLE
  5
19A
102
{ACAD_REACTORS
330
192
102
}
330
192
100
AcDbVisualStyle
  2
Basic
 70
     7
177
     3
291
     1
 70
    58
 90
        1
176
     1
 90
        0
176
     1
 90
        1
176
     1
 90
        0
176
     1
 40
-0.6
176
     1
 40
-30.0
176
     1
 62
     7
176
     1
 90
        0
176
     1
 90
        4
176
     1
 62
     7
176
     1
 62
   257
176
     1
 90
        1
176
     1
 90
        1
176
     1
 40
1.0
176
     1
 90
        8
176
     1
 62
     7
176
     1
 40
1.0
176
     1
 90
        1
176
     1
 90
        6
176
     1
 90
        2
176
     1
 62
     7
176
     1
 90
        5
176
     1
 90
        0
176
     1
 90
        0
176
     1
290
     0
176
     1
 90
        1
176
     1
 40
0.0
176
     1
 90
        0
176
     1
290
     0
176
     1
290
     1
176
     1
290
     1
176
     1
290
     0
176
     1
290
     0
176
     1
290
     0
176
     1
290
     0
176
     1
290
     0
176
     1
290
     0
176
     1
 90
       50
176
     1
 40
0.0
176
     1
 40
1.0
176
     1
 90
        0
176
     1
 62
    18
420
        0
176
     1
 90
       50
176
     1
 90
        3
176
     1
 62
     5
420
      255
176
     1
290
     0
176
     1
 90
       50
176
     1
 90
       50
176
     1
 90
       50
176
     1
290
     0
176
     1
 90
       50
176
     1
 62
   256
176
     0
 40
1.0
176
     0
 90
        2
176
     1
  1
strokes_ogs.tif
176
     1
290
     0
176
     1
 40
1.0
176
     1
 40
1.0
176
     1
  0
VISUALSTYLE
  5
19E
102
{ACAD_REACTORS
330
192
102
}
330
192
100
AcDbVisualStyle
  2
Brighten
 70
    12
177
     3
291
     1
 70
    58
 90
        2
176
     1
 90
        2
176
     1
 90
        0
176
     1
 90
        0
176
     1
 40
-0.6
176
     1
 40
-30.0
176
     1
 62
     7
176
     1
 90
        1
176
     1
 90
        4
176
     1
 62
     7
176
     1
 62
   257
176
     1
 90
        1
176
     1
 90
        1
176
     1
 40
1.0
176
     1
 90
        8
176
     1
 62
     7
176
     1
 40
1.0
176
     1
 90
        1
176
     1
 90
        6
176
     1
 90
        2
176
     1
 62
     7
176
     1
 90
        5
176
     1
 90
        0
176
     1
 90
        0
176
     1
290
     0
176
     1
 90
        1
176
     1
 40
50.0
176
     1
 90
        0
176
     1
290
     0
176
     1
290
     1
176
     1
290
     1
176
     1
290
     0
176
     1
290
     0
176
     1
290
     0
176
     1
290
     0
176
     1
290
     0
176
     1
290
     0
176
     1
 90
       50
176
     1
 40
0.0
176
     1
 40
1.0
176
     1
 90
        0
176
     1
 62
    18
420
        0
176
     1
 90
       50
176
     1
 90
        3
176
     1
 62
     5
420
      255
176
     1
290
     0
176
     1
 90
       50
176
     1
 90
       50
176
     1
 90
       50
176
     1
290
     0
176
     1
 90
       50
176
     1
 62
   256
176
     0
 40
1.0
176
     0
 90
        2
176
     1
  1
strokes_ogs.tif
176
     1
290
     0
176
     1
 40
1.0
176
     1
 40
1.0
176
     1
  0
VISUALSTYLE
  5
1A2
102
{ACAD_REACTORS
330
192
102
}
330
192
100
AcDbVisualStyle
  2
ColorChange
 70
    16
177
     3
291
     1
 70
    58
 90
        2
176
     1
 90
        2
176
     1
 90
        3
176
     1
 90
        0
176
     1
 40
-0.6
176
     1
 40
-30.0
176
     1
 62
     8
176
     1
 90
        1
176
     1
 90
        4
176
     1
 62
     7
176
     1
 62
   257
176
     1
 90
        1
176
     1
 90
        1
176
     1
 40
1.0
176
     1
 90
        8
176
     1
 62
     8
176
     1
 40
1.0
176
     1
 90
        1
176
     1
 90
        6
176
     1
 90
        2
176
     1
 62
     7
176
     1
 90
        5
176
     1
 90
        0
176
     1
 90
        0
176
     1
290
     0
176
     1
 90
        1
176
     1
 40
0.0
176
     1
 90
        0
176
     1
290
     0
176
     1
290
     1
176
     1
290
     1
176
     1
290
     0
176
     1
290
     0
176
     1
290
     0
176
     1
290
     0
176
     1
290
     0
176
     1
290
     0
176
     1
 90
       50
176
     1
 40
0.0
176
     1
 40
1.0
176
     1
 90
        0
176
     1
 62
    18
420
        0
176
     1
 90
       50
176
     1
 90
        3
176
     1
 62
     5
420
      255
176
     1
290
     0
176
     1
 90
       50
176
     1
 90
       50
176
     1
 90
       50
176
     1
290
     0
176
     1
 90
       50
176
     1
 62
   256
176
     0
 40
1.0
176
     0
 90
        2
176
     1
  1
strokes_ogs.tif
176
     1
290
     0
176
     1
 40
1.0
176
     1
 40
1.0
176
     1
  0
VISUALSTYLE
  5
19C
102
{ACAD_REACTORS
330
192
102
}
330
192
100
AcDbVisualStyle
  2
Conceptual
 70
     9
177
     3
291
     0
 70
    58
 90
        3
176
     1
 90
        2
176
     1
 90
        0
176
     1
 90
        0
176
     1
 40
-0.6
176
     1
 40
-30.0
176
     1
 62
     7
176
     1
 90
        2
176
     1
 90
        2
176
     1
 62
     7
176
     1
 62
   257
176
     1
 90
        1
176
     1
 90
        1
176
     1
 40
40.0
176
     1
 90
        8
176
     1
 62
     7
176
     1
 40
1.0
176
     1
 90
        1
176
     1
 90
        6
176
     1
 90
        2
176
     1
 62
     7
176
     1
 90
        3
176
     1
 90
        0
176
     1
 90
        0
176
     1
290
     0
176
     1
 90
        1
176
     1
 40
0.0
176
     1
 90
        0
176
     1
290
     0
176
     1
290
     1
176
     1
290
     1
176
     1
290
     0
176
     1
290
     0
176
     1
290
     0
176
     1
290
     0
176
     1
290
     0
176
     1
290
     0
176
     1
 90
       50
176
     1
 40
0.0
176
     1
 40
1.0
176
     1
 90
        0
176
     1
 62
    18
420
        0
176
     1
 90
       50
176
     1
 90
        3
176
     1
 62
     5
420
      255
176
     1
290
     0
176
     1
 90
       50
176
     1
 90
       50
176
     1
 90
       50
176
     1
290
     0
176
     1
 90
       50
176
     1
 62
   256
176
     0
 40
1.0
176
     0
 90
        2
176
     1
  1
strokes_ogs.tif
176
     1
290
     0
176
     1
 40
1.0
176
     1
 40
1.0
176
     1
  0
VISUALSTYLE
  5
19D
102
{ACAD_REACTORS
330
192
102
}
330
192
100
AcDbVisualStyle
  2
Dim
 70
    11
177
     3
291
     1
 70
    58
 90
        2
176
     1
 90
        2
176
     1
 90
        0
176
     1
 90
        0
176
     1
 40
-0.6
176
     1
 40
-30.0
176
     1
 62
     7
176
     1
 90
        1
176
     1
 90
        4
176
     1
 62
     7
176
     1
 62
   257
176
     1
 90
        1
176
     1
 90
        1
176
     1
 40
1.0
176
     1
 90
        8
176
     1
 62
     7
176
     1
 40
1.0
176
     1
 90
        1
176
     1
 90
        6
176
     1
 90
        2
176
     1
 62
     7
176
     1
 90
        5
176
     1
 90
        0
176
     1
 90
        0
176
     1
290
     0
176
     1
 90
        1
176
     1
 40
-50.0
176
     1
 90
        0
176
     1
290
     0
176
     1
290
     1
176
     1
290
     1
176
     1
290
     0
176
     1
290
     0
176
     1
290
     0
176
     1
290
     0
176
     1
290
     0
176
     1
290
     0
176
     1
 90
       50
176
     1
 40
0.0
176
     1
 40
1.0
176
     1
 90
        0
176
     1
 62
    18
420
        0
176
     1
 90
       50
176
     1
 90
        3
176
     1
 62
     5
420
      255
176
     1
290
     0
176
     1
 90
       50
176
     1
 90
       50
176
     1
 90
       50
176
     1
290
     0
176
     1
 90
       50
176
     1
 62
   256
176
     0
 40
1.0
176
     0
 90
        2
176
     1
  1
strokes_ogs.tif
176
     1
290
     0
176
     1
 40
1.0
176
     1
 40
1.0
176
     1
  0
VISUALSTYLE
  5
208
102
{ACAD_REACTORS
330
192
102
}
330
192
100
AcDbVisualStyle
  2
EdgeColorOff
 70
    22
177
     3
291
     1
 70
    58
 90
        2
176
     0
 90
        2
176
     0
 90
        0
176
     0
 90
        0
176
     0
 40
0.6
176
     0
 40
30.0
176
     0
 62
     7
420
 16777215
176
     0
 90
        1
176
     0
 90
        4
176
     0
 62
     7
176
     0
 62
   257
176
     0
 90
        1
176
     0
 90
        1
176
     0
 40
1.0
176
     0
 90
        8
176
     2
 62
     7
176
     0
 40
1.0
176
     0
 90
        1
176
     0
 90
        6
176
     0
 90
        2
176
     0
 62
     7
176
     0
 90
        5
176
     0
 90
        0
176
     0
 90
        0
176
     0
290
     0
176
     0
 90
        1
176
     0
 40
0.0
176
     0
 90
        0
176
     0
290
     0
176
     0
290
     1
176
     0
290
     1
176
     0
290
     0
176
     0
290
     0
176
     0
290
     0
176
     0
290
     0
176
     0
290
     0
176
     0
290
     0
176
     0
 90
       50
176
     0
 40
0.0
176
     0
 40
1.0
176
     0
 90
        0
176
     0
 62
    18
420
        0
176
     0
 90
       50
176
     0
 90
        3
176
     0
 62
     5
420
      255
176
     0
290
     0
176
     0
 90
       50
176
     0
 90
       50
176
     0
 90
       50
176
     0
290
     0
176
     0
 90
       50
176
     0
 62
   256
176
     0
 40
1.0
176
     0
 90
        2
176
     0
  1
strokes_ogs.tif
176
     0
290
     0
176
     0
 40
1.0
176
     0
 40
1.0
176
     0
  0
VISUALSTYLE
  5
1A1
102
{ACAD_REACTORS
330
192
102
}
330
192
100
AcDbVisualStyle
  2
Facepattern
 70
    15
177
     3
291
     1
 70
    58
 90
        2
176
     1
 90
        2
176
     1
 90
        0
176
     1
 90
        0
176
     1
 40
-0.6
176
     1
 40
-30.0
176
     1
 62
     7
176
     1
 90
        1
176
     1
 90
        4
176
     1
 62
     7
176
     1
 62
   257
176
     1
 90
        1
176
     1
 90
        1
176
     1
 40
1.0
176
     1
 90
        8
176
     1
 62
     7
176
     1
 40
1.0
176
     1
 90
        1
176
     1
 90
        6
176
     1
 90
        2
176
     1
 62
     7
176
     1
 90
        5
176
     1
 90
        0
176
     1
 90
        0
176
     1
290
     0
176
     1
 90
        1
176
     1
 40
0.0
176
     1
 90
        0
176
     1
290
     0
176
     1
290
     1
176
     1
290
     1
176
     1
290
     0
176
     1
290
     0
176
     1
290
     0
176
     1
290
     0
176
     1
290
     0
176
     1
290
     0
176
     1
 90
       50
176
     1
 40
0.0
176
     1
 40
1.0
176
     1
 90
        0
176
     1
 62
    18
420
        0
176
     1
 90
       50
176
     1
 90
        3
176
     1
 62
     5
420
      255
176
     1
290
     0
176
     1
 90
       50
176
     1
 90
       50
176
     1
 90
       50
176
     1
290
     0
176
     1
 90
       50
176
     1
 62
   256
176
     0
 40
1.0
176
     0
 90
        2
176
     1
  1
strokes_ogs.tif
176
     1
290
     0
176
     1
 40
1.0
176
     1
 40
1.0
176
     1
  0
VISUALSTYLE
  5
193
102
{ACAD_REACTORS
330
192
102
}
330
192
100
AcDbVisualStyle
  2
Flat
 70
     0
177
     3
291
     1
 70
    58
 90
        2
176
     1
 90
        1
176
     1
 90
        1
176
     1
 90
        2
176
     1
 40
-0.6
176
     1
 40
30.0
176
     1
 62
     7
176
     1
 90
        0
176
     1
 90
        4
176
     1
 62
     7
176
     1
 62
   257
176
     1
 90
        1
176
     1
 90
        1
176
     1
 40
1.0
176
     1
 90
        8
176
     1
 62
     7
176
     1
 40
1.0
176
     1
 90
        1
176
     1
 90
        6
176
     1
 90
        2
176
     1
 62
     7
176
     1
 90
        5
176
     1
 90
        0
176
     1
 90
        0
176
     1
290
     0
176
     1
 90
       13
176
     1
 40
0.0
176
     1
 90
        0
176
     1
290
     0
176
     1
290
     1
176
     1
290
     1
176
     1
290
     0
176
     1
290
     0
176
     1
290
     0
176
     1
290
     0
176
     1
290
     0
176
     1
290
     0
176
     1
 90
       50
176
     1
 40
0.0
176
     1
 40
1.0
176
     1
 90
        0
176
     1
 62
    18
420
        0
176
     1
 90
       50
176
     1
 90
        3
176
     1
 62
     5
420
      255
176
     1
290
     0
176
     1
 90
       50
176
     1
 90
       50
176
     1
 90
       50
176
     1
290
     0
176
     1
 90
       50
176
     1
 62
   256
176
     0
 40
1.0
176
     0
 90
        2
176
     1
  1
strokes_ogs.tif
176
     1
290
     0
176
     1
 40
1.0
176
     1
 40
1.0
176
     1
  0
VISUALSTYLE
  5
194
102
{ACAD_REACTORS
330
192
102
}
330
192
100
AcDbVisualStyle
  2
FlatWithEdges
 70
     1
177
     3
291
     1
 70
    58
 90
        2
176
     1
 90
        1
176
     1
 90
        1
176
     1
 90
        2
176
     1
 40
-0.6
176
     1
 40
30.0
176
     1
 62
     7
176
     1
 90
        1
176
     1
 90
        4
176
     1
 62
     7
176
     1
 62
   257
176
     1
 90
        1
176
     1
 90
        1
176
     1
 40
1.0
176
     1
 90
        0
176
     1
 62
   257
176
     1
 40
1.0
176
     1
 90
        1
176
     1
 90
        6
176
     1
 90
        2
176
     1
 62
     7
176
     1
 90
        5
176
     1
 90
        0
176
     1
 90
        0
176
     1
290
     0
176
     1
 90
       13
176
     1
 40
0.0
176
     1
 90
        0
176
     1
290
     0
176
     1
290
     1
176
     1
290
     1
176
     1
290
     0
176
     1
290
     0
176
     1
290
     0
176
     1
290
     0
176
     1
290
     0
176
     1
290
     0
176
     1
 90
       50
176
     1
 40
0.0
176
     1
 40
1.0
176
     1
 90
        0
176
     1
 62
    18
420
        0
176
     1
 90
       50
176
     1
 90
        3
176
     1
 62
     5
420
      255
176
     1
290
     0
176
     1
 90
       50
176
     1
 90
       50
176
     1
 90
       50
176
     1
290
     0
176
     1
 90
       50
176
     1
 62
   256
176
     0
 40
1.0
176
     0
 90
        2
176
     1
  1
strokes_ogs.tif
176
     1
290
     0
176
     1
 40
1.0
176
     1
 40
1.0
176
     1
  0
VISUALSTYLE
  5
195
102
{ACAD_REACTORS
330
192
102
}
330
192
100
AcDbVisualStyle
  2
Gouraud
 70
     2
177
     3
291
     1
 70
    58
 90
        2
176
     1
 90
        2
176
     1
 90
        1
176
     1
 90
        2
176
     1
 40
-0.6
176
     1
 40
30.0
176
     1
 62
     7
176
     1
 90
        0
176
     1
 90
        4
176
     1
 62
     7
176
     1
 62
   257
176
     1
 90
        1
176
     1
 90
        1
176
     1
 40
1.0
176
     1
 90
        0
176
     1
 62
     7
176
     1
 40
1.0
176
     1
 90
        1
176
     1
 90
        6
176
     1
 90
        2
176
     1
 62
     7
176
     1
 90
        5
176
     1
 90
        0
176
     1
 90
        0
176
     1
290
     0
176
     1
 90
       13
176
     1
 40
0.0
176
     1
 90
        0
176
     1
290
     0
176
     1
290
     1
176
     1
290
     1
176
     1
290
     0
176
     1
290
     0
176
     1
290
     0
176
     1
290
     0
176
     1
290
     0
176
     1
290
     0
176
     1
 90
       50
176
     1
 40
0.0
176
     1
 40
1.0
176
     1
 90
        0
176
     1
 62
    18
420
        0
176
     1
 90
       50
176
     1
 90
        3
176
     1
 62
     5
420
      255
176
     1
290
     0
176
     1
 90
       50
176
     1
 90
       50
176
     1
 90
       50
176
     1
290
     0
176
     1
 90
       50
176
     1
 62
   256
176
     0
 40
1.0
176
     0
 90
        2
176
     1
  1
strokes_ogs.tif
176
     1
290
     0
176
     1
 40
1.0
176
     1
 40
1.0
176
     1
  0
VISUALSTYLE
  5
196
102
{ACAD_REACTORS
330
192
102
}
330
192
100
AcDbVisualStyle
  2
GouraudWithEdges
 70
     3
177
     3
291
     1
 70
    58
 90
        2
176
     1
 90
        2
176
     1
 90
        1
176
     1
 90
        2
176
     1
 40
-0.6
176
     1
 40
30.0
176
     1
 62
     7
176
     1
 90
        1
176
     1
 90
        4
176
     1
 62
     7
176
     1
 62
   257
176
     1
 90
        1
176
     1
 90
        1
176
     1
 40
1.0
176
     1
 90
        0
176
     1
 62
   257
176
     1
 40
1.0
176
     1
 90
        1
176
     1
 90
        6
176
     1
 90
        2
176
     1
 62
     7
176
     1
 90
        5
176
     1
 90
        0
176
     1
 90
        0
176
     1
290
     0
176
     1
 90
       13
176
     1
 40
0.0
176
     1
 90
        0
176
     1
290
     0
176
     1
290
     1
176
     1
290
     1
176
     1
290
     0
176
     1
290
     0
176
     1
290
     0
176
     1
290
     0
176
     1
290
     0
176
     1
290
     0
176
     1
 90
       50
176
     1
 40
0.0
176
     1
 40
1.0
176
     1
 90
        0
176
     1
 62
    18
420
        0
176
     1
 90
       50
176
     1
 90
        3
176
     1
 62
     5
420
      255
176
     1
290
     0
176
     1
 90
       50
176
     1
 90
       50
176
     1
 90
       50
176
     1
290
     0
176
     1
 90
       50
176
     1
 62
   256
176
     0
 40
1.0
176
     0
 90
        2
176
     1
  1
strokes_ogs.tif
176
     1
290
     0
176
     1
 40
1.0
176
     1
 40
1.0
176
     1
  0
VISUALSTYLE
  5
205
102
{ACAD_REACTORS
330
192
102
}
330
192
100
AcDbVisualStyle
  2
Hidden
 70
     6
177
     3
291
     0
 70
    58
 90
        1
176
     1
 90
        2
176
     1
 90
        2
176
     1
 90
        0
176
     1
 40
0.6
176
     1
 40
30.0
176
     1
 62
     7
420
 16777215
176
     1
 90
        2
176
     1
 90
        2
176
     1
 62
     7
176
     1
 62
   257
176
     1
 90
        2
176
     1
 90
        1
176
     1
 40
40.0
176
     1
 90
        0
176
     1
 62
   257
176
     1
 40
1.0
176
     1
 90
        1
176
     1
 90
        6
176
     1
 90
        2
176
     1
 62
     7
176
     1
 90
        3
176
     1
 90
        0
176
     1
 90
        0
176
     1
290
     0
176
     1
 90
        1
176
     1
 40
0.0
176
     1
 90
        0
176
     1
290
     0
176
     1
290
     1
176
     1
290
     1
176
     1
290
     0
176
     1
290
     0
176
     1
290
     0
176
     1
290
     0
176
     1
290
     0
176
     1
290
     0
176
     1
 90
       50
176
     1
 40
0.0
176
     1
 40
1.0
176
     1
 90
        0
176
     1
 62
    18
420
        0
176
     1
 90
       50
176
     1
 90
        3
176
     1
 62
     5
420
      255
176
     1
290
     0
176
     1
 90
       50
176
     1
 90
       50
176
     1
 90
       50
176
     1
290
     0
176
     1
 90
       50
176
     1
 62
   256
176
     0
 40
1.0
176
     0
 90
        2
176
     1
  1
strokes_ogs.tif
176
     1
290
     0
176
     1
 40
1.0
176
     1
 40
1.0
176
     1
  0
VISUALSTYLE
  5
206
102
{ACAD_REACTORS
330
192
102
}
330
192
100
AcDbVisualStyle
  2
JitterOff
 70
    20
177
     3
291
     1
 70
    58
 90
        2
176
     0
 90
        2
176
     0
 90
        0
176
     0
 90
        0
176
     0
 40
0.6
176
     0
 40
30.0
176
     0
 62
     7
420
 16777215
176
     0
 90
        1
176
     0
 90
        4
176
     0
 62
     7
176
     0
 62
   257
176
     0
 90
        1
176
     0
 90
        1
176
     0
 40
1.0
176
     0
 90
       10
176
     2
 62
     7
176
     0
 40
1.0
176
     0
 90
        1
176
     0
 90
        6
176
     0
 90
        2
176
     0
 62
     7
176
     0
 90
        5
176
     0
 90
        0
176
     0
 90
        0
176
     0
290
     0
176
     0
 90
        1
176
     0
 40
0.0
176
     0
 90
        0
176
     0
290
     0
176
     0
290
     1
176
     0
290
     1
176
     0
290
     0
176
     0
290
     0
176
     0
290
     0
176
     0
290
     0
176
     0
290
     0
176
     0
290
     0
176
     0
 90
       50
176
     0
 40
0.0
176
     0
 40
1.0
176
     0
 90
        0
176
     0
 62
    18
420
        0
176
     0
 90
       50
176
     0
 90
        3
176
     0
 62
     5
420
      255
176
     0
290
     0
176
     0
 90
       50
176
     0
 90
       50
176
     0
 90
       50
176
     0
290
     0
176
     0
 90
       50
176
     0
 62
   256
176
     0
 40
1.0
176
     0
 90
        2
176
     0
  1
strokes_ogs.tif
176
     0
290
     0
176
     0
 40
1.0
176
     0
 40
1.0
176
     0
  0
VISUALSTYLE
  5
1A0
102
{ACAD_REACTORS
330
192
102
}
330
192
100
AcDbVisualStyle
  2
Linepattern
 70
    14
177
     3
291
     1
 70
    58
 90
        2
176
     1
 90
        2
176
     1
 90
        0
176
     1
 90
        0
176
     1
 40
-0.6
176
     1
 40
-30.0
176
     1
 62
     7
176
     1
 90
        1
176
     1
 90
        4
176
     1
 62
     7
176
     1
 62
   257
176
     1
 90
        7
176
     1
 90
        7
176
     1
 40
1.0
176
     1
 90
        8
176
     1
 62
     7
176
     1
 40
1.0
176
     1
 90
        1
176
     1
 90
        6
176
     1
 90
        2
176
     1
 62
     7
176
     1
 90
        5
176
     1
 90
        0
176
     1
 90
        0
176
     1
290
     0
176
     1
 90
        1
176
     1
 40
0.0
176
     1
 90
        0
176
     1
290
     0
176
     1
290
     1
176
     1
290
     1
176
     1
290
     0
176
     1
290
     0
176
     1
290
     0
176
     1
290
     0
176
     1
290
     0
176
     1
290
     0
176
     1
 90
       50
176
     1
 40
0.0
176
     1
 40
1.0
176
     1
 90
        0
176
     1
 62
    18
420
        0
176
     1
 90
       50
176
     1
 90
        3
176
     1
 62
     5
420
      255
176
     1
290
     0
176
     1
 90
       50
176
     1
 90
       50
176
     1
 90
       50
176
     1
290
     0
176
     1
 90
       50
176
     1
 62
   256
176
     0
 40
1.0
176
     0
 90
        2
176
     1
  1
strokes_ogs.tif
176
     1
290
     0
176
     1
 40
1.0
176
     1
 40
1.0
176
     1
  0
VISUALSTYLE
  5
207
102
{ACAD_REACTORS
330
192
102
}
330
192
100
AcDbVisualStyle
  2
OverhangOff
 70
    21
177
     3
291
     1
 70
    58
 90
        2
176
     0
 90
        2
176
     0
 90
        0
176
     0
 90
        0
176
     0
 40
0.6
176
     0
 40
30.0
176
     0
 62
     7
420
 16777215
176
     0
 90
        1
176
     0
 90
        4
176
     0
 62
     7
176
     0
 62
   257
176
     0
 90
        1
176
     0
 90
        1
176
     0
 40
1.0
176
     0
 90
        9
176
     2
 62
     7
176
     0
 40
1.0
176
     0
 90
        1
176
     0
 90
        6
176
     0
 90
        2
176
     0
 62
     7
176
     0
 90
        5
176
     0
 90
        0
176
     0
 90
        0
176
     0
290
     0
176
     0
 90
        1
176
     0
 40
0.0
176
     0
 90
        0
176
     0
290
     0
176
     0
290
     1
176
     0
290
     1
176
     0
290
     0
176
     0
290
     0
176
     0
290
     0
176
     0
290
     0
176
     0
290
     0
176
     0
290
     0
176
     0
 90
       50
176
     0
 40
0.0
176
     0
 40
1.0
176
     0
 90
        0
176
     0
 62
    18
420
        0
176
     0
 90
       50
176
     0
 90
        3
176
     0
 62
     5
420
      255
176
     0
290
     0
176
     0
 90
       50
176
     0
 90
       50
176
     0
 90
       50
176
     0
290
     0
176
     0
 90
       50
176
     0
 62
   256
176
     0
 40
1.0
176
     0
 90
        2
176
     0
  1
strokes_ogs.tif
176
     0
290
     0
176
     0
 40
1.0
176
     0
 40
1.0
176
     0
  0
VISUALSTYLE
  5
19B
102
{ACAD_REACTORS
330
192
102
}
330
192
100
AcDbVisualStyle
  2
Realistic
 70
     8
177
     3
291
     0
 70
    58
 90
        2
176
     1
 90
        2
176
     1
 90
        0
176
     1
 90
        0
176
     1
 40
-0.6
176
     1
 40
-30.0
176
     1
 62
     7
176
     1
 90
        1
176
     1
 90
        0
176
     1
 62
     7
176
     1
 62
   257
176
     1
 90
        1
176
     1
 90
        1
176
     1
 40
1.0
176
     1
 90
        8
176
     1
 62
     8
176
     1
 40
1.0
176
     1
 90
        1
176
     1
 90
        6
176
     1
 90
        2
176
     1
 62
     7
176
     1
 90
        5
176
     1
 90
        0
176
     1
 90
        0
176
     1
290
     0
176
     1
 90
       13
176
     1
 40
0.0
176
     1
 90
        0
176
     1
290
     0
176
     1
290
     1
176
     1
290
     1
176
     1
290
     0
176
     1
290
     0
176
     1
290
     0
176
     1
290
     0
176
     1
290
     0
176
     1
290
     0
176
     1
 90
       50
176
     1
 40
0.0
176
     1
 40
1.0
176
     1
 90
        0
176
     1
 62
    18
420
        0
176
     1
 90
       50
176
     1
 90
        3
176
     1
 62
     5
420
      255
176
     1
290
     0
176
     1
 90
       50
176
     1
 90
       50
176
     1
 90
       50
176
     1
290
     0
176
     1
 90
       50
176
     1
 62
   256
176
     0
 40
1.0
176
     0
 90
        2
176
     1
  1
strokes_ogs.tif
176
     1
290
     0
176
     1
 40
1.0
176
     1
 40
1.0
176
     1
  0
VISUALSTYLE
  5
20D
102
{ACAD_REACTORS
330
192
102
}
330
192
100
AcDbVisualStyle
  2
Shaded
 70
    27
177
     3
291
     0
 70
    58
 90
        2
176
     1
 90
        2
176
     1
 90
        1
176
     1
 90
        2
176
     1
 40
0.6
176
     1
 40
30.0
176
     1
 62
     7
420
 16777215
176
     1
 90
        0
176
     1
 90
        4
176
     1
 62
     7
176
     1
 62
   257
176
     1
 90
        1
176
     1
 90
        1
176
     1
 40
1.0
176
     1
 90
        8
176
     1
 62
   257
176
     1
 40
1.0
176
     1
 90
        1
176
     1
 90
        6
176
     1
 90
        2
176
     1
 62
     8
420
  7895160
176
     1
 90
        3
176
     1
 90
        0
176
     1
 90
        0
176
     1
290
     0
176
     1
 90
        5
176
     1
 40
0.0
176
     1
 90
        0
176
     1
290
     0
176
     1
290
     1
176
     1
290
     1
176
     1
290
     0
176
     1
290
     0
176
     1
290
     0
176
     1
290
     0
176
     1
290
     0
176
     1
290
     0
176
     1
 90
       50
176
     1
 40
0.0
176
     1
 40
1.0
176
     1
 90
        0
176
     1
 62
    18
420
        0
176
     1
 90
       50
176
     1
 90
        3
176
     1
 62
     5
420
      255
176
     1
290
     0
176
     1
 90
       50
176
     1
 90
       50
176
     1
 90
       50
176
     1
290
     0
176
     1
 90
       50
176
     1
 62
   256
176
     0
 40
1.0
176
     0
 90
        2
176
     1
  1
strokes_ogs.tif
176
     1
290
     0
176
     1
 40
1.0
176
     1
 40
1.0
176
     1
  0
VISUALSTYLE
  5
20C
102
{ACAD_REACTORS
330
192
102
}
330
192
100
AcDbVisualStyle
  2
Shaded with edges
 70
    26
177
     3
291
     0
 70
    58
 90
        2
176
     1
 90
        2
176
     1
 90
        1
176
     1
 90
        2
176
     1
 40
0.6
176
     1
 40
30.0
176
     1
 62
     7
420
 16777215
176
     1
 90
        1
176
     1
 90
       10
176
     1
 62
     7
176
     1
 62
   257
176
     1
 90
        2
176
     1
 90
        1
176
     1
 40
1.0
176
     1
 90
        8
176
     1
 62
   257
176
     1
 40
1.0
176
     1
 90
        1
176
     1
 90
        6
176
     1
 90
        2
176
     1
 62
     7
176
     1
 90
        3
176
     1
 90
        0
176
     1
 90
        0
176
     1
290
     0
176
     1
 90
        5
176
     1
 40
0.0
176
     1
 90
        0
176
     1
290
     0
176
     1
290
     1
176
     1
290
     1
176
     1
290
     0
176
     1
290
     0
176
     1
290
     0
176
     1
290
     0
176
     1
290
     0
176
     1
290
     0
176
     1
 90
       50
176
     1
 40
0.0
176
     1
 40
1.0
176
     1
 90
        0
176
     1
 62
    18
420
        0
176
     1
 90
       50
176
     1
 90
        3
176
     1
 62
     5
420
      255
176
     1
290
     0
176
     1
 90
       50
176
     1
 90
       50
176
     1
 90
       50
176
     1
290
     0
176
     1
 90
       50
176
     1
 62
   256
176
     0
 40
1.0
176
     0
 90
        2
176
     1
  1
strokes_ogs.tif
176
     1
290
     0
176
     1
 40
1.0
176
     1
 40
1.0
176
     1
  0
VISUALSTYLE
  5
209
102
{ACAD_REACTORS
330
192
102
}
330
192
100
AcDbVisualStyle
  2
Shades of Gray
 70
    23
177
     3
291
     0
 70
    58
 90
        2
176
     1
 90
        2
176
     1
 90
        3
176
     1
 90
        0
176
     1
 40
0.6
176
     1
 40
30.0
176
     1
 62
     7
420
 16777215
176
     1
 90
        2
176
     1
 90
        2
176
     1
 62
     7
176
     1
 62
     7
176
     1
 90
        1
176
     1
 90
        1
176
     1
 40
40.0
176
     1
 90
        8
176
     1
 62
     7
176
     1
 40
1.0
176
     1
 90
        1
176
     1
 90
        6
176
     1
 90
        2
176
     1
 62
     7
176
     1
 90
        3
176
     1
 90
        0
176
     1
 90
        0
176
     1
290
     0
176
     1
 90
        1
176
     1
 40
0.0
176
     1
 90
        0
176
     1
290
     0
176
     1
290
     1
176
     1
290
     1
176
     1
290
     0
176
     1
290
     0
176
     1
290
     0
176
     1
290
     0
176
     1
290
     0
176
     1
290
     0
176
     1
 90
       50
176
     1
 40
0.0
176
     1
 40
1.0
176
     1
 90
        0
176
     1
 62
    18
420
        0
176
     1
 90
       50
176
     1
 90
        3
176
     1
 62
     5
420
      255
176
     1
290
     0
176
     1
 90
       50
176
     1
 90
       50
176
     1
 90
       50
176
     1
290
     0
176
     1
 90
       50
176
     1
 62
   256
176
     0
 40
1.0
176
     0
 90
        2
176
     1
  1
strokes_ogs.tif
176
     1
290
     0
176
     1
 40
1.0
176
     1
 40
1.0
176
     1
  0
VISUALSTYLE
  5
20A
102
{ACAD_REACTORS
330
192
102
}
330
192
100
AcDbVisualStyle
  2
Sketchy
 70
    24
177
     3
291
     0
 70
    58
 90
        1
176
     1
 90
        2
176
     1
 90
        2
176
     1
 90
        0
176
     1
 40
0.6
176
     1
 40
30.0
176
     1
 62
     7
420
 16777215
176
     1
 90
        2
176
     1
 90
        2
176
     1
 62
     7
176
     1
 62
     7
176
     1
 90
        1
176
     1
 90
        1
176
     1
 40
40.0
176
     1
 90
       11
176
     1
 62
     7
176
     1
 40
1.0
176
     1
 90
        1
176
     1
 90
        6
176
     1
 90
        2
176
     1
 62
     7
176
     1
 90
        6
176
     1
 90
        0
176
     1
 90
        0
176
     1
290
     0
176
     1
 90
        1
176
     1
 40
0.0
176
     1
 90
        0
176
     1
290
     0
176
     1
290
     1
176
     1
290
     1
176
     1
290
     0
176
     1
290
     0
176
     1
290
     0
176
     1
290
     0
176
     1
290
     0
176
     1
290
     0
176
     1
 90
       50
176
     1
 40
0.0
176
     1
 40
1.0
176
     1
 90
        0
176
     1
 62
    18
420
        0
176
     1
 90
       50
176
     1
 90
        3
176
     1
 62
     5
420
      255
176
     1
290
     0
176
     1
 90
       50
176
     1
 90
       50
176
     1
 90
       50
176
     1
290
     0
176
     1
 90
       50
176
     1
 62
   256
176
     0
 40
1.0
176
     0
 90
        2
176
     1
  1
strokes_ogs.tif
176
     1
290
     0
176
     1
 40
1.0
176
     1
 40
1.0
176
     1
  0
VISUALSTYLE
  5
19F
102
{ACAD_REACTORS
330
192
102
}
330
192
100
AcDbVisualStyle
  2
Thicken
 70
    13
177
     3
291
     1
 70
    58
 90
        2
176
     1
 90
        2
176
     1
 90
        0
176
     1
 90
        0
176
     1
 40
-0.6
176
     1
 40
-30.0
176
     1
 62
     7
176
     1
 90
        1
176
     1
 90
        4
176
     1
 62
     7
176
     1
 62
   257
176
     1
 90
        1
176
     1
 90
        1
176
     1
 40
1.0
176
     1
 90
       12
176
     1
 62
     7
176
     1
 40
1.0
176
     1
 90
        1
176
     1
 90
        6
176
     1
 90
        2
176
     1
 62
     7
176
     1
 90
        5
176
     1
 90
        0
176
     1
 90
        0
176
     1
290
     0
176
     1
 90
        1
176
     1
 40
0.0
176
     1
 90
        0
176
     1
290
     0
176
     1
290
     1
176
     1
290
     1
176
     1
290
     0
176
     1
290
     0
176
     1
290
     0
176
     1
290
     0
176
     1
290
     0
176
     1
290
     0
176
     1
 90
       50
176
     1
 40
0.0
176
     1
 40
1.0
176
     1
 90
        0
176
     1
 62
    18
420
        0
176
     1
 90
       50
176
     1
 90
        3
176
     1
 62
     5
420
      255
176
     1
290
     0
176
     1
 90
       50
176
     1
 90
       50
176
     1
 90
       50
176
     1
290
     0
176
     1
 90
       50
176
     1
 62
   256
176
     0
 40
1.0
176
     0
 90
        2
176
     1
  1
strokes_ogs.tif
176
     1
290
     0
176
     1
 40
1.0
176
     1
 40
1.0
176
     1
  0
VISUALSTYLE
  5
204
102
{ACAD_REACTORS
330
192
102
}
330
192
100
AcDbVisualStyle
  2
Wireframe
 70
     5
177
     3
291
     0
 70
    58
 90
        0
176
     1
 90
        2
176
     1
 90
        0
176
     1
 90
        0
176
     1
 40
0.6
176
     1
 40
30.0
176
     1
 62
     7
420
 16777215
176
     1
 90
        1
176
     1
 90
        4
176
     1
 62
     7
176
     1
 62
   257
176
     1
 90
        1
176
     1
 90
        1
176
     1
 40
1.0
176
     1
 90
        0
176
     1
 62
   257
176
     1
 40
1.0
176
     1
 90
        1
176
     1
 90
        6
176
     1
 90
        2
176
     1
 62
     7
176
     1
 90
        3
176
     1
 90
        0
176
     1
 90
        0
176
     1
290
     0
176
     1
 90
        1
176
     1
 40
0.0
176
     1
 90
        0
176
     1
290
     0
176
     1
290
     1
176
     1
290
     1
176
     1
290
     0
176
     1
290
     0
176
     1
290
     0
176
     1
290
     0
176
     1
290
     0
176
     1
290
     0
176
     1
 90
       50
176
     1
 40
0.0
176
     1
 40
1.0
176
     1
 90
        0
176
     1
 62
    18
420
        0
176
     1
 90
       50
176
     1
 90
        3
176
     1
 62
     5
420
      255
176
     1
290
     0
176
     1
 90
       50
176
     1
 90
       50
176
     1
 90
       50
176
     1
290
     0
176
     1
 90
       50
176
     1
 62
   256
176
     0
 40
1.0
176
     0
 90
        2
176
     1
  1
strokes_ogs.tif
176
     1
290
     0
176
     1
 40
1.0
176
     1
 40
1.0
176
     1
  0
VISUALSTYLE
  5
20B
102
{ACAD_REACTORS
330
192
102
}
330
192
100
AcDbVisualStyle
  2
X-Ray
 70
    25
177
     3
291
     0
 70
    58
 90
        2
176
     1
 90
        2
176
     1
 90
        1
176
     1
 90
        1
176
     1
 40
0.5
176
     1
 40
30.0
176
     1
 62
     7
420
 16777215
176
     1
 90
        1
176
     1
 90
        0
176
     1
 62
     7
176
     1
 62
   257
176
     1
 90
        1
176
     1
 90
        1
176
     1
 40
1.0
176
     1
 90
        8
176
     1
 62
     7
176
     1
 40
1.0
176
     1
 90
        1
176
     1
 90
        6
176
     1
 90
        2
176
     1
 62
     7
176
     1
 90
        3
176
     1
 90
        0
176
     1
 90
        0
176
     1
290
     0
176
     1
 90
       13
176
     1
 40
0.0
176
     1
 90
        0
176
     1
290
     0
176
     1
290
     1
176
     1
290
     1
176
     1
290
     0
176
     1
290
     0
176
     1
290
     0
176
     1
290
     0
176
     1
290
     0
176
     1
290
     0
176
     1
 90
       50
176
     1
 40
0.0
176
     1
 40
1.0
176
     1
 90
        0
176
     1
 62
    18
420
        0
176
     1
 90
       50
176
     1
 90
        3
176
     1
 62
     5
420
      255
176
     1
290
     0
176
     1
 90
       50
176
     1
 90
       50
176
     1
 90
       50
176
     1
290
     0
176
     1
 90
       50
176
     1
 62
   256
176
     0
 40
1.0
176
     0
 90
        2
176
     1
  1
strokes_ogs.tif
176
     1
290
     0
176
     1
 40
1.0
176
     1
 40
1.0
176
     1
  0
DICTIONARYVAR
  5
231
102
{ACAD_REACTORS
330
1BD
102
}
330
1BD
100
DictionaryVariables
280
     0
  1
1:1
  0
DICTIONARYVAR
  5
233
102
{ACAD_REACTORS
330
1BD
102
}
330
1BD
100
DictionaryVariables
280
     0
  1
Standard
  0
DICTIONARYVAR
  5
232
102
{ACAD_REACTORS
330
1BD
102
}
330
1BD
100
DictionaryVariables
280
     0
  1
Standard
  0
DICTIONARYVAR
  5
1C1
102
{ACAD_REACTORS
330
1BD
102
}
330
1BD
100
DictionaryVariables
280
     0
  1
2
  0
DICTIONARYVAR
  5
1C2
102
{ACAD_REACTORS
330
1BD
102
}
330
1BD
100
DictionaryVariables
280
     0
  1
1
  0
DICTIONARYVAR
  5
1C0
102
{ACAD_REACTORS
330
1BD
102
}
330
1BD
100
DictionaryVariables
280
     0
  1
0
  0
DICTIONARY
  5
241
330
20F
100
AcDbDictionary
280
     1
281
     1
  3
ACAD_ROUNDTRIP_2008_TABLESTYLE_CELLSTYLEMAP
360
242
  0
CELLSTYLEMAP
  5
242
102
{ACAD_REACTORS
330
241
102
}
330
241
100
AcDbCellStyleMap
 90
        3
300
CELLSTYLE
  1
TABLEFORMAT_BEGIN
 90
        5
170
     1
 91
        0
 92
    32768
 62
   257
 93
        1
300
CONTENTFORMAT
  1
CONTENTFORMAT_BEGIN
 90
        0
 91
        0
 92
        4
 93
        0
300

 40
0.0
140
1.0
 94
        5
 62
     0
340
11
144
6.0
309
CONTENTFORMAT_END
171
     1
301
MARGIN
  1
CELLMARGIN_BEGIN
 40
1.5
 40
1.5
 40
1.5
 40
1.5
 40
1.5
 40
1.5
309
CELLMARGIN_END
 94
        6
 95
        1
302
GRIDFORMAT
  1
GRIDFORMAT_BEGIN
 90
        0
 91
        1
 62
     0
 92
       -2
340
14
 93
        0
 40
0.045
309
GRIDFORMAT_END
 95
        2
302
GRIDFORMAT
  1
GRIDFORMAT_BEGIN
 90
        0
 91
        1
 62
     0
 92
       -2
340
14
 93
        0
 40
0.045
309
GRIDFORMAT_END
 95
        4
302
GRIDFORMAT
  1
GRIDFORMAT_BEGIN
 90
        0
 91
        1
 62
     0
 92
       -2
340
14
 93
        0
 40
0.045
309
GRIDFORMAT_END
 95
        8
302
GRIDFORMAT
  1
GRIDFORMAT_BEGIN
 90
        0
 91
        1
 62
     0
 92
       -2
340
14
 93
        0
 40
0.045
309
GRIDFORMAT_END
 95
       16
302
GRIDFORMAT
  1
GRIDFORMAT_BEGIN
 90
        0
 91
        1
 62
     0
 92
       -2
340
14
 93
        0
 40
0.045
309
GRIDFORMAT_END
 95
       32
302
GRIDFORMAT
  1
GRIDFORMAT_BEGIN
 90
        0
 91
        1
 62
     0
 92
       -2
340
14
 93
        0
 40
0.045
309
GRIDFORMAT_END
309
TABLEFORMAT_END
  1
CELLSTYLE_BEGIN
 90
        1
 91
        1
300
_TITLE
309
CELLSTYLE_END
300
CELLSTYLE
  1
TABLEFORMAT_BEGIN
 90
        5
170
     1
 91
        0
 92
        0
 62
   257
 93
        1
300
CONTENTFORMAT
  1
CONTENTFORMAT_BEGIN
 90
        0
 91
        0
 92
        4
 93
        0
300

 40
0.0
140
1.0
 94
        5
 62
     0
340
11
144
4.5
309
CONTENTFORMAT_END
171
     1
301
MARGIN
  1
CELLMARGIN_BEGIN
 40
1.5
 40
1.5
 40
1.5
 40
1.5
 40
1.5
 40
1.5
309
CELLMARGIN_END
 94
        6
 95
        1
302
GRIDFORMAT
  1
GRIDFORMAT_BEGIN
 90
        0
 91
        1
 62
     0
 92
       -2
340
14
 93
        0
 40
0.045
309
GRIDFORMAT_END
 95
        2
302
GRIDFORMAT
  1
GRIDFORMAT_BEGIN
 90
        0
 91
        1
 62
     0
 92
       -2
340
14
 93
        0
 40
0.045
309
GRIDFORMAT_END
 95
        4
302
GRIDFORMAT
  1
GRIDFORMAT_BEGIN
 90
        0
 91
        1
 62
     0
 92
       -2
340
14
 93
        0
 40
0.045
309
GRIDFORMAT_END
 95
        8
302
GRIDFORMAT
  1
GRIDFORMAT_BEGIN
 90
        0
 91
        1
 62
     0
 92
       -2
340
14
 93
        0
 40
0.045
309
GRIDFORMAT_END
 95
       16
302
GRIDFORMAT
  1
GRIDFORMAT_BEGIN
 90
        0
 91
        1
 62
     0
 92
       -2
340
14
 93
        0
 40
0.045
309
GRIDFORMAT_END
 95
       32
302
GRIDFORMAT
  1
GRIDFORMAT_BEGIN
 90
        0
 91
        1
 62
     0
 92
       -2
340
14
 93
        0
 40
0.045
309
GRIDFORMAT_END
309
TABLEFORMAT_END
  1
CELLSTYLE_BEGIN
 90
        2
 91
        1
300
_HEADER
309
CELLSTYLE_END
300
CELLSTYLE
  1
TABLEFORMAT_BEGIN
 90
        5
170
     1
 91
        0
 92
        0
 62
   257
 93
        1
300
CONTENTFORMAT
  1
CONTENTFORMAT_BEGIN
 90
        0
 91
        0
 92
        4
 93
        0
300

 40
0.0
140
1.0
 94
        2
 62
     0
340
11
144
4.5
309
CONTENTFORMAT_END
171
     1
301
MARGIN
  1
CELLMARGIN_BEGIN
 40
1.5
 40
1.5
 40
1.5
 40
1.5
 40
1.5
 40
1.5
309
CELLMARGIN_END
 94
        6
 95
        1
302
GRIDFORMAT
  1
GRIDFORMAT_BEGIN
 90
        0
 91
        1
 62
     0
 92
       -2
340
14
 93
        0
 40
0.045
309
GRIDFORMAT_END
 95
        2
302
GRIDFORMAT
  1
GRIDFORMAT_BEGIN
 90
        0
 91
        1
 62
     0
 92
       -2
340
14
 93
        0
 40
0.045
309
GRIDFORMAT_END
 95
        4
302
GRIDFORMAT
  1
GRIDFORMAT_BEGIN
 90
        0
 91
        1
 62
     0
 92
       -2
340
14
 93
        0
 40
0.045
309
GRIDFORMAT_END
 95
        8
302
GRIDFORMAT
  1
GRIDFORMAT_BEGIN
 90
        0
 91
        1
 62
     0
 92
       -2
340
14
 93
        0
 40
0.045
309
GRIDFORMAT_END
 95
       16
302
GRIDFORMAT
  1
GRIDFORMAT_BEGIN
 90
        0
 91
        1
 62
     0
 92
       -2
340
14
 93
        0
 40
0.045
309
GRIDFORMAT_END
 95
       32
302
GRIDFORMAT
  1
GRIDFORMAT_BEGIN
 90
        0
 91
        1
 62
     0
 92
       -2
340
14
 93
        0
 40
0.045
309
GRIDFORMAT_END
309
TABLEFORMAT_END
  1
CELLSTYLE_BEGIN
 90
        3
 91
        2
300
_DATA
309
CELLSTYLE_END
  0
ENDSEC
  0
EOF
