  0
SECTION
  2
HEADER
  9
$ACADVER
  1
AC1027
  9
$ACADMAINTVER
 70
   105
  9
$DWGCODEPAGE
  3
ANSI_1252
  9
$REQUIREDVERSIONS
160
                 0
  9
$LASTSAVEDBY
  1
matthias.ochs
  9
$INSBASE
 10
0.0
 20
0.0
 30
0.0
  9
$EXTMIN
 10
-167.6160174637391
 20
-90.97537725637244
 30
0.0
  9
$EXTMAX
 10
295.772952057306
 20
106.8809362414508
 30
0.0
  9
$LIMMIN
 10
0.0
 20
0.0
  9
$LIMMAX
 10
420.0
 20
297.0
  9
$ORTHOMODE
 70
     0
  9
$REGENMODE
 70
     1
  9
$FILLMODE
 70
     1
  9
$QTEXTMODE
 70
     0
  9
$MIRRTEXT
 70
     1
  9
$LTSCALE
 40
1.0
  9
$ATTMODE
 70
     1
  9
$TEXTSIZE
 40
3.5
  9
$TRACEWID
 40
1.0
  9
$TEXTSTYLE
  7
STANDARD
  9
$CLAYER
  8
1
  9
$CELTYPE
  6
BYLAYER
  9
$CECOLOR
 62
   256
  9
$CELTSCALE
 40
1.0
  9
$DISPSILH
 70
     0
  9
$DIMSCALE
 40
1.0
  9
$DIMASZ
 40
3.0
  9
$DIMEXO
 40
0.0625
  9
$DIMDLI
 40
0.38
  9
$DIMRND
 40
0.000000001
  9
$DIMDLE
 40
0.0
  9
$DIMEXE
 40
2.0
  9
$DIMTP
 40
0.0
  9
$DIMTM
 40
0.0
  9
$DIMTXT
 40
3.0
  9
$DIMCEN
 40
0.09
  9
$DIMTSZ
 40
0.0
  9
$DIMTOL
 70
     0
  9
$DIMLIM
 70
     0
  9
$DIMTIH
 70
     0
  9
$DIMTOH
 70
     1
  9
$DIMSE1
 70
     0
  9
$DIMSE2
 70
     0
  9
$DIMTAD
 70
     1
  9
$DIMZIN
 70
    12
  9
$DIMBLK
  1

  9
$DIMASO
 70
     1
  9
$DIMSHO
 70
     1
  9
$DIMPOST
  1

  9
$DIMAPOST
  1

  9
$DIMALT
 70
     0
  9
$DIMALTD
 70
     2
  9
$DIMALTF
 40
25.4
  9
$DIMLFAC
 40
1.0
  9
$DIMTOFL
 70
     0
  9
$DIMTVP
 40
0.0
  9
$DIMTIX
 70
     0
  9
$DIMSOXD
 70
     0
  9
$DIMSAH
 70
     1
  9
$DIMBLK1
  1

  9
$DIMBLK2
  1

  9
$DIMSTYLE
  2
Normal
  9
$DIMCLRD
 70
     0
  9
$DIMCLRE
 70
     0
  9
$DIMCLRT
 70
     0
  9
$DIMTFAC
 40
1.0
  9
$DIMGAP
 40
1.0
  9
$DIMJUST
 70
     0
  9
$DIMSD1
 70
     0
  9
$DIMSD2
 70
     0
  9
$DIMTOLJ
 70
     1
  9
$DIMTZIN
 70
    12
  9
$DIMALTZ
 70
     0
  9
$DIMALTTZ
 70
     0
  9
$DIMUPT
 70
     0
  9
$DIMDEC
 70
     2
  9
$DIMTDEC
 70
     3
  9
$DIMALTU
 70
     2
  9
$DIMALTTD
 70
     2
  9
$DIMTXSTY
  7
SLDTEXTSTYLE0
  9
$DIMAUNIT
 70
     0
  9
$DIMADEC
 70
     0
  9
$DIMALTRND
 40
0.0
  9
$DIMAZIN
 70
     0
  9
$DIMDSEP
 70
    46
  9
$DIMATFIT
 70
     3
  9
$DIMFRAC
 70
     0
  9
$DIMLDRBLK
  1

  9
$DIMLUNIT
 70
     2
  9
$DIMLWD
 70
    -2
  9
$DIMLWE
 70
    -2
  9
$DIMTMOVE
 70
     0
  9
$DIMFXL
 40
1.0
  9
$DIMFXLON
 70
     0
  9
$DIMJOGANG
 40
0.7853981633974483
  9
$DIMTFILL
 70
     0
  9
$DIMTFILLCLR
 70
     0
  9
$DIMARCSYM
 70
     0
  9
$DIMLTYPE
  6

  9
$DIMLTEX1
  6

  9
$DIMLTEX2
  6

  9
$DIMTXTDIRECTION
 70
     0
  9
$LUNITS
 70
     2
  9
$LUPREC
 70
     2
  9
$SKETCHINC
 40
1.0
  9
$FILLETRAD
 40
10.0
  9
$AUNITS
 70
     0
  9
$AUPREC
 70
     2
  9
$MENU
  1
.
  9
$ELEVATION
 40
0.0
  9
$PELEVATION
 40
0.0
  9
$THICKNESS
 40
0.0
  9
$LIMCHECK
 70
     0
  9
$CHAMFERA
 40
0.0
  9
$CHAMFERB
 40
0.0
  9
$CHAMFERC
 40
0.0
  9
$CHAMFERD
 40
0.0
  9
$SKPOLY
 70
     0
  9
$TDCREATE
 40
2457417.326036759
  9
$TDUCREATE
 40
2457417.284370093
  9
$TDUPDATE
 40
2458564.434341539
  9
$TDUUPDATE
 40
2458564.392674873
  9
$TDINDWG
 40
0.0168145139
  9
$TDUSRTIMER
 40
0.0011148958
  9
$USRTIMER
 70
     1
  9
$ANGBASE
 50
0.0
  9
$ANGDIR
 70
     0
  9
$PDMODE
 70
     0
  9
$PDSIZE
 40
-1.0
  9
$PLINEWID
 40
0.0
  9
$SPLFRAME
 70
     0
  9
$SPLINETYPE
 70
     6
  9
$SPLINESEGS
 70
     8
  9
$HANDSEED
  5
390
  9
$SURFTAB1
 70
     6
  9
$SURFTAB2
 70
     6
  9
$SURFTYPE
 70
     6
  9
$SURFU
 70
     6
  9
$SURFV
 70
     6
  9
$UCSBASE
  2

  9
$UCSNAME
  2

  9
$UCSORG
 10
0.0
 20
0.0
 30
0.0
  9
$UCSXDIR
 10
1.0
 20
0.0
 30
0.0
  9
$UCSYDIR
 10
0.0
 20
1.0
 30
0.0
  9
$UCSORTHOREF
  2

  9
$UCSORTHOVIEW
 70
     0
  9
$UCSORGTOP
 10
0.0
 20
0.0
 30
0.0
  9
$UCSORGBOTTOM
 10
0.0
 20
0.0
 30
0.0
  9
$UCSORGLEFT
 10
0.0
 20
0.0
 30
0.0
  9
$UCSORGRIGHT
 10
0.0
 20
0.0
 30
0.0
  9
$UCSORGFRONT
 10
0.0
 20
0.0
 30
0.0
  9
$UCSORGBACK
 10
0.0
 20
0.0
 30
0.0
  9
$PUCSBASE
  2

  9
$PUCSNAME
  2

  9
$PUCSORG
 10
0.0
 20
0.0
 30
0.0
  9
$PUCSXDIR
 10
1.0
 20
0.0
 30
0.0
  9
$PUCSYDIR
 10
0.0
 20
1.0
 30
0.0
  9
$PUCSORTHOREF
  2

  9
$PUCSORTHOVIEW
 70
     0
  9
$PUCSORGTOP
 10
0.0
 20
0.0
 30
0.0
  9
$PUCSORGBOTTOM
 10
0.0
 20
0.0
 30
0.0
  9
$PUCSORGLEFT
 10
0.0
 20
0.0
 30
0.0
  9
$PUCSORGRIGHT
 10
0.0
 20
0.0
 30
0.0
  9
$PUCSORGFRONT
 10
0.0
 20
0.0
 30
0.0
  9
$PUCSORGBACK
 10
0.0
 20
0.0
 30
0.0
  9
$USERI1
 70
     0
  9
$USERI2
 70
     0
  9
$USERI3
 70
     0
  9
$USERI4
 70
     0
  9
$USERI5
 70
     0
  9
$USERR1
 40
0.0
  9
$USERR2
 40
0.0
  9
$USERR3
 40
0.0
  9
$USERR4
 40
0.0
  9
$USERR5
 40
0.0
  9
$WORLDVIEW
 70
     1
  9
$SHADEDGE
 70
     3
  9
$SHADEDIF
 70
    70
  9
$TILEMODE
 70
     1
  9
$MAXACTVP
 70
    64
  9
$PINSBASE
 10
0.0
 20
0.0
 30
0.0
  9
$PLIMCHECK
 70
     0
  9
$PEXTMIN
 10
1.000000000000000E+20
 20
1.000000000000000E+20
 30
1.000000000000000E+20
  9
$PEXTMAX
 10
-1.000000000000000E+20
 20
-1.000000000000000E+20
 30
-1.000000000000000E+20
  9
$PLIMMIN
 10
0.0
 20
0.0
  9
$PLIMMAX
 10
0.0
 20
0.0
  9
$UNITMODE
 70
     0
  9
$VISRETAIN
 70
     1
  9
$PLINEGEN
 70
     0
  9
$PSLTSCALE
 70
     1
  9
$TREEDEPTH
 70
  3020
  9
$CMLSTYLE
  2
STANDARD
  9
$CMLJUST
 70
     0
  9
$CMLSCALE
 40
20.0
  9
$PROXYGRAPHICS
 70
     1
  9
$MEASUREMENT
 70
     1
  9
$CELWEIGHT
370
    -1
  9
$ENDCAPS
280
     0
  9
$JOINSTYLE
280
     0
  9
$LWDISPLAY
290
     0
  9
$INSUNITS
 70
     0
  9
$HYPERLINKBASE
  1

  9
$STYLESHEET
  1

  9
$XEDIT
290
     1
  9
$CEPSNTYPE
380
     0
  9
$PSTYLEMODE
290
     1
  9
$FINGERPRINTGUID
  2
{C686DD1A-E074-4748-97E3-44F6F30469F5}
  9
$VERSIONGUID
  2
{FAEB1C32-E019-11D5-929B-00C0DF256EC4}
  9
$EXTNAMES
290
     1
  9
$PSVPSCALE
 40
0.0
  9
$OLESTARTUP
290
     0
  9
$SORTENTS
280
   127
  9
$INDEXCTL
280
     0
  9
$HIDETEXT
280
     1
  9
$XCLIPFRAME
280
     2
  9
$HALOGAP
280
     0
  9
$OBSCOLOR
 70
   257
  9
$OBSLTYPE
280
     0
  9
$INTERSECTIONDISPLAY
280
     0
  9
$INTERSECTIONCOLOR
 70
   257
  9
$DIMASSOC
280
     2
  9
$PROJECTNAME
  1

  9
$CAMERADISPLAY
290
     0
  9
$LENSLENGTH
 40
50.0
  9
$CAMERAHEIGHT
 40
0.0
  9
$STEPSPERSEC
 40
2.0
  9
$STEPSIZE
 40
6.0
  9
$3DDWFPREC
 40
2.0
  9
$PSOLWIDTH
 40
0.25
  9
$PSOLHEIGHT
 40
4.0
  9
$LOFTANG1
 40
1.570796326794897
  9
$LOFTANG2
 40
1.570796326794897
  9
$LOFTMAG1
 40
0.0
  9
$LOFTMAG2
 40
0.0
  9
$LOFTPARAM
 70
     7
  9
$LOFTNORMALS
280
     1
  9
$LATITUDE
 40
37.795
  9
$LONGITUDE
 40
-122.394
  9
$NORTHDIRECTION
 40
0.0
  9
$TIMEZONE
 70
 -8000
  9
$LIGHTGLYPHDISPLAY
280
     1
  9
$TILEMODELIGHTSYNCH
280
     1
  9
$SOLIDHIST
280
     0
  9
$SHOWHIST
280
     1
  9
$DWFFRAME
280
     2
  9
$DGNFRAME
280
     2
  9
$REALWORLDSCALE
290
     1
  9
$INTERFERECOLOR
 62
   256
  9
$CSHADOW
280
     0
  9
$SHADOWPLANELOCATION
 40
0.0
  0
ENDSEC
  0
SECTION
  2
CLASSES
  0
CLASS
  1
ACDBDICTIONARYWDFLT
  2
AcDbDictionaryWithDefault
  3
ObjectDBX Classes
 90
        0
 91
        9
280
     0
281
     0
  0
CLASS
  1
VISUALSTYLE
  2
AcDbVisualStyle
  3
ObjectDBX Classes
 90
     4095
 91
        9
280
     0
281
     0
  0
CLASS
  1
MATERIAL
  2
AcDbMaterial
  3
ObjectDBX Classes
 90
     1153
 91
        9
280
     0
281
     0
  0
CLASS
  1
SCALE
  2
AcDbScale
  3
ObjectDBX Classes
 90
     1153
 91
        9
280
     0
281
     0
  0
CLASS
  1
SUN
  2
AcDbSun
  3
SCENEOE
 90
     1153
 91
        9
280
     0
281
     0
  0
CLASS
  1
XRECORD
  2
AcDbXrecord
  3
ObjectDBX Classes
 90
        0
 91
        1
280
     0
281
     0
  0
CLASS
  1
LWPOLYLINE
  2
AcDbPolyline
  3
ObjectDBX Classes
 90
        0
 91
        1
280
     0
281
     1
  0
CLASS
  1
HATCH
  2
AcDbHatch
  3
ObjectDBX Classes
 90
        0
 91
        1
280
     0
281
     1
  0
CLASS
  1
DICTIONARYVAR
  2
AcDbDictionaryVar
  3
ObjectDBX Classes
 90
        0
 91
        8
280
     0
281
     0
  0
CLASS
  1
ACDBPLACEHOLDER
  2
AcDbPlaceHolder
  3
ObjectDBX Classes
 90
        0
 91
        1
280
     0
281
     0
  0
CLASS
  1
LAYOUT
  2
AcDbLayout
  3
ObjectDBX Classes
 90
        0
 91
        1
280
     0
281
     0
  0
CLASS
  1
TABLESTYLE
  2
AcDbTableStyle
  3
ObjectDBX Classes
 90
     4095
 91
        9
280
     0
281
     0
  0
CLASS
  1
MLEADERSTYLE
  2
AcDbMLeaderStyle
  3
ACDB_MLEADERSTYLE_CLASS
 90
     4095
 91
        9
280
     0
281
     0
  0
CLASS
  1
CENTERLINE
  2
CFxDbCenterline
  3
CFxDbCenterline|Description: FxCenterline entity
 90
     3071
 91
        4
280
     0
281
     1
  0
CLASS
  1
CELLSTYLEMAP
  2
AcDbCellStyleMap
  3
ObjectDBX Classes
 90
     1152
 91
        5
280
     0
281
     0
  0
ENDSEC
  0
SECTION
  2
TABLES
  0
TABLE
  2
VPORT
  5
8
330
0
100
AcDbSymbolTable
 70
     1
  0
VPORT
  5
29
330
8
100
AcDbSymbolTableRecord
100
AcDbViewportTableRecord
  2
*ACTIVE
 70
     0
 10
0.0
 20
0.0
 11
1.0
 21
1.0
 12
-5.826166311007398
 22
-45.61036804069339
 13
0.0
 23
0.0
 14
10.0
 24
10.0
 15
10.0
 25
10.0
 16
0.0
 26
0.0
 36
1.0
 17
0.0
 27
0.0
 37
0.0
 40
251.5038778883206
 41
1.70021645021645
 42
50.0
 43
0.0
 44
0.0
 50
0.0
 51
0.0
 71
    16
 72
  2000
 73
     1
 74
     3
 75
     0
 76
     0
 77
     0
 78
     0
281
     0
 65
     1
110
0.0
120
0.0
130
0.0
111
1.0
121
0.0
131
0.0
112
0.0
122
1.0
132
0.0
 79
     0
146
0.0
348
1BE
 60
     3
 61
     5
292
     1
282
     1
141
0.0
142
0.0
 63
   256
361
2DF
  0
ENDTAB
  0
TABLE
  2
LTYPE
  5
5
330
0
100
AcDbSymbolTable
 70
     9
  0
LTYPE
  5
14
330
5
100
AcDbSymbolTableRecord
100
AcDbLinetypeTableRecord
  2
BYBLOCK
 70
     0
  3

 72
    65
 73
     0
 40
0.0
  0
LTYPE
  5
15
330
5
100
AcDbSymbolTableRecord
100
AcDbLinetypeTableRecord
  2
BYLAYER
 70
     0
  3

 72
    65
 73
     0
 40
0.0
  0
LTYPE
  5
16
330
5
100
AcDbSymbolTableRecord
100
AcDbLinetypeTableRecord
  2
CONTINUOUS
 70
     0
  3
Solid line
 72
    65
 73
     0
 40
0.0
  0
LTYPE
  5
6A
330
5
100
AcDbSymbolTableRecord
100
AcDbLinetypeTableRecord
  2
HIDDEN
 70
     0
  3
Hidden __ __ __ __ __ __ __ __ __ __ __ __ __ __
 72
    65
 73
     2
 40
1.905
 49
1.27
 74
     0
 49
-0.635
 74
     0
  0
LTYPE
  5
6B
330
5
100
AcDbSymbolTableRecord
100
AcDbLinetypeTableRecord
  2
PHANTOM
 70
     0
  3
Phantom ______  __  __  ______  __  __  ______
 72
    65
 73
     6
 40
12.7
 49
6.35
 74
     0
 49
-1.27
 74
     0
 49
1.27
 74
     0
 49
-1.27
 74
     0
 49
1.27
 74
     0
 49
-1.27
 74
     0
  0
LTYPE
  5
6C
330
5
100
AcDbSymbolTableRecord
100
AcDbLinetypeTableRecord
  2
CENTER
 70
     0
  3
Center ____ _ ____ _ ____ _ ____ _ ____ _ ____
 72
    65
 73
     4
 40
10.16
 49
6.35
 74
     0
 49
-1.27
 74
     0
 49
1.27
 74
     0
 49
-1.27
 74
     0
  0
LTYPE
  5
6D
330
5
100
AcDbSymbolTableRecord
100
AcDbLinetypeTableRecord
  2
CENTERX2
 70
     0
  3
Center (2x) ________  __  ________  __  _____
 72
    65
 73
     4
 40
20.32
 49
12.7
 74
     0
 49
-2.54
 74
     0
 49
2.54
 74
     0
 49
-2.54
 74
     0
  0
LTYPE
  5
6E
330
5
100
AcDbSymbolTableRecord
100
AcDbLinetypeTableRecord
  2
DOT2
 70
     0
  3
Dot (.5x) ........................................
 72
    65
 73
     2
 40
0.635
 49
0.0
 74
     0
 49
-0.635
 74
     0
  0
LTYPE
  5
21C
330
5
100
AcDbSymbolTableRecord
100
AcDbLinetypeTableRecord
  2
DASH
 70
     0
  3
DASH _ _ _ _ _
 72
    65
 73
     2
 40
0.75
 49
0.4
 74
     0
 49
-0.35
 74
     0
  0
LTYPE
  5
21D
330
5
100
AcDbSymbolTableRecord
100
AcDbLinetypeTableRecord
  2
LONGDASH_DASH
 70
     0
  3
LONGDASH_DASH __ . __ . __
 72
    65
 73
     4
 40
0.85
 49
0.4
 74
     0
 49
-0.2
 74
     0
 49
0.05
 74
     0
 49
-0.2
 74
     0
  0
LTYPE
  5
21E
330
5
100
AcDbSymbolTableRecord
100
AcDbLinetypeTableRecord
  2
LONGDASH_DASH_DASH
 70
     0
  3
LONGDASH_DASH_DASH __ . . __ . . __
 72
    65
 73
     6
 40
1.1
 49
0.4
 74
     0
 49
-0.2
 74
     0
 49
0.05
 74
     0
 49
-0.2
 74
     0
 49
0.05
 74
     0
 49
-0.2
 74
     0
  0
ENDTAB
  0
TABLE
  2
LAYER
  5
2
102
{ACAD_XDICTIONARY
360
23E
102
}
330
0
100
AcDbSymbolTable
 70
    16
  0
LAYER
  5
1CF
330
2
100
AcDbSymbolTableRecord
100
AcDbLayerTableRecord
  2
200
 70
     0
 62
     2
  6
CONTINUOUS
370
    50
390
22F
347
1CD
348
0
  0
LAYER
  5
1D2
330
2
100
AcDbSymbolTableRecord
100
AcDbLayerTableRecord
  2
Defpoints
 70
     0
 62
     7
  6
CONTINUOUS
290
     0
370
    -3
390
22F
347
1CD
348
0
  0
LAYER
  5
21F
330
2
100
AcDbSymbolTableRecord
100
AcDbLayerTableRecord
  2
0
 70
     0
 62
     1
  6
CONTINUOUS
370
    -3
390
22F
347
1CD
348
0
  0
LAYER
  5
220
330
2
100
AcDbSymbolTableRecord
100
AcDbLayerTableRecord
  2
1
 70
     0
 62
     4
  6
CONTINUOUS
370
    50
390
22F
347
1CD
348
0
  0
LAYER
  5
221
330
2
100
AcDbSymbolTableRecord
100
AcDbLayerTableRecord
  2
2
 70
     0
 62
     7
  6
CONTINUOUS
370
    25
390
22F
347
1CD
348
0
  0
LAYER
  5
222
330
2
100
AcDbSymbolTableRecord
100
AcDbLayerTableRecord
  2
3
 70
     0
 62
     1
  6
DASH
370
    35
390
22F
347
1CD
348
0
  0
LAYER
  5
223
330
2
100
AcDbSymbolTableRecord
100
AcDbLayerTableRecord
  2
4
 70
     0
 62
     2
  6
LONGDASH_DASH
370
    25
390
22F
347
1CD
348
0
  0
LAYER
  5
224
330
2
100
AcDbSymbolTableRecord
100
AcDbLayerTableRecord
  2
6
 70
     0
 62
     5
  6
CONTINUOUS
370
    -3
390
22F
347
1CD
348
0
  0
LAYER
  5
225
330
2
100
AcDbSymbolTableRecord
100
AcDbLayerTableRecord
  2
CUT
 70
     0
 62
     1
  6
CONTINUOUS
370
    25
390
22F
347
1CD
348
0
  0
LAYER
  5
226
330
2
100
AcDbSymbolTableRecord
100
AcDbLayerTableRecord
  2
NOCUT
 70
     0
 62
     7
  6
CONTINUOUS
370
    25
390
22F
347
1CD
348
0
  0
LAYER
  5
227
330
2
100
AcDbSymbolTableRecord
100
AcDbLayerTableRecord
  2
SK1
 70
     0
 62
     4
  6
CONTINUOUS
370
    50
390
22F
347
1CD
348
0
  0
LAYER
  5
228
330
2
100
AcDbSymbolTableRecord
100
AcDbLayerTableRecord
  2
SK2
 70
     0
 62
     7
  6
CONTINUOUS
370
    25
390
22F
347
1CD
348
0
  0
LAYER
  5
229
330
2
100
AcDbSymbolTableRecord
100
AcDbLayerTableRecord
  2
SK3
 70
     0
 62
     1
  6
DASH
370
    35
390
22F
347
1CD
348
0
  0
LAYER
  5
22A
330
2
100
AcDbSymbolTableRecord
100
AcDbLayerTableRecord
  2
SK4
 70
     0
 62
     2
  6
LONGDASH_DASH
370
    25
390
22F
347
1CD
348
0
  0
LAYER
  5
22B
330
2
100
AcDbSymbolTableRecord
100
AcDbLayerTableRecord
  2
SK6
 70
     0
 62
     5
  6
CONTINUOUS
370
    -3
390
22F
347
1CD
348
0
  0
LAYER
  5
22C
330
2
100
AcDbSymbolTableRecord
100
AcDbLayerTableRecord
  2
INFTOTAL
 70
     0
 62
     9
  6
CONTINUOUS
370
    18
390
22F
347
1CD
348
0
  0
ENDTAB
  0
TABLE
  2
STYLE
  5
3
330
0
100
AcDbSymbolTable
 70
     3
  0
STYLE
  5
11
330
3
100
AcDbSymbolTableRecord
100
AcDbTextStyleTableRecord
  2
STANDARD
 70
     0
 40
0.0
 41
1.0
 50
0.0
 71
     0
 42
3.5
  3
txt
  4

  0
STYLE
  5
154
330
3
100
AcDbSymbolTableRecord
100
AcDbTextStyleTableRecord
  2
SLDTEXTSTYLE0
 70
     0
 40
0.0
 41
0.605
 50
0.0
 71
     0
 42
3.5
  3
TXT
  4

  0
STYLE
  5
1CE
330
3
100
AcDbSymbolTableRecord
100
AcDbTextStyleTableRecord
  2
BMG_Text
 70
     0
 40
3.5
 41
1.0
 50
0.0
 71
     0
 42
3.5
  3
monos.ttf
  4

1001
ACAD
1000
Monospac821 BT
1071
       49
  0
ENDTAB
  0
TABLE
  2
VIEW
  5
6
330
0
100
AcDbSymbolTable
 70
     0
  0
ENDTAB
  0
TABLE
  2
UCS
  5
7
330
0
100
AcDbSymbolTable
 70
     0
  0
ENDTAB
  0
TABLE
  2
APPID
  5
9
330
0
100
AcDbSymbolTable
 70
     6
  0
APPID
  5
12
330
9
100
AcDbSymbolTableRecord
100
AcDbRegAppTableRecord
  2
ACAD
 70
     0
  0
APPID
  5
1EF
330
9
100
AcDbSymbolTableRecord
100
AcDbRegAppTableRecord
  2
ACAD_DSTYLE_DIM_LINETYPE
 70
     0
  0
APPID
  5
1F0
330
9
100
AcDbSymbolTableRecord
100
AcDbRegAppTableRecord
  2
ACAD_DSTYLE_DIM_EXT1_LINETYPE
 70
     0
  0
APPID
  5
1F1
330
9
100
AcDbSymbolTableRecord
100
AcDbRegAppTableRecord
  2
ACAD_DSTYLE_DIM_EXT2_LINETYPE
 70
     0
  0
APPID
  5
303
330
9
100
AcDbSymbolTableRecord
100
AcDbRegAppTableRecord
  2
FX_DIMP_FAV_VERSION
 70
     0
  0
APPID
  5
30D
330
9
100
AcDbSymbolTableRecord
100
AcDbRegAppTableRecord
  2
FX_DIMP_RECENT_VERSION
 70
     0
  0
ENDTAB
  0
TABLE
  2
DIMSTYLE
  5
A
330
0
100
AcDbSymbolTable
 70
     5
100
AcDbDimStyleTable
  0
DIMSTYLE
105
27
330
A
100
AcDbSymbolTableRecord
100
AcDbDimStyleTableRecord
  2
ISO-25
 70
     0
 41
2.5
 42
0.625
 43
3.75
 44
1.25
 73
     0
 74
     0
 77
     1
 78
     8
140
2.5
141
2.5
143
0.0393700787
147
0.625
171
     3
172
     1
178
     0
271
     2
272
     2
274
     3
283
     0
284
     8
340
11
  0
DIMSTYLE
105
155
102
{ACAD_REACTORS
330
153
330
173
330
17D
330
188
102
}
330
A
100
AcDbSymbolTableRecord
100
AcDbDimStyleTableRecord
  2
SLDDIMSTYLE0
 70
     0
 41
3.5
 44
0.0
 45
0.000000001
 73
     0
 74
     0
 77
     1
 78
    12
140
3.5
147
0.875
173
     1
178
     0
271
     2
272
     3
284
    12
340
154
  0
DIMSTYLE
105
160
102
{ACAD_REACTORS
330
15F
102
}
330
A
100
AcDbSymbolTableRecord
100
AcDbDimStyleTableRecord
  2
SLDDIMSTYLE1
 70
     0
 41
3.5
 44
0.0
 45
0.000000001
 73
     0
 74
     0
 77
     1
 78
    12
140
3.5
147
0.875
173
     1
178
     0
271
     2
272
     3
284
    12
340
154
  0
DIMSTYLE
105
169
102
{ACAD_REACTORS
330
168
102
}
330
A
100
AcDbSymbolTableRecord
100
AcDbDimStyleTableRecord
  2
SLDDIMSTYLE2
 70
     0
 41
3.5
 44
0.0
 45
0.000000001
 73
     0
 74
     0
 77
     1
 78
    12
140
3.5
147
0.875
173
     1
178
     0
271
     0
272
     3
284
    12
340
154
  0
DIMSTYLE
105
308
330
A
100
AcDbSymbolTableRecord
100
AcDbDimStyleTableRecord
  2
Normal
 70
     0
 41
3.0
 44
2.0
 45
0.000000001
 73
     0
 77
     1
 78
    12
140
3.0
147
1.0
173
     1
178
     0
271
     2
272
     3
284
    12
340
154
  0
ENDTAB
  0
TABLE
  2
BLOCK_RECORD
  5
1
330
0
100
AcDbSymbolTable
 70
     6
  0
BLOCK_RECORD
  5
1F
102
{ACAD_XDICTIONARY
360
304
102
}
330
1
100
AcDbSymbolTableRecord
100
AcDbBlockTableRecord
  2
*MODEL_SPACE
340
1B7
 70
     0
280
     1
281
     0
  0
BLOCK_RECORD
  5
1B
330
1
100
AcDbSymbolTableRecord
100
AcDbBlockTableRecord
  2
*PAPER_SPACE
340
1B8
 70
     0
280
     1
281
     0
  0
BLOCK_RECORD
  5
156
330
1
100
AcDbSymbolTableRecord
100
AcDbBlockTableRecord
  2
_D
340
0
 70
     0
280
     1
281
     0
  0
BLOCK_RECORD
  5
161
330
1
100
AcDbSymbolTableRecord
100
AcDbBlockTableRecord
  2
_D_1
340
0
 70
     0
280
     1
281
     0
  0
BLOCK_RECORD
  5
16A
330
1
100
AcDbSymbolTableRecord
100
AcDbBlockTableRecord
  2
_D_2
340
0
 70
     0
280
     1
281
     0
  0
BLOCK_RECORD
  5
174
330
1
100
AcDbSymbolTableRecord
100
AcDbBlockTableRecord
  2
_D_3
340
0
 70
     0
280
     1
281
     0
  0
BLOCK_RECORD
  5
17E
330
1
100
AcDbSymbolTableRecord
100
AcDbBlockTableRecord
  2
_D_4
340
0
 70
     0
280
     1
281
     0
  0
BLOCK_RECORD
  5
189
330
1
100
AcDbSymbolTableRecord
100
AcDbBlockTableRecord
  2
_D_5
340
0
 70
     0
280
     1
281
     0
  0
ENDTAB
  0
ENDSEC
  0
SECTION
  2
BLOCKS
  0
BLOCK
  5
20
330
1F
100
AcDbEntity
  8
0
100
AcDbBlockBegin
  2
*MODEL_SPACE
 70
     0
 10
0.0
 20
0.0
 30
0.0
  3
*MODEL_SPACE
  1

  0
ENDBLK
  5
21
330
1F
100
AcDbEntity
  8
0
100
AcDbBlockEnd
  0
BLOCK
  5
1C
330
1B
100
AcDbEntity
 67
     1
  8
0
100
AcDbBlockBegin
  2
*PAPER_SPACE
 70
     0
 10
0.0
 20
0.0
 30
0.0
  3
*PAPER_SPACE
  1

  0
ENDBLK
  5
1D
330
1B
100
AcDbEntity
 67
     1
  8
0
100
AcDbBlockEnd
  0
BLOCK
  5
157
330
156
100
AcDbEntity
  8
0
100
AcDbBlockBegin
  2
_D
 70
     0
 10
0.0
 20
0.0
 30
0.0
  3
_D
  1
_D
  0
LINE
  5
159
330
156
100
AcDbEntity
  8
2
  6
ByBlock
370
    -2
100
AcDbLine
 10
0.0
 20
-34.97168195229999
 30
0.0
 11
0.0
 21
-62.54562365519999
 31
0.0
  0
LINE
  5
15A
330
156
100
AcDbEntity
  8
2
  6
ByBlock
370
    -2
100
AcDbLine
 10
40.0
 20
-53.89905529599999
 30
0.0
 11
40.0
 21
-62.54562365519999
 31
0.0
  0
LINE
  5
15B
330
156
100
AcDbEntity
  8
2
  6
ByBlock
370
    -2
100
AcDbLine
 10
3.0
 20
-60.54562365519999
 30
0.0
 11
37.0
 21
-60.54562365519999
 31
0.0
  0
SOLID
  5
15C
330
156
100
AcDbEntity
  8
2
100
AcDbTrace
 10
3.0
 20
-60.04562365519999
 30
0.0
 11
3.0
 21
-61.04562365519999
 31
0.0
 12
0.0
 22
-60.54562365519999
 32
0.0
 13
0.0
 23
-60.54562365519999
 33
0.0
  0
SOLID
  5
15D
330
156
100
AcDbEntity
  8
2
100
AcDbTrace
 10
37.0
 20
-61.04562365519999
 30
0.0
 11
37.0
 21
-60.04562365519999
 31
0.0
 12
40.0
 22
-60.54562365519999
 32
0.0
 13
40.0
 23
-60.54562365519999
 33
0.0
  0
MTEXT
  5
15E
330
156
100
AcDbEntity
  8
2
100
AcDbMText
 10
20.0
 20
-57.73437365519999
 30
0.0
 40
3.5
 41
0.0
 46
0.0
 71
     5
 72
     1
  1
\A1;40
  7
BMG_Text
 73
     1
 44
1.0
  0
POINT
  5
1D3
330
156
100
AcDbEntity
  8
Defpoints
 62
     0
100
AcDbPoint
 10
0.0
 20
-34.90918195229999
 30
0.0
  0
POINT
  5
1D4
330
156
100
AcDbEntity
  8
Defpoints
 62
     0
100
AcDbPoint
 10
40.0
 20
-53.83655529599999
 30
0.0
  0
POINT
  5
1D5
330
156
100
AcDbEntity
  8
Defpoints
 62
     0
100
AcDbPoint
 10
40.0
 20
-60.54562365519999
 30
0.0
  0
ENDBLK
  5
158
330
156
100
AcDbEntity
  8
0
100
AcDbBlockEnd
  0
BLOCK
  5
162
330
161
100
AcDbEntity
  8
0
100
AcDbBlockBegin
  2
_D_1
 70
     0
 10
0.0
 20
0.0
 30
0.0
  3
_D_1
  1
_D_1
  0
LINE
  5
164
330
161
100
AcDbEntity
  8
2
  6
ByBlock
370
    -2
100
AcDbLine
 10
40.0
 20
-53.17906932599999
 30
0.0
 11
40.0
 21
-62.54562365519999
 31
0.0
  0
LINE
  5
165
330
161
100
AcDbEntity
  8
2
  6
ByBlock
370
    -2
100
AcDbLine
 10
242.4660487691
 20
-44.56249999989999
 30
0.0
 11
242.4660487691
 21
-62.54562365519999
 31
0.0
  0
LINE
  5
166
330
161
100
AcDbEntity
  8
2
  6
ByBlock
370
    -2
100
AcDbLine
 10
43.0
 20
-60.54562365519999
 30
0.0
 11
239.4660487691
 21
-60.54562365519999
 31
0.0
  0
SOLID
  5
167
330
161
100
AcDbEntity
  8
2
100
AcDbTrace
 10
43.0
 20
-60.04562365519999
 30
0.0
 11
43.0
 21
-61.04562365519999
 31
0.0
 12
40.0
 22
-60.54562365519999
 32
0.0
 13
40.0
 23
-60.54562365519999
 33
0.0
  0
SOLID
  5
1D6
330
161
100
AcDbEntity
  8
2
100
AcDbTrace
 10
239.4660487691
 20
-61.04562365519999
 30
0.0
 11
239.4660487691
 21
-60.04562365519999
 31
0.0
 12
242.4660487691
 22
-60.54562365519999
 32
0.0
 13
242.4660487691
 23
-60.54562365519999
 33
0.0
  0
MTEXT
  5
1D7
330
161
100
AcDbEntity
  8
2
100
AcDbMText
 10
125.5291820435676
 20
-57.68712365519999
 30
0.0
 40
3.5
 41
0.0
 46
0.0
 71
     5
 72
     1
  1
\A1;Ausdrehtiefe 320
  7
BMG_Text
 73
     1
 44
1.0
  0
POINT
  5
1D8
330
161
100
AcDbEntity
  8
Defpoints
 62
     0
100
AcDbPoint
 10
40.0
 20
-53.11656932599999
 30
0.0
  0
POINT
  5
1D9
330
161
100
AcDbEntity
  8
Defpoints
 62
     0
100
AcDbPoint
 10
242.4660487691
 20
-44.49999999989999
 30
0.0
  0
POINT
  5
1DA
330
161
100
AcDbEntity
  8
Defpoints
 62
     0
100
AcDbPoint
 10
242.4660487691
 20
-60.54562365519999
 30
0.0
  0
ENDBLK
  5
163
330
161
100
AcDbEntity
  8
0
100
AcDbBlockEnd
  0
BLOCK
  5
16B
330
16A
100
AcDbEntity
  8
0
100
AcDbBlockBegin
  2
_D_2
 70
     0
 10
0.0
 20
0.0
 30
0.0
  3
_D_2
  1
_D_2
  0
LINE
  5
16D
330
16A
100
AcDbEntity
  8
2
  6
ByBlock
370
    -2
100
AcDbLine
 10
242.9660487691
 20
44.06250000010001
 30
0.0
 11
242.9660487691
 21
60.16181848320001
 31
0.0
  0
LINE
  5
16E
330
16A
100
AcDbEntity
  8
2
  6
ByBlock
370
    -2
100
AcDbLine
 10
0.0
 20
35.00331804770001
 30
0.0
 11
0.0
 21
60.16181848320001
 31
0.0
  0
LINE
  5
16F
330
16A
100
AcDbEntity
  8
2
  6
ByBlock
370
    -2
100
AcDbLine
 10
239.9660487691
 20
58.16181848320001
 30
0.0
 11
3.0
 21
58.16181848320001
 31
0.0
  0
SOLID
  5
170
330
16A
100
AcDbEntity
  8
2
100
AcDbTrace
 10
239.9660487691
 20
57.66181848320001
 30
0.0
 11
239.9660487691
 21
58.66181848320001
 31
0.0
 12
242.9660487691
 22
58.16181848320001
 32
0.0
 13
242.9660487691
 23
58.16181848320001
 33
0.0
  0
SOLID
  5
171
330
16A
100
AcDbEntity
  8
2
100
AcDbTrace
 10
3.0
 20
58.66181848320001
 30
0.0
 11
3.0
 21
57.66181848320001
 31
0.0
 12
0.0
 22
58.16181848320001
 32
0.0
 13
0.0
 23
58.16181848320001
 33
0.0
  0
MTEXT
  5
172
330
16A
100
AcDbEntity
  8
2
100
AcDbMText
 10
121.4830243845
 20
60.97306848320001
 30
0.0
 40
3.5
 41
0.0
 46
0.0
 71
     5
 72
     1
  1
\A1;243
  7
BMG_Text
 73
     1
 44
1.0
  0
POINT
  5
1DB
330
16A
100
AcDbEntity
  8
Defpoints
 62
     0
100
AcDbPoint
 10
242.9660487691
 20
44.00000000010001
 30
0.0
  0
POINT
  5
1DC
330
16A
100
AcDbEntity
  8
Defpoints
 62
     0
100
AcDbPoint
 10
0.0
 20
34.94081804770001
 30
0.0
  0
POINT
  5
1DD
330
16A
100
AcDbEntity
  8
Defpoints
 62
     0
100
AcDbPoint
 10
0.0
 20
58.16181848320001
 30
0.0
  0
ENDBLK
  5
16C
330
16A
100
AcDbEntity
  8
0
100
AcDbBlockEnd
  0
BLOCK
  5
175
330
174
100
AcDbEntity
  8
0
100
AcDbBlockBegin
  2
_D_3
 70
     0
 10
0.0
 20
0.0
 30
0.0
  3
_D_3
  1
_D_3
  0
LINE
  5
177
330
174
100
AcDbEntity
  8
SK2
  6
ByBlock
370
    -2
100
AcDbLine
 10
-0.0625
 20
34.94081804770001
 30
0.0
 11
-114.0
 21
34.94081804770001
 31
0.0
  0
LINE
  5
178
330
174
100
AcDbEntity
  8
SK2
  6
ByBlock
370
    -2
100
AcDbLine
 10
-0.0625
 20
-34.90918195229999
 30
0.0
 11
-114.0
 21
-34.90918195229998
 31
0.0
  0
LINE
  5
179
330
174
100
AcDbEntity
  8
SK2
  6
ByBlock
370
    -2
100
AcDbLine
 10
-112.0
 20
31.94081804770001
 30
0.0
 11
-112.0
 21
-31.90918195229998
 31
0.0
  0
SOLID
  5
17A
330
174
100
AcDbEntity
  8
SK2
100
AcDbTrace
 10
-111.5
 20
31.94081804770001
 30
0.0
 11
-112.5
 21
31.94081804770001
 31
0.0
 12
-112.0
 22
34.94081804770001
 32
0.0
 13
-112.0
 23
34.94081804770001
 33
0.0
  0
SOLID
  5
17B
330
174
100
AcDbEntity
  8
SK2
100
AcDbTrace
 10
-112.5
 20
-31.90918195229998
 30
0.0
 11
-111.5
 21
-31.90918195229998
 31
0.0
 12
-112.0
 22
-34.90918195229998
 32
0.0
 13
-112.0
 23
-34.90918195229998
 33
0.0
  0
MTEXT
  5
17C
330
174
100
AcDbEntity
  8
SK2
100
AcDbMText
 10
-114.834
 20
6.740008306740179
 30
0.0
 40
3.5
 41
0.0
 46
0.0
 71
     5
 72
     1
  1
\A1;ø69.85
  7
BMG_Text
 11
0.0
 21
1.0
 31
0.0
 73
     1
 44
1.0
  0
POINT
  5
1DE
330
174
100
AcDbEntity
  8
Defpoints
 62
     0
100
AcDbPoint
 10
0.0
 20
34.94081804770001
 30
0.0
  0
POINT
  5
1DF
330
174
100
AcDbEntity
  8
Defpoints
 62
     0
100
AcDbPoint
 10
0.0
 20
-34.90918195229999
 30
0.0
  0
POINT
  5
1E0
330
174
100
AcDbEntity
  8
Defpoints
 62
     0
100
AcDbPoint
 10
-112.0
 20
-34.90918195229998
 30
0.0
  0
ENDBLK
  5
176
330
174
100
AcDbEntity
  8
0
100
AcDbBlockEnd
  0
BLOCK
  5
17F
330
17E
100
AcDbEntity
  8
0
100
AcDbBlockBegin
  2
_D_4
 70
     0
 10
0.0
 20
0.0
 30
0.0
  3
_D_4
  1
_D_4
  0
LINE
  5
181
330
17E
100
AcDbEntity
  8
2
  6
ByBlock
370
    -2
100
AcDbLine
 10
243.0285487693
 20
23.00000000010001
 30
0.0
 11
258.8101723729
 21
23.00000000010001
 31
0.0
  0
LINE
  5
182
330
17E
100
AcDbEntity
  8
2
  6
ByBlock
370
    -2
100
AcDbLine
 10
243.0285487693
 20
-22.99999999989999
 30
0.0
 11
258.8101723729
 21
-22.99999999989999
 31
0.0
  0
LINE
  5
183
330
17E
100
AcDbEntity
  8
2
  6
ByBlock
370
    -2
100
AcDbLine
 10
256.8101723729
 20
20.00000000010001
 30
0.0
 11
256.8101723729
 21
-19.99999999989999
 31
0.0
  0
SOLID
  5
184
330
17E
100
AcDbEntity
  8
2
100
AcDbTrace
 10
257.3101723729
 20
20.00000000010001
 30
0.0
 11
256.3101723729
 21
20.00000000010001
 31
0.0
 12
256.8101723729
 22
23.00000000010001
 32
0.0
 13
256.8101723729
 23
23.00000000010001
 33
0.0
  0
SOLID
  5
185
330
17E
100
AcDbEntity
  8
2
100
AcDbTrace
 10
256.3101723729
 20
-19.99999999989999
 30
0.0
 11
257.3101723729
 21
-19.99999999989999
 31
0.0
 12
256.8101723729
 22
-22.99999999989999
 32
0.0
 13
256.8101723729
 23
-22.99999999989999
 33
0.0
  0
MTEXT
  5
186
330
17E
100
AcDbEntity
  8
2
100
AcDbMText
 10
253.9481723729
 20
0.0000000001000089
 30
0.0
 40
3.5
 41
0.0
 46
0.0
 71
     5
 72
     1
  1
\A1;%%c46
  7
BMG_Text
 11
0.0
 21
1.0
 31
0.0
 73
     1
 44
1.0
  0
POINT
  5
187
330
17E
100
AcDbEntity
  8
Defpoints
 62
     0
100
AcDbPoint
 10
242.9660487693
 20
23.00000000010001
 30
0.0
  0
POINT
  5
1E1
330
17E
100
AcDbEntity
  8
Defpoints
 62
     0
100
AcDbPoint
 10
242.9660487693
 20
-22.99999999989999
 30
0.0
  0
POINT
  5
1E2
330
17E
100
AcDbEntity
  8
Defpoints
 62
     0
100
AcDbPoint
 10
256.8101723729
 20
-22.99999999989999
 30
0.0
  0
ENDBLK
  5
180
330
17E
100
AcDbEntity
  8
0
100
AcDbBlockEnd
  0
BLOCK
  5
18A
330
189
100
AcDbEntity
  8
0
100
AcDbBlockBegin
  2
_D_5
 70
     0
 10
0.0
 20
0.0
 30
0.0
  3
_D_5
  1
_D_5
  0
LINE
  5
18C
330
189
100
AcDbEntity
  8
2
  6
ByBlock
370
    -2
100
AcDbLine
 10
240.7398736344
 20
45.00000000000001
 30
0.0
 11
267.4980363557
 21
45.00000000000001
 31
0.0
  0
LINE
  5
18D
330
189
100
AcDbEntity
  8
2
  6
ByBlock
370
    -2
100
AcDbLine
 10
240.7398736344
 20
-44.99999999999999
 30
0.0
 11
267.4980363557
 21
-44.99999999999999
 31
0.0
  0
LINE
  5
18E
330
189
100
AcDbEntity
  8
2
  6
ByBlock
370
    -2
100
AcDbLine
 10
265.4980363557
 20
42.00000000000001
 30
0.0
 11
265.4980363557
 21
-41.99999999999999
 31
0.0
  0
SOLID
  5
18F
330
189
100
AcDbEntity
  8
2
100
AcDbTrace
 10
265.9980363557
 20
42.00000000000001
 30
0.0
 11
264.9980363557
 21
42.00000000000001
 31
0.0
 12
265.4980363557
 22
45.00000000000001
 32
0.0
 13
265.4980363557
 23
45.00000000000001
 33
0.0
  0
SOLID
  5
190
330
189
100
AcDbEntity
  8
2
100
AcDbTrace
 10
264.9980363557
 20
-41.99999999999999
 30
0.0
 11
265.9980363557
 21
-41.99999999999999
 31
0.0
 12
265.4980363557
 22
-44.99999999999999
 32
0.0
 13
265.4980363557
 23
-44.99999999999999
 33
0.0
  0
MTEXT
  5
191
330
189
100
AcDbEntity
  8
2
100
AcDbMText
 10
262.6360363557
 20
0.0000000000000089
 30
0.0
 40
3.5
 41
0.0
 46
0.0
 71
     5
 72
     1
  1
\A1;%%c90
  7
BMG_Text
 11
0.0
 21
1.0
 31
0.0
 73
     1
 44
1.0
  0
POINT
  5
192
330
189
100
AcDbEntity
  8
Defpoints
 62
     0
100
AcDbPoint
 10
240.6773736344
 20
45.00000000000001
 30
0.0
  0
POINT
  5
1E3
330
189
100
AcDbEntity
  8
Defpoints
 62
     0
100
AcDbPoint
 10
240.6773736344
 20
-44.99999999999999
 30
0.0
  0
POINT
  5
1E4
330
189
100
AcDbEntity
  8
Defpoints
 62
     0
100
AcDbPoint
 10
265.4980363557
 20
-44.99999999999999
 30
0.0
  0
ENDBLK
  5
18B
330
189
100
AcDbEntity
  8
0
100
AcDbBlockEnd
  0
ENDSEC
  0
SECTION
  2
ENTITIES
  0
LINE
  5
75
330
1F
100
AcDbEntity
  8
1
100
AcDbLine
 10
1.9660487694
 20
-46.75933730199999
 30
0.0
 11
1.4660487694
 21
-46.25933730199999
 31
0.0
  0
LINE
  5
76
330
1F
100
AcDbEntity
  8
1
100
AcDbLine
 10
40.2160487694
 20
-44.99999999999999
 30
0.0
 11
66.9895423037
 21
-44.99999999999999
 31
0.0
  0
LINE
  5
77
330
1F
100
AcDbEntity
  8
1
100
AcDbLine
 10
240.6773736344
 20
45.00000000000001
 30
0.0
 11
66.9895423037
 21
45.00000000000001
 31
0.0
  0
LINE
  5
78
330
1F
100
AcDbEntity
  8
1
100
AcDbLine
 10
240.6773736344
 20
-44.99999999999999
 30
0.0
 11
240.9660487691
 21
-44.49999999989999
 31
0.0
  0
LINE
  5
79
330
1F
100
AcDbEntity
  8
1
100
AcDbLine
 10
240.9660487691
 20
44.50000000010001
 30
0.0
 11
240.6773736344
 21
45.00000000000001
 31
0.0
  0
LINE
  5
7A
330
1F
100
AcDbEntity
  8
1
100
AcDbLine
 10
40.2160487694
 20
45.00000000000001
 30
0.0
 11
35.5518352074
 21
40.33578643800001
 31
0.0
  0
LINE
  5
7B
330
1F
100
AcDbEntity
  8
1
100
AcDbLine
 10
35.5518352074
 20
-40.33578643799999
 30
0.0
 11
40.2160487694
 21
-44.99999999999999
 31
0.0
  0
LINE
  5
7C
330
1F
100
AcDbEntity
  8
1
100
AcDbLine
 10
240.9660487691
 20
-44.49999999989999
 30
0.0
 11
242.4660487691
 21
-44.49999999989999
 31
0.0
  0
LINE
  5
7D
330
1F
100
AcDbEntity
  8
1
100
AcDbLine
 10
242.4660487691
 20
44.50000000010001
 30
0.0
 11
240.9660487691
 21
44.50000000010001
 31
0.0
  0
LINE
  5
7E
330
1F
100
AcDbEntity
  8
1
100
AcDbLine
 10
242.4660487691
 20
-44.49999999989999
 30
0.0
 11
242.9660487691
 21
-43.99999999989999
 31
0.0
  0
LINE
  5
7F
330
1F
100
AcDbEntity
  8
1
100
AcDbLine
 10
242.9660487691
 20
44.00000000010001
 30
0.0
 11
242.4660487691
 21
44.50000000010001
 31
0.0
  0
LINE
  5
80
330
1F
100
AcDbEntity
  8
1
100
AcDbLine
 10
19.0160487695
 20
-39.74999999989999
 30
0.0
 11
34.1376216445
 21
-39.74999999989999
 31
0.0
  0
LINE
  5
81
330
1F
100
AcDbEntity
  8
1
100
AcDbLine
 10
34.1376216445
 20
39.74999999980001
 30
0.0
 11
19.0160487695
 21
39.74999999980001
 31
0.0
  0
LINE
  5
82
330
1F
100
AcDbEntity
  8
SK1
100
AcDbLine
 10
0.0
 20
34.94081804770001
 30
0.0
 11
-99.7086417399
 21
20.39997446050001
 31
0.0
  0
LINE
  5
83
330
1F
100
AcDbEntity
  8
SK1
100
AcDbLine
 10
-99.7086417399
 20
-20.38912221729999
 30
0.0
 11
0.0
 21
-34.90918195229999
 31
0.0
  0
LINE
  5
84
330
1F
100
AcDbEntity
  8
1
100
AcDbLine
 10
0.0
 20
-34.90918195229999
 30
0.0
 11
0.5089390461000001
 21
-34.67184610629999
 31
0.0
  0
LINE
  5
85
330
1F
100
AcDbEntity
  8
1
100
AcDbLine
 10
0.5089390461000001
 20
34.68269834950001
 30
0.0
 11
0.0
 21
34.94081804770001
 31
0.0
  0
LINE
  5
86
330
1F
100
AcDbEntity
  8
1
100
AcDbLine
 10
0.7202481761000001
 20
-34.62500000019999
 30
0.0
 11
1.2660487691
 21
-34.62500000019999
 31
0.0
  0
LINE
  5
87
330
1F
100
AcDbEntity
  8
1
100
AcDbLine
 10
1.2660487691
 20
34.63585224350001
 30
0.0
 11
0.7202481761000001
 21
34.63585224350001
 31
0.0
  0
LINE
  5
88
330
1F
100
AcDbEntity
  8
1
100
AcDbLine
 10
1.9660487694
 20
29.85000000000001
 30
0.0
 11
1.9660487694
 21
-46.75933730199999
 31
0.0
  0
LINE
  5
89
330
1F
100
AcDbEntity
  8
1
100
AcDbLine
 10
1.4660487694
 20
-46.25933730199999
 30
0.0
 11
1.4660487694
 21
29.85000000000001
 31
0.0
  0
LINE
  5
8A
330
1F
100
AcDbEntity
  8
1
100
AcDbLine
 10
1.4660487694
 20
29.85000000000001
 30
0.0
 11
1.9660487694
 21
29.85000000000001
 31
0.0
  0
LINE
  5
8B
330
1F
100
AcDbEntity
  8
1
100
AcDbLine
 10
7.8328872614
 20
29.85000000000001
 30
0.0
 11
1.9660487694
 21
29.85000000000001
 31
0.0
  0
LINE
  5
8C
330
1F
100
AcDbEntity
  8
1
100
AcDbLine
 10
7.8328872614
 20
-46.75933730199999
 30
0.0
 11
7.8328872614
 21
29.85000000000001
 31
0.0
  0
LINE
  5
8D
330
1F
100
AcDbEntity
  8
1
100
AcDbLine
 10
1.9660487694
 20
-46.75933730199999
 30
0.0
 11
7.8328872614
 21
-46.75933730199999
 31
0.0
  0
LINE
  5
8E
330
1F
100
AcDbEntity
  8
1
100
AcDbLine
 10
9.1410487694
 20
29.85000000000001
 30
0.0
 11
7.8328872614
 21
29.85000000000001
 31
0.0
  0
LINE
  5
8F
330
1F
100
AcDbEntity
  8
1
100
AcDbLine
 10
9.1410487694
 20
-44.64677547899999
 30
0.0
 11
9.1410487694
 21
29.85000000000001
 31
0.0
  0
LINE
  5
90
330
1F
100
AcDbEntity
  8
1
100
AcDbLine
 10
8.4398066754
 20
-45.90933729999999
 30
0.0
 11
8.4871188404
 21
-45.82423498999999
 31
0.0
  0
LINE
  5
91
330
1F
100
AcDbEntity
  8
1
100
AcDbLine
 10
8.4871188404
 20
-45.82423498999999
 30
0.0
 11
9.1410487694
 21
-44.64677547899999
 31
0.0
  0
LINE
  5
92
330
1F
100
AcDbEntity
  8
1
100
AcDbLine
 10
7.8328872614
 20
-46.75933730199999
 30
0.0
 11
8.4398066754
 21
-45.90933729999999
 31
0.0
  0
LINE
  5
93
330
1F
100
AcDbEntity
  8
1
100
AcDbLine
 10
18.5160487694
 20
29.85000000000001
 30
0.0
 11
14.2992102764
 21
29.85000000000001
 31
0.0
  0
LINE
  5
94
330
1F
100
AcDbEntity
  8
1
100
AcDbLine
 10
18.5160487694
 20
-46.75933730199999
 30
0.0
 11
18.5160487694
 21
29.85000000000001
 31
0.0
  0
LINE
  5
95
330
1F
100
AcDbEntity
  8
1
100
AcDbLine
 10
14.2992102764
 20
-46.75933730199999
 30
0.0
 11
18.5160487694
 21
-46.75933730199999
 31
0.0
  0
LINE
  5
96
330
1F
100
AcDbEntity
  8
1
100
AcDbLine
 10
14.2992102764
 20
29.85000000000001
 30
0.0
 11
14.2992102764
 21
-46.75933730199999
 31
0.0
  0
LINE
  5
97
330
1F
100
AcDbEntity
  8
1
100
AcDbLine
 10
12.9910487694
 20
29.85000000000001
 30
0.0
 11
12.9910487694
 21
-44.64677547899999
 31
0.0
  0
LINE
  5
98
330
1F
100
AcDbEntity
  8
1
100
AcDbLine
 10
14.2992102764
 20
29.85000000000001
 30
0.0
 11
12.9910487694
 21
29.85000000000001
 31
0.0
  0
LINE
  5
99
330
1F
100
AcDbEntity
  8
1
100
AcDbLine
 10
13.6922908624
 20
-45.90933729999999
 30
0.0
 11
14.2992102764
 21
-46.75933730199999
 31
0.0
  0
LINE
  5
9A
330
1F
100
AcDbEntity
  8
1
100
AcDbLine
 10
12.9910487694
 20
-44.64677547899999
 30
0.0
 11
13.6922908624
 21
-45.90933729999999
 31
0.0
  0
LINE
  5
9B
330
1F
100
AcDbEntity
  8
1
100
AcDbLine
 10
18.5160487694
 20
29.85000000000001
 30
0.0
 11
19.0160487694
 21
29.85000000000001
 31
0.0
  0
LINE
  5
9C
330
1F
100
AcDbEntity
  8
1
100
AcDbLine
 10
19.0160487694
 20
29.85000000000001
 30
0.0
 11
19.0160487694
 21
-46.35575399199999
 31
0.0
  0
LINE
  5
9D
330
1F
100
AcDbEntity
  8
1
100
AcDbLine
 10
18.5160487694
 20
-46.75933730199999
 30
0.0
 11
19.0160487694
 21
-46.35575399199999
 31
0.0
  0
LINE
  5
9E
330
1F
100
AcDbEntity
  8
1
100
AcDbLine
 10
9.1410487694
 20
29.85000000000001
 30
0.0
 11
9.6410487694
 21
29.85000000000001
 31
0.0
  0
LINE
  5
9F
330
1F
100
AcDbEntity
  8
1
100
AcDbLine
 10
12.4910487694
 20
29.85000000000001
 30
0.0
 11
12.9910487694
 21
29.85000000000001
 31
0.0
  0
LINE
  5
A0
330
1F
100
AcDbEntity
  8
1
100
AcDbLine
 10
9.6410487694
 20
29.85000000000001
 30
0.0
 11
12.4910487694
 21
29.85000000000001
 31
0.0
  0
LINE
  5
A1
330
1F
100
AcDbEntity
  8
1
100
AcDbLine
 10
12.4910487693
 20
-43.64776626659999
 30
0.0
 11
9.6410487691
 21
-43.64776626659999
 31
0.0
  0
LINE
  5
A2
330
1F
100
AcDbEntity
  8
1
100
AcDbLine
 10
40.2160487694
 20
-44.99999999999999
 30
0.0
 11
40.2160487694
 21
45.00000000000001
 31
0.0
  0
LINE
  5
A3
330
1F
100
AcDbEntity
  8
1
100
AcDbLine
 10
240.6773736344
 20
45.00000000000001
 30
0.0
 11
240.6773736344
 21
-44.99999999999999
 31
0.0
  0
LINE
  5
A4
330
1F
100
AcDbEntity
  8
1
100
AcDbLine
 10
240.9660487691
 20
-44.49999999989999
 30
0.0
 11
240.9660487691
 21
44.50000000010001
 31
0.0
  0
LINE
  5
A5
330
1F
100
AcDbEntity
  8
1
100
AcDbLine
 10
242.4660487691
 20
-44.49999999989999
 30
0.0
 11
242.4660487691
 21
44.50000000010001
 31
0.0
  0
LINE
  5
A6
330
1F
100
AcDbEntity
  8
1
100
AcDbLine
 10
242.9660487691
 20
-43.99999999989999
 30
0.0
 11
242.9660487691
 21
44.00000000010001
 31
0.0
  0
LINE
  5
A7
330
1F
100
AcDbEntity
  8
1
100
AcDbLine
 10
0.0
 20
34.94081804770001
 30
0.0
 11
0.0
 21
-34.90918195229999
 31
0.0
  0
LINE
  5
A8
330
1F
100
AcDbEntity
  8
1
100
AcDbLine
 10
1.9660487694
 20
38.51107795200001
 30
0.0
 11
1.4660487694
 21
37.87648511900001
 31
0.0
  0
LINE
  5
A9
330
1F
100
AcDbEntity
  8
1
100
AcDbLine
 10
1.9660487694
 20
38.51107795200001
 30
0.0
 11
7.8328872614
 21
38.51107795200001
 31
0.0
  0
LINE
  5
AA
330
1F
100
AcDbEntity
  8
1
100
AcDbLine
 10
7.8328872614
 20
38.51107795200001
 30
0.0
 11
9.1410487694
 21
35.60104718500001
 31
0.0
  0
LINE
  5
AB
330
1F
100
AcDbEntity
  8
1
100
AcDbLine
 10
12.4910487698
 20
34.33988206160001
 30
0.0
 11
9.6410487698
 21
34.33988206160001
 31
0.0
  0
LINE
  5
AC
330
1F
100
AcDbEntity
  8
1
100
AcDbLine
 10
12.9910487694
 20
35.60104718500001
 30
0.0
 11
12.9910487694
 21
34.99967857020001
 31
0.0
  0
LINE
  5
AD
330
1F
100
AcDbEntity
  8
1
100
AcDbLine
 10
12.9910487694
 20
35.60104718500001
 30
0.0
 11
13.0793483194
 21
35.80040259800001
 31
0.0
  0
LINE
  5
AE
330
1F
100
AcDbEntity
  8
1
100
AcDbLine
 10
13.0793483194
 20
35.80040259800001
 30
0.0
 11
14.2992102764
 21
38.51107795200001
 31
0.0
  0
LINE
  5
AF
330
1F
100
AcDbEntity
  8
1
100
AcDbLine
 10
14.2992102764
 20
38.51107795200001
 30
0.0
 11
18.5160487694
 21
38.51107795200001
 31
0.0
  0
LINE
  5
B0
330
1F
100
AcDbEntity
  8
1
100
AcDbLine
 10
19.0160487694
 20
37.87648511900001
 30
0.0
 11
18.5160487694
 21
38.51107795200001
 31
0.0
  0
LINE
  5
B1
330
1F
100
AcDbEntity
  8
1
100
AcDbLine
 10
9.1410487694
 20
34.99967857060001
 30
0.0
 11
9.1410487694
 21
35.60104718500001
 31
0.0
  0
LINE
  5
B2
330
1F
100
AcDbEntity
  8
1
100
AcDbLine
 10
19.0160487694
 20
37.87648511900001
 30
0.0
 11
19.0160487694
 21
29.85000000000001
 31
0.0
  0
LINE
  5
B3
330
1F
100
AcDbEntity
  8
1
100
AcDbLine
 10
1.4660487694
 20
37.87648511900001
 30
0.0
 11
1.4660487694
 21
29.85000000000001
 31
0.0
  0
LINE
  5
B4
330
1F
100
AcDbEntity
  8
1
100
AcDbLine
 10
12.4910487691
 20
43.64776626540001
 30
0.0
 11
9.6410487691
 21
43.64776626540001
 31
0.0
  0
LINE
  5
B5
330
1F
100
AcDbEntity
  8
1
100
AcDbLine
 10
14.2992102764
 20
46.75933730200001
 30
0.0
 11
14.2992102764
 21
38.51107795200001
 31
0.0
  0
LINE
  5
B6
330
1F
100
AcDbEntity
  8
1
100
AcDbLine
 10
18.5160487694
 20
46.75933730200001
 30
0.0
 11
14.2992102764
 21
46.75933730200001
 31
0.0
  0
LINE
  5
B7
330
1F
100
AcDbEntity
  8
1
100
AcDbLine
 10
18.5160487694
 20
38.51107795200001
 30
0.0
 11
18.5160487694
 21
46.75933730200001
 31
0.0
  0
LINE
  5
B8
330
1F
100
AcDbEntity
  8
1
100
AcDbLine
 10
1.9660487694
 20
46.75933730200001
 30
0.0
 11
1.9660487694
 21
38.51107795200001
 31
0.0
  0
LINE
  5
B9
330
1F
100
AcDbEntity
  8
1
100
AcDbLine
 10
1.4660487694
 20
37.87648511900001
 30
0.0
 11
1.4660487694
 21
46.25933730200001
 31
0.0
  0
LINE
  5
BA
330
1F
100
AcDbEntity
  8
1
100
AcDbLine
 10
12.9910487694
 20
44.64677547900001
 30
0.0
 11
13.6922908624
 21
45.90933730000001
 31
0.0
  0
LINE
  5
BB
330
1F
100
AcDbEntity
  8
1
100
AcDbLine
 10
14.2992102764
 20
46.75933730200001
 30
0.0
 11
13.6922908624
 21
45.90933730000001
 31
0.0
  0
LINE
  5
BC
330
1F
100
AcDbEntity
  8
1
100
AcDbLine
 10
12.9910487694
 20
44.64677547900001
 30
0.0
 11
12.9910487694
 21
35.60104718500001
 31
0.0
  0
LINE
  5
BD
330
1F
100
AcDbEntity
  8
1
100
AcDbLine
 10
19.0160487694
 20
46.35575399200001
 30
0.0
 11
18.5160487694
 21
46.75933730200001
 31
0.0
  0
LINE
  5
BE
330
1F
100
AcDbEntity
  8
1
100
AcDbLine
 10
19.0160487694
 20
46.35575399200001
 30
0.0
 11
19.0160487694
 21
37.87648511900001
 31
0.0
  0
LINE
  5
BF
330
1F
100
AcDbEntity
  8
1
100
AcDbLine
 10
7.8328872614
 20
46.75933730200001
 30
0.0
 11
1.9660487694
 21
46.75933730200001
 31
0.0
  0
LINE
  5
C0
330
1F
100
AcDbEntity
  8
1
100
AcDbLine
 10
7.8328872614
 20
38.51107795200001
 30
0.0
 11
7.8328872614
 21
46.75933730200001
 31
0.0
  0
LINE
  5
C1
330
1F
100
AcDbEntity
  8
1
100
AcDbLine
 10
8.4398066754
 20
45.90933730000001
 30
0.0
 11
7.8328872614
 21
46.75933730200001
 31
0.0
  0
LINE
  5
C2
330
1F
100
AcDbEntity
  8
1
100
AcDbLine
 10
8.4398066754
 20
45.90933730000001
 30
0.0
 11
9.1410487694
 21
44.64677547900001
 31
0.0
  0
LINE
  5
C3
330
1F
100
AcDbEntity
  8
1
100
AcDbLine
 10
9.1410487694
 20
35.60104718500001
 30
0.0
 11
9.1410487694
 21
44.64677547900001
 31
0.0
  0
LINE
  5
C4
330
1F
100
AcDbEntity
  8
SK1
100
AcDbLine
 10
-101.6339512306
 20
18.16267301000001
 30
0.0
 11
-101.6339512306
 21
-18.16267300999999
 31
0.0
  0
LINE
  5
C5
330
1F
100
AcDbEntity
  8
3
100
AcDbLine
 10
195.3835170144
 20
-23.49999999999999
 30
0.0
 11
195.3835170144
 21
23.50000000000001
 31
0.0
  0
LINE
  5
C6
330
1F
100
AcDbEntity
  8
3
100
AcDbLine
 10
190.9660487694
 20
-23.49999999999999
 30
0.0
 11
190.9660487694
 21
23.50000000000001
 31
0.0
  0
LINE
  5
C7
330
1F
100
AcDbEntity
  8
3
100
AcDbLine
 10
196.2495424183
 20
-22.99999999989999
 30
0.0
 11
196.2495424183
 21
23.00000000010001
 31
0.0
  0
LINE
  5
C8
330
1F
100
AcDbEntity
  8
3
100
AcDbLine
 10
186.9660487694
 20
-21.59999999999999
 30
0.0
 11
186.9660487694
 21
21.59999999900001
 31
0.0
  0
LINE
  5
C9
330
1F
100
AcDbEntity
  8
3
100
AcDbLine
 10
168.9760487694
 20
-18.99999999999999
 30
0.0
 11
168.9760487694
 21
19.00000000000001
 31
0.0
  0
LINE
  5
CA
330
1F
100
AcDbEntity
  8
3
100
AcDbLine
 10
168.9660487694
 20
-18.99999999999999
 30
0.0
 11
168.9660487694
 21
19.00000000000001
 31
0.0
  0
LINE
  5
CB
330
1F
100
AcDbEntity
  8
3
100
AcDbLine
 10
150.9660487694
 20
-18.04999999999999
 30
0.0
 11
150.9660487694
 21
18.05000000000001
 31
0.0
  0
LINE
  5
CC
330
1F
100
AcDbEntity
  8
3
100
AcDbLine
 10
149.2229939264
 20
10.50000000000001
 30
0.0
 11
149.2229939264
 21
-10.49999999999999
 31
0.0
  0
LINE
  5
CD
330
1F
100
AcDbEntity
  8
SK3
100
AcDbLine
 10
-89.8839512306
 20
12.50000000000001
 30
0.0
 11
-89.8839512306
 21
-12.49999999999999
 31
0.0
  0
LINE
  5
CE
330
1F
100
AcDbEntity
  8
SK3
100
AcDbLine
 10
-88.7292506923
 20
10.49999999980001
 30
0.0
 11
-88.7292506923
 21
-10.50000000019999
 31
0.0
  0
LINE
  5
CF
330
1F
100
AcDbEntity
  8
SK3
100
AcDbLine
 10
-54.6339512306
 20
12.00000000000001
 30
0.0
 11
-54.6339512306
 21
-11.99999999999999
 31
0.0
  0
LINE
  5
D0
330
1F
100
AcDbEntity
  8
3
100
AcDbLine
 10
190.9660487694
 20
-23.49999999999999
 30
0.0
 11
195.3835170144
 21
-23.49999999999999
 31
0.0
  0
LINE
  5
D1
330
1F
100
AcDbEntity
  8
3
100
AcDbLine
 10
195.3835170144
 20
23.50000000000001
 30
0.0
 11
190.9660487694
 21
23.50000000000001
 31
0.0
  0
LINE
  5
D2
330
1F
100
AcDbEntity
  8
3
100
AcDbLine
 10
195.3835170144
 20
-23.49999999999999
 30
0.0
 11
196.2495424183
 21
-22.99999999989999
 31
0.0
  0
LINE
  5
D3
330
1F
100
AcDbEntity
  8
3
100
AcDbLine
 10
196.2495424183
 20
23.00000000010001
 30
0.0
 11
195.3835170144
 21
23.50000000000001
 31
0.0
  0
LINE
  5
D4
330
1F
100
AcDbEntity
  8
3
100
AcDbLine
 10
196.2495424183
 20
-22.99999999989999
 30
0.0
 11
242.9660487693
 21
-22.99999999989999
 31
0.0
  0
LINE
  5
D5
330
1F
100
AcDbEntity
  8
3
100
AcDbLine
 10
242.9660487693
 20
23.00000000010001
 30
0.0
 11
196.2495424183
 21
23.00000000010001
 31
0.0
  0
LINE
  5
D6
330
1F
100
AcDbEntity
  8
3
100
AcDbLine
 10
187.3660487694
 20
-21.99999999999999
 30
0.0
 11
190.9660487694
 21
-21.99999999999999
 31
0.0
  0
LINE
  5
D7
330
1F
100
AcDbEntity
  8
3
100
AcDbLine
 10
190.9660487694
 20
22.00000000000001
 30
0.0
 11
187.3660487694
 21
22.00000000000001
 31
0.0
  0
LINE
  5
D8
330
1F
100
AcDbEntity
  8
3
100
AcDbLine
 10
150.9660487694
 20
-18.04999999999999
 30
0.0
 11
168.9660487694
 21
-18.04999999999999
 31
0.0
  0
LINE
  5
D9
330
1F
100
AcDbEntity
  8
3
100
AcDbLine
 10
168.9660487694
 20
18.05000000000001
 30
0.0
 11
150.9660487694
 21
18.05000000000001
 31
0.0
  0
LINE
  5
DA
330
1F
100
AcDbEntity
  8
3
100
AcDbLine
 10
150.9660487694
 20
18.05000000000001
 30
0.0
 11
149.2229939264
 21
10.50000000000001
 31
0.0
  0
LINE
  5
DB
330
1F
100
AcDbEntity
  8
3
100
AcDbLine
 10
149.2229939264
 20
-10.49999999999999
 30
0.0
 11
150.9660487694
 21
-18.04999999999999
 31
0.0
  0
LINE
  5
DC
330
1F
100
AcDbEntity
  8
3
100
AcDbLine
 10
168.9760487694
 20
-18.04999999999999
 30
0.0
 11
186.9660487694
 21
-18.04999999999999
 31
0.0
  0
LINE
  5
DD
330
1F
100
AcDbEntity
  8
3
100
AcDbLine
 10
186.9660487694
 20
18.05000000000001
 30
0.0
 11
168.9760487694
 21
18.05000000000001
 31
0.0
  0
LINE
  5
DE
330
1F
100
AcDbEntity
  8
SK3
100
AcDbLine
 10
-89.8839512306
 20
12.50000000000001
 30
0.0
 11
-99.6339512306
 21
12.50000000000001
 31
0.0
  0
LINE
  5
DF
330
1F
100
AcDbEntity
  8
SK3
100
AcDbLine
 10
-99.6339512306
 20
-12.49999999999999
 30
0.0
 11
-89.8839512306
 21
-12.49999999999999
 31
0.0
  0
LINE
  5
E0
330
1F
100
AcDbEntity
  8
SK3
100
AcDbLine
 10
-89.8839512306
 20
-12.49999999999999
 30
0.0
 11
-88.7292506923
 21
-10.50000000019999
 31
0.0
  0
LINE
  5
E1
330
1F
100
AcDbEntity
  8
SK3
100
AcDbLine
 10
-88.7292506923
 20
10.49999999980001
 30
0.0
 11
-89.8839512306
 21
12.50000000000001
 31
0.0
  0
LINE
  5
E6
330
1F
100
AcDbEntity
  8
SK3
100
AcDbLine
 10
-89.5952760956
 20
12.00000000000001
 30
0.0
 11
-54.6339512306
 21
12.00000000000001
 31
0.0
  0
LINE
  5
E7
330
1F
100
AcDbEntity
  8
SK3
100
AcDbLine
 10
-89.5952760956
 20
-11.99999999999999
 30
0.0
 11
-54.6339512306
 21
-11.99999999999999
 31
0.0
  0
LINE
  5
E8
330
1F
100
AcDbEntity
  8
1
100
AcDbLine
 10
1.9660487694
 20
46.75933730200001
 30
0.0
 11
1.4660487694
 21
46.25933730200001
 31
0.0
  0
LINE
  5
EB
330
1F
100
AcDbEntity
  8
3
100
AcDbLine
 10
168.9760487694
 20
19.00000000000001
 30
0.0
 11
186.9660487694
 21
19.00000000000001
 31
0.0
  0
LINE
  5
EC
330
1F
100
AcDbEntity
  8
3
100
AcDbLine
 10
168.9760487694
 20
-18.99999999999999
 30
0.0
 11
186.9660487694
 21
-18.99999999999999
 31
0.0
  0
LINE
  5
ED
330
1F
100
AcDbEntity
  8
SK3
100
AcDbLine
 10
40.0
 20
-53.83655529599999
 30
0.0
 11
40.0
 21
-53.11656932599999
 31
0.0
  0
LINE
  5
EE
330
1F
100
AcDbEntity
  8
SK6
100
AcDbLine
 10
-67.1057588536
 20
-47.98654918599999
 30
0.0
 11
-67.1057588536
 21
-50.05654125599999
 31
0.0
  0
LINE
  5
EF
330
1F
100
AcDbEntity
  8
SK6
100
AcDbLine
 10
-69.9857484836
 20
-50.05657177599999
 30
0.0
 11
-67.1057436036
 21
-50.05657177599999
 31
0.0
  0
LINE
  5
F0
330
1F
100
AcDbEntity
  8
SK6
100
AcDbLine
 10
-70.4357378036
 20
-61.66655533599999
 30
0.0
 11
-73.8557359736
 21
-61.66655712599999
 31
0.0
  0
LINE
  5
F1
330
1F
100
AcDbEntity
  8
SK6
100
AcDbLine
 10
-73.5711584797
 20
-51.89312097379999
 30
0.0
 11
-69.4695894236
 21
-60.10391216599999
 31
0.0
  0
LINE
  5
F2
330
1F
100
AcDbEntity
  8
SK6
100
AcDbLine
 10
-70.9519105656
 20
-51.61917988809999
 30
0.0
 11
-66.8503427461
 21
-59.82998567149999
 31
0.0
  0
LINE
  5
F3
330
1F
100
AcDbEntity
  8
SK6
100
AcDbLine
 10
-73.8557588536
 20
-61.66655712599999
 30
0.0
 11
-73.8557588536
 21
-63.73656444599999
 31
0.0
  0
LINE
  5
F4
330
1F
100
AcDbEntity
  8
SK6
100
AcDbLine
 10
-73.8557588536
 20
-63.73656444599999
 30
0.0
 11
-69.2657472636
 21
-63.73655991599999
 31
0.0
  0
LINE
  5
F5
330
1F
100
AcDbEntity
  8
SK6
100
AcDbLine
 10
-64.4057542836
 20
-63.73656444599999
 30
0.0
 11
-64.4057542836
 21
-47.98656444599999
 31
0.0
  0
LINE
  5
F6
330
1F
100
AcDbEntity
  8
SK6
100
AcDbLine
 10
-56.1257478736
 20
-63.73656444599999
 30
0.0
 11
-56.1257478736
 21
-47.98656444599999
 31
0.0
  0
LINE
  5
F7
330
1F
100
AcDbEntity
  8
SK6
100
AcDbLine
 10
-56.1257478736
 20
-63.73656444599999
 30
0.0
 11
-53.4257547336
 21
-63.73656444599999
 31
0.0
  0
LINE
  5
F8
330
1F
100
AcDbEntity
  8
SK6
100
AcDbLine
 10
-53.4257547336
 20
-63.73656444599999
 30
0.0
 11
-53.4257547336
 21
-56.89656810599999
 31
0.0
  0
LINE
  5
F9
330
1F
100
AcDbEntity
  8
SK6
100
AcDbLine
 10
-52.0757411474
 20
-56.89655464599999
 30
0.0
 11
-53.4257432936
 21
-56.89655285599999
 31
0.0
  0
LINE
  5
FA
330
1F
100
AcDbEntity
  8
SK6
100
AcDbLine
 10
-50.9957620636
 20
-61.21656017599999
 30
0.0
 11
-50.9957620636
 21
-62.20655040599999
 31
0.0
  0
LINE
  5
FB
330
1F
100
AcDbEntity
  8
SK6
100
AcDbLine
 10
-47.9581567736
 20
-63.73656444599999
 30
0.0
 11
-50.4781572336
 21
-63.73656444599999
 31
0.0
  0
LINE
  5
FC
330
1F
100
AcDbEntity
  8
SK6
100
AcDbLine
 10
-50.9957620636
 20
-57.97656993599999
 30
0.0
 11
-50.9957620636
 21
-62.20655040599999
 31
0.0
  0
LINE
  5
FD
330
1F
100
AcDbEntity
  8
SK6
100
AcDbLine
 10
-48.6557428336
 20
-50.50656871599999
 30
0.0
 11
-48.6557428336
 21
-53.11656932599999
 31
0.0
  0
LINE
  5
FE
330
1F
100
AcDbEntity
  8
SK6
100
AcDbLine
 10
-51.8057521135
 20
-50.05656562599999
 30
0.0
 11
-53.4257547336
 21
-50.05657177599999
 31
0.0
  0
LINE
  5
FF
330
1F
100
AcDbEntity
  8
SK6
100
AcDbLine
 10
-50.9057519536
 20
-50.95656566599999
 30
0.0
 11
-50.9057519536
 21
-53.83655529599999
 31
0.0
  0
LINE
  5
100
330
1F
100
AcDbEntity
  8
SK6
100
AcDbLine
 10
-53.4257547336
 20
-50.05657177599999
 30
0.0
 11
-53.4257547336
 21
-54.73656444599999
 31
0.0
  0
LINE
  5
101
330
1F
100
AcDbEntity
  8
SK6
100
AcDbLine
 10
-51.8057519936
 20
-54.73655533599999
 30
0.0
 11
-53.4257547336
 21
-54.73656444599999
 31
0.0
  0
LINE
  5
102
330
1F
100
AcDbEntity
  8
SK6
100
AcDbLine
 10
-48.3863946936
 20
-58.21334819599999
 30
0.0
 11
-48.3857652636
 21
-62.20696239599999
 31
0.0
  0
LINE
  5
103
330
1F
100
AcDbEntity
  8
SK6
100
AcDbLine
 10
-47.9581567736
 20
-63.73656444599999
 30
0.0
 11
-47.8681604436
 21
-63.73656444599999
 31
0.0
  0
LINE
  5
104
330
1F
100
AcDbEntity
  8
SK6
100
AcDbLine
 10
-71.1557546432
 20
-47.98654608599999
 30
0.0
 11
-67.1057588536
 21
-47.98654918599999
 31
0.0
  0
LINE
  5
105
330
1F
100
AcDbEntity
  8
SK6
100
AcDbLine
 10
-51.1757547336
 20
-47.98654918599999
 30
0.0
 11
-56.1257593136
 21
-47.98654918599999
 31
0.0
  0
LINE
  5
106
330
1F
100
AcDbEntity
  8
SK6
100
AcDbLine
 10
-98.1557542836
 20
-63.73656444599999
 30
0.0
 11
-100.9457551936
 21
-63.73656444599999
 31
0.0
  0
LINE
  5
107
330
1F
100
AcDbEntity
  8
SK6
100
AcDbLine
 10
-98.1557542836
 20
-60.31656627599999
 30
0.0
 11
-98.1557542836
 21
-63.73656444599999
 31
0.0
  0
LINE
  5
108
330
1F
100
AcDbEntity
  8
SK6
100
AcDbLine
 10
-97.0757524536
 20
-58.24655895599999
 30
0.0
 11
-98.1557542836
 21
-60.31656627599999
 31
0.0
  0
LINE
  5
109
330
1F
100
AcDbEntity
  8
SK6
100
AcDbLine
 10
-94.6457597736
 20
-63.73656444599999
 30
0.0
 11
-97.0757524536
 21
-58.24655895599999
 31
0.0
  0
LINE
  5
10A
330
1F
100
AcDbEntity
  8
SK6
100
AcDbLine
 10
-91.8557588536
 20
-63.73656444599999
 30
0.0
 11
-94.6457597736
 21
-63.73656444599999
 31
0.0
  0
LINE
  5
10B
330
1F
100
AcDbEntity
  8
SK6
100
AcDbLine
 10
-95.4557649636
 20
-54.73656444599999
 30
0.0
 11
-91.8557588536
 21
-63.73656444599999
 31
0.0
  0
LINE
  5
10C
330
1F
100
AcDbEntity
  8
SK6
100
AcDbLine
 10
-92.3957597736
 20
-47.98656444599999
 30
0.0
 11
-95.4557497036
 21
-54.73656444599999
 31
0.0
  0
LINE
  5
10D
330
1F
100
AcDbEntity
  8
SK6
100
AcDbLine
 10
-98.1557542836
 20
-55.09657268599999
 30
0.0
 11
-95.1857606936
 21
-47.98657970599999
 31
0.0
  0
LINE
  5
10E
330
1F
100
AcDbEntity
  8
SK6
100
AcDbLine
 10
-98.1557542836
 20
-47.98656444599999
 30
0.0
 11
-98.1557542836
 21
-55.09657268599999
 31
0.0
  0
LINE
  5
10F
330
1F
100
AcDbEntity
  8
SK6
100
AcDbLine
 10
-100.9457551936
 20
-63.73656444599999
 30
0.0
 11
-100.9457551936
 21
-47.98656444599999
 31
0.0
  0
LINE
  5
110
330
1F
100
AcDbEntity
  8
SK6
100
AcDbLine
 10
-95.1857606936
 20
-47.98656444599999
 30
0.0
 11
-92.3957597736
 21
-47.98656444599999
 31
0.0
  0
LINE
  5
111
330
1F
100
AcDbEntity
  8
SK6
100
AcDbLine
 10
-100.9457551936
 20
-47.98656444599999
 30
0.0
 11
-98.1557542836
 21
-47.98656444599999
 31
0.0
  0
LINE
  5
112
330
1F
100
AcDbEntity
  8
SK6
100
AcDbLine
 10
-78.8957521436
 20
-47.98656444599999
 30
0.0
 11
-78.8957521436
 21
-63.73656444599999
 31
0.0
  0
LINE
  5
113
330
1F
100
AcDbEntity
  8
SK6
100
AcDbLine
 10
-76.0157472636
 20
-63.73656444599999
 30
0.0
 11
-76.0157472636
 21
-47.98656444599999
 31
0.0
  0
LINE
  5
114
330
1F
100
AcDbEntity
  8
SK6
100
AcDbLine
 10
-78.8957521436
 20
-63.73656444599999
 30
0.0
 11
-76.0157472636
 21
-63.73656444599999
 31
0.0
  0
LINE
  5
115
330
1F
100
AcDbEntity
  8
SK6
100
AcDbLine
 10
-76.0157472636
 20
-47.98656444599999
 30
0.0
 11
-78.8957521436
 21
-47.98656444599999
 31
0.0
  0
LINE
  5
116
330
1F
100
AcDbEntity
  8
SK6
100
AcDbLine
 10
-58.5557519936
 20
-63.73656444599999
 30
0.0
 11
-58.5557519936
 21
-61.66655712599999
 31
0.0
  0
LINE
  5
117
330
1F
100
AcDbEntity
  8
SK6
100
AcDbLine
 10
-64.4057542836
 20
-63.73656444599999
 30
0.0
 11
-58.5557519936
 21
-63.73656444599999
 31
0.0
  0
LINE
  5
118
330
1F
100
AcDbEntity
  8
SK6
100
AcDbLine
 10
-58.5557634336
 20
-50.05655651599999
 30
0.0
 11
-58.5557634336
 21
-47.98656444599999
 31
0.0
  0
LINE
  5
119
330
1F
100
AcDbEntity
  8
SK6
100
AcDbLine
 10
-61.5257799136
 20
-50.05655651599999
 30
0.0
 11
-58.5557748836
 21
-50.05655651599999
 31
0.0
  0
LINE
  5
11A
330
1F
100
AcDbEntity
  8
SK6
100
AcDbLine
 10
-61.5257799136
 20
-54.73656444599999
 30
0.0
 11
-61.5257799136
 21
-50.05657177599999
 31
0.0
  0
LINE
  5
11B
330
1F
100
AcDbEntity
  8
SK6
100
AcDbLine
 10
-58.5557634336
 20
-54.73656444599999
 30
0.0
 11
-61.5257684736
 21
-54.73656444599999
 31
0.0
  0
LINE
  5
11C
330
1F
100
AcDbEntity
  8
SK6
100
AcDbLine
 10
-58.5557634336
 20
-56.89654522599999
 30
0.0
 11
-58.5557634336
 21
-54.73654155599999
 31
0.0
  0
LINE
  5
11D
330
1F
100
AcDbEntity
  8
SK6
100
AcDbLine
 10
-61.5257799136
 20
-56.89654522599999
 30
0.0
 11
-58.5557748836
 21
-56.89654522599999
 31
0.0
  0
LINE
  5
11E
330
1F
100
AcDbEntity
  8
SK6
100
AcDbLine
 10
-61.5257799136
 20
-61.66655712599999
 30
0.0
 11
-61.5257799136
 21
-56.89654522599999
 31
0.0
  0
LINE
  5
11F
330
1F
100
AcDbEntity
  8
SK6
100
AcDbLine
 10
-58.5557634336
 20
-61.66655712599999
 30
0.0
 11
-61.5257684736
 21
-61.66655712599999
 31
0.0
  0
LINE
  5
120
330
1F
100
AcDbEntity
  8
SK6
100
AcDbLine
 10
-58.5557634336
 20
-47.98656444599999
 30
0.0
 11
-64.4057542836
 21
-47.98656444599999
 31
0.0
  0
LINE
  5
121
330
1F
100
AcDbEntity
  8
SK6
100
AcDbLine
 10
-84.4757539736
 20
-63.73656444599999
 30
0.0
 11
-90.7757570236
 21
-63.73656444599999
 31
0.0
  0
LINE
  5
122
330
1F
100
AcDbEntity
  8
SK6
100
AcDbLine
 10
-84.9257432936
 20
-61.21655254599999
 30
0.0
 11
-84.4757539736
 21
-63.73654918599999
 31
0.0
  0
LINE
  5
123
330
1F
100
AcDbEntity
  8
SK6
100
AcDbLine
 10
-87.8057634336
 20
-61.21655254599999
 30
0.0
 11
-84.9257661836
 21
-61.21655254599999
 31
0.0
  0
LINE
  5
124
330
1F
100
AcDbEntity
  8
SK6
100
AcDbLine
 10
-86.2757570236
 20
-51.85656719599999
 30
0.0
 11
-87.8057558036
 21
-61.21657543599999
 31
0.0
  0
LINE
  5
125
330
1F
100
AcDbEntity
  8
SK6
100
AcDbLine
 10
-83.2157594636
 20
-63.73656444599999
 30
0.0
 11
-86.2757570236
 21
-51.85656719599999
 31
0.0
  0
LINE
  5
126
330
1F
100
AcDbEntity
  8
SK6
100
AcDbLine
 10
-80.2457506136
 20
-63.73656444599999
 30
0.0
 11
-83.2157442136
 21
-63.73656444599999
 31
0.0
  0
LINE
  5
127
330
1F
100
AcDbEntity
  8
SK6
100
AcDbLine
 10
-84.6557542836
 20
-47.53655986599999
 30
0.0
 11
-80.2457506136
 21
-63.73656444599999
 31
0.0
  0
LINE
  5
128
330
1F
100
AcDbEntity
  8
SK6
100
AcDbLine
 10
-87.7157594636
 20
-47.53655986599999
 30
0.0
 11
-84.6557542836
 21
-47.53655986599999
 31
0.0
  0
LINE
  5
129
330
1F
100
AcDbEntity
  8
SK6
100
AcDbLine
 10
-90.7757570236
 20
-63.73656444599999
 30
0.0
 11
-87.7157594636
 21
-47.53655986599999
 31
0.0
  0
LINE
  5
12A
330
1F
100
AcDbEntity
  8
1
100
AcDbLine
 10
66.9895423037
 20
45.00000000000001
 30
0.0
 11
40.2160487694
 21
45.00000000000001
 31
0.0
  0
LINE
  5
12D
330
1F
100
AcDbEntity
  8
1
100
AcDbLine
 10
66.9895423037
 20
-44.99999999999999
 30
0.0
 11
240.6773736344
 21
-44.99999999999999
 31
0.0
  0
LINE
  5
12E
330
1F
100
AcDbEntity
  8
1
100
AcDbLine
 10
229.6895514613
 20
0.0000000000000089
 30
0.0
 11
226.8028001154
 21
5.000000000000009
 31
0.0
  0
LINE
  5
12F
330
1F
100
AcDbEntity
  8
1
100
AcDbLine
 10
226.8028001154
 20
5.000000000000009
 30
0.0
 11
221.0292974234
 21
5.000000000000009
 31
0.0
  0
LINE
  5
130
330
1F
100
AcDbEntity
  8
1
100
AcDbLine
 10
221.0292974234
 20
5.000000000000009
 30
0.0
 11
218.1425460774
 21
0.0000000000000089
 31
0.0
  0
LINE
  5
131
330
1F
100
AcDbEntity
  8
1
100
AcDbLine
 10
218.1425460774
 20
0.0000000000000089
 30
0.0
 11
221.0292974234
 21
-5.000000000099991
 31
0.0
  0
LINE
  5
132
330
1F
100
AcDbEntity
  8
1
100
AcDbLine
 10
221.0292974234
 20
-5.000000000099991
 30
0.0
 11
226.8028001154
 21
-5.000000000099991
 31
0.0
  0
LINE
  5
133
330
1F
100
AcDbEntity
  8
1
100
AcDbLine
 10
226.8028001154
 20
-5.000000000099991
 30
0.0
 11
229.6895514613
 21
0.0000000000000089
 31
0.0
  0
ARC
  5
134
330
1F
100
AcDbEntity
  8
1
100
AcDbCircle
 10
34.1376216445
 20
-41.74999999999999
 30
0.0
 40
2.000000000089763
100
AcDbArc
 50
44.99999997970006
 51
90.0
  0
ARC
  5
135
330
1F
100
AcDbEntity
  8
1
100
AcDbCircle
 10
34.1376216445
 20
41.74999999990001
 30
0.0
 40
2.00000000008974
100
AcDbArc
 50
270.0
 51
315.0000000203001
  0
ARC
  5
136
330
1F
100
AcDbEntity
  8
1
100
AcDbCircle
 10
1.2660487691
 20
-35.12500000019999
 30
0.0
 40
0.5
100
AcDbArc
 50
66.42182152200016
 51
90.0
  0
ARC
  5
137
330
1F
100
AcDbEntity
  8
1
100
AcDbCircle
 10
1.2660487691
 20
35.13585224350001
 30
0.0
 40
0.5
100
AcDbArc
 50
270.0
 51
293.5781784779999
  0
ARC
  5
138
330
1F
100
AcDbEntity
  8
1
100
AcDbCircle
 10
0.7202481761000001
 20
-35.12500000019999
 30
0.0
 40
0.5000000000343618
100
AcDbArc
 50
90.0
 51
114.9999998863002
  0
ARC
  5
139
330
1F
100
AcDbEntity
  8
1
100
AcDbCircle
 10
0.7202481761000001
 20
35.13585224350001
 30
0.0
 40
0.5000000000343618
100
AcDbArc
 50
245.0000001136998
 51
270.0
  0
ARC
  5
13A
330
1F
100
AcDbEntity
  8
SK1
100
AcDbCircle
 10
-99.383977384
 20
18.17352143950001
 30
0.0
 40
2.249999999776231
100
AcDbArc
 50
98.29647193279993
 51
180.2762540594
  0
ARC
  5
13B
330
1F
100
AcDbEntity
  8
SK1
100
AcDbCircle
 10
-99.3839512308
 20
-18.16267300999999
 30
0.0
 40
2.249999999776264
100
AcDbArc
 50
180.0
 51
261.7028550391
  0
ARC
  5
13C
330
1F
100
AcDbEntity
  8
1
100
AcDbCircle
 10
9.6525302864
 20
-44.15920772169999
 30
0.0
 40
0.5115703149999905
100
AcDbArc
 50
91.28603577200003
 51
181.0675571579999
  0
ARC
  5
13D
330
1F
100
AcDbEntity
  8
1
100
AcDbCircle
 10
12.4811558434
 20
-44.15768308099999
 30
0.0
 40
0.5100127720000319
100
AcDbArc
 50
358.7578664219998
 51
88.88854066999995
  0
ARC
  5
13E
330
1F
100
AcDbEntity
  8
1
100
AcDbCircle
 10
12.4259748464
 20
34.90854629820001
 30
0.0
 40
0.5723754270000265
100
AcDbArc
 50
276.5281285632
 51
9.161488921300142
  0
ARC
  5
13F
330
1F
100
AcDbEntity
  8
1
100
AcDbCircle
 10
12.4834895574
 20
44.15544331400001
 30
0.0
 40
0.5077333229999949
100
AcDbArc
 50
270.8530598859999
 51
1.500533025000006
  0
ARC
  5
140
330
1F
100
AcDbEntity
  8
1
100
AcDbCircle
 10
9.7377943152
 20
34.93254735200001
 30
0.0
 40
0.6005096560000007
100
AcDbArc
 50
173.5814650300001
 51
260.728917541
  0
ARC
  5
141
330
1F
100
AcDbEntity
  8
1
100
AcDbCircle
 10
9.6502859424
 20
44.15705372600001
 30
0.0
 40
0.5093712230000068
100
AcDbArc
 50
178.6854921840004
 51
268.9609148829999
  0
ARC
  5
142
330
1F
100
AcDbEntity
  8
3
100
AcDbCircle
 10
187.3660487694
 20
-21.59999999999999
 30
0.0
 40
0.4000000000000092
100
AcDbArc
 50
180.0
 51
270.0
  0
ARC
  5
143
330
1F
100
AcDbEntity
  8
3
100
AcDbCircle
 10
187.3660487694
 20
21.60000000000001
 30
0.0
 40
0.4000000000000128
100
AcDbArc
 50
90.0
 51
180.0000001431998
  0
ARC
  5
144
330
1F
100
AcDbEntity
  8
SK3
100
AcDbCircle
 10
-99.6339512306
 20
14.50000000000001
 30
0.0
 40
2.000000000000002
100
AcDbArc
 50
180.0
 51
270.0
  0
ARC
  5
145
330
1F
100
AcDbEntity
  8
SK3
100
AcDbCircle
 10
-99.6339512306
 20
-14.49999999999999
 30
0.0
 40
2.000000000000002
100
AcDbArc
 50
90.0
 51
180.0
  0
CIRCLE
  5
146
330
1F
100
AcDbEntity
  8
1
100
AcDbCircle
 10
223.9160487694
 20
0.0000000000000089
 30
0.0
 40
10.0
  0
ARC
  5
147
330
1F
100
AcDbEntity
  8
SK6
100
AcDbCircle
 10
-69.9857484836
 20
-51.13655071599999
 30
0.0
 40
1.080000040000005
100
AcDbArc
 50
90.0000076300002
 51
206.54360962
  0
ARC
  5
148
330
1F
100
AcDbEntity
  8
SK6
100
AcDbCircle
 10
-71.1557542836
 20
-50.68654613599999
 30
0.0
 40
2.700000050000015
100
AcDbArc
 50
90.00000763000003
 51
206.5436554000001
  0
ARC
  5
149
330
1F
100
AcDbEntity
  8
SK6
100
AcDbCircle
 10
-70.4357378036
 20
-60.58655529599999
 30
0.0
 40
1.080000040000002
100
AcDbArc
 50
270.0
 51
26.54360961999999
  0
ARC
  5
14A
330
1F
100
AcDbEntity
  8
SK6
100
AcDbCircle
 10
-69.2657472636
 20
-61.03655986599999
 30
0.0
 40
2.700000050000043
100
AcDbArc
 50
270.0
 51
26.54364014000005
  0
ARC
  5
14B
330
1F
100
AcDbEntity
  8
SK6
100
AcDbCircle
 10
-52.0757410036
 20
-57.97655468599999
 30
0.0
 40
1.080000039999983
100
AcDbArc
 50
0.0
 51
90.0000076300002
  0
ARC
  5
14C
330
1F
100
AcDbEntity
  8
SK6
100
AcDbCircle
 10
-45.8657648136
 20
-62.20655803599999
 30
0.0
 40
2.519999980000073
100
AcDbArc
 50
180.0
 51
217.3831939700001
  0
ARC
  5
14D
330
1F
100
AcDbEntity
  8
SK6
100
AcDbCircle
 10
-48.4757730436
 20
-62.20655803599999
 30
0.0
 40
2.51999998000008
100
AcDbArc
 50
180.0
 51
217.38319397
  0
ARC
  5
14E
330
1F
100
AcDbEntity
  8
SK6
100
AcDbCircle
 10
-50.9057428336
 20
-58.15656261599999
 30
0.0
 40
2.519999979999999
100
AcDbArc
 50
358.70883179
 51
93.06652832000003
  0
ARC
  5
14F
330
1F
100
AcDbEntity
  8
SK6
100
AcDbCircle
 10
-51.1757547336
 20
-53.11656170599999
 30
0.0
 40
2.51999998000008
100
AcDbArc
 50
273.0665283199999
 51
0.0
  0
ARC
  5
150
330
1F
100
AcDbEntity
  8
SK6
100
AcDbCircle
 10
-51.1757547336
 20
-50.50656871599999
 30
0.0
 40
2.51999998000008
100
AcDbArc
 50
0.0
 51
90.00000762999993
  0
ARC
  5
151
330
1F
100
AcDbEntity
  8
SK6
100
AcDbCircle
 10
-51.8057519936
 20
-50.95656566599999
 30
0.0
 40
0.9000000400000241
100
AcDbArc
 50
0.0
 51
90.00000762999983
  0
ARC
  5
152
330
1F
100
AcDbEntity
  8
SK6
100
AcDbCircle
 10
-51.8057519936
 20
-53.83655529599999
 30
0.0
 40
0.9000000400000161
100
AcDbArc
 50
270.0
 51
0.0
  0
DIMENSION
  5
153
330
1F
100
AcDbEntity
  8
2
100
AcDbDimension
280
     0
  2
_D
 10
40.0
 20
-60.54562365519999
 30
0.0
 11
20.0
 21
-60.54562365519999
 31
0.0
 70
   160
  1
<>
 71
     5
 42
40.0
 73
     0
 74
     0
 75
     0
  3
SLDDIMSTYLE0
100
AcDbAlignedDimension
 13
0.0
 23
-34.90918195229999
 33
0.0
 14
40.0
 24
-53.83655529599999
 34
0.0
100
AcDbRotatedDimension
1001
ACAD
1000
DSTYLE
1002
{
1070
   147
1040
1.0
1070
    41
1040
3.0
1070
    44
1040
2.0
1070
   140
1040
3.0
1070
   340
1005
1CE
1070
   177
1070
   256
1070
   176
1070
   256
1070
   178
1070
   256
1070
   347
1005
14
1070
   346
1005
14
1070
   345
1005
14
1002
}
  0
DIMENSION
  5
15F
330
1F
100
AcDbEntity
  8
2
100
AcDbDimension
280
     0
  2
_D_1
 10
242.4660487691
 20
-60.54562365519999
 30
0.0
 11
125.5291820435676
 21
-60.54562365519999
 31
0.0
 70
   160
  1
Ausdrehtiefe 320
 71
     5
 42
202.4660487691
 73
     0
 74
     0
 75
     0
  3
SLDDIMSTYLE1
100
AcDbAlignedDimension
 13
40.0
 23
-53.11656932599999
 33
0.0
 14
242.4660487691
 24
-44.49999999989999
 34
0.0
100
AcDbRotatedDimension
1001
ACAD
1000
DSTYLE
1002
{
1070
   147
1040
1.0
1070
    41
1040
3.0
1070
    44
1040
2.0
1070
   140
1040
3.0
1070
   340
1005
1CE
1070
   177
1070
   256
1070
   176
1070
   256
1070
   178
1070
   256
1070
   347
1005
14
1070
   346
1005
14
1070
   345
1005
14
1002
}
  0
DIMENSION
  5
168
330
1F
100
AcDbEntity
  8
2
100
AcDbDimension
280
     0
  2
_D_2
 10
0.0
 20
58.16181848320001
 30
0.0
 11
121.4830243845
 21
58.16181848320001
 31
0.0
 70
   160
  1
<>
 71
     5
 42
242.9660487691
 73
     0
 74
     0
 75
     0
  3
SLDDIMSTYLE2
100
AcDbAlignedDimension
 13
242.9660487691
 23
44.00000000010001
 33
0.0
 14
0.0
 24
34.94081804770001
 34
0.0
100
AcDbRotatedDimension
1001
ACAD
1000
DSTYLE
1002
{
1070
   147
1040
1.0
1070
    41
1040
3.0
1070
    44
1040
2.0
1070
   140
1040
3.0
1070
   340
1005
1CE
1070
   177
1070
   256
1070
   176
1070
   256
1070
   178
1070
   256
1070
   347
1005
14
1070
   346
1005
14
1070
   345
1005
14
1002
}
  0
DIMENSION
  5
173
330
1F
100
AcDbEntity
  8
SK2
100
AcDbDimension
280
     0
  2
_D_3
 10
-112.0
 20
-34.90918195229998
 30
0.0
 11
-112.0
 21
6.740008306740179
 31
0.0
 70
   160
  1
ø69.85
 71
     5
 42
69.85
 73
     0
 74
     0
 75
     0
  3
SLDDIMSTYLE0
100
AcDbAlignedDimension
 13
0.0
 23
34.94081804770001
 33
0.0
 14
0.0
 24
-34.90918195229999
 34
0.0
 50
90.0
100
AcDbRotatedDimension
1001
ACAD
1000
DSTYLE
1002
{
1070
   147
1040
1.0
1070
    41
1040
3.0
1070
    44
1040
2.0
1070
   140
1040
3.0
1070
   340
1005
1CE
1070
   177
1070
   256
1070
   176
1070
   256
1070
   178
1070
   256
1070
   347
1005
14
1070
   346
1005
14
1070
   345
1005
14
1002
}
  0
DIMENSION
  5
17D
330
1F
100
AcDbEntity
  8
2
100
AcDbDimension
280
     0
  2
_D_4
 10
256.8101723729
 20
-22.99999999989999
 30
0.0
 11
256.8101723729
 21
0.0000000001000089
 31
0.0
 70
   160
  1
%%c<>
 71
     5
 42
46.0
 73
     0
 74
     0
 75
     0
  3
SLDDIMSTYLE0
100
AcDbAlignedDimension
 13
242.9660487693
 23
23.00000000010001
 33
0.0
 14
242.9660487693
 24
-22.99999999989999
 34
0.0
 50
90.0
100
AcDbRotatedDimension
1001
ACAD
1000
DSTYLE
1002
{
1070
   147
1040
1.0
1070
    41
1040
3.0
1070
    44
1040
2.0
1070
   140
1040
3.0
1070
   340
1005
1CE
1070
   177
1070
   256
1070
   176
1070
   256
1070
   178
1070
   256
1070
   347
1005
14
1070
   346
1005
14
1070
   345
1005
14
1002
}
  0
DIMENSION
  5
188
330
1F
100
AcDbEntity
  8
2
100
AcDbDimension
280
     0
  2
_D_5
 10
265.4980363557
 20
-44.99999999999999
 30
0.0
 11
265.4980363557
 21
0.0000000000000089
 31
0.0
 70
   160
  1
%%c<>
 71
     5
 42
90.0
 73
     0
 74
     0
 75
     0
  3
SLDDIMSTYLE0
100
AcDbAlignedDimension
 13
240.6773736344
 23
45.00000000000001
 33
0.0
 14
240.6773736344
 24
-44.99999999999999
 34
0.0
 50
90.0
100
AcDbRotatedDimension
1001
ACAD
1000
DSTYLE
1002
{
1070
   147
1040
1.0
1070
    41
1040
3.0
1070
    44
1040
2.0
1070
   140
1040
3.0
1070
   340
1005
1CE
1070
   177
1070
   256
1070
   176
1070
   256
1070
   178
1070
   256
1070
   347
1005
14
1070
   346
1005
14
1070
   345
1005
14
1002
}
  0
MTEXT
  5
193
330
1F
100
AcDbEntity
  8
SK6
100
AcDbMText
 10
265.2986165347797
 20
-82.7177144178007
 30
0.0
 40
3.5
 41
0.0
 46
0.0
 71
     1
 72
     1
  1
323.866N
  7
BMG_Text
 73
     1
 44
1.0
  0
LWPOLYLINE
  5
268
330
1F
100
AcDbEntity
  8
INFTOTAL
100
AcDbPolyline
 90
        4
 70
     1
 43
0.0
 10
-167.6160174637391
 20
106.8809362414508
 10
-167.6160174637391
 20
-90.97537725637244
 10
295.772952057306
 20
-90.97537725637244
 10
295.772952057306
 20
106.8809362414508
  0
LINE
  5
316
330
1F
100
AcDbEntity
  8
3
100
AcDbLine
 10
149.2229939264
 20
10.50000000000001
 30
0.0
 11
0.0
 21
10.50000000000001
 31
0.0
  0
LINE
  5
317
330
1F
100
AcDbEntity
  8
3
100
AcDbLine
 10
0.0
 20
-10.49999999999999
 30
0.0
 11
149.2229939264
 21
-10.49999999999999
 31
0.0
  0
LINE
  5
319
330
1F
100
AcDbEntity
  8
SK3
100
AcDbLine
 10
0.0
 20
10.50000000000001
 30
0.0
 11
-88.7292506923
 21
10.49999999980001
 31
0.0
  0
LINE
  5
31A
330
1F
100
AcDbEntity
  8
SK3
100
AcDbLine
 10
-88.7292506923
 20
-10.50000000019999
 30
0.0
 11
0.0
 21
-10.49999999999999
 31
0.0
  0
LINE
  5
321
330
1F
100
AcDbEntity
  8
SK4
100
AcDbLine
 10
-106.3338905503
 20
0.0000000000000087
 30
0.0
 11
247.6492774244
 21
0.0000000000000087
 31
0.0
  0
LINE
  5
322
330
1F
100
AcDbEntity
  8
SK4
100
AcDbLine
 10
223.9160487694
 20
-11.99999999999999
 30
0.0
 11
223.9160487694
 21
12.00000000000001
 31
0.0
  0
LINE
  5
346
330
1F
100
AcDbEntity
  8
NOCUT
100
AcDbLine
 10
0.0
 20
0.0
 30
0.0
 11
0.0
 21
34.94081804770001
 31
0.0
  0
LINE
  5
347
330
1F
100
AcDbEntity
  8
NOCUT
100
AcDbLine
 10
0.0
 20
34.94081804770001
 30
0.0
 11
0.5089390461000001
 21
34.68269834950001
 31
0.0
  0
ARC
  5
348
330
1F
100
AcDbEntity
  8
NOCUT
100
AcDbCircle
 10
0.720248175944993
 20
35.13585224353432
 30
0.0
 40
0.5000000000343069
100
AcDbArc
 50
245.0000001314768
 51
270.0000000177625
  0
LINE
  5
349
330
1F
100
AcDbEntity
  8
NOCUT
100
AcDbLine
 10
0.7202481761000001
 20
34.63585224350001
 30
0.0
 11
1.2660487691
 21
34.63585224350001
 31
0.0
  0
ARC
  5
34A
330
1F
100
AcDbEntity
  8
NOCUT
100
AcDbCircle
 10
1.266048769099978
 20
35.13585224350012
 30
0.0
 40
0.5000000000001135
100
AcDbArc
 50
270.0000000000025
 51
293.5781784779969
  0
LINE
  5
34B
330
1F
100
AcDbEntity
  8
NOCUT
100
AcDbLine
 10
1.466048769098384
 20
34.67759467400372
 30
0.0
 11
1.4660487694
 21
46.25933730200001
 31
0.0
  0
LINE
  5
34C
330
1F
100
AcDbEntity
  8
NOCUT
100
AcDbLine
 10
1.4660487694
 20
46.25933730200001
 30
0.0
 11
1.9660487694
 21
46.75933730200001
 31
0.0
  0
LINE
  5
34D
330
1F
100
AcDbEntity
  8
NOCUT
100
AcDbLine
 10
1.9660487694
 20
46.75933730200001
 30
0.0
 11
7.8328872614
 21
46.75933730200001
 31
0.0
  0
LINE
  5
34E
330
1F
100
AcDbEntity
  8
NOCUT
100
AcDbLine
 10
7.8328872614
 20
46.75933730200001
 30
0.0
 11
8.4398066754
 21
45.90933730000001
 31
0.0
  0
LINE
  5
34F
330
1F
100
AcDbEntity
  8
NOCUT
100
AcDbLine
 10
8.4398066754
 20
45.90933730000001
 30
0.0
 11
9.1410487694
 21
44.64677547900001
 31
0.0
  0
LINE
  5
350
330
1F
100
AcDbEntity
  8
NOCUT
100
AcDbLine
 10
12.9910487694
 20
44.64677547900001
 30
0.0
 11
13.6922908624
 21
45.90933730000001
 31
0.0
  0
LINE
  5
351
330
1F
100
AcDbEntity
  8
NOCUT
100
AcDbLine
 10
13.6922908624
 20
45.90933730000001
 30
0.0
 11
14.2992102764
 21
46.75933730200001
 31
0.0
  0
LINE
  5
352
330
1F
100
AcDbEntity
  8
NOCUT
100
AcDbLine
 10
14.2992102764
 20
46.75933730200001
 30
0.0
 11
18.5160487694
 21
46.75933730200001
 31
0.0
  0
LINE
  5
353
330
1F
100
AcDbEntity
  8
NOCUT
100
AcDbLine
 10
18.5160487694
 20
46.75933730200001
 30
0.0
 11
19.0160487694
 21
46.35575399200001
 31
0.0
  0
LINE
  5
354
330
1F
100
AcDbEntity
  8
NOCUT
100
AcDbLine
 10
19.0160487694
 20
46.35575399200001
 30
0.0
 11
19.0160487695
 21
39.74999999980001
 31
0.0
  0
LINE
  5
355
330
1F
100
AcDbEntity
  8
NOCUT
100
AcDbLine
 10
19.0160487695
 20
39.74999999980001
 30
0.0
 11
34.1376216445
 21
39.74999999981026
 31
0.0
  0
ARC
  5
356
330
1F
100
AcDbEntity
  8
NOCUT
100
AcDbCircle
 10
34.13762164456755
 20
41.74999999956044
 30
0.0
 40
1.999999999750184
100
AcDbArc
 50
269.999999998065
 51
315.0000000257675
  0
LINE
  5
357
330
1F
100
AcDbEntity
  8
NOCUT
100
AcDbLine
 10
35.5518352074
 20
40.33578643800001
 30
0.0
 11
40.2160487694
 21
45.00000000000001
 31
0.0
  0
LINE
  5
358
330
1F
100
AcDbEntity
  8
NOCUT
100
AcDbLine
 10
40.2160487694
 20
45.00000000000001
 30
0.0
 11
240.6773736344
 21
45.00000000000001
 31
0.0
  0
LINE
  5
359
330
1F
100
AcDbEntity
  8
NOCUT
100
AcDbLine
 10
240.6773736344
 20
45.00000000000001
 30
0.0
 11
240.9660487691
 21
44.50000000010001
 31
0.0
  0
LINE
  5
35A
330
1F
100
AcDbEntity
  8
NOCUT
100
AcDbLine
 10
240.9660487691
 20
44.50000000010001
 30
0.0
 11
242.4660487691
 21
44.50000000010001
 31
0.0
  0
LINE
  5
35B
330
1F
100
AcDbEntity
  8
NOCUT
100
AcDbLine
 10
242.4660487691
 20
44.50000000010001
 30
0.0
 11
242.9660487691
 21
44.00000000010001
 31
0.0
  0
LINE
  5
35E
330
1F
100
AcDbEntity
  8
NOCUT
100
AcDbLine
 10
242.9660487691
 20
44.00000000010001
 30
0.0
 11
242.9660487691
 21
0.0000000000000071
 31
0.0
  0
LINE
  5
35F
330
1F
100
AcDbEntity
  8
NOCUT
100
AcDbLine
 10
242.9660487691
 20
0.0000000000000071
 30
0.0
 11
0.0
 21
0.0
 31
0.0
  0
LINE
  5
37C
330
1F
100
AcDbEntity
  8
4
100
AcDbLine
 10
247.6492774244
 20
0.0000000000000087
 30
0.0
 11
0.0
 21
0.0
 31
0.0
  0
LINE
  5
37D
330
1F
100
AcDbEntity
  8
4
100
AcDbLine
 10
223.9160487694
 20
12.00000000000001
 30
0.0
 11
223.9160487694
 21
-11.99999999999999
 31
0.0
  0
LINE
  5
389
330
1F
100
AcDbEntity
  8
SK1
100
AcDbLine
 10
0.0
 20
-34.90918195229999
 30
0.0
 11
0.0
 21
34.94081804770001
 31
0.0
  0
ENDSEC
  0
SECTION
  2
OBJECTS
  0
DICTIONARY
  5
C
330
0
100
AcDbDictionary
281
     1
  3
ACAD_DETAILVIEWSTYLE
350
263
  3
ACAD_GROUP
350
D
  3
ACAD_LAYOUT
350
1B6
  3
ACAD_MATERIAL
350
1CA
  3
ACAD_MLEADERSTYLE
350
1EB
  3
ACAD_MLINESTYLE
350
17
  3
ACAD_PLOTSETTINGS
350
22D
  3
ACAD_PLOTSTYLENAME
350
22E
  3
ACAD_SCALELIST
350
194
  3
ACAD_SECTIONVIEWSTYLE
350
264
  3
ACAD_TABLESTYLE
350
23A
  3
ACAD_VISUALSTYLE
350
1B9
  3
ACDB_RECOMPOSE_DATA
350
38F
  3
AcDbVariableDictionary
350
1E9
  3
APPDATA
350
23D
  3
FX_DICT_DIMENSION_PALETTE
350
302
  3
FX_DICT_DIMENSION_PALETTE_RECENTLIST
350
30C
  0
SUN
  5
2DF
330
29
100
AcDbSun
 90
        1
290
     0
 63
     7
421
 16777215
 40
1.0
291
     1
 91
  2455826
 92
 54000000
292
     0
 70
     2
 71
   256
280
     1
  0
DICTIONARY
  5
23E
330
2
100
AcDbDictionary
280
     1
281
     1
  3
ACAD_LAYERSTATES
360
23F
  0
DICTIONARY
  5
304
330
1F
100
AcDbDictionary
280
     1
281
     1
  3
DIM_BOUNDING_BOXES_V1
360
305
  0
DICTIONARY
  5
263
102
{ACAD_REACTORS
330
C
102
}
330
C
100
AcDbDictionary
281
     1
  0
DICTIONARY
  5
D
102
{ACAD_REACTORS
330
C
102
}
330
C
100
AcDbDictionary
281
     1
  0
DICTIONARY
  5
1B6
102
{ACAD_REACTORS
330
C
102
}
330
C
100
AcDbDictionary
281
     1
  3
Layout1
350
1B8
  3
Model
350
1B7
  0
DICTIONARY
  5
1CA
102
{ACAD_REACTORS
330
C
102
}
330
C
100
AcDbDictionary
281
     1
  3
ByBlock
350
1CC
  3
ByLayer
350
1CB
  3
Global
350
1CD
  0
DICTIONARY
  5
1EB
102
{ACAD_REACTORS
330
C
102
}
330
C
100
AcDbDictionary
281
     1
  3
Standard
350
23C
  0
DICTIONARY
  5
17
102
{ACAD_REACTORS
330
C
102
}
330
C
100
AcDbDictionary
281
     1
  3
STANDARD
350
18
  0
DICTIONARY
  5
22D
102
{ACAD_REACTORS
330
C
102
}
330
C
100
AcDbDictionary
281
     1
  0
ACDBDICTIONARYWDFLT
  5
22E
102
{ACAD_REACTORS
330
C
102
}
330
C
100
AcDbDictionary
281
     1
  3
Normal
350
22F
100
AcDbDictionaryWithDefault
340
22F
  0
DICTIONARY
  5
194
102
{ACAD_REACTORS
330
C
102
}
330
C
100
AcDbDictionary
281
     1
  3
A0
350
195
  3
A1
350
196
  3
A2
350
197
  3
A3
350
198
  3
A4
350
199
  3
A5
350
19A
  3
A6
350
19B
  3
A7
350
19C
  3
A8
350
19D
  3
A9
350
19E
  3
B0
350
19F
  3
B1
350
1A0
  3
B2
350
1A1
  3
B3
350
1A2
  3
B4
350
1A3
  3
B5
350
1A4
  3
B6
350
1A5
  3
B7
350
1A6
  3
B8
350
1A7
  3
B9
350
1A8
  3
C0
350
1A9
  3
C1
350
1AA
  3
C2
350
1AB
  3
C3
350
1AC
  3
C4
350
1AD
  3
C5
350
1AE
  3
C6
350
1AF
  3
C7
350
1B0
  3
C8
350
1B1
  3
C9
350
1B2
  3
D0
350
1B3
  3
D1
350
1B4
  3
D2
350
1B5
  0
DICTIONARY
  5
264
102
{ACAD_REACTORS
330
C
102
}
330
C
100
AcDbDictionary
281
     1
  0
DICTIONARY
  5
23A
102
{ACAD_REACTORS
330
C
102
}
330
C
100
AcDbDictionary
281
     1
  3
Standard
350
23B
  0
DICTIONARY
  5
1B9
102
{ACAD_REACTORS
330
C
102
}
330
C
100
AcDbDictionary
281
     1
  3
2dWireframe
350
1BE
  3
3D Hidden
350
1C0
  3
3dWireframe
350
1BF
  3
Basic
350
1C1
  3
Brighten
350
1C5
  3
ColorChange
350
1C9
  3
Conceptual
350
1C3
  3
Dim
350
1C4
  3
EdgeColorOff
350
234
  3
Facepattern
350
1C8
  3
Flat
350
1BA
  3
FlatWithEdges
350
1BB
  3
Gouraud
350
1BC
  3
GouraudWithEdges
350
1BD
  3
Hidden
350
231
  3
JitterOff
350
232
  3
Linepattern
350
1C7
  3
OverhangOff
350
233
  3
Realistic
350
1C2
  3
Shaded
350
239
  3
Shaded with edges
350
238
  3
Shades of Gray
350
235
  3
Sketchy
350
236
  3
Thicken
350
1C6
  3
Wireframe
350
230
  3
X-Ray
350
237
  0
XRECORD
  5
38F
102
{ACAD_REACTORS
330
C
102
}
330
C
100
AcDbXrecord
280
     1
 90
        1
330
23B
  0
DICTIONARY
  5
1E9
102
{ACAD_REACTORS
330
C
102
}
330
C
100
AcDbDictionary
281
     1
  3
CANNOSCALE
350
260
  3
CMLEADERSTYLE
350
262
  3
CTABLESTYLE
350
261
  3
DIMASSOC
350
1ED
  3
HIDETEXT
350
1EE
  3
MSLTSCALE
350
1EC
  0
DICTIONARY
  5
23D
102
{ACAD_REACTORS
330
C
102
}
330
C
100
AcDbDictionary
281
     1
  0
DICTIONARY
  5
302
102
{ACAD_REACTORS
330
C
102
}
330
C
100
AcDbDictionary
281
     1
1001
FX_DIMP_FAV_VERSION
1071
        1
  0
DICTIONARY
  5
30C
102
{ACAD_REACTORS
330
C
102
}
330
C
100
AcDbDictionary
281
     1
  3
0
350
30E
1001
FX_DIMP_RECENT_VERSION
1071
        1
  0
DICTIONARY
  5
23F
102
{ACAD_REACTORS
330
23E
102
}
330
23E
100
AcDbDictionary
281
     1
  0
DICTIONARY
  5
305
102
{ACAD_REACTORS
330
304
102
}
330
304
100
AcDbDictionary
281
     1
  3
DBBIsEnabled
350
30A
  3
DBBIsVisible
350
30B
  0
LAYOUT
  5
1B8
102
{ACAD_REACTORS
330
1B6
102
}
330
1B6
100
AcDbPlotSettings
  1

  2
none_device
  4

  6

 40
0.0
 41
0.0
 42
0.0
 43
0.0
 44
0.0
 45
0.0
 46
0.0
 47
0.0
 48
0.0
 49
0.0
140
0.0
141
0.0
142
1.0
143
1.0
 70
   688
 72
     0
 73
     0
 74
     5
  7

 75
    16
 76
     0
 77
     2
 78
   300
147
1.0
148
0.0
149
0.0
100
AcDbLayout
  1
Layout1
 70
     1
 71
     1
 10
0.0
 20
0.0
 11
420.0
 21
297.0
 12
0.0
 22
0.0
 32
0.0
 14
1.000000000000000E+20
 24
1.000000000000000E+20
 34
1.000000000000000E+20
 15
-1.000000000000000E+20
 25
-1.000000000000000E+20
 35
-1.000000000000000E+20
146
0.0
 13
0.0
 23
0.0
 33
0.0
 16
1.0
 26
0.0
 36
0.0
 17
0.0
 27
1.0
 37
0.0
 76
     0
330
1B
  0
LAYOUT
  5
1B7
102
{ACAD_REACTORS
330
1B6
102
}
330
1B6
100
AcDbPlotSettings
  1

  2
none_device
  4

  6

 40
0.0
 41
0.0
 42
0.0
 43
0.0
 44
0.0
 45
0.0
 46
0.0
 47
0.0
 48
0.0
 49
0.0
140
0.0
141
0.0
142
1.0
143
1.0
 70
  1712
 72
     0
 73
     0
 74
     0
  7

 75
     0
 76
     0
 77
     2
 78
   300
147
1.0
148
-0.0000001562100806
149
0.0
100
AcDbLayout
  1
Model
 70
     1
 71
     0
 10
0.0
 20
0.0
 11
420.0
 21
297.0
 12
0.0
 22
0.0
 32
0.0
 14
-167.6160174637391
 24
-90.97537725637244
 34
0.0
 15
295.772952057306
 25
106.8809362414508
 35
0.0
146
0.0
 13
0.0
 23
0.0
 33
0.0
 16
1.0
 26
0.0
 36
0.0
 17
0.0
 27
1.0
 37
0.0
 76
     0
330
1F
331
29
  0
MATERIAL
  5
1CC
102
{ACAD_REACTORS
330
1CA
102
}
330
1CA
100
AcDbMaterial
  1
ByBlock
 72
     1
 94
      127
  0
MATERIAL
  5
1CB
102
{ACAD_REACTORS
330
1CA
102
}
330
1CA
100
AcDbMaterial
  1
ByLayer
 72
     1
 94
      127
  0
MATERIAL
  5
1CD
102
{ACAD_REACTORS
330
1CA
102
}
330
1CA
100
AcDbMaterial
  1
Global
 72
     1
 94
      127
  0
MLEADERSTYLE
  5
23C
102
{ACAD_REACTORS
330
1EB
102
}
330
1EB
100
AcDbMLeaderStyle
179
     2
170
     2
171
     1
172
     0
 90
        2
 40
0.0
 41
0.0
173
     1
 91
-1056964608
340
14
 92
       -2
290
     1
 42
2.0
291
     1
 43
8.0
  3
Standard
341
0
 44
4.0
300

342
11
174
     1
178
     1
175
     1
176
     0
 93
-1056964608
 45
4.0
292
     0
297
     0
 46
4.0
343
0
 94
-1056964608
 47
1.0
 49
1.0
140
1.0
293
     1
141
0.0
294
     1
177
     0
142
1.0
295
     0
296
     0
143
3.75
271
     0
272
     9
273
     9
298
     0
  0
MLINESTYLE
  5
18
102
{ACAD_REACTORS
330
17
102
}
330
17
100
AcDbMlineStyle
  2
Standard
 70
     0
  3

 62
   256
 51
90.0
 52
90.0
 71
     2
 49
0.5
 62
   256
  6
BYLAYER
 49
-0.5
 62
   256
  6
BYLAYER
  0
ACDBPLACEHOLDER
  5
22F
102
{ACAD_REACTORS
330
22E
102
}
330
22E
  0
SCALE
  5
195
102
{ACAD_REACTORS
330
194
102
}
330
194
100
AcDbScale
 70
     0
300
1:1
140
1.0
141
1.0
290
     1
  0
SCALE
  5
196
102
{ACAD_REACTORS
330
194
102
}
330
194
100
AcDbScale
 70
     0
300
1:2
140
1.0
141
2.0
290
     0
  0
SCALE
  5
197
102
{ACAD_REACTORS
330
194
102
}
330
194
100
AcDbScale
 70
     0
300
1:4
140
1.0
141
4.0
290
     0
  0
SCALE
  5
198
102
{ACAD_REACTORS
330
194
102
}
330
194
100
AcDbScale
 70
     0
300
1:5
140
1.0
141
5.0
290
     0
  0
SCALE
  5
199
102
{ACAD_REACTORS
330
194
102
}
330
194
100
AcDbScale
 70
     0
300
1:8
140
1.0
141
8.0
290
     0
  0
SCALE
  5
19A
102
{ACAD_REACTORS
330
194
102
}
330
194
100
AcDbScale
 70
     0
300
1:10
140
1.0
141
10.0
290
     0
  0
SCALE
  5
19B
102
{ACAD_REACTORS
330
194
102
}
330
194
100
AcDbScale
 70
     0
300
1:16
140
1.0
141
16.0
290
     0
  0
SCALE
  5
19C
102
{ACAD_REACTORS
330
194
102
}
330
194
100
AcDbScale
 70
     0
300
1:20
140
1.0
141
20.0
290
     0
  0
SCALE
  5
19D
102
{ACAD_REACTORS
330
194
102
}
330
194
100
AcDbScale
 70
     0
300
1:30
140
1.0
141
30.0
290
     0
  0
SCALE
  5
19E
102
{ACAD_REACTORS
330
194
102
}
330
194
100
AcDbScale
 70
     0
300
1:40
140
1.0
141
40.0
290
     0
  0
SCALE
  5
19F
102
{ACAD_REACTORS
330
194
102
}
330
194
100
AcDbScale
 70
     0
300
1:50
140
1.0
141
50.0
290
     0
  0
SCALE
  5
1A0
102
{ACAD_REACTORS
330
194
102
}
330
194
100
AcDbScale
 70
     0
300
1:100
140
1.0
141
100.0
290
     0
  0
SCALE
  5
1A1
102
{ACAD_REACTORS
330
194
102
}
330
194
100
AcDbScale
 70
     0
300
2:1
140
2.0
141
1.0
290
     0
  0
SCALE
  5
1A2
102
{ACAD_REACTORS
330
194
102
}
330
194
100
AcDbScale
 70
     0
300
4:1
140
4.0
141
1.0
290
     0
  0
SCALE
  5
1A3
102
{ACAD_REACTORS
330
194
102
}
330
194
100
AcDbScale
 70
     0
300
8:1
140
8.0
141
1.0
290
     0
  0
SCALE
  5
1A4
102
{ACAD_REACTORS
330
194
102
}
330
194
100
AcDbScale
 70
     0
300
10:1
140
10.0
141
1.0
290
     0
  0
SCALE
  5
1A5
102
{ACAD_REACTORS
330
194
102
}
330
194
100
AcDbScale
 70
     0
300
100:1
140
100.0
141
1.0
290
     0
  0
SCALE
  5
1A6
102
{ACAD_REACTORS
330
194
102
}
330
194
100
AcDbScale
 70
     0
300
1/128" = 1'-0"
140
0.0078125
141
12.0
290
     0
  0
SCALE
  5
1A7
102
{ACAD_REACTORS
330
194
102
}
330
194
100
AcDbScale
 70
     0
300
1/64" = 1'-0"
140
0.015625
141
12.0
290
     0
  0
SCALE
  5
1A8
102
{ACAD_REACTORS
330
194
102
}
330
194
100
AcDbScale
 70
     0
300
1/32" = 1'-0"
140
0.03125
141
12.0
290
     0
  0
SCALE
  5
1A9
102
{ACAD_REACTORS
330
194
102
}
330
194
100
AcDbScale
 70
     0
300
1/16" = 1'-0"
140
0.0625
141
12.0
290
     0
  0
SCALE
  5
1AA
102
{ACAD_REACTORS
330
194
102
}
330
194
100
AcDbScale
 70
     0
300
3/32" = 1'-0"
140
0.09375
141
12.0
290
     0
  0
SCALE
  5
1AB
102
{ACAD_REACTORS
330
194
102
}
330
194
100
AcDbScale
 70
     0
300
1/8" = 1'-0"
140
0.125
141
12.0
290
     0
  0
SCALE
  5
1AC
102
{ACAD_REACTORS
330
194
102
}
330
194
100
AcDbScale
 70
     0
300
3/16" = 1'-0"
140
0.1875
141
12.0
290
     0
  0
SCALE
  5
1AD
102
{ACAD_REACTORS
330
194
102
}
330
194
100
AcDbScale
 70
     0
300
1/4" = 1'-0"
140
0.25
141
12.0
290
     0
  0
SCALE
  5
1AE
102
{ACAD_REACTORS
330
194
102
}
330
194
100
AcDbScale
 70
     0
300
3/8" = 1'-0"
140
0.375
141
12.0
290
     0
  0
SCALE
  5
1AF
102
{ACAD_REACTORS
330
194
102
}
330
194
100
AcDbScale
 70
     0
300
1/2" = 1'-0"
140
0.5
141
12.0
290
     0
  0
SCALE
  5
1B0
102
{ACAD_REACTORS
330
194
102
}
330
194
100
AcDbScale
 70
     0
300
3/4" = 1'-0"
140
0.75
141
12.0
290
     0
  0
SCALE
  5
1B1
102
{ACAD_REACTORS
330
194
102
}
330
194
100
AcDbScale
 70
     0
300
1" = 1'-0"
140
1.0
141
12.0
290
     0
  0
SCALE
  5
1B2
102
{ACAD_REACTORS
330
194
102
}
330
194
100
AcDbScale
 70
     0
300
1-1/2" = 1'-0"
140
1.5
141
12.0
290
     0
  0
SCALE
  5
1B3
102
{ACAD_REACTORS
330
194
102
}
330
194
100
AcDbScale
 70
     0
300
3" = 1'-0"
140
3.0
141
12.0
290
     0
  0
SCALE
  5
1B4
102
{ACAD_REACTORS
330
194
102
}
330
194
100
AcDbScale
 70
     0
300
6" = 1'-0"
140
6.0
141
12.0
290
     0
  0
SCALE
  5
1B5
102
{ACAD_REACTORS
330
194
102
}
330
194
100
AcDbScale
 70
     0
300
1'-0" = 1'-0"
140
12.0
141
12.0
290
     0
  0
TABLESTYLE
  5
23B
102
{ACAD_REACTORS
330
23A
102
}
102
{ACAD_XDICTIONARY
360
38D
102
}
330
23A
100
AcDbTableStyle
  3
Standard
 70
     0
 71
     0
 40
1.5
 41
1.5
280
     0
281
     0
  7
STANDARD
140
4.5
170
     2
 62
     0
 63
   257
283
     0
 90
        4
 91
        0
  1

274
    -2
284
     1
 64
     0
275
    -2
285
     1
 65
     0
276
    -2
286
     1
 66
     0
277
    -2
287
     1
 67
     0
278
    -2
288
     1
 68
     0
279
    -2
289
     1
 69
     0
  7
STANDARD
140
6.0
170
     5
 62
     0
 63
   257
283
     0
 90
        4
 91
        0
  1

274
    -2
284
     1
 64
     0
275
    -2
285
     1
 65
     0
276
    -2
286
     1
 66
     0
277
    -2
287
     1
 67
     0
278
    -2
288
     1
 68
     0
279
    -2
289
     1
 69
     0
  7
STANDARD
140
4.5
170
     5
 62
     0
 63
   257
283
     0
 90
        4
 91
        0
  1

274
    -2
284
     1
 64
     0
275
    -2
285
     1
 65
     0
276
    -2
286
     1
 66
     0
277
    -2
287
     1
 67
     0
278
    -2
288
     1
 68
     0
279
    -2
289
     1
 69
     0
  0
VISUALSTYLE
  5
1BE
102
{ACAD_REACTORS
330
1B9
102
}
330
1B9
100
AcDbVisualStyle
  2
2dWireframe
 70
     4
177
     3
291
     0
 70
    58
 90
        0
176
     1
 90
        2
176
     1
 90
        0
176
     1
 90
        0
176
     1
 40
-0.6
176
     1
 40
-30.0
176
     1
 62
     7
176
     1
 90
        1
176
     1
 90
        4
176
     1
 62
     7
176
     1
 62
   257
176
     1
 90
        1
176
     1
 90
        1
176
     1
 40
1.0
176
     1
 90
        0
176
     1
 62
   257
176
     1
 40
1.0
176
     1
 90
        1
176
     1
 90
        6
176
     1
 90
        2
176
     1
 62
     7
176
     1
 90
        5
176
     1
 90
        0
176
     1
 90
        0
176
     1
290
     0
176
     1
 90
        1
176
     1
 40
0.0
176
     1
 90
        0
176
     1
290
     1
176
     1
290
     1
176
     1
290
     0
176
     1
290
     0
176
     1
290
     0
176
     1
290
     0
176
     1
290
     0
176
     1
290
     0
176
     1
290
     0
176
     1
 90
       50
176
     1
 40
0.0
176
     1
 40
1.0
176
     1
 90
        0
176
     1
 62
    18
420
        0
176
     1
 90
       50
176
     1
 90
        3
176
     1
 62
     5
420
      255
176
     1
290
     0
176
     1
 90
       50
176
     1
 90
       50
176
     1
 90
       50
176
     1
290
     0
176
     1
 90
       50
176
     1
 62
   256
176
     0
 40
1.0
176
     0
 90
        2
176
     1
  1
strokes_ogs.tif
176
     1
290
     0
176
     1
 40
1.0
176
     1
 40
1.0
176
     1
  0
VISUALSTYLE
  5
1C0
102
{ACAD_REACTORS
330
1B9
102
}
330
1B9
100
AcDbVisualStyle
  2
3D Hidden
 70
     6
177
     3
291
     0
 70
    58
 90
        1
176
     1
 90
        2
176
     1
 90
        2
176
     1
 90
        0
176
     1
 40
-0.6
176
     1
 40
-30.0
176
     1
 62
     7
176
     1
 90
        2
176
     1
 90
        2
176
     1
 62
     7
176
     1
 62
   257
176
     1
 90
        2
176
     1
 90
        1
176
     1
 40
40.0
176
     1
 90
        0
176
     1
 62
   257
176
     1
 40
1.0
176
     1
 90
        1
176
     1
 90
        6
176
     1
 90
        2
176
     1
 62
     7
176
     1
 90
        3
176
     1
 90
        0
176
     1
 90
        0
176
     1
290
     0
176
     1
 90
        1
176
     1
 40
0.0
176
     1
 90
        0
176
     1
290
     0
176
     1
290
     1
176
     1
290
     1
176
     1
290
     0
176
     1
290
     0
176
     1
290
     0
176
     1
290
     0
176
     1
290
     0
176
     1
290
     0
176
     1
 90
       50
176
     1
 40
0.0
176
     1
 40
1.0
176
     1
 90
        0
176
     1
 62
    18
420
        0
176
     1
 90
       50
176
     1
 90
        3
176
     1
 62
     5
420
      255
176
     1
290
     0
176
     1
 90
       50
176
     1
 90
       50
176
     1
 90
       50
176
     1
290
     0
176
     1
 90
       50
176
     1
 62
   256
176
     0
 40
1.0
176
     0
 90
        2
176
     1
  1
strokes_ogs.tif
176
     1
290
     0
176
     1
 40
1.0
176
     1
 40
1.0
176
     1
  0
VISUALSTYLE
  5
1BF
102
{ACAD_REACTORS
330
1B9
102
}
330
1B9
100
AcDbVisualStyle
  2
3dWireframe
 70
     5
177
     3
291
     0
 70
    58
 90
        0
176
     1
 90
        2
176
     1
 90
        0
176
     1
 90
        0
176
     1
 40
-0.6
176
     1
 40
-30.0
176
     1
 62
     7
176
     1
 90
        1
176
     1
 90
        4
176
     1
 62
     7
176
     1
 62
   257
176
     1
 90
        1
176
     1
 90
        1
176
     1
 40
1.0
176
     1
 90
        0
176
     1
 62
   257
176
     1
 40
1.0
176
     1
 90
        1
176
     1
 90
        6
176
     1
 90
        2
176
     1
 62
     7
176
     1
 90
        5
176
     1
 90
        0
176
     1
 90
        0
176
     1
290
     0
176
     1
 90
        1
176
     1
 40
0.0
176
     1
 90
        0
176
     1
290
     0
176
     1
290
     1
176
     1
290
     1
176
     1
290
     0
176
     1
290
     0
176
     1
290
     0
176
     1
290
     0
176
     1
290
     0
176
     1
290
     0
176
     1
 90
       50
176
     1
 40
0.0
176
     1
 40
1.0
176
     1
 90
        0
176
     1
 62
    18
420
        0
176
     1
 90
       50
176
     1
 90
        3
176
     1
 62
     5
420
      255
176
     1
290
     0
176
     1
 90
       50
176
     1
 90
       50
176
     1
 90
       50
176
     1
290
     0
176
     1
 90
       50
176
     1
 62
   256
176
     0
 40
1.0
176
     0
 90
        2
176
     1
  1
strokes_ogs.tif
176
     1
290
     0
176
     1
 40
1.0
176
     1
 40
1.0
176
     1
  0
VISUALSTYLE
  5
1C1
102
{ACAD_REACTORS
330
1B9
102
}
330
1B9
100
AcDbVisualStyle
  2
Basic
 70
     7
177
     3
291
     1
 70
    58
 90
        1
176
     1
 90
        0
176
     1
 90
        1
176
     1
 90
        0
176
     1
 40
-0.6
176
     1
 40
-30.0
176
     1
 62
     7
176
     1
 90
        0
176
     1
 90
        4
176
     1
 62
     7
176
     1
 62
   257
176
     1
 90
        1
176
     1
 90
        1
176
     1
 40
1.0
176
     1
 90
        8
176
     1
 62
     7
176
     1
 40
1.0
176
     1
 90
        1
176
     1
 90
        6
176
     1
 90
        2
176
     1
 62
     7
176
     1
 90
        5
176
     1
 90
        0
176
     1
 90
        0
176
     1
290
     0
176
     1
 90
        1
176
     1
 40
0.0
176
     1
 90
        0
176
     1
290
     0
176
     1
290
     1
176
     1
290
     1
176
     1
290
     0
176
     1
290
     0
176
     1
290
     0
176
     1
290
     0
176
     1
290
     0
176
     1
290
     0
176
     1
 90
       50
176
     1
 40
0.0
176
     1
 40
1.0
176
     1
 90
        0
176
     1
 62
    18
420
        0
176
     1
 90
       50
176
     1
 90
        3
176
     1
 62
     5
420
      255
176
     1
290
     0
176
     1
 90
       50
176
     1
 90
       50
176
     1
 90
       50
176
     1
290
     0
176
     1
 90
       50
176
     1
 62
   256
176
     0
 40
1.0
176
     0
 90
        2
176
     1
  1
strokes_ogs.tif
176
     1
290
     0
176
     1
 40
1.0
176
     1
 40
1.0
176
     1
  0
VISUALSTYLE
  5
1C5
102
{ACAD_REACTORS
330
1B9
102
}
330
1B9
100
AcDbVisualStyle
  2
Brighten
 70
    12
177
     3
291
     1
 70
    58
 90
        2
176
     1
 90
        2
176
     1
 90
        0
176
     1
 90
        0
176
     1
 40
-0.6
176
     1
 40
-30.0
176
     1
 62
     7
176
     1
 90
        1
176
     1
 90
        4
176
     1
 62
     7
176
     1
 62
   257
176
     1
 90
        1
176
     1
 90
        1
176
     1
 40
1.0
176
     1
 90
        8
176
     1
 62
     7
176
     1
 40
1.0
176
     1
 90
        1
176
     1
 90
        6
176
     1
 90
        2
176
     1
 62
     7
176
     1
 90
        5
176
     1
 90
        0
176
     1
 90
        0
176
     1
290
     0
176
     1
 90
        1
176
     1
 40
50.0
176
     1
 90
        0
176
     1
290
     0
176
     1
290
     1
176
     1
290
     1
176
     1
290
     0
176
     1
290
     0
176
     1
290
     0
176
     1
290
     0
176
     1
290
     0
176
     1
290
     0
176
     1
 90
       50
176
     1
 40
0.0
176
     1
 40
1.0
176
     1
 90
        0
176
     1
 62
    18
420
        0
176
     1
 90
       50
176
     1
 90
        3
176
     1
 62
     5
420
      255
176
     1
290
     0
176
     1
 90
       50
176
     1
 90
       50
176
     1
 90
       50
176
     1
290
     0
176
     1
 90
       50
176
     1
 62
   256
176
     0
 40
1.0
176
     0
 90
        2
176
     1
  1
strokes_ogs.tif
176
     1
290
     0
176
     1
 40
1.0
176
     1
 40
1.0
176
     1
  0
VISUALSTYLE
  5
1C9
102
{ACAD_REACTORS
330
1B9
102
}
330
1B9
100
AcDbVisualStyle
  2
ColorChange
 70
    16
177
     3
291
     1
 70
    58
 90
        2
176
     1
 90
        2
176
     1
 90
        3
176
     1
 90
        0
176
     1
 40
-0.6
176
     1
 40
-30.0
176
     1
 62
     8
176
     1
 90
        1
176
     1
 90
        4
176
     1
 62
     7
176
     1
 62
   257
176
     1
 90
        1
176
     1
 90
        1
176
     1
 40
1.0
176
     1
 90
        8
176
     1
 62
     8
176
     1
 40
1.0
176
     1
 90
        1
176
     1
 90
        6
176
     1
 90
        2
176
     1
 62
     7
176
     1
 90
        5
176
     1
 90
        0
176
     1
 90
        0
176
     1
290
     0
176
     1
 90
        1
176
     1
 40
0.0
176
     1
 90
        0
176
     1
290
     0
176
     1
290
     1
176
     1
290
     1
176
     1
290
     0
176
     1
290
     0
176
     1
290
     0
176
     1
290
     0
176
     1
290
     0
176
     1
290
     0
176
     1
 90
       50
176
     1
 40
0.0
176
     1
 40
1.0
176
     1
 90
        0
176
     1
 62
    18
420
        0
176
     1
 90
       50
176
     1
 90
        3
176
     1
 62
     5
420
      255
176
     1
290
     0
176
     1
 90
       50
176
     1
 90
       50
176
     1
 90
       50
176
     1
290
     0
176
     1
 90
       50
176
     1
 62
   256
176
     0
 40
1.0
176
     0
 90
        2
176
     1
  1
strokes_ogs.tif
176
     1
290
     0
176
     1
 40
1.0
176
     1
 40
1.0
176
     1
  0
VISUALSTYLE
  5
1C3
102
{ACAD_REACTORS
330
1B9
102
}
330
1B9
100
AcDbVisualStyle
  2
Conceptual
 70
     9
177
     3
291
     0
 70
    58
 90
        3
176
     1
 90
        2
176
     1
 90
        0
176
     1
 90
        0
176
     1
 40
-0.6
176
     1
 40
-30.0
176
     1
 62
     7
176
     1
 90
        2
176
     1
 90
        2
176
     1
 62
     7
176
     1
 62
   257
176
     1
 90
        1
176
     1
 90
        1
176
     1
 40
40.0
176
     1
 90
        8
176
     1
 62
     7
176
     1
 40
1.0
176
     1
 90
        1
176
     1
 90
        6
176
     1
 90
        2
176
     1
 62
     7
176
     1
 90
        3
176
     1
 90
        0
176
     1
 90
        0
176
     1
290
     0
176
     1
 90
        1
176
     1
 40
0.0
176
     1
 90
        0
176
     1
290
     0
176
     1
290
     1
176
     1
290
     1
176
     1
290
     0
176
     1
290
     0
176
     1
290
     0
176
     1
290
     0
176
     1
290
     0
176
     1
290
     0
176
     1
 90
       50
176
     1
 40
0.0
176
     1
 40
1.0
176
     1
 90
        0
176
     1
 62
    18
420
        0
176
     1
 90
       50
176
     1
 90
        3
176
     1
 62
     5
420
      255
176
     1
290
     0
176
     1
 90
       50
176
     1
 90
       50
176
     1
 90
       50
176
     1
290
     0
176
     1
 90
       50
176
     1
 62
   256
176
     0
 40
1.0
176
     0
 90
        2
176
     1
  1
strokes_ogs.tif
176
     1
290
     0
176
     1
 40
1.0
176
     1
 40
1.0
176
     1
  0
VISUALSTYLE
  5
1C4
102
{ACAD_REACTORS
330
1B9
102
}
330
1B9
100
AcDbVisualStyle
  2
Dim
 70
    11
177
     3
291
     1
 70
    58
 90
        2
176
     1
 90
        2
176
     1
 90
        0
176
     1
 90
        0
176
     1
 40
-0.6
176
     1
 40
-30.0
176
     1
 62
     7
176
     1
 90
        1
176
     1
 90
        4
176
     1
 62
     7
176
     1
 62
   257
176
     1
 90
        1
176
     1
 90
        1
176
     1
 40
1.0
176
     1
 90
        8
176
     1
 62
     7
176
     1
 40
1.0
176
     1
 90
        1
176
     1
 90
        6
176
     1
 90
        2
176
     1
 62
     7
176
     1
 90
        5
176
     1
 90
        0
176
     1
 90
        0
176
     1
290
     0
176
     1
 90
        1
176
     1
 40
-50.0
176
     1
 90
        0
176
     1
290
     0
176
     1
290
     1
176
     1
290
     1
176
     1
290
     0
176
     1
290
     0
176
     1
290
     0
176
     1
290
     0
176
     1
290
     0
176
     1
290
     0
176
     1
 90
       50
176
     1
 40
0.0
176
     1
 40
1.0
176
     1
 90
        0
176
     1
 62
    18
420
        0
176
     1
 90
       50
176
     1
 90
        3
176
     1
 62
     5
420
      255
176
     1
290
     0
176
     1
 90
       50
176
     1
 90
       50
176
     1
 90
       50
176
     1
290
     0
176
     1
 90
       50
176
     1
 62
   256
176
     0
 40
1.0
176
     0
 90
        2
176
     1
  1
strokes_ogs.tif
176
     1
290
     0
176
     1
 40
1.0
176
     1
 40
1.0
176
     1
  0
VISUALSTYLE
  5
234
102
{ACAD_REACTORS
330
1B9
102
}
330
1B9
100
AcDbVisualStyle
  2
EdgeColorOff
 70
    22
177
     3
291
     1
 70
    58
 90
        2
176
     0
 90
        2
176
     0
 90
        0
176
     0
 90
        0
176
     0
 40
0.6
176
     0
 40
30.0
176
     0
 62
     7
420
 16777215
176
     0
 90
        1
176
     0
 90
        4
176
     0
 62
     7
176
     0
 62
   257
176
     0
 90
        1
176
     0
 90
        1
176
     0
 40
1.0
176
     0
 90
        8
176
     2
 62
     7
176
     0
 40
1.0
176
     0
 90
        1
176
     0
 90
        6
176
     0
 90
        2
176
     0
 62
     7
176
     0
 90
        5
176
     0
 90
        0
176
     0
 90
        0
176
     0
290
     0
176
     0
 90
        1
176
     0
 40
0.0
176
     0
 90
        0
176
     0
290
     0
176
     0
290
     1
176
     0
290
     1
176
     0
290
     0
176
     0
290
     0
176
     0
290
     0
176
     0
290
     0
176
     0
290
     0
176
     0
290
     0
176
     0
 90
       50
176
     0
 40
0.0
176
     0
 40
1.0
176
     0
 90
        0
176
     0
 62
    18
420
        0
176
     0
 90
       50
176
     0
 90
        3
176
     0
 62
     5
420
      255
176
     0
290
     0
176
     0
 90
       50
176
     0
 90
       50
176
     0
 90
       50
176
     0
290
     0
176
     0
 90
       50
176
     0
 62
   256
176
     0
 40
1.0
176
     0
 90
        2
176
     0
  1
strokes_ogs.tif
176
     0
290
     0
176
     0
 40
1.0
176
     0
 40
1.0
176
     0
  0
VISUALSTYLE
  5
1C8
102
{ACAD_REACTORS
330
1B9
102
}
330
1B9
100
AcDbVisualStyle
  2
Facepattern
 70
    15
177
     3
291
     1
 70
    58
 90
        2
176
     1
 90
        2
176
     1
 90
        0
176
     1
 90
        0
176
     1
 40
-0.6
176
     1
 40
-30.0
176
     1
 62
     7
176
     1
 90
        1
176
     1
 90
        4
176
     1
 62
     7
176
     1
 62
   257
176
     1
 90
        1
176
     1
 90
        1
176
     1
 40
1.0
176
     1
 90
        8
176
     1
 62
     7
176
     1
 40
1.0
176
     1
 90
        1
176
     1
 90
        6
176
     1
 90
        2
176
     1
 62
     7
176
     1
 90
        5
176
     1
 90
        0
176
     1
 90
        0
176
     1
290
     0
176
     1
 90
        1
176
     1
 40
0.0
176
     1
 90
        0
176
     1
290
     0
176
     1
290
     1
176
     1
290
     1
176
     1
290
     0
176
     1
290
     0
176
     1
290
     0
176
     1
290
     0
176
     1
290
     0
176
     1
290
     0
176
     1
 90
       50
176
     1
 40
0.0
176
     1
 40
1.0
176
     1
 90
        0
176
     1
 62
    18
420
        0
176
     1
 90
       50
176
     1
 90
        3
176
     1
 62
     5
420
      255
176
     1
290
     0
176
     1
 90
       50
176
     1
 90
       50
176
     1
 90
       50
176
     1
290
     0
176
     1
 90
       50
176
     1
 62
   256
176
     0
 40
1.0
176
     0
 90
        2
176
     1
  1
strokes_ogs.tif
176
     1
290
     0
176
     1
 40
1.0
176
     1
 40
1.0
176
     1
  0
VISUALSTYLE
  5
1BA
102
{ACAD_REACTORS
330
1B9
102
}
330
1B9
100
AcDbVisualStyle
  2
Flat
 70
     0
177
     3
291
     1
 70
    58
 90
        2
176
     1
 90
        1
176
     1
 90
        1
176
     1
 90
        2
176
     1
 40
-0.6
176
     1
 40
30.0
176
     1
 62
     7
176
     1
 90
        0
176
     1
 90
        4
176
     1
 62
     7
176
     1
 62
   257
176
     1
 90
        1
176
     1
 90
        1
176
     1
 40
1.0
176
     1
 90
        8
176
     1
 62
     7
176
     1
 40
1.0
176
     1
 90
        1
176
     1
 90
        6
176
     1
 90
        2
176
     1
 62
     7
176
     1
 90
        5
176
     1
 90
        0
176
     1
 90
        0
176
     1
290
     0
176
     1
 90
       13
176
     1
 40
0.0
176
     1
 90
        0
176
     1
290
     0
176
     1
290
     1
176
     1
290
     1
176
     1
290
     0
176
     1
290
     0
176
     1
290
     0
176
     1
290
     0
176
     1
290
     0
176
     1
290
     0
176
     1
 90
       50
176
     1
 40
0.0
176
     1
 40
1.0
176
     1
 90
        0
176
     1
 62
    18
420
        0
176
     1
 90
       50
176
     1
 90
        3
176
     1
 62
     5
420
      255
176
     1
290
     0
176
     1
 90
       50
176
     1
 90
       50
176
     1
 90
       50
176
     1
290
     0
176
     1
 90
       50
176
     1
 62
   256
176
     0
 40
1.0
176
     0
 90
        2
176
     1
  1
strokes_ogs.tif
176
     1
290
     0
176
     1
 40
1.0
176
     1
 40
1.0
176
     1
  0
VISUALSTYLE
  5
1BB
102
{ACAD_REACTORS
330
1B9
102
}
330
1B9
100
AcDbVisualStyle
  2
FlatWithEdges
 70
     1
177
     3
291
     1
 70
    58
 90
        2
176
     1
 90
        1
176
     1
 90
        1
176
     1
 90
        2
176
     1
 40
-0.6
176
     1
 40
30.0
176
     1
 62
     7
176
     1
 90
        1
176
     1
 90
        4
176
     1
 62
     7
176
     1
 62
   257
176
     1
 90
        1
176
     1
 90
        1
176
     1
 40
1.0
176
     1
 90
        0
176
     1
 62
   257
176
     1
 40
1.0
176
     1
 90
        1
176
     1
 90
        6
176
     1
 90
        2
176
     1
 62
     7
176
     1
 90
        5
176
     1
 90
        0
176
     1
 90
        0
176
     1
290
     0
176
     1
 90
       13
176
     1
 40
0.0
176
     1
 90
        0
176
     1
290
     0
176
     1
290
     1
176
     1
290
     1
176
     1
290
     0
176
     1
290
     0
176
     1
290
     0
176
     1
290
     0
176
     1
290
     0
176
     1
290
     0
176
     1
 90
       50
176
     1
 40
0.0
176
     1
 40
1.0
176
     1
 90
        0
176
     1
 62
    18
420
        0
176
     1
 90
       50
176
     1
 90
        3
176
     1
 62
     5
420
      255
176
     1
290
     0
176
     1
 90
       50
176
     1
 90
       50
176
     1
 90
       50
176
     1
290
     0
176
     1
 90
       50
176
     1
 62
   256
176
     0
 40
1.0
176
     0
 90
        2
176
     1
  1
strokes_ogs.tif
176
     1
290
     0
176
     1
 40
1.0
176
     1
 40
1.0
176
     1
  0
VISUALSTYLE
  5
1BC
102
{ACAD_REACTORS
330
1B9
102
}
330
1B9
100
AcDbVisualStyle
  2
Gouraud
 70
     2
177
     3
291
     1
 70
    58
 90
        2
176
     1
 90
        2
176
     1
 90
        1
176
     1
 90
        2
176
     1
 40
-0.6
176
     1
 40
30.0
176
     1
 62
     7
176
     1
 90
        0
176
     1
 90
        4
176
     1
 62
     7
176
     1
 62
   257
176
     1
 90
        1
176
     1
 90
        1
176
     1
 40
1.0
176
     1
 90
        0
176
     1
 62
     7
176
     1
 40
1.0
176
     1
 90
        1
176
     1
 90
        6
176
     1
 90
        2
176
     1
 62
     7
176
     1
 90
        5
176
     1
 90
        0
176
     1
 90
        0
176
     1
290
     0
176
     1
 90
       13
176
     1
 40
0.0
176
     1
 90
        0
176
     1
290
     0
176
     1
290
     1
176
     1
290
     1
176
     1
290
     0
176
     1
290
     0
176
     1
290
     0
176
     1
290
     0
176
     1
290
     0
176
     1
290
     0
176
     1
 90
       50
176
     1
 40
0.0
176
     1
 40
1.0
176
     1
 90
        0
176
     1
 62
    18
420
        0
176
     1
 90
       50
176
     1
 90
        3
176
     1
 62
     5
420
      255
176
     1
290
     0
176
     1
 90
       50
176
     1
 90
       50
176
     1
 90
       50
176
     1
290
     0
176
     1
 90
       50
176
     1
 62
   256
176
     0
 40
1.0
176
     0
 90
        2
176
     1
  1
strokes_ogs.tif
176
     1
290
     0
176
     1
 40
1.0
176
     1
 40
1.0
176
     1
  0
VISUALSTYLE
  5
1BD
102
{ACAD_REACTORS
330
1B9
102
}
330
1B9
100
AcDbVisualStyle
  2
GouraudWithEdges
 70
     3
177
     3
291
     1
 70
    58
 90
        2
176
     1
 90
        2
176
     1
 90
        1
176
     1
 90
        2
176
     1
 40
-0.6
176
     1
 40
30.0
176
     1
 62
     7
176
     1
 90
        1
176
     1
 90
        4
176
     1
 62
     7
176
     1
 62
   257
176
     1
 90
        1
176
     1
 90
        1
176
     1
 40
1.0
176
     1
 90
        0
176
     1
 62
   257
176
     1
 40
1.0
176
     1
 90
        1
176
     1
 90
        6
176
     1
 90
        2
176
     1
 62
     7
176
     1
 90
        5
176
     1
 90
        0
176
     1
 90
        0
176
     1
290
     0
176
     1
 90
       13
176
     1
 40
0.0
176
     1
 90
        0
176
     1
290
     0
176
     1
290
     1
176
     1
290
     1
176
     1
290
     0
176
     1
290
     0
176
     1
290
     0
176
     1
290
     0
176
     1
290
     0
176
     1
290
     0
176
     1
 90
       50
176
     1
 40
0.0
176
     1
 40
1.0
176
     1
 90
        0
176
     1
 62
    18
420
        0
176
     1
 90
       50
176
     1
 90
        3
176
     1
 62
     5
420
      255
176
     1
290
     0
176
     1
 90
       50
176
     1
 90
       50
176
     1
 90
       50
176
     1
290
     0
176
     1
 90
       50
176
     1
 62
   256
176
     0
 40
1.0
176
     0
 90
        2
176
     1
  1
strokes_ogs.tif
176
     1
290
     0
176
     1
 40
1.0
176
     1
 40
1.0
176
     1
  0
VISUALSTYLE
  5
231
102
{ACAD_REACTORS
330
1B9
102
}
330
1B9
100
AcDbVisualStyle
  2
Hidden
 70
     6
177
     3
291
     0
 70
    58
 90
        1
176
     1
 90
        2
176
     1
 90
        2
176
     1
 90
        0
176
     1
 40
0.6
176
     1
 40
30.0
176
     1
 62
     7
420
 16777215
176
     1
 90
        2
176
     1
 90
        2
176
     1
 62
     7
176
     1
 62
   257
176
     1
 90
        2
176
     1
 90
        1
176
     1
 40
40.0
176
     1
 90
        0
176
     1
 62
   257
176
     1
 40
1.0
176
     1
 90
        1
176
     1
 90
        6
176
     1
 90
        2
176
     1
 62
     7
176
     1
 90
        3
176
     1
 90
        0
176
     1
 90
        0
176
     1
290
     0
176
     1
 90
        1
176
     1
 40
0.0
176
     1
 90
        0
176
     1
290
     0
176
     1
290
     1
176
     1
290
     1
176
     1
290
     0
176
     1
290
     0
176
     1
290
     0
176
     1
290
     0
176
     1
290
     0
176
     1
290
     0
176
     1
 90
       50
176
     1
 40
0.0
176
     1
 40
1.0
176
     1
 90
        0
176
     1
 62
    18
420
        0
176
     1
 90
       50
176
     1
 90
        3
176
     1
 62
     5
420
      255
176
     1
290
     0
176
     1
 90
       50
176
     1
 90
       50
176
     1
 90
       50
176
     1
290
     0
176
     1
 90
       50
176
     1
 62
   256
176
     0
 40
1.0
176
     0
 90
        2
176
     1
  1
strokes_ogs.tif
176
     1
290
     0
176
     1
 40
1.0
176
     1
 40
1.0
176
     1
  0
VISUALSTYLE
  5
232
102
{ACAD_REACTORS
330
1B9
102
}
330
1B9
100
AcDbVisualStyle
  2
JitterOff
 70
    20
177
     3
291
     1
 70
    58
 90
        2
176
     0
 90
        2
176
     0
 90
        0
176
     0
 90
        0
176
     0
 40
0.6
176
     0
 40
30.0
176
     0
 62
     7
420
 16777215
176
     0
 90
        1
176
     0
 90
        4
176
     0
 62
     7
176
     0
 62
   257
176
     0
 90
        1
176
     0
 90
        1
176
     0
 40
1.0
176
     0
 90
       10
176
     2
 62
     7
176
     0
 40
1.0
176
     0
 90
        1
176
     0
 90
        6
176
     0
 90
        2
176
     0
 62
     7
176
     0
 90
        5
176
     0
 90
        0
176
     0
 90
        0
176
     0
290
     0
176
     0
 90
        1
176
     0
 40
0.0
176
     0
 90
        0
176
     0
290
     0
176
     0
290
     1
176
     0
290
     1
176
     0
290
     0
176
     0
290
     0
176
     0
290
     0
176
     0
290
     0
176
     0
290
     0
176
     0
290
     0
176
     0
 90
       50
176
     0
 40
0.0
176
     0
 40
1.0
176
     0
 90
        0
176
     0
 62
    18
420
        0
176
     0
 90
       50
176
     0
 90
        3
176
     0
 62
     5
420
      255
176
     0
290
     0
176
     0
 90
       50
176
     0
 90
       50
176
     0
 90
       50
176
     0
290
     0
176
     0
 90
       50
176
     0
 62
   256
176
     0
 40
1.0
176
     0
 90
        2
176
     0
  1
strokes_ogs.tif
176
     0
290
     0
176
     0
 40
1.0
176
     0
 40
1.0
176
     0
  0
VISUALSTYLE
  5
1C7
102
{ACAD_REACTORS
330
1B9
102
}
330
1B9
100
AcDbVisualStyle
  2
Linepattern
 70
    14
177
     3
291
     1
 70
    58
 90
        2
176
     1
 90
        2
176
     1
 90
        0
176
     1
 90
        0
176
     1
 40
-0.6
176
     1
 40
-30.0
176
     1
 62
     7
176
     1
 90
        1
176
     1
 90
        4
176
     1
 62
     7
176
     1
 62
   257
176
     1
 90
        7
176
     1
 90
        7
176
     1
 40
1.0
176
     1
 90
        8
176
     1
 62
     7
176
     1
 40
1.0
176
     1
 90
        1
176
     1
 90
        6
176
     1
 90
        2
176
     1
 62
     7
176
     1
 90
        5
176
     1
 90
        0
176
     1
 90
        0
176
     1
290
     0
176
     1
 90
        1
176
     1
 40
0.0
176
     1
 90
        0
176
     1
290
     0
176
     1
290
     1
176
     1
290
     1
176
     1
290
     0
176
     1
290
     0
176
     1
290
     0
176
     1
290
     0
176
     1
290
     0
176
     1
290
     0
176
     1
 90
       50
176
     1
 40
0.0
176
     1
 40
1.0
176
     1
 90
        0
176
     1
 62
    18
420
        0
176
     1
 90
       50
176
     1
 90
        3
176
     1
 62
     5
420
      255
176
     1
290
     0
176
     1
 90
       50
176
     1
 90
       50
176
     1
 90
       50
176
     1
290
     0
176
     1
 90
       50
176
     1
 62
   256
176
     0
 40
1.0
176
     0
 90
        2
176
     1
  1
strokes_ogs.tif
176
     1
290
     0
176
     1
 40
1.0
176
     1
 40
1.0
176
     1
  0
VISUALSTYLE
  5
233
102
{ACAD_REACTORS
330
1B9
102
}
330
1B9
100
AcDbVisualStyle
  2
OverhangOff
 70
    21
177
     3
291
     1
 70
    58
 90
        2
176
     0
 90
        2
176
     0
 90
        0
176
     0
 90
        0
176
     0
 40
0.6
176
     0
 40
30.0
176
     0
 62
     7
420
 16777215
176
     0
 90
        1
176
     0
 90
        4
176
     0
 62
     7
176
     0
 62
   257
176
     0
 90
        1
176
     0
 90
        1
176
     0
 40
1.0
176
     0
 90
        9
176
     2
 62
     7
176
     0
 40
1.0
176
     0
 90
        1
176
     0
 90
        6
176
     0
 90
        2
176
     0
 62
     7
176
     0
 90
        5
176
     0
 90
        0
176
     0
 90
        0
176
     0
290
     0
176
     0
 90
        1
176
     0
 40
0.0
176
     0
 90
        0
176
     0
290
     0
176
     0
290
     1
176
     0
290
     1
176
     0
290
     0
176
     0
290
     0
176
     0
290
     0
176
     0
290
     0
176
     0
290
     0
176
     0
290
     0
176
     0
 90
       50
176
     0
 40
0.0
176
     0
 40
1.0
176
     0
 90
        0
176
     0
 62
    18
420
        0
176
     0
 90
       50
176
     0
 90
        3
176
     0
 62
     5
420
      255
176
     0
290
     0
176
     0
 90
       50
176
     0
 90
       50
176
     0
 90
       50
176
     0
290
     0
176
     0
 90
       50
176
     0
 62
   256
176
     0
 40
1.0
176
     0
 90
        2
176
     0
  1
strokes_ogs.tif
176
     0
290
     0
176
     0
 40
1.0
176
     0
 40
1.0
176
     0
  0
VISUALSTYLE
  5
1C2
102
{ACAD_REACTORS
330
1B9
102
}
330
1B9
100
AcDbVisualStyle
  2
Realistic
 70
     8
177
     3
291
     0
 70
    58
 90
        2
176
     1
 90
        2
176
     1
 90
        0
176
     1
 90
        0
176
     1
 40
-0.6
176
     1
 40
-30.0
176
     1
 62
     7
176
     1
 90
        1
176
     1
 90
        0
176
     1
 62
     7
176
     1
 62
   257
176
     1
 90
        1
176
     1
 90
        1
176
     1
 40
1.0
176
     1
 90
        8
176
     1
 62
     8
176
     1
 40
1.0
176
     1
 90
        1
176
     1
 90
        6
176
     1
 90
        2
176
     1
 62
     7
176
     1
 90
        5
176
     1
 90
        0
176
     1
 90
        0
176
     1
290
     0
176
     1
 90
       13
176
     1
 40
0.0
176
     1
 90
        0
176
     1
290
     0
176
     1
290
     1
176
     1
290
     1
176
     1
290
     0
176
     1
290
     0
176
     1
290
     0
176
     1
290
     0
176
     1
290
     0
176
     1
290
     0
176
     1
 90
       50
176
     1
 40
0.0
176
     1
 40
1.0
176
     1
 90
        0
176
     1
 62
    18
420
        0
176
     1
 90
       50
176
     1
 90
        3
176
     1
 62
     5
420
      255
176
     1
290
     0
176
     1
 90
       50
176
     1
 90
       50
176
     1
 90
       50
176
     1
290
     0
176
     1
 90
       50
176
     1
 62
   256
176
     0
 40
1.0
176
     0
 90
        2
176
     1
  1
strokes_ogs.tif
176
     1
290
     0
176
     1
 40
1.0
176
     1
 40
1.0
176
     1
  0
VISUALSTYLE
  5
239
102
{ACAD_REACTORS
330
1B9
102
}
330
1B9
100
AcDbVisualStyle
  2
Shaded
 70
    27
177
     3
291
     0
 70
    58
 90
        2
176
     1
 90
        2
176
     1
 90
        1
176
     1
 90
        2
176
     1
 40
0.6
176
     1
 40
30.0
176
     1
 62
     7
420
 16777215
176
     1
 90
        0
176
     1
 90
        4
176
     1
 62
     7
176
     1
 62
   257
176
     1
 90
        1
176
     1
 90
        1
176
     1
 40
1.0
176
     1
 90
        8
176
     1
 62
   257
176
     1
 40
1.0
176
     1
 90
        1
176
     1
 90
        6
176
     1
 90
        2
176
     1
 62
     8
420
  7895160
176
     1
 90
        3
176
     1
 90
        0
176
     1
 90
        0
176
     1
290
     0
176
     1
 90
        5
176
     1
 40
0.0
176
     1
 90
        0
176
     1
290
     0
176
     1
290
     1
176
     1
290
     1
176
     1
290
     0
176
     1
290
     0
176
     1
290
     0
176
     1
290
     0
176
     1
290
     0
176
     1
290
     0
176
     1
 90
       50
176
     1
 40
0.0
176
     1
 40
1.0
176
     1
 90
        0
176
     1
 62
    18
420
        0
176
     1
 90
       50
176
     1
 90
        3
176
     1
 62
     5
420
      255
176
     1
290
     0
176
     1
 90
       50
176
     1
 90
       50
176
     1
 90
       50
176
     1
290
     0
176
     1
 90
       50
176
     1
 62
   256
176
     0
 40
1.0
176
     0
 90
        2
176
     1
  1
strokes_ogs.tif
176
     1
290
     0
176
     1
 40
1.0
176
     1
 40
1.0
176
     1
  0
VISUALSTYLE
  5
238
102
{ACAD_REACTORS
330
1B9
102
}
330
1B9
100
AcDbVisualStyle
  2
Shaded with edges
 70
    26
177
     3
291
     0
 70
    58
 90
        2
176
     1
 90
        2
176
     1
 90
        1
176
     1
 90
        2
176
     1
 40
0.6
176
     1
 40
30.0
176
     1
 62
     7
420
 16777215
176
     1
 90
        1
176
     1
 90
       10
176
     1
 62
     7
176
     1
 62
   257
176
     1
 90
        2
176
     1
 90
        1
176
     1
 40
1.0
176
     1
 90
        8
176
     1
 62
   257
176
     1
 40
1.0
176
     1
 90
        1
176
     1
 90
        6
176
     1
 90
        2
176
     1
 62
     7
176
     1
 90
        3
176
     1
 90
        0
176
     1
 90
        0
176
     1
290
     0
176
     1
 90
        5
176
     1
 40
0.0
176
     1
 90
        0
176
     1
290
     0
176
     1
290
     1
176
     1
290
     1
176
     1
290
     0
176
     1
290
     0
176
     1
290
     0
176
     1
290
     0
176
     1
290
     0
176
     1
290
     0
176
     1
 90
       50
176
     1
 40
0.0
176
     1
 40
1.0
176
     1
 90
        0
176
     1
 62
    18
420
        0
176
     1
 90
       50
176
     1
 90
        3
176
     1
 62
     5
420
      255
176
     1
290
     0
176
     1
 90
       50
176
     1
 90
       50
176
     1
 90
       50
176
     1
290
     0
176
     1
 90
       50
176
     1
 62
   256
176
     0
 40
1.0
176
     0
 90
        2
176
     1
  1
strokes_ogs.tif
176
     1
290
     0
176
     1
 40
1.0
176
     1
 40
1.0
176
     1
  0
VISUALSTYLE
  5
235
102
{ACAD_REACTORS
330
1B9
102
}
330
1B9
100
AcDbVisualStyle
  2
Shades of Gray
 70
    23
177
     3
291
     0
 70
    58
 90
        2
176
     1
 90
        2
176
     1
 90
        3
176
     1
 90
        0
176
     1
 40
0.6
176
     1
 40
30.0
176
     1
 62
     7
420
 16777215
176
     1
 90
        2
176
     1
 90
        2
176
     1
 62
     7
176
     1
 62
     7
176
     1
 90
        1
176
     1
 90
        1
176
     1
 40
40.0
176
     1
 90
        8
176
     1
 62
     7
176
     1
 40
1.0
176
     1
 90
        1
176
     1
 90
        6
176
     1
 90
        2
176
     1
 62
     7
176
     1
 90
        3
176
     1
 90
        0
176
     1
 90
        0
176
     1
290
     0
176
     1
 90
        1
176
     1
 40
0.0
176
     1
 90
        0
176
     1
290
     0
176
     1
290
     1
176
     1
290
     1
176
     1
290
     0
176
     1
290
     0
176
     1
290
     0
176
     1
290
     0
176
     1
290
     0
176
     1
290
     0
176
     1
 90
       50
176
     1
 40
0.0
176
     1
 40
1.0
176
     1
 90
        0
176
     1
 62
    18
420
        0
176
     1
 90
       50
176
     1
 90
        3
176
     1
 62
     5
420
      255
176
     1
290
     0
176
     1
 90
       50
176
     1
 90
       50
176
     1
 90
       50
176
     1
290
     0
176
     1
 90
       50
176
     1
 62
   256
176
     0
 40
1.0
176
     0
 90
        2
176
     1
  1
strokes_ogs.tif
176
     1
290
     0
176
     1
 40
1.0
176
     1
 40
1.0
176
     1
  0
VISUALSTYLE
  5
236
102
{ACAD_REACTORS
330
1B9
102
}
330
1B9
100
AcDbVisualStyle
  2
Sketchy
 70
    24
177
     3
291
     0
 70
    58
 90
        1
176
     1
 90
        2
176
     1
 90
        2
176
     1
 90
        0
176
     1
 40
0.6
176
     1
 40
30.0
176
     1
 62
     7
420
 16777215
176
     1
 90
        2
176
     1
 90
        2
176
     1
 62
     7
176
     1
 62
     7
176
     1
 90
        1
176
     1
 90
        1
176
     1
 40
40.0
176
     1
 90
       11
176
     1
 62
     7
176
     1
 40
1.0
176
     1
 90
        1
176
     1
 90
        6
176
     1
 90
        2
176
     1
 62
     7
176
     1
 90
        6
176
     1
 90
        0
176
     1
 90
        0
176
     1
290
     0
176
     1
 90
        1
176
     1
 40
0.0
176
     1
 90
        0
176
     1
290
     0
176
     1
290
     1
176
     1
290
     1
176
     1
290
     0
176
     1
290
     0
176
     1
290
     0
176
     1
290
     0
176
     1
290
     0
176
     1
290
     0
176
     1
 90
       50
176
     1
 40
0.0
176
     1
 40
1.0
176
     1
 90
        0
176
     1
 62
    18
420
        0
176
     1
 90
       50
176
     1
 90
        3
176
     1
 62
     5
420
      255
176
     1
290
     0
176
     1
 90
       50
176
     1
 90
       50
176
     1
 90
       50
176
     1
290
     0
176
     1
 90
       50
176
     1
 62
   256
176
     0
 40
1.0
176
     0
 90
        2
176
     1
  1
strokes_ogs.tif
176
     1
290
     0
176
     1
 40
1.0
176
     1
 40
1.0
176
     1
  0
VISUALSTYLE
  5
1C6
102
{ACAD_REACTORS
330
1B9
102
}
330
1B9
100
AcDbVisualStyle
  2
Thicken
 70
    13
177
     3
291
     1
 70
    58
 90
        2
176
     1
 90
        2
176
     1
 90
        0
176
     1
 90
        0
176
     1
 40
-0.6
176
     1
 40
-30.0
176
     1
 62
     7
176
     1
 90
        1
176
     1
 90
        4
176
     1
 62
     7
176
     1
 62
   257
176
     1
 90
        1
176
     1
 90
        1
176
     1
 40
1.0
176
     1
 90
       12
176
     1
 62
     7
176
     1
 40
1.0
176
     1
 90
        1
176
     1
 90
        6
176
     1
 90
        2
176
     1
 62
     7
176
     1
 90
        5
176
     1
 90
        0
176
     1
 90
        0
176
     1
290
     0
176
     1
 90
        1
176
     1
 40
0.0
176
     1
 90
        0
176
     1
290
     0
176
     1
290
     1
176
     1
290
     1
176
     1
290
     0
176
     1
290
     0
176
     1
290
     0
176
     1
290
     0
176
     1
290
     0
176
     1
290
     0
176
     1
 90
       50
176
     1
 40
0.0
176
     1
 40
1.0
176
     1
 90
        0
176
     1
 62
    18
420
        0
176
     1
 90
       50
176
     1
 90
        3
176
     1
 62
     5
420
      255
176
     1
290
     0
176
     1
 90
       50
176
     1
 90
       50
176
     1
 90
       50
176
     1
290
     0
176
     1
 90
       50
176
     1
 62
   256
176
     0
 40
1.0
176
     0
 90
        2
176
     1
  1
strokes_ogs.tif
176
     1
290
     0
176
     1
 40
1.0
176
     1
 40
1.0
176
     1
  0
VISUALSTYLE
  5
230
102
{ACAD_REACTORS
330
1B9
102
}
330
1B9
100
AcDbVisualStyle
  2
Wireframe
 70
     5
177
     3
291
     0
 70
    58
 90
        0
176
     1
 90
        2
176
     1
 90
        0
176
     1
 90
        0
176
     1
 40
0.6
176
     1
 40
30.0
176
     1
 62
     7
420
 16777215
176
     1
 90
        1
176
     1
 90
        4
176
     1
 62
     7
176
     1
 62
   257
176
     1
 90
        1
176
     1
 90
        1
176
     1
 40
1.0
176
     1
 90
        0
176
     1
 62
   257
176
     1
 40
1.0
176
     1
 90
        1
176
     1
 90
        6
176
     1
 90
        2
176
     1
 62
     7
176
     1
 90
        3
176
     1
 90
        0
176
     1
 90
        0
176
     1
290
     0
176
     1
 90
        1
176
     1
 40
0.0
176
     1
 90
        0
176
     1
290
     0
176
     1
290
     1
176
     1
290
     1
176
     1
290
     0
176
     1
290
     0
176
     1
290
     0
176
     1
290
     0
176
     1
290
     0
176
     1
290
     0
176
     1
 90
       50
176
     1
 40
0.0
176
     1
 40
1.0
176
     1
 90
        0
176
     1
 62
    18
420
        0
176
     1
 90
       50
176
     1
 90
        3
176
     1
 62
     5
420
      255
176
     1
290
     0
176
     1
 90
       50
176
     1
 90
       50
176
     1
 90
       50
176
     1
290
     0
176
     1
 90
       50
176
     1
 62
   256
176
     0
 40
1.0
176
     0
 90
        2
176
     1
  1
strokes_ogs.tif
176
     1
290
     0
176
     1
 40
1.0
176
     1
 40
1.0
176
     1
  0
VISUALSTYLE
  5
237
102
{ACAD_REACTORS
330
1B9
102
}
330
1B9
100
AcDbVisualStyle
  2
X-Ray
 70
    25
177
     3
291
     0
 70
    58
 90
        2
176
     1
 90
        2
176
     1
 90
        1
176
     1
 90
        1
176
     1
 40
0.5
176
     1
 40
30.0
176
     1
 62
     7
420
 16777215
176
     1
 90
        1
176
     1
 90
        0
176
     1
 62
     7
176
     1
 62
   257
176
     1
 90
        1
176
     1
 90
        1
176
     1
 40
1.0
176
     1
 90
        8
176
     1
 62
     7
176
     1
 40
1.0
176
     1
 90
        1
176
     1
 90
        6
176
     1
 90
        2
176
     1
 62
     7
176
     1
 90
        3
176
     1
 90
        0
176
     1
 90
        0
176
     1
290
     0
176
     1
 90
       13
176
     1
 40
0.0
176
     1
 90
        0
176
     1
290
     0
176
     1
290
     1
176
     1
290
     1
176
     1
290
     0
176
     1
290
     0
176
     1
290
     0
176
     1
290
     0
176
     1
290
     0
176
     1
290
     0
176
     1
 90
       50
176
     1
 40
0.0
176
     1
 40
1.0
176
     1
 90
        0
176
     1
 62
    18
420
        0
176
     1
 90
       50
176
     1
 90
        3
176
     1
 62
     5
420
      255
176
     1
290
     0
176
     1
 90
       50
176
     1
 90
       50
176
     1
 90
       50
176
     1
290
     0
176
     1
 90
       50
176
     1
 62
   256
176
     0
 40
1.0
176
     0
 90
        2
176
     1
  1
strokes_ogs.tif
176
     1
290
     0
176
     1
 40
1.0
176
     1
 40
1.0
176
     1
  0
DICTIONARYVAR
  5
260
102
{ACAD_REACTORS
330
1E9
102
}
330
1E9
100
DictionaryVariables
280
     0
  1
1:1
  0
DICTIONARYVAR
  5
262
102
{ACAD_REACTORS
330
1E9
102
}
330
1E9
100
DictionaryVariables
280
     0
  1
Standard
  0
DICTIONARYVAR
  5
261
102
{ACAD_REACTORS
330
1E9
102
}
330
1E9
100
DictionaryVariables
280
     0
  1
Standard
  0
DICTIONARYVAR
  5
1ED
102
{ACAD_REACTORS
330
1E9
102
}
330
1E9
100
DictionaryVariables
280
     0
  1
2
  0
DICTIONARYVAR
  5
1EE
102
{ACAD_REACTORS
330
1E9
102
}
330
1E9
100
DictionaryVariables
280
     0
  1
1
  0
DICTIONARYVAR
  5
1EC
102
{ACAD_REACTORS
330
1E9
102
}
330
1E9
100
DictionaryVariables
280
     0
  1
0
  0
XRECORD
  5
30E
102
{ACAD_REACTORS
330
30C
102
}
330
30C
100
AcDbXrecord
280
     1
  2

  2

  2

 40
0.0
 40
0.0
 90
        0
 40
69.85
 90
        2
 90
        3
 90
        0
 90
        5
  2

  2

  2

  2

290
     0
290
     0
  2
0
  2
ø69.85
  0
XRECORD
  5
30A
102
{ACAD_REACTORS
330
305
102
}
330
305
100
AcDbXrecord
280
     1
290
     1
  0
XRECORD
  5
30B
102
{ACAD_REACTORS
330
305
102
}
330
305
100
AcDbXrecord
280
     1
290
     1
  0
DICTIONARY
  5
38D
330
23B
100
AcDbDictionary
280
     1
281
     1
  3
ACAD_ROUNDTRIP_2008_TABLESTYLE_CELLSTYLEMAP
360
38E
  0
CELLSTYLEMAP
  5
38E
102
{ACAD_REACTORS
330
38D
102
}
330
38D
100
AcDbCellStyleMap
 90
        3
300
CELLSTYLE
  1
TABLEFORMAT_BEGIN
 90
        5
170
     1
 91
        0
 92
    32768
 62
   257
 93
        1
300
CONTENTFORMAT
  1
CONTENTFORMAT_BEGIN
 90
        0
 91
        0
 92
        4
 93
        0
300

 40
0.0
140
1.0
 94
        5
 62
     0
340
11
144
6.0
309
CONTENTFORMAT_END
171
     1
301
MARGIN
  1
CELLMARGIN_BEGIN
 40
1.5
 40
1.5
 40
1.5
 40
1.5
 40
1.5
 40
1.5
309
CELLMARGIN_END
 94
        6
 95
        1
302
GRIDFORMAT
  1
GRIDFORMAT_BEGIN
 90
        0
 91
        1
 62
     0
 92
       -2
340
14
 93
        0
 40
0.045
309
GRIDFORMAT_END
 95
        2
302
GRIDFORMAT
  1
GRIDFORMAT_BEGIN
 90
        0
 91
        1
 62
     0
 92
       -2
340
14
 93
        0
 40
0.045
309
GRIDFORMAT_END
 95
        4
302
GRIDFORMAT
  1
GRIDFORMAT_BEGIN
 90
        0
 91
        1
 62
     0
 92
       -2
340
14
 93
        0
 40
0.045
309
GRIDFORMAT_END
 95
        8
302
GRIDFORMAT
  1
GRIDFORMAT_BEGIN
 90
        0
 91
        1
 62
     0
 92
       -2
340
14
 93
        0
 40
0.045
309
GRIDFORMAT_END
 95
       16
302
GRIDFORMAT
  1
GRIDFORMAT_BEGIN
 90
        0
 91
        1
 62
     0
 92
       -2
340
14
 93
        0
 40
0.045
309
GRIDFORMAT_END
 95
       32
302
GRIDFORMAT
  1
GRIDFORMAT_BEGIN
 90
        0
 91
        1
 62
     0
 92
       -2
340
14
 93
        0
 40
0.045
309
GRIDFORMAT_END
309
TABLEFORMAT_END
  1
CELLSTYLE_BEGIN
 90
        1
 91
        1
300
_TITLE
309
CELLSTYLE_END
300
CELLSTYLE
  1
TABLEFORMAT_BEGIN
 90
        5
170
     1
 91
        0
 92
        0
 62
   257
 93
        1
300
CONTENTFORMAT
  1
CONTENTFORMAT_BEGIN
 90
        0
 91
        0
 92
        4
 93
        0
300

 40
0.0
140
1.0
 94
        5
 62
     0
340
11
144
4.5
309
CONTENTFORMAT_END
171
     1
301
MARGIN
  1
CELLMARGIN_BEGIN
 40
1.5
 40
1.5
 40
1.5
 40
1.5
 40
1.5
 40
1.5
309
CELLMARGIN_END
 94
        6
 95
        1
302
GRIDFORMAT
  1
GRIDFORMAT_BEGIN
 90
        0
 91
        1
 62
     0
 92
       -2
340
14
 93
        0
 40
0.045
309
GRIDFORMAT_END
 95
        2
302
GRIDFORMAT
  1
GRIDFORMAT_BEGIN
 90
        0
 91
        1
 62
     0
 92
       -2
340
14
 93
        0
 40
0.045
309
GRIDFORMAT_END
 95
        4
302
GRIDFORMAT
  1
GRIDFORMAT_BEGIN
 90
        0
 91
        1
 62
     0
 92
       -2
340
14
 93
        0
 40
0.045
309
GRIDFORMAT_END
 95
        8
302
GRIDFORMAT
  1
GRIDFORMAT_BEGIN
 90
        0
 91
        1
 62
     0
 92
       -2
340
14
 93
        0
 40
0.045
309
GRIDFORMAT_END
 95
       16
302
GRIDFORMAT
  1
GRIDFORMAT_BEGIN
 90
        0
 91
        1
 62
     0
 92
       -2
340
14
 93
        0
 40
0.045
309
GRIDFORMAT_END
 95
       32
302
GRIDFORMAT
  1
GRIDFORMAT_BEGIN
 90
        0
 91
        1
 62
     0
 92
       -2
340
14
 93
        0
 40
0.045
309
GRIDFORMAT_END
309
TABLEFORMAT_END
  1
CELLSTYLE_BEGIN
 90
        2
 91
        1
300
_HEADER
309
CELLSTYLE_END
300
CELLSTYLE
  1
TABLEFORMAT_BEGIN
 90
        5
170
     1
 91
        0
 92
        0
 62
   257
 93
        1
300
CONTENTFORMAT
  1
CONTENTFORMAT_BEGIN
 90
        0
 91
        0
 92
        4
 93
        0
300

 40
0.0
140
1.0
 94
        2
 62
     0
340
11
144
4.5
309
CONTENTFORMAT_END
171
     1
301
MARGIN
  1
CELLMARGIN_BEGIN
 40
1.5
 40
1.5
 40
1.5
 40
1.5
 40
1.5
 40
1.5
309
CELLMARGIN_END
 94
        6
 95
        1
302
GRIDFORMAT
  1
GRIDFORMAT_BEGIN
 90
        0
 91
        1
 62
     0
 92
       -2
340
14
 93
        0
 40
0.045
309
GRIDFORMAT_END
 95
        2
302
GRIDFORMAT
  1
GRIDFORMAT_BEGIN
 90
        0
 91
        1
 62
     0
 92
       -2
340
14
 93
        0
 40
0.045
309
GRIDFORMAT_END
 95
        4
302
GRIDFORMAT
  1
GRIDFORMAT_BEGIN
 90
        0
 91
        1
 62
     0
 92
       -2
340
14
 93
        0
 40
0.045
309
GRIDFORMAT_END
 95
        8
302
GRIDFORMAT
  1
GRIDFORMAT_BEGIN
 90
        0
 91
        1
 62
     0
 92
       -2
340
14
 93
        0
 40
0.045
309
GRIDFORMAT_END
 95
       16
302
GRIDFORMAT
  1
GRIDFORMAT_BEGIN
 90
        0
 91
        1
 62
     0
 92
       -2
340
14
 93
        0
 40
0.045
309
GRIDFORMAT_END
 95
       32
302
GRIDFORMAT
  1
GRIDFORMAT_BEGIN
 90
        0
 91
        1
 62
     0
 92
       -2
340
14
 93
        0
 40
0.045
309
GRIDFORMAT_END
309
TABLEFORMAT_END
  1
CELLSTYLE_BEGIN
 90
        3
 91
        2
300
_DATA
309
CELLSTYLE_END
  0
ENDSEC
  0
EOF
