  0
SECTION
  2
HEADER
  9
$ACADVER
  1
AC1027
  9
$ACADMAINTVER
 70
   105
  9
$DWGCODEPAGE
  3
ANSI_1252
  9
$REQUIREDVERSIONS
160
                 0
  9
$LASTSAVEDBY
  1
matthias.ochs
  9
$INSBASE
 10
0.0
 20
0.0
 30
0.0
  9
$EXTMIN
 10
-114.9769667108324
 20
-104.5125517118061
 30
0.0
  9
$EXTMAX
 10
167.233399142826
 20
103.2465946296572
 30
0.0
  9
$LIMMIN
 10
0.0
 20
0.0
  9
$LIMMAX
 10
420.0
 20
297.0
  9
$ORTHOMODE
 70
     0
  9
$REGENMODE
 70
     1
  9
$FILLMODE
 70
     1
  9
$QTEXTMODE
 70
     0
  9
$MIRRTEXT
 70
     1
  9
$LTSCALE
 40
1.0
  9
$ATTMODE
 70
     1
  9
$TEXTSIZE
 40
3.5
  9
$TRACEWID
 40
1.0
  9
$TEXTSTYLE
  7
STANDARD
  9
$CLAYER
  8
3
  9
$CELTYPE
  6
BYLAYER
  9
$CECOLOR
 62
   256
  9
$CELTSCALE
 40
1.0
  9
$DISPSILH
 70
     0
  9
$DIMSCALE
 40
1.0
  9
$DIMASZ
 40
3.5
  9
$DIMEXO
 40
0.0
  9
$DIMDLI
 40
3.75
  9
$DIMRND
 40
0.0
  9
$DIMDLE
 40
0.0
  9
$DIMEXE
 40
1.0
  9
$DIMTP
 40
0.0
  9
$DIMTM
 40
0.0
  9
$DIMTXT
 40
3.5
  9
$DIMCEN
 40
2.5
  9
$DIMTSZ
 40
0.0
  9
$DIMTOL
 70
     0
  9
$DIMLIM
 70
     0
  9
$DIMTIH
 70
     1
  9
$DIMTOH
 70
     1
  9
$DIMSE1
 70
     0
  9
$DIMSE2
 70
     0
  9
$DIMTAD
 70
     1
  9
$DIMZIN
 70
     0
  9
$DIMBLK
  1

  9
$DIMASO
 70
     1
  9
$DIMSHO
 70
     1
  9
$DIMPOST
  1

  9
$DIMAPOST
  1

  9
$DIMALT
 70
     0
  9
$DIMALTD
 70
     3
  9
$DIMALTF
 40
0.0393700787
  9
$DIMLFAC
 40
1.0
  9
$DIMTOFL
 70
     1
  9
$DIMTVP
 40
0.0
  9
$DIMTIX
 70
     0
  9
$DIMSOXD
 70
     0
  9
$DIMSAH
 70
     0
  9
$DIMBLK1
  1

  9
$DIMBLK2
  1

  9
$DIMSTYLE
  2
ISO-25
  9
$DIMCLRD
 70
     0
  9
$DIMCLRE
 70
     0
  9
$DIMCLRT
 70
     0
  9
$DIMTFAC
 40
1.0
  9
$DIMGAP
 40
1.5
  9
$DIMJUST
 70
     0
  9
$DIMSD1
 70
     0
  9
$DIMSD2
 70
     0
  9
$DIMTOLJ
 70
     0
  9
$DIMTZIN
 70
     0
  9
$DIMALTZ
 70
     0
  9
$DIMALTTZ
 70
     0
  9
$DIMUPT
 70
     0
  9
$DIMDEC
 70
     2
  9
$DIMTDEC
 70
     3
  9
$DIMALTU
 70
     2
  9
$DIMALTTD
 70
     3
  9
$DIMTXSTY
  7
STANDARD
  9
$DIMAUNIT
 70
     0
  9
$DIMADEC
 70
     0
  9
$DIMALTRND
 40
0.0
  9
$DIMAZIN
 70
     0
  9
$DIMDSEP
 70
    46
  9
$DIMATFIT
 70
     3
  9
$DIMFRAC
 70
     0
  9
$DIMLDRBLK
  1

  9
$DIMLUNIT
 70
     2
  9
$DIMLWD
 70
    -2
  9
$DIMLWE
 70
    -2
  9
$DIMTMOVE
 70
     2
  9
$DIMFXL
 40
1.0
  9
$DIMFXLON
 70
     0
  9
$DIMJOGANG
 40
0.7853981633974483
  9
$DIMTFILL
 70
     0
  9
$DIMTFILLCLR
 70
     0
  9
$DIMARCSYM
 70
     0
  9
$DIMLTYPE
  6

  9
$DIMLTEX1
  6

  9
$DIMLTEX2
  6

  9
$DIMTXTDIRECTION
 70
     0
  9
$LUNITS
 70
     2
  9
$LUPREC
 70
     2
  9
$SKETCHINC
 40
1.0
  9
$FILLETRAD
 40
10.0
  9
$AUNITS
 70
     0
  9
$AUPREC
 70
     2
  9
$MENU
  1
.
  9
$ELEVATION
 40
0.0
  9
$PELEVATION
 40
0.0
  9
$THICKNESS
 40
0.0
  9
$LIMCHECK
 70
     0
  9
$CHAMFERA
 40
0.0
  9
$CHAMFERB
 40
0.0
  9
$CHAMFERC
 40
0.0
  9
$CHAMFERD
 40
0.0
  9
$SKPOLY
 70
     0
  9
$TDCREATE
 40
2456737.39535625
  9
$TDUCREATE
 40
2456737.312022917
  9
$TDUPDATE
 40
2458677.668340822
  9
$TDUUPDATE
 40
2458677.585007488
  9
$TDINDWG
 40
0.0089541204
  9
$TDUSRTIMER
 40
0.0080129861
  9
$USRTIMER
 70
     1
  9
$ANGBASE
 50
0.0
  9
$ANGDIR
 70
     0
  9
$PDMODE
 70
     0
  9
$PDSIZE
 40
-1.0
  9
$PLINEWID
 40
0.0
  9
$SPLFRAME
 70
     0
  9
$SPLINETYPE
 70
     6
  9
$SPLINESEGS
 70
     8
  9
$HANDSEED
  5
3F3
  9
$SURFTAB1
 70
     6
  9
$SURFTAB2
 70
     6
  9
$SURFTYPE
 70
     6
  9
$SURFU
 70
     6
  9
$SURFV
 70
     6
  9
$UCSBASE
  2

  9
$UCSNAME
  2

  9
$UCSORG
 10
0.0
 20
0.0
 30
0.0
  9
$UCSXDIR
 10
1.0
 20
0.0
 30
0.0
  9
$UCSYDIR
 10
0.0
 20
1.0
 30
0.0
  9
$UCSORTHOREF
  2

  9
$UCSORTHOVIEW
 70
     0
  9
$UCSORGTOP
 10
0.0
 20
0.0
 30
0.0
  9
$UCSORGBOTTOM
 10
0.0
 20
0.0
 30
0.0
  9
$UCSORGLEFT
 10
0.0
 20
0.0
 30
0.0
  9
$UCSORGRIGHT
 10
0.0
 20
0.0
 30
0.0
  9
$UCSORGFRONT
 10
0.0
 20
0.0
 30
0.0
  9
$UCSORGBACK
 10
0.0
 20
0.0
 30
0.0
  9
$PUCSBASE
  2

  9
$PUCSNAME
  2

  9
$PUCSORG
 10
0.0
 20
0.0
 30
0.0
  9
$PUCSXDIR
 10
1.0
 20
0.0
 30
0.0
  9
$PUCSYDIR
 10
0.0
 20
1.0
 30
0.0
  9
$PUCSORTHOREF
  2

  9
$PUCSORTHOVIEW
 70
     0
  9
$PUCSORGTOP
 10
0.0
 20
0.0
 30
0.0
  9
$PUCSORGBOTTOM
 10
0.0
 20
0.0
 30
0.0
  9
$PUCSORGLEFT
 10
0.0
 20
0.0
 30
0.0
  9
$PUCSORGRIGHT
 10
0.0
 20
0.0
 30
0.0
  9
$PUCSORGFRONT
 10
0.0
 20
0.0
 30
0.0
  9
$PUCSORGBACK
 10
0.0
 20
0.0
 30
0.0
  9
$USERI1
 70
     0
  9
$USERI2
 70
     0
  9
$USERI3
 70
     0
  9
$USERI4
 70
     0
  9
$USERI5
 70
     0
  9
$USERR1
 40
0.0
  9
$USERR2
 40
0.0
  9
$USERR3
 40
0.0
  9
$USERR4
 40
0.0
  9
$USERR5
 40
0.0
  9
$WORLDVIEW
 70
     1
  9
$SHADEDGE
 70
     3
  9
$SHADEDIF
 70
    70
  9
$TILEMODE
 70
     1
  9
$MAXACTVP
 70
    64
  9
$PINSBASE
 10
0.0
 20
0.0
 30
0.0
  9
$PLIMCHECK
 70
     0
  9
$PEXTMIN
 10
1.000000000000000E+20
 20
1.000000000000000E+20
 30
1.000000000000000E+20
  9
$PEXTMAX
 10
-1.000000000000000E+20
 20
-1.000000000000000E+20
 30
-1.000000000000000E+20
  9
$PLIMMIN
 10
0.0
 20
0.0
  9
$PLIMMAX
 10
0.0
 20
0.0
  9
$UNITMODE
 70
     0
  9
$VISRETAIN
 70
     1
  9
$PLINEGEN
 70
     0
  9
$PSLTSCALE
 70
     1
  9
$TREEDEPTH
 70
  3020
  9
$CMLSTYLE
  2
STANDARD
  9
$CMLJUST
 70
     0
  9
$CMLSCALE
 40
20.0
  9
$PROXYGRAPHICS
 70
     1
  9
$MEASUREMENT
 70
     1
  9
$CELWEIGHT
370
    -1
  9
$ENDCAPS
280
     0
  9
$JOINSTYLE
280
     0
  9
$LWDISPLAY
290
     0
  9
$INSUNITS
 70
     0
  9
$HYPERLINKBASE
  1

  9
$STYLESHEET
  1

  9
$XEDIT
290
     1
  9
$CEPSNTYPE
380
     0
  9
$PSTYLEMODE
290
     1
  9
$FINGERPRINTGUID
  2
{8CCF2C83-17AC-40E9-9262-0773CBAABBF9}
  9
$VERSIONGUID
  2
{FAEB1C32-E019-11D5-929B-00C0DF256EC4}
  9
$EXTNAMES
290
     1
  9
$PSVPSCALE
 40
0.0
  9
$OLESTARTUP
290
     0
  9
$SORTENTS
280
   127
  9
$INDEXCTL
280
     0
  9
$HIDETEXT
280
     1
  9
$XCLIPFRAME
280
     2
  9
$HALOGAP
280
     0
  9
$OBSCOLOR
 70
   257
  9
$OBSLTYPE
280
     0
  9
$INTERSECTIONDISPLAY
280
     0
  9
$INTERSECTIONCOLOR
 70
   257
  9
$DIMASSOC
280
     2
  9
$PROJECTNAME
  1

  9
$CAMERADISPLAY
290
     0
  9
$LENSLENGTH
 40
50.0
  9
$CAMERAHEIGHT
 40
0.0
  9
$STEPSPERSEC
 40
2.0
  9
$STEPSIZE
 40
6.0
  9
$3DDWFPREC
 40
2.0
  9
$PSOLWIDTH
 40
0.25
  9
$PSOLHEIGHT
 40
4.0
  9
$LOFTANG1
 40
1.570796326794897
  9
$LOFTANG2
 40
1.570796326794897
  9
$LOFTMAG1
 40
0.0
  9
$LOFTMAG2
 40
0.0
  9
$LOFTPARAM
 70
     7
  9
$LOFTNORMALS
280
     1
  9
$LATITUDE
 40
37.795
  9
$LONGITUDE
 40
-122.394
  9
$NORTHDIRECTION
 40
0.0
  9
$TIMEZONE
 70
 -8000
  9
$LIGHTGLYPHDISPLAY
280
     1
  9
$TILEMODELIGHTSYNCH
280
     1
  9
$SOLIDHIST
280
     0
  9
$SHOWHIST
280
     1
  9
$DWFFRAME
280
     2
  9
$DGNFRAME
280
     2
  9
$REALWORLDSCALE
290
     1
  9
$INTERFERECOLOR
 62
   256
  9
$CSHADOW
280
     0
  9
$SHADOWPLANELOCATION
 40
0.0
  0
ENDSEC
  0
SECTION
  2
CLASSES
  0
CLASS
  1
ACDBDICTIONARYWDFLT
  2
AcDbDictionaryWithDefault
  3
ObjectDBX Classes
 90
        0
 91
       27
280
     0
281
     0
  0
CLASS
  1
VISUALSTYLE
  2
AcDbVisualStyle
  3
ObjectDBX Classes
 90
     4095
 91
       27
280
     0
281
     0
  0
CLASS
  1
MATERIAL
  2
AcDbMaterial
  3
ObjectDBX Classes
 90
     1153
 91
       27
280
     0
281
     0
  0
CLASS
  1
SCALE
  2
AcDbScale
  3
ObjectDBX Classes
 90
     1153
 91
       27
280
     0
281
     0
  0
CLASS
  1
SUN
  2
AcDbSun
  3
SCENEOE
 90
     1153
 91
       27
280
     0
281
     0
  0
CLASS
  1
XRECORD
  2
AcDbXrecord
  3
ObjectDBX Classes
 90
        0
 91
        1
280
     0
281
     0
  0
CLASS
  1
LWPOLYLINE
  2
AcDbPolyline
  3
ObjectDBX Classes
 90
        0
 91
        1
280
     0
281
     1
  0
CLASS
  1
HATCH
  2
AcDbHatch
  3
ObjectDBX Classes
 90
        0
 91
        1
280
     0
281
     1
  0
CLASS
  1
DICTIONARYVAR
  2
AcDbDictionaryVar
  3
ObjectDBX Classes
 90
        0
 91
       10
280
     0
281
     0
  0
CLASS
  1
ACDBPLACEHOLDER
  2
AcDbPlaceHolder
  3
ObjectDBX Classes
 90
        0
 91
        1
280
     0
281
     0
  0
CLASS
  1
LAYOUT
  2
AcDbLayout
  3
ObjectDBX Classes
 90
        0
 91
        1
280
     0
281
     0
  0
CLASS
  1
TABLESTYLE
  2
AcDbTableStyle
  3
ObjectDBX Classes
 90
     4095
 91
       27
280
     0
281
     0
  0
CLASS
  1
MLEADERSTYLE
  2
AcDbMLeaderStyle
  3
ACDB_MLEADERSTYLE_CLASS
 90
     4095
 91
       27
280
     0
281
     0
  0
CLASS
  1
SORTENTSTABLE
  2
AcDbSortentsTable
  3
ObjectDBX Classes
 90
        0
 91
        9
280
     0
281
     0
  0
CLASS
  1
DIMASSOC
  2
AcDbDimAssoc
  3
"AcDbDimAssoc|Product Desc:     AcDim ARX App For Dimension|Company:          Autodesk, Inc.|WEB Address:      www.autodesk.com"
 90
        0
 91
       18
280
     0
281
     0
  0
CLASS
  1
CELLSTYLEMAP
  2
AcDbCellStyleMap
  3
ObjectDBX Classes
 90
     1152
 91
        7
280
     0
281
     0
  0
ENDSEC
  0
SECTION
  2
TABLES
  0
TABLE
  2
VPORT
  5
8
330
0
100
AcDbSymbolTable
 70
     1
  0
VPORT
  5
29
330
8
100
AcDbSymbolTableRecord
100
AcDbViewportTableRecord
  2
*ACTIVE
 70
     0
 10
0.0
 20
0.0
 11
1.0
 21
1.0
 12
8.62867742093158
 22
48.24696775432379
 13
0.0
 23
0.0
 14
10.0
 24
10.0
 15
10.0
 25
10.0
 16
0.0
 26
0.0
 36
1.0
 17
0.0
 27
0.0
 37
0.0
 40
601.506445234578
 41
1.831002331002331
 42
50.0
 43
0.0
 44
0.0
 50
0.0
 51
0.0
 71
    16
 72
  2000
 73
     1
 74
     3
 75
     0
 76
     0
 77
     0
 78
     0
281
     0
 65
     1
110
0.0
120
0.0
130
0.0
111
1.0
121
0.0
131
0.0
112
0.0
122
1.0
132
0.0
 79
     0
146
0.0
348
26F
 60
     3
 61
     5
292
     1
282
     1
141
0.0
142
0.0
 63
   256
361
32B
  0
ENDTAB
  0
TABLE
  2
LTYPE
  5
5
330
0
100
AcDbSymbolTable
 70
     9
  0
LTYPE
  5
14
330
5
100
AcDbSymbolTableRecord
100
AcDbLinetypeTableRecord
  2
BYBLOCK
 70
     0
  3

 72
    65
 73
     0
 40
0.0
  0
LTYPE
  5
15
330
5
100
AcDbSymbolTableRecord
100
AcDbLinetypeTableRecord
  2
BYLAYER
 70
     0
  3

 72
    65
 73
     0
 40
0.0
  0
LTYPE
  5
16
330
5
100
AcDbSymbolTableRecord
100
AcDbLinetypeTableRecord
  2
CONTINUOUS
 70
     0
  3
Solid line
 72
    65
 73
     0
 40
0.0
  0
LTYPE
  5
6A
330
5
100
AcDbSymbolTableRecord
100
AcDbLinetypeTableRecord
  2
HIDDEN
 70
     0
  3
Hidden __ __ __ __ __ __ __ __ __ __ __ __ __ __
 72
    65
 73
     2
 40
1.905
 49
1.27
 74
     0
 49
-0.635
 74
     0
  0
LTYPE
  5
6B
330
5
100
AcDbSymbolTableRecord
100
AcDbLinetypeTableRecord
  2
PHANTOM
 70
     0
  3
Phantom ______  __  __  ______  __  __  ______
 72
    65
 73
     6
 40
12.7
 49
6.35
 74
     0
 49
-1.27
 74
     0
 49
1.27
 74
     0
 49
-1.27
 74
     0
 49
1.27
 74
     0
 49
-1.27
 74
     0
  0
LTYPE
  5
6C
330
5
100
AcDbSymbolTableRecord
100
AcDbLinetypeTableRecord
  2
CENTER
 70
     0
  3
Center ____ _ ____ _ ____ _ ____ _ ____ _ ____
 72
    65
 73
     4
 40
10.16
 49
6.35
 74
     0
 49
-1.27
 74
     0
 49
1.27
 74
     0
 49
-1.27
 74
     0
  0
LTYPE
  5
6D
330
5
100
AcDbSymbolTableRecord
100
AcDbLinetypeTableRecord
  2
CENTERX2
 70
     0
  3
Center (2x) ________  __  ________  __  _____
 72
    65
 73
     4
 40
20.32
 49
12.7
 74
     0
 49
-2.54
 74
     0
 49
2.54
 74
     0
 49
-2.54
 74
     0
  0
LTYPE
  5
6E
330
5
100
AcDbSymbolTableRecord
100
AcDbLinetypeTableRecord
  2
DOT2
 70
     0
  3
Dot (.5x) ........................................
 72
    65
 73
     2
 40
0.635
 49
0.0
 74
     0
 49
-0.635
 74
     0
  0
LTYPE
  5
2C9
330
5
100
AcDbSymbolTableRecord
100
AcDbLinetypeTableRecord
  2
DASH
 70
     0
  3
DASH _ _ _ _ _
 72
    65
 73
     2
 40
0.75
 49
0.4
 74
     0
 49
-0.35
 74
     0
  0
LTYPE
  5
2CA
330
5
100
AcDbSymbolTableRecord
100
AcDbLinetypeTableRecord
  2
LONGDASH_DASH
 70
     0
  3
LONGDASH_DASH __ . __ . __
 72
    65
 73
     4
 40
0.85
 49
0.4
 74
     0
 49
-0.2
 74
     0
 49
0.05
 74
     0
 49
-0.2
 74
     0
  0
LTYPE
  5
2CB
330
5
100
AcDbSymbolTableRecord
100
AcDbLinetypeTableRecord
  2
LONGDASH_DASH_DASH
 70
     0
  3
LONGDASH_DASH_DASH __ . . __ . . __
 72
    65
 73
     6
 40
1.1
 49
0.4
 74
     0
 49
-0.2
 74
     0
 49
0.05
 74
     0
 49
-0.2
 74
     0
 49
0.05
 74
     0
 49
-0.2
 74
     0
  0
ENDTAB
  0
TABLE
  2
LAYER
  5
2
102
{ACAD_XDICTIONARY
360
2EB
102
}
330
0
100
AcDbSymbolTable
 70
    18
  0
LAYER
  5
280
330
2
100
AcDbSymbolTableRecord
100
AcDbLayerTableRecord
  2
200
 70
     0
 62
     2
  6
CONTINUOUS
370
    50
390
2DC
347
27E
348
0
  0
LAYER
  5
283
330
2
100
AcDbSymbolTableRecord
100
AcDbLayerTableRecord
  2
Defpoints
 70
     0
 62
     7
  6
CONTINUOUS
290
     0
370
    -3
390
2DC
347
27E
348
0
  0
LAYER
  5
2CC
330
2
100
AcDbSymbolTableRecord
100
AcDbLayerTableRecord
  2
0
 70
     0
 62
     1
  6
CONTINUOUS
370
    -3
390
2DC
347
27E
348
0
  0
LAYER
  5
2CD
330
2
100
AcDbSymbolTableRecord
100
AcDbLayerTableRecord
  2
1
 70
     0
 62
     4
  6
CONTINUOUS
370
    50
390
2DC
347
27E
348
0
  0
LAYER
  5
2CE
330
2
100
AcDbSymbolTableRecord
100
AcDbLayerTableRecord
  2
2
 70
     0
 62
     7
  6
CONTINUOUS
370
    25
390
2DC
347
27E
348
0
  0
LAYER
  5
2CF
330
2
100
AcDbSymbolTableRecord
100
AcDbLayerTableRecord
  2
3
 70
     0
 62
     1
  6
DASH
370
    35
390
2DC
347
27E
348
0
  0
LAYER
  5
2D0
330
2
100
AcDbSymbolTableRecord
100
AcDbLayerTableRecord
  2
4
 70
     0
 62
     2
  6
LONGDASH_DASH
370
    25
390
2DC
347
27E
348
0
  0
LAYER
  5
2D1
330
2
100
AcDbSymbolTableRecord
100
AcDbLayerTableRecord
  2
6
 70
     0
 62
     5
  6
CONTINUOUS
370
    -3
390
2DC
347
27E
348
0
  0
LAYER
  5
2D2
330
2
100
AcDbSymbolTableRecord
100
AcDbLayerTableRecord
  2
CUT
 70
     0
 62
     1
  6
CONTINUOUS
370
    25
390
2DC
347
27E
348
0
  0
LAYER
  5
2D3
330
2
100
AcDbSymbolTableRecord
100
AcDbLayerTableRecord
  2
NOCUT
 70
     0
 62
     7
  6
CONTINUOUS
370
    25
390
2DC
347
27E
348
0
  0
LAYER
  5
2D4
330
2
100
AcDbSymbolTableRecord
100
AcDbLayerTableRecord
  2
SK1
 70
     0
 62
     4
  6
CONTINUOUS
370
    50
390
2DC
347
27E
348
0
  0
LAYER
  5
2D5
330
2
100
AcDbSymbolTableRecord
100
AcDbLayerTableRecord
  2
SK2
 70
     0
 62
     7
  6
CONTINUOUS
370
    25
390
2DC
347
27E
348
0
  0
LAYER
  5
2D6
330
2
100
AcDbSymbolTableRecord
100
AcDbLayerTableRecord
  2
SK3
 70
     0
 62
     1
  6
DASH
370
    35
390
2DC
347
27E
348
0
  0
LAYER
  5
2D7
330
2
100
AcDbSymbolTableRecord
100
AcDbLayerTableRecord
  2
SK4
 70
     0
 62
     2
  6
LONGDASH_DASH
370
    25
390
2DC
347
27E
348
0
  0
LAYER
  5
2D8
330
2
100
AcDbSymbolTableRecord
100
AcDbLayerTableRecord
  2
SK6
 70
     0
 62
     5
  6
CONTINUOUS
370
    -3
390
2DC
347
27E
348
0
  0
LAYER
  5
2D9
330
2
100
AcDbSymbolTableRecord
100
AcDbLayerTableRecord
  2
INFTOTAL
 70
     0
 62
     9
  6
CONTINUOUS
370
    18
390
2DC
347
27E
348
0
  0
LAYER
  5
380
330
2
100
AcDbSymbolTableRecord
100
AcDbLayerTableRecord
  2
7
 70
     0
 62
     5
  6
CONTINUOUS
370
    18
390
2DC
347
27E
348
0
1001
AcAecLayerStandard
1000

1000

  0
LAYER
  5
382
330
2
100
AcDbSymbolTableRecord
100
AcDbLayerTableRecord
  2
11
 70
     0
 62
     4
  6
CONTINUOUS
370
    50
390
2DC
347
27E
348
0
1001
AcAecLayerStandard
1000

1000

  0
ENDTAB
  0
TABLE
  2
STYLE
  5
3
330
0
100
AcDbSymbolTable
 70
     3
  0
STYLE
  5
11
330
3
100
AcDbSymbolTableRecord
100
AcDbTextStyleTableRecord
  2
STANDARD
 70
     0
 40
0.0
 41
1.0
 50
0.0
 71
     0
 42
3.5
  3
txt
  4

  0
STYLE
  5
203
330
3
100
AcDbSymbolTableRecord
100
AcDbTextStyleTableRecord
  2
SLDTEXTSTYLE0
 70
     0
 40
0.0
 41
0.605
 50
0.0
 71
     0
 42
3.5
  3
TXT
  4

  0
STYLE
  5
27F
330
3
100
AcDbSymbolTableRecord
100
AcDbTextStyleTableRecord
  2
BMG_Text
 70
     0
 40
3.5
 41
1.0
 50
0.0
 71
     0
 42
3.5
  3
monos.ttf
  4

1001
ACAD
1000
Monospac821 BT
1071
       49
  0
ENDTAB
  0
TABLE
  2
VIEW
  5
6
330
0
100
AcDbSymbolTable
 70
     0
  0
ENDTAB
  0
TABLE
  2
UCS
  5
7
330
0
100
AcDbSymbolTable
 70
     0
  0
ENDTAB
  0
TABLE
  2
APPID
  5
9
330
0
100
AcDbSymbolTable
 70
     8
  0
APPID
  5
12
330
9
100
AcDbSymbolTableRecord
100
AcDbRegAppTableRecord
  2
ACAD
 70
     0
  0
APPID
  5
29C
330
9
100
AcDbSymbolTableRecord
100
AcDbRegAppTableRecord
  2
ACAD_DSTYLE_DIM_LINETYPE
 70
     0
  0
APPID
  5
29D
330
9
100
AcDbSymbolTableRecord
100
AcDbRegAppTableRecord
  2
ACAD_DSTYLE_DIM_EXT1_LINETYPE
 70
     0
  0
APPID
  5
29E
330
9
100
AcDbSymbolTableRecord
100
AcDbRegAppTableRecord
  2
ACAD_DSTYLE_DIM_EXT2_LINETYPE
 70
     0
  0
APPID
  5
381
330
9
100
AcDbSymbolTableRecord
100
AcDbRegAppTableRecord
  2
AcAecLayerStandard
 70
     0
  0
APPID
  5
38A
330
9
100
AcDbSymbolTableRecord
100
AcDbRegAppTableRecord
  2
PE_URL
 70
     0
  0
APPID
  5
3AD
330
9
100
AcDbSymbolTableRecord
100
AcDbRegAppTableRecord
  2
FX_DIMP_FAV_VERSION
 70
     0
  0
APPID
  5
3AF
330
9
100
AcDbSymbolTableRecord
100
AcDbRegAppTableRecord
  2
FX_DIMP_RECENT_VERSION
 70
     0
  0
ENDTAB
  0
TABLE
  2
DIMSTYLE
  5
A
330
0
100
AcDbSymbolTable
 70
     5
100
AcDbDimStyleTable
  0
DIMSTYLE
105
27
102
{ACAD_REACTORS
330
202
330
20F
330
239
330
39C
330
225
330
22F
102
}
330
A
100
AcDbSymbolTableRecord
100
AcDbDimStyleTableRecord
  2
ISO-25
 70
     0
 41
2.5
 42
0.625
 43
3.75
 44
1.25
 73
     0
 74
     0
 77
     1
 78
     8
140
2.5
141
2.5
143
0.0393700787
147
0.625
171
     3
172
     1
178
     0
271
     2
272
     2
274
     3
283
     0
284
     8
340
11
  0
DIMSTYLE
105
204
330
A
100
AcDbSymbolTableRecord
100
AcDbDimStyleTableRecord
  2
SLDDIMSTYLE0
 70
     0
 41
3.5
 44
0.0
 45
0.000000001
 73
     0
 74
     0
 77
     1
 78
    12
140
3.5
147
0.875
173
     1
178
     0
271
     2
272
     3
284
    12
340
203
  0
DIMSTYLE
105
383
330
A
100
AcDbSymbolTableRecord
100
AcDbDimStyleTableRecord
  2
Matthias
 70
     0
 41
3.0
 44
2.0
 73
     0
 77
     1
140
3.0
147
2.0
178
     0
340
11
  0
DIMSTYLE
105
388
330
A
100
AcDbSymbolTableRecord
100
AcDbDimStyleTableRecord
  2
SLDDIMSTYLE1
 70
     0
 41
3.5
 44
0.0
 45
0.000000001
 73
     0
 74
     0
 77
     1
 78
    12
 79
     3
140
3.5
144
0.5
147
0.875
173
     1
178
     0
271
     2
272
     3
276
     2
284
    12
340
203
  0
DIMSTYLE
105
389
330
A
100
AcDbSymbolTableRecord
100
AcDbDimStyleTableRecord
  2
SLDDIMSTYLE2
 70
     0
 41
3.5
 44
0.0
 45
0.000000001
 73
     0
 74
     0
 77
     1
 78
    12
 79
     3
140
3.5
147
0.875
173
     1
178
     0
271
     2
272
     0
276
     2
284
    12
340
203
  0
ENDTAB
  0
TABLE
  2
BLOCK_RECORD
  5
1
330
0
100
AcDbSymbolTable
 70
     8
  0
BLOCK_RECORD
  5
1F
102
{ACAD_XDICTIONARY
360
3E7
102
}
330
1
100
AcDbSymbolTableRecord
100
AcDbBlockTableRecord
  2
*MODEL_SPACE
340
268
 70
     0
280
     1
281
     0
  0
BLOCK_RECORD
  5
1B
330
1
100
AcDbSymbolTableRecord
100
AcDbBlockTableRecord
  2
*PAPER_SPACE
340
269
 70
     0
280
     1
281
     0
  0
BLOCK_RECORD
  5
205
330
1
100
AcDbSymbolTableRecord
100
AcDbBlockTableRecord
  2
_D
340
0
 70
     0
280
     1
281
     0
  0
BLOCK_RECORD
  5
210
330
1
100
AcDbSymbolTableRecord
100
AcDbBlockTableRecord
  2
_D_1
340
0
 70
     0
280
     1
281
     0
  0
BLOCK_RECORD
  5
21B
330
1
100
AcDbSymbolTableRecord
100
AcDbBlockTableRecord
  2
_D_2
340
0
 70
     0
280
     1
281
     0
  0
BLOCK_RECORD
  5
226
330
1
100
AcDbSymbolTableRecord
100
AcDbBlockTableRecord
  2
_D_3
340
0
 70
     0
280
     1
281
     0
  0
BLOCK_RECORD
  5
230
330
1
100
AcDbSymbolTableRecord
100
AcDbBlockTableRecord
  2
_D_4
340
0
 70
     0
280
     1
281
     0
  0
BLOCK_RECORD
  5
23A
330
1
100
AcDbSymbolTableRecord
100
AcDbBlockTableRecord
  2
_D_5
340
0
 70
     0
280
     1
281
     0
  0
BLOCK_RECORD
  5
39F
330
1
100
AcDbSymbolTableRecord
100
AcDbBlockTableRecord
  2
*D7
340
0
 70
     0
280
     1
281
     0
  0
ENDTAB
  0
ENDSEC
  0
SECTION
  2
BLOCKS
  0
BLOCK
  5
20
330
1F
100
AcDbEntity
  8
0
100
AcDbBlockBegin
  2
*MODEL_SPACE
 70
     0
 10
0.0
 20
0.0
 30
0.0
  3
*MODEL_SPACE
  1

  0
ENDBLK
  5
21
330
1F
100
AcDbEntity
  8
0
100
AcDbBlockEnd
  0
BLOCK
  5
1C
330
1B
100
AcDbEntity
 67
     1
  8
0
100
AcDbBlockBegin
  2
*PAPER_SPACE
 70
     0
 10
0.0
 20
0.0
 30
0.0
  3
*PAPER_SPACE
  1

  0
ENDBLK
  5
1D
330
1B
100
AcDbEntity
 67
     1
  8
0
100
AcDbBlockEnd
  0
BLOCK
  5
206
330
205
100
AcDbEntity
  8
0
100
AcDbBlockBegin
  2
_D
 70
     0
 10
0.0
 20
0.0
 30
0.0
  3
_D
  1
_D
  0
LINE
  5
208
330
205
100
AcDbEntity
  8
SK2
 62
     0
370
    -2
100
AcDbLine
 10
-44.62487793
 20
23.0000000002
 30
0.0
 11
-61.8584002491
 21
23.0000000002
 31
0.0
  0
LINE
  5
209
330
205
100
AcDbEntity
  8
SK2
 62
     0
370
    -2
100
AcDbLine
 10
-44.625
 20
-22.9999999998
 30
0.0
 11
-61.8584002491
 21
-22.9999999998
 31
0.0
  0
LINE
  5
20A
330
205
100
AcDbEntity
  8
SK2
 62
     0
370
    -2
100
AcDbLine
 10
-60.6084002491
 20
20.5000000002
 30
0.0
 11
-60.6084002491
 21
-20.4999999998
 31
0.0
  0
SOLID
  5
20B
330
205
100
AcDbEntity
  8
SK2
 62
     0
100
AcDbTrace
 10
-60.19173358243334
 20
20.5000000002
 30
0.0
 11
-61.02506691576666
 21
20.5000000002
 31
0.0
 12
-60.6084002491
 22
23.0000000002
 32
0.0
 13
-60.6084002491
 23
23.0000000002
 33
0.0
  0
SOLID
  5
20C
330
205
100
AcDbEntity
  8
SK2
 62
     0
100
AcDbTrace
 10
-61.02506691576666
 20
-20.4999999998
 30
0.0
 11
-60.19173358243334
 21
-20.4999999998
 31
0.0
 12
-60.6084002491
 22
-22.9999999998
 32
0.0
 13
-60.6084002491
 23
-22.9999999998
 33
0.0
  0
MTEXT
  5
20D
330
205
100
AcDbEntity
  8
SK2
 62
     0
100
AcDbMText
 10
-62.4834002491
 20
0.0000000002
 30
0.0
 40
2.5
 41
0.0
 46
0.0
 71
     5
 72
     1
  1
%%c46
 11
0.0
 21
1.0
 31
0.0
 73
     1
 44
1.0
  0
POINT
  5
20E
330
205
100
AcDbEntity
  8
Defpoints
 62
     0
100
AcDbPoint
 10
-43.99987793
 20
23.0000000002
 30
0.0
  0
POINT
  5
284
330
205
100
AcDbEntity
  8
Defpoints
 62
     0
100
AcDbPoint
 10
-44.0
 20
-22.9999999998
 30
0.0
  0
POINT
  5
285
330
205
100
AcDbEntity
  8
Defpoints
 62
     0
100
AcDbPoint
 10
-60.6084002491
 20
-22.9999999998
 30
0.0
  0
ENDBLK
  5
207
330
205
100
AcDbEntity
  8
0
100
AcDbBlockEnd
  0
BLOCK
  5
211
330
210
100
AcDbEntity
  8
0
100
AcDbBlockBegin
  2
_D_1
 70
     0
 10
0.0
 20
0.0
 30
0.0
  3
_D_1
  1
_D_1
  0
LINE
  5
213
330
210
100
AcDbEntity
  8
SK2
 62
     0
370
    -2
100
AcDbLine
 10
-0.124999976
 20
45.000001788
 30
0.0
 11
-72.2997726876
 21
45.000001788
 31
0.0
  0
LINE
  5
214
330
210
100
AcDbEntity
  8
SK2
 62
     0
370
    -2
100
AcDbLine
 10
-0.124999976
 20
-45.00000178800001
 30
0.0
 11
-72.2997726876
 21
-45.00000178800001
 31
0.0
  0
LINE
  5
215
330
210
100
AcDbEntity
  8
SK2
 62
     0
370
    -2
100
AcDbLine
 10
-71.0497726876
 20
42.500001788
 30
0.0
 11
-71.0497726876
 21
-42.50000178800001
 31
0.0
  0
SOLID
  5
216
330
210
100
AcDbEntity
  8
SK2
 62
     0
100
AcDbTrace
 10
-70.63310602093333
 20
42.500001788
 30
0.0
 11
-71.46643935426667
 21
42.500001788
 31
0.0
 12
-71.0497726876
 22
45.000001788
 32
0.0
 13
-71.0497726876
 23
45.000001788
 33
0.0
  0
SOLID
  5
217
330
210
100
AcDbEntity
  8
SK2
 62
     0
100
AcDbTrace
 10
-71.46643935426667
 20
-42.50000178800001
 30
0.0
 11
-70.63310602093333
 21
-42.50000178800001
 31
0.0
 12
-71.0497726876
 22
-45.00000178800001
 32
0.0
 13
-71.0497726876
 23
-45.00000178800001
 33
0.0
  0
MTEXT
  5
218
330
210
100
AcDbEntity
  8
SK2
 62
     0
100
AcDbMText
 10
-72.9247726876
 20
0.0
 30
0.0
 40
2.5
 41
0.0
 46
0.0
 71
     5
 72
     1
  1
%%c90
 11
0.0
 21
1.0
 31
0.0
 73
     1
 44
1.0
  0
POINT
  5
219
330
210
100
AcDbEntity
  8
Defpoints
 62
     0
100
AcDbPoint
 10
0.500000024
 20
45.000001788
 30
0.0
  0
POINT
  5
286
330
210
100
AcDbEntity
  8
Defpoints
 62
     0
100
AcDbPoint
 10
0.500000024
 20
-45.00000178800001
 30
0.0
  0
POINT
  5
287
330
210
100
AcDbEntity
  8
Defpoints
 62
     0
100
AcDbPoint
 10
-71.0497726876
 20
-45.000001788
 30
0.0
  0
ENDBLK
  5
212
330
210
100
AcDbEntity
  8
0
100
AcDbBlockEnd
  0
BLOCK
  5
21C
330
21B
100
AcDbEntity
  8
0
100
AcDbBlockBegin
  2
_D_2
 70
     0
 10
0.0
 20
0.0
 30
0.0
  3
_D_2
  1
_D_2
  0
LINE
  5
21E
330
21B
100
AcDbEntity
  8
2
  6
Continuous
 62
     0
370
    -2
100
AcDbLine
 10
61.78845125536219
 20
69.99943379089984
 30
0.0
 11
-92.8400055911717
 21
69.99179724803278
 31
0.0
  0
LINE
  5
21F
330
21B
100
AcDbEntity
  8
2
  6
Continuous
 62
     0
370
    -2
100
AcDbLine
 10
61.78845125476219
 20
-70.00003116470016
 30
0.0
 11
-92.83309152157102
 21
-70.00766736610623
 31
0.0
  0
LINE
  5
220
330
21B
100
AcDbEntity
  8
2
  6
Continuous
 62
     0
370
    -2
100
AcDbLine
 10
-91.5898821266955
 20
67.49185898408184
 30
0.0
 11
-91.58321498909599
 21
-67.50760563615471
 31
0.0
  0
SOLID
  5
221
330
21B
100
AcDbEntity
  8
2
 62
     0
100
AcDbTrace
 10
-91.17321546053697
 20
67.4918795617486
 30
0.0
 11
-92.00654879285403
 21
67.49183840641508
 31
0.0
 12
-91.59000559269609
 22
69.99185898103308
 32
0.0
 13
-91.59000559269609
 23
69.99185898103308
 33
0.0
  0
SOLID
  5
222
330
21B
100
AcDbEntity
  8
2
 62
     0
100
AcDbTrace
 10
-91.99988165525453
 20
-67.50762621382147
 30
0.0
 11
-91.16654832293746
 21
-67.50758505848795
 31
0.0
 12
-91.5830915230954
 22
-70.00760563310594
 32
0.0
 13
-91.5830915230954
 23
-70.00760563310594
 33
0.0
  0
MTEXT
  5
223
330
21B
100
AcDbEntity
  8
2
 62
     0
370
    25
100
AcDbMText
 10
-89.71162700168765
 20
1.580541257886925
 30
0.0
 40
2.5
 41
0.0
 46
0.0
 71
     5
 72
     1
  1
%%c140
 11
4.938640023593778E-5
 21
-0.9999999987804917
 31
0.0
 73
     1
 44
1.0
  0
POINT
  5
224
330
21B
100
AcDbEntity
  8
Defpoints
 62
     0
100
AcDbPoint
 10
62.4134512546
 20
69.9994646574
 30
0.0
  0
POINT
  5
288
330
21B
100
AcDbEntity
  8
Defpoints
 62
     0
100
AcDbPoint
 10
62.413451254
 20
-70.0000002982
 30
0.0
  0
POINT
  5
289
330
21B
100
AcDbEntity
  8
Defpoints
 62
     0
100
AcDbPoint
 10
-91.5830915230954
 20
-70.00760563310583
 30
0.0
  0
ENDBLK
  5
21D
330
21B
100
AcDbEntity
  8
0
100
AcDbBlockEnd
  0
BLOCK
  5
227
330
226
100
AcDbEntity
  8
0
100
AcDbBlockBegin
  2
_D_3
 70
     0
 10
0.0
 20
0.0
 30
0.0
  3
_D_3
  1
_D_3
  0
LINE
  5
229
330
226
100
AcDbEntity
  8
2
 62
     0
370
    -2
100
AcDbLine
 10
0.0
 20
-45.125000775
 30
0.0
 11
0.0
 21
-84.0799165297
 31
0.0
  0
LINE
  5
22A
330
226
100
AcDbEntity
  8
2
 62
     0
370
    -2
100
AcDbLine
 10
82.999996841
 20
-70.62392867599999
 30
0.0
 11
82.999996841
 21
-84.0799165297
 31
0.0
  0
LINE
  5
22B
330
226
100
AcDbEntity
  8
2
 62
     0
370
    -2
100
AcDbLine
 10
2.5
 20
-82.8299165297
 30
0.0
 11
80.499996841
 21
-82.8299165297
 31
0.0
  0
SOLID
  5
22C
330
226
100
AcDbEntity
  8
2
 62
     0
100
AcDbTrace
 10
2.5
 20
-82.41324986303333
 30
0.0
 11
2.5
 21
-83.24658319636667
 31
0.0
 12
0.0
 22
-82.8299165297
 32
0.0
 13
0.0
 23
-82.8299165297
 33
0.0
  0
SOLID
  5
22D
330
226
100
AcDbEntity
  8
2
 62
     0
100
AcDbTrace
 10
80.499996841
 20
-83.24658319636667
 30
0.0
 11
80.499996841
 21
-82.41324986303333
 31
0.0
 12
82.999996841
 22
-82.8299165297
 32
0.0
 13
82.999996841
 23
-82.8299165297
 33
0.0
  0
MTEXT
  5
22E
330
226
100
AcDbEntity
  8
2
 62
     0
100
AcDbMText
 10
41.4999984205
 20
-80.9549165297
 30
0.0
 40
2.5
 41
0.0
 46
0.0
 71
     5
 72
     1
  1
83
 73
     1
 44
1.0
  0
POINT
  5
28A
330
226
100
AcDbEntity
  8
Defpoints
 62
     0
100
AcDbPoint
 10
0.0
 20
-44.500000775
 30
0.0
  0
POINT
  5
28B
330
226
100
AcDbEntity
  8
Defpoints
 62
     0
100
AcDbPoint
 10
82.999996841
 20
-69.99892867599999
 30
0.0
  0
POINT
  5
28C
330
226
100
AcDbEntity
  8
Defpoints
 62
     0
100
AcDbPoint
 10
82.999996841
 20
-82.8299165297
 30
0.0
  0
ENDBLK
  5
228
330
226
100
AcDbEntity
  8
0
100
AcDbBlockEnd
  0
BLOCK
  5
231
330
230
100
AcDbEntity
  8
0
100
AcDbBlockBegin
  2
_D_4
 70
     0
 10
0.0
 20
0.0
 30
0.0
  3
_D_4
  1
_D_4
  0
LINE
  5
233
330
230
100
AcDbEntity
  8
2
 62
     0
370
    -2
100
AcDbLine
 10
116.9999985057
 20
73.82528410970001
 30
0.0
 11
116.9999985057
 21
85.07745705650001
 31
0.0
  0
LINE
  5
234
330
230
100
AcDbEntity
  8
2
 62
     0
370
    -2
100
AcDbLine
 10
0.0
 20
45.125000775
 30
0.0
 11
0.0
 21
85.07745705650001
 31
0.0
  0
LINE
  5
235
330
230
100
AcDbEntity
  8
2
 62
     0
370
    -2
100
AcDbLine
 10
114.4999985057
 20
83.82745705650001
 30
0.0
 11
2.5
 21
83.82745705650001
 31
0.0
  0
SOLID
  5
236
330
230
100
AcDbEntity
  8
2
 62
     0
100
AcDbTrace
 10
114.4999985057
 20
83.41079038983334
 30
0.0
 11
114.4999985057
 21
84.24412372316668
 31
0.0
 12
116.9999985057
 22
83.82745705650001
 32
0.0
 13
116.9999985057
 23
83.82745705650001
 33
0.0
  0
SOLID
  5
237
330
230
100
AcDbEntity
  8
2
 62
     0
100
AcDbTrace
 10
2.5
 20
84.24412372316668
 30
0.0
 11
2.5
 21
83.41079038983334
 31
0.0
 12
0.0
 22
83.82745705650001
 32
0.0
 13
0.0
 23
83.82745705650001
 33
0.0
  0
MTEXT
  5
238
330
230
100
AcDbEntity
  8
2
 62
     0
100
AcDbMText
 10
58.4999992528
 20
85.70245705650001
 30
0.0
 40
2.5
 41
0.0
 46
0.0
 71
     5
 72
     1
  1
117
 73
     1
 44
1.0
  0
POINT
  5
28D
330
230
100
AcDbEntity
  8
Defpoints
 62
     0
100
AcDbPoint
 10
116.9999985057
 20
73.20028410970001
 30
0.0
  0
POINT
  5
28E
330
230
100
AcDbEntity
  8
Defpoints
 62
     0
100
AcDbPoint
 10
0.0
 20
44.500000775
 30
0.0
  0
POINT
  5
28F
330
230
100
AcDbEntity
  8
Defpoints
 62
     0
100
AcDbPoint
 10
0.0
 20
83.82745705650001
 30
0.0
  0
ENDBLK
  5
232
330
230
100
AcDbEntity
  8
0
100
AcDbBlockEnd
  0
BLOCK
  5
23B
330
23A
100
AcDbEntity
  8
0
100
AcDbBlockBegin
  2
_D_5
 70
     0
 10
0.0
 20
0.0
 30
0.0
  3
_D_5
  1
_D_5
  0
LINE
  5
23D
330
23A
100
AcDbEntity
  8
SK2
 62
     0
370
    -2
100
AcDbLine
 10
116.6860799726
 20
73.98813234087338
 30
0.0
 11
135.3775011582552
 21
73.98813252848656
 31
0.0
  0
LINE
  5
23E
330
23A
100
AcDbEntity
  8
SK2
 62
     0
370
    -2
100
AcDbLine
 10
116.6860814579
 20
-73.98756307322662
 30
0.0
 11
135.3775026435448
 21
-73.98756288561354
 31
0.0
  0
LINE
  5
23F
330
23A
100
AcDbEntity
  8
SK2
 62
     0
370
    -2
100
AcDbLine
 10
134.1275011833487
 20
71.48813251593981
 30
0.0
 11
134.1275026184513
 21
-71.48756289816028
 31
0.0
  0
SOLID
  5
240
330
23A
100
AcDbEntity
  8
SK2
 62
     0
100
AcDbTrace
 10
134.5441678500154
 20
71.48813252012205
 30
0.0
 11
133.710834516682
 21
71.48813251175757
 31
0.0
 12
134.1275011582552
 22
73.98813251593981
 32
0.0
 13
134.1275011582552
 23
73.98813251593981
 33
0.0
  0
SOLID
  5
241
330
23A
100
AcDbEntity
  8
SK2
 62
     0
100
AcDbTrace
 10
133.7108359517846
 20
-71.48756290234252
 30
0.0
 11
134.544169285118
 21
-71.48756289397804
 31
0.0
 12
134.1275026435448
 22
-73.98756289816028
 32
0.0
 13
134.1275026435448
 23
-73.98756289816028
 33
0.0
  0
MTEXT
  5
242
330
23A
100
AcDbEntity
  8
SK2
 62
     0
100
AcDbMText
 10
132.2525019009
 20
0.0002847900798965
 30
0.0
 40
2.5
 41
0.0
 46
0.0
 71
     5
 72
     1
  1
%%c148 - 203
 11
-1.003738850851696E-8
 21
1.0
 31
0.0
 73
     1
 44
1.0
  0
POINT
  5
243
330
23A
100
AcDbEntity
  8
Defpoints
 62
     0
100
AcDbPoint
 10
116.0610799726
 20
73.98813233460001
 30
0.0
  0
POINT
  5
290
330
23A
100
AcDbEntity
  8
Defpoints
 62
     0
100
AcDbPoint
 10
116.0610814579
 20
-73.98756307949999
 30
0.0
  0
POINT
  5
291
330
23A
100
AcDbEntity
  8
Defpoints
 62
     0
100
AcDbPoint
 10
134.1275026435448
 20
-73.9875628981603
 30
0.0
  0
ENDBLK
  5
23C
330
23A
100
AcDbEntity
  8
0
100
AcDbBlockEnd
  0
BLOCK
  5
3A0
330
39F
100
AcDbEntity
  8
0
100
AcDbBlockBegin
  2
*D7
 70
     1
 10
0.0
 20
0.0
 30
0.0
  3
*D7
  1

  0
LINE
  5
3A2
330
39F
100
AcDbEntity
  8
SK2
 62
     0
370
    -2
100
AcDbLine
 10
60.6762686376
 20
69.9994646576
 30
0.0
 11
-81.94873136299998
 21
69.9994646576
 31
0.0
  0
LINE
  5
3A3
330
39F
100
AcDbEntity
  8
SK2
 62
     0
370
    -2
100
AcDbLine
 10
60.676268637
 20
-70.000000298
 30
0.0
 11
-81.948731363
 21
-70.00000029799999
 31
0.0
  0
LINE
  5
3A4
330
39F
100
AcDbEntity
  8
SK2
 62
     0
370
    -2
100
AcDbLine
 10
-80.69873136299998
 20
67.4994646576
 30
0.0
 11
-80.698731363
 21
-67.50000029799999
 31
0.0
  0
SOLID
  5
3A5
330
39F
100
AcDbEntity
  8
SK2
 62
     0
100
AcDbTrace
 10
-80.28206469633331
 20
67.4994646576
 30
0.0
 11
-81.11539802966665
 21
67.4994646576
 31
0.0
 12
-80.69873136299998
 22
69.9994646576
 32
0.0
 13
-80.69873136299998
 23
69.9994646576
 33
0.0
  0
SOLID
  5
3A6
330
39F
100
AcDbEntity
  8
SK2
 62
     0
100
AcDbTrace
 10
-81.11539802966666
 20
-67.50000029799999
 30
0.0
 11
-80.28206469633332
 21
-67.50000029799999
 31
0.0
 12
-80.698731363
 22
-70.00000029799999
 32
0.0
 13
-80.698731363
 23
-70.00000029799999
 33
0.0
  0
MTEXT
  5
3A7
330
39F
100
AcDbEntity
  8
SK2
 62
     0
100
AcDbMText
 10
-82.57373136299998
 20
-0.000267820199994
 30
0.0
 40
2.5
 41
0.0
 46
0.0
 71
     5
 72
     1
  1
ø140
 11
1.015064930405905E-16
 21
1.0
 31
0.0
 73
     1
 44
1.0
  0
POINT
  5
3A8
330
39F
100
AcDbEntity
  8
Defpoints
 62
     0
100
AcDbPoint
 10
61.3012686376
 20
69.9994646576
 30
0.0
  0
POINT
  5
3A9
330
39F
100
AcDbEntity
  8
Defpoints
 62
     0
100
AcDbPoint
 10
61.301268637
 20
-70.000000298
 30
0.0
  0
POINT
  5
3AA
330
39F
100
AcDbEntity
  8
Defpoints
 62
     0
100
AcDbPoint
 10
-80.698731363
 20
-70.00000029799999
 30
0.0
  0
ENDBLK
  5
3A1
330
39F
100
AcDbEntity
  8
0
100
AcDbBlockEnd
  0
ENDSEC
  0
SECTION
  2
ENTITIES
  0
LINE
  5
75
330
1F
100
AcDbEntity
  8
3
100
AcDbLine
 10
78.50000262249999
 20
-37.50000149
 30
0.0
 11
82.999996841
 21
-37.50000149
 31
0.0
  0
LINE
  5
76
330
1F
100
AcDbEntity
  8
3
100
AcDbLine
 10
58.499999344
 20
-62.735557556
 30
0.0
 11
58.498554129
 21
-57.50823692
 31
0.0
  0
LINE
  5
77
330
1F
100
AcDbEntity
  8
3
100
AcDbLine
 10
48.722334206
 20
-62.735557556
 30
0.0
 11
58.499999344
 21
-62.735557556
 31
0.0
  0
LINE
  5
78
330
1F
100
AcDbEntity
  8
3
100
AcDbLine
 10
64.3652255945
 20
-43.3505053935
 30
0.0
 11
58.100506663
 21
-37.085786462
 31
0.0
  0
LINE
  5
79
330
1F
100
AcDbEntity
  8
3
100
AcDbLine
 10
66.5857866405
 20
-28.6005046215
 30
0.0
 11
75.6844643575
 21
-37.69917286450001
 31
0.0
  0
LINE
  5
7A
330
1F
100
AcDbEntity
  8
3
100
AcDbLine
 10
66.5857866405
 20
-28.6005046215
 30
0.0
 11
58.100506663
 21
-37.085786462
 31
0.0
  0
LINE
  5
7B
330
1F
100
AcDbEntity
  8
3
100
AcDbLine
 10
63.69236856649999
 20
-29.9497283995
 30
0.0
 11
66.5857866405
 21
-28.6005046215
 31
0.0
  0
LINE
  5
7C
330
1F
100
AcDbEntity
  8
3
100
AcDbLine
 10
59.449728578
 20
-34.19236838800001
 30
0.0
 11
63.69236856649999
 21
-29.9497283995
 31
0.0
  0
LINE
  5
7D
330
1F
100
AcDbEntity
  8
3
100
AcDbLine
 10
58.100506663
 20
-37.085786462
 30
0.0
 11
59.449728578
 21
-34.19236838800001
 31
0.0
  0
LINE
  5
7E
330
1F
100
AcDbEntity
  8
3
100
AcDbLine
 10
59.449728578
 20
-34.19236838800001
 30
0.0
 11
36.3073600455
 21
-11.0499998555
 31
0.0
  0
LINE
  5
7F
330
1F
100
AcDbEntity
  8
4
100
AcDbLine
 10
36.75213164399999
 20
-7.252131746
 30
0.0
 11
70.410971069
 21
-40.910970544
 31
0.0
  0
LINE
  5
80
330
1F
100
AcDbEntity
  8
3
100
AcDbLine
 10
39.7392751935
 20
-5.9966354715
 30
0.0
 11
63.69236856649999
 21
-29.9497283995
 31
0.0
  0
LINE
  5
81
330
1F
100
AcDbEntity
  8
SK1
100
AcDbLine
 10
-44.0
 20
-22.9999999998
 30
0.0
 11
-1.112182617
 21
-22.9999999998
 31
0.0
  0
LINE
  5
82
330
1F
100
AcDbEntity
  8
SK1
100
AcDbLine
 10
-1.112182617
 20
-22.9999999998
 30
0.0
 11
-1.112182617
 21
23.0000000002
 31
0.0
  0
LINE
  5
83
330
1F
100
AcDbEntity
  8
SK1
100
AcDbLine
 10
-1.112182617
 20
23.0000000002
 30
0.0
 11
-0.4293345319999999
 21
22.8170244112
 31
0.0
  0
LINE
  5
84
330
1F
100
AcDbEntity
  8
4
100
AcDbLine
 10
-0.0000000001422709
 20
-0.0000000000649187
 30
0.0
 11
110.8892641442691
 21
-0.0000000000000053
 31
0.0
  0
LINE
  5
85
330
1F
100
AcDbEntity
  8
SK1
100
AcDbLine
 10
-43.99987793
 20
23.0000000002
 30
0.0
 11
-1.112182617
 21
23.0000000002
 31
0.0
  0
LINE
  5
86
330
1F
100
AcDbEntity
  8
SK1
100
AcDbLine
 10
-0.429321289
 20
-22.8170166018
 30
0.0
 11
-1.112182617
 21
-22.9999999998
 31
0.0
  0
LINE
  5
87
330
1F
100
AcDbEntity
  8
SK3
100
AcDbLine
 10
-21.999992022
 20
-12.000015259
 30
0.0
 11
-18.267941215
 21
-11.000015259
 31
0.0
  0
LINE
  5
88
330
1F
100
AcDbEntity
  8
SK3
100
AcDbLine
 10
-46.999992022
 20
-12.350036621
 30
0.0
 11
-46.220573077
 21
-11.0
 31
0.0
  0
LINE
  5
8A
330
1F
100
AcDbEntity
  8
SK3
100
AcDbLine
 10
-46.220573077
 20
11.000015259
 30
0.0
 11
-46.999992022
 21
12.349990845
 31
0.0
  0
LINE
  5
8C
330
1F
100
AcDbEntity
  8
SK3
100
AcDbLine
 10
-50.0
 20
-12.750004606
 30
0.0
 11
-49.307242999
 21
-12.350036621
 31
0.0
  0
LINE
  5
8D
330
1F
100
AcDbEntity
  8
SK3
100
AcDbLine
 10
-49.307242999
 20
-12.350036621
 30
0.0
 11
-49.307120929
 21
12.349990845
 31
0.0
  0
LINE
  5
8E
330
1F
100
AcDbEntity
  8
SK3
100
AcDbLine
 10
-49.307120929
 20
12.349990845
 30
0.0
 11
-50.0
 21
12.750019865
 31
0.0
  0
LINE
  5
8F
330
1F
100
AcDbEntity
  8
SK3
100
AcDbLine
 10
-49.307120929
 20
12.349990845
 30
0.0
 11
-46.999992022
 21
12.349990845
 31
0.0
  0
LINE
  5
90
330
1F
100
AcDbEntity
  8
SK3
100
AcDbLine
 10
-46.999992022
 20
12.349990845
 30
0.0
 11
-46.999992022
 21
-12.350036621
 31
0.0
  0
LINE
  5
91
330
1F
100
AcDbEntity
  8
SK3
100
AcDbLine
 10
-46.999992022
 20
-12.350036621
 30
0.0
 11
-49.307120929
 21
-12.350036621
 31
0.0
  0
LINE
  5
92
330
1F
100
AcDbEntity
  8
SK3
100
AcDbLine
 10
-49.307120929
 20
-12.350036621
 30
0.0
 11
-49.307120929
 21
12.349990845
 31
0.0
  0
LINE
  5
93
330
1F
100
AcDbEntity
  8
SK3
100
AcDbLine
 10
-46.220573077
 20
-11.0
 30
0.0
 11
-0.0000000001656499
 21
-11.0
 31
0.0
  0
LINE
  5
94
330
1F
100
AcDbEntity
  8
SK3
100
AcDbLine
 10
-0.0000000001188916
 20
11.000015259
 30
0.0
 11
-46.220573077
 21
11.000015259
 31
0.0
  0
LINE
  5
95
330
1F
100
AcDbEntity
  8
SK3
100
AcDbLine
 10
-46.220573077
 20
11.000015259
 30
0.0
 11
-46.220573077
 21
-11.0
 31
0.0
  0
LINE
  5
96
330
1F
100
AcDbEntity
  8
SK3
100
AcDbLine
 10
-21.999992022
 20
-12.0
 30
0.0
 11
-21.999992022
 21
-6.466059192
 31
0.0
  0
LINE
  5
97
330
1F
100
AcDbEntity
  8
SK3
100
AcDbLine
 10
-21.999992022
 20
6.466059192
 30
0.0
 11
-21.999992022
 21
12.000015259
 31
0.0
  0
LINE
  5
98
330
1F
100
AcDbEntity
  8
11
100
AcDbLine
 10
-21.999992022
 20
12.000015259
 30
0.0
 11
-46.797843585
 21
12.000015259
 31
0.0
  0
LINE
  5
99
330
1F
100
AcDbEntity
  8
11
100
AcDbLine
 10
-46.797843585
 20
-12.0
 30
0.0
 11
-21.999992022
 21
-12.0
 31
0.0
  0
LINE
  5
9A
330
1F
100
AcDbEntity
  8
SK3
100
AcDbLine
 10
-21.999992022
 20
12.000015259
 30
0.0
 11
-18.267941215
 21
11.000015259
 31
0.0
  0
LINE
  5
9D
330
1F
100
AcDbEntity
  8
SK1
100
AcDbLine
 10
-29.007039284
 20
0.3
 30
0.0
 11
-25.870508335
 21
0.3
 31
0.0
  0
LINE
  5
9E
330
1F
100
AcDbEntity
  8
SK1
100
AcDbLine
 10
-25.0355731648
 20
2.4060856787
 30
0.0
 11
-24.7113761264
 21
3.2078122351
 31
0.0
  0
LINE
  5
9F
330
1F
100
AcDbEntity
  8
SK1
100
AcDbLine
 10
-24.7113761264
 20
3.2078122351
 30
0.0
 11
-26.1822659064
 21
4.3832792631
 31
0.0
  0
LINE
  5
A0
330
1F
100
AcDbEntity
  8
SK1
100
AcDbLine
 10
-26.1822659064
 20
4.3832792631
 30
0.0
 11
-26.8003504504
 21
4.8741961651
 31
0.0
  0
LINE
  5
A1
330
1F
100
AcDbEntity
  8
SK1
100
AcDbLine
 10
-24.7113761265
 20
-3.2078122357
 30
0.0
 11
-25.0355731651
 21
-2.4060856783
 31
0.0
  0
LINE
  5
A2
330
1F
100
AcDbEntity
  8
SK1
100
AcDbLine
 10
-25.8705083352
 20
-0.3
 30
0.0
 11
-29.007039284
 21
-0.3
 31
0.0
  0
LINE
  5
A3
330
1F
100
AcDbEntity
  8
SK1
100
AcDbLine
 10
-26.8003501149
 20
-4.8741958201
 30
0.0
 11
-26.1822659061
 21
-4.3832792633
 31
0.0
  0
LINE
  5
A4
330
1F
100
AcDbEntity
  8
SK1
100
AcDbLine
 10
-26.1822659061
 20
-4.3832792633
 30
0.0
 11
-24.7113761265
 21
-3.2078122357
 31
0.0
  0
LINE
  5
A6
330
1F
100
AcDbEntity
  8
SK3
100
AcDbLine
 10
-29.007039284
 20
-0.3
 30
0.0
 11
-46.0
 21
-0.3
 31
0.0
  0
LINE
  5
A7
330
1F
100
AcDbEntity
  8
SK3
100
AcDbLine
 10
-46.0
 20
0.3
 30
0.0
 11
-29.007039284
 21
0.3
 31
0.0
  0
LINE
  5
A8
330
1F
100
AcDbEntity
  8
SK1
100
AcDbLine
 10
-17.8500000007
 20
9.5271687089
 30
0.0
 11
-19.3500000002
 21
9.5271687089
 31
0.0
  0
LINE
  5
AA
330
1F
100
AcDbEntity
  8
SK3
100
AcDbLine
 10
-31.347726626
 20
0.3
 30
0.0
 11
-31.332330742
 21
0.753926827
 31
0.0
  0
LINE
  5
AB
330
1F
100
AcDbEntity
  8
SK3
100
AcDbLine
 10
-31.332330742
 20
0.753926827
 30
0.0
 11
-31.143658348
 21
2.05290142
 31
0.0
  0
LINE
  5
AC
330
1F
100
AcDbEntity
  8
SK3
100
AcDbLine
 10
-31.143658348
 20
2.05290142
 30
0.0
 11
-30.730028376
 21
3.335559644
 31
0.0
  0
LINE
  5
AD
330
1F
100
AcDbEntity
  8
SK3
100
AcDbLine
 10
-30.730028376
 20
3.335559644
 30
0.0
 11
-30.155682928
 21
4.457038262
 31
0.0
  0
LINE
  5
AE
330
1F
100
AcDbEntity
  8
SK3
100
AcDbLine
 10
-30.155682928
 20
4.457038262
 30
0.0
 11
-29.406770894
 21
5.499831142
 31
0.0
  0
LINE
  5
AF
330
1F
100
AcDbEntity
  8
SK1
100
AcDbLine
 10
-29.406770894
 20
5.499831142
 30
0.0
 11
-28.197015538
 21
6.711353622
 31
0.0
  0
LINE
  5
B0
330
1F
100
AcDbEntity
  8
SK1
100
AcDbLine
 10
-28.197015538
 20
6.711353622
 30
0.0
 11
-26.760887341
 21
7.733137676
 31
0.0
  0
LINE
  5
B1
330
1F
100
AcDbEntity
  8
SK1
100
AcDbLine
 10
-26.760887341
 20
7.733137676
 30
0.0
 11
-25.818661346
 21
8.243054325
 31
0.0
  0
LINE
  5
B2
330
1F
100
AcDbEntity
  8
SK1
100
AcDbLine
 10
-25.818661346
 20
8.243054325
 30
0.0
 11
-24.833735556
 21
8.672895754
 31
0.0
  0
LINE
  5
B3
330
1F
100
AcDbEntity
  8
SK1
100
AcDbLine
 10
-24.833735556
 20
8.672895754
 30
0.0
 11
-23.784793179
 21
9.033193565
 31
0.0
  0
LINE
  5
B4
330
1F
100
AcDbEntity
  8
SK1
100
AcDbLine
 10
-23.784793179
 20
9.033193565
 30
0.0
 11
-22.707648624
 21
9.31220219
 31
0.0
  0
LINE
  5
B5
330
1F
100
AcDbEntity
  8
SK1
100
AcDbLine
 10
-22.707648624
 20
9.31220219
 30
0.0
 11
-21.052191638
 21
9.581240126
 31
0.0
  0
LINE
  5
B6
330
1F
100
AcDbEntity
  8
SK1
100
AcDbLine
 10
-21.052191638
 20
9.581240126
 30
0.0
 11
-19.35
 21
9.672277701
 31
0.0
  0
LINE
  5
B7
330
1F
100
AcDbEntity
  8
SK1
100
AcDbLine
 10
-19.35
 20
9.672277701
 30
0.0
 11
-17.85
 21
9.672277701
 31
0.0
  0
LINE
  5
B8
330
1F
100
AcDbEntity
  8
SK1
100
AcDbLine
 10
-4.6000000006
 20
0.2999999996
 30
0.0
 11
-10.4380024026
 21
0.2999999996
 31
0.0
  0
LINE
  5
B9
330
1F
100
AcDbEntity
  8
SK1
100
AcDbLine
 10
-22.8820084629
 20
5.6344845562
 30
0.0
 11
-23.7616505643
 21
6.8139807595
 31
0.0
  0
LINE
  5
BA
330
1F
100
AcDbEntity
  8
SK1
100
AcDbLine
 10
-23.7616505643
 20
6.8139807595
 30
0.0
 11
-24.1486823163
 21
7.3324447075
 31
0.0
  0
LINE
  5
BB
330
1F
100
AcDbEntity
  8
SK1
100
AcDbLine
 10
-4.6000000006
 20
-0.3000000004
 30
0.0
 11
-10.4380024026
 21
-0.3000000004
 31
0.0
  0
LINE
  5
BC
330
1F
100
AcDbEntity
  8
SK1
100
AcDbLine
 10
-22.8820084628
 20
-5.6344845569
 30
0.0
 11
-23.7616505642
 21
-6.8139807601
 31
0.0
  0
LINE
  5
BD
330
1F
100
AcDbEntity
  8
SK1
100
AcDbLine
 10
-23.7616505642
 20
-6.8139807601
 30
0.0
 11
-24.1486823163
 21
-7.3324447089
 31
0.0
  0
LINE
  5
BE
330
1F
100
AcDbEntity
  8
SK1
100
AcDbLine
 10
-17.8500000001
 20
-9.5271687086
 30
0.0
 11
-19.3499999997
 21
-9.5271687086
 31
0.0
  0
LINE
  5
C0
330
1F
100
AcDbEntity
  8
SK3
100
AcDbLine
 10
-31.347726626
 20
-0.3
 30
0.0
 11
-31.332330742
 21
-0.753926827
 31
0.0
  0
LINE
  5
C1
330
1F
100
AcDbEntity
  8
SK3
100
AcDbLine
 10
-31.332330742
 20
-0.753926827
 30
0.0
 11
-31.13784007
 21
-2.072478339
 31
0.0
  0
LINE
  5
C2
330
1F
100
AcDbEntity
  8
SK3
100
AcDbLine
 10
-31.13784007
 20
-2.072478339
 30
0.0
 11
-30.730028376
 21
-3.335559644
 31
0.0
  0
LINE
  5
C3
330
1F
100
AcDbEntity
  8
SK3
100
AcDbLine
 10
-30.730028376
 20
-3.335559644
 30
0.0
 11
-30.147655117
 21
-4.468933496
 31
0.0
  0
LINE
  5
C4
330
1F
100
AcDbEntity
  8
SK3
100
AcDbLine
 10
-30.147655117
 20
-4.468933496
 30
0.0
 11
-29.406770894
 21
-5.499831142
 31
0.0
  0
LINE
  5
C5
330
1F
100
AcDbEntity
  8
SK3
100
AcDbLine
 10
-29.406770894
 20
-5.499831142
 30
0.0
 11
-28.612444865
 21
-6.34103301
 31
0.0
  0
LINE
  5
C6
330
1F
100
AcDbEntity
  8
SK1
100
AcDbLine
 10
-28.612444865
 20
-6.34103301
 30
0.0
 11
-27.723202322
 21
-7.086941342
 31
0.0
  0
LINE
  5
C7
330
1F
100
AcDbEntity
  8
SK1
100
AcDbLine
 10
-27.723202322
 20
-7.086941342
 30
0.0
 11
-26.760887341
 21
-7.733137676
 31
0.0
  0
LINE
  5
C8
330
1F
100
AcDbEntity
  8
SK1
100
AcDbLine
 10
-26.760887341
 20
-7.733137676
 30
0.0
 11
-25.477445379
 21
-8.402570432
 31
0.0
  0
LINE
  5
C9
330
1F
100
AcDbEntity
  8
SK1
100
AcDbLine
 10
-25.477445379
 20
-8.402570432
 30
0.0
 11
-24.117096347
 21
-8.928680635
 31
0.0
  0
LINE
  5
CA
330
1F
100
AcDbEntity
  8
SK1
100
AcDbLine
 10
-24.117096347
 20
-8.928680635
 30
0.0
 11
-22.707648624
 21
-9.31220219
 31
0.0
  0
LINE
  5
CB
330
1F
100
AcDbEntity
  8
SK1
100
AcDbLine
 10
-22.707648624
 20
-9.31220219
 30
0.0
 11
-21.040480473
 21
-9.582369417
 31
0.0
  0
LINE
  5
CC
330
1F
100
AcDbEntity
  8
SK1
100
AcDbLine
 10
-21.040480473
 20
-9.582369417
 30
0.0
 11
-19.35
 21
-9.672277701
 31
0.0
  0
LINE
  5
CD
330
1F
100
AcDbEntity
  8
SK1
100
AcDbLine
 10
-19.35
 20
-9.672277701
 30
0.0
 11
-17.85
 21
-9.672277701
 31
0.0
  0
LINE
  5
D1
330
1F
100
AcDbEntity
  8
SK1
100
AcDbLine
 10
-44.0
 20
-0.3
 30
0.0
 11
-44.0
 21
-22.9999999998
 31
0.0
  0
LINE
  5
D2
330
1F
100
AcDbEntity
  8
SK1
100
AcDbLine
 10
-44.0
 20
23.0000000002
 30
0.0
 11
-46.605707514
 21
22.6337916912
 31
0.0
  0
LINE
  5
D3
330
1F
100
AcDbEntity
  8
SK1
100
AcDbLine
 10
-46.605707514
 20
22.6337916912
 30
0.0
 11
-48.57918662100001
 21
22.9817693042
 31
0.0
  0
LINE
  5
D4
330
1F
100
AcDbEntity
  8
SK1
100
AcDbLine
 10
-49.8267949193
 20
22.3999999998
 30
0.0
 11
-50.0
 21
22.1
 31
0.0
  0
LINE
  5
D5
330
1F
100
AcDbEntity
  8
SK1
100
AcDbLine
 10
-50.0
 20
22.1
 30
0.0
 11
-50.0
 21
-22.1
 31
0.0
  0
LINE
  5
D6
330
1F
100
AcDbEntity
  8
SK1
100
AcDbLine
 10
-50.0
 20
-22.1
 30
0.0
 11
-49.8267949192
 21
-22.4000000001
 31
0.0
  0
LINE
  5
D7
330
1F
100
AcDbEntity
  8
SK1
100
AcDbLine
 10
-48.57918662180001
 20
-22.9817693034
 30
0.0
 11
-46.605707514
 21
-22.6337916908
 31
0.0
  0
LINE
  5
D8
330
1F
100
AcDbEntity
  8
SK1
100
AcDbLine
 10
-46.605707514
 20
-22.6337916908
 30
0.0
 11
-44.0
 21
-22.9999999998
 31
0.0
  0
LINE
  5
D9
330
1F
100
AcDbEntity
  8
SK1
100
AcDbLine
 10
-44.0
 20
0.3
 30
0.0
 11
-44.0
 21
23.0000000002
 31
0.0
  0
LINE
  5
DA
330
1F
100
AcDbEntity
  8
SK1
100
AcDbLine
 10
-46.605707514
 20
-22.6337916908
 30
0.0
 11
-46.605707514
 21
22.6337916912
 31
0.0
  0
LINE
  5
DC
330
1F
100
AcDbEntity
  8
1
100
AcDbLine
 10
82.999996841
 20
28.635641547
 30
0.0
 11
61.3
 21
28.635642127
 31
0.0
  0
LINE
  5
DD
330
1F
100
AcDbEntity
  8
1
100
AcDbLine
 10
55.940717459
 20
-8.092643693
 30
0.0
 11
61.300583184
 21
-60.032803565
 31
0.0
  0
LINE
  5
DE
330
1F
100
AcDbEntity
  8
1
100
AcDbLine
 10
55.16641586999999
 20
-55.313769728
 30
0.0
 11
49.149621278
 21
-50.449438393
 31
0.0
  0
LINE
  5
DF
330
1F
100
AcDbEntity
  8
1
100
AcDbLine
 10
49.149621278
 20
-50.449438393
 30
0.0
 11
43.2930924
 21
-45.402880758
 31
0.0
  0
LINE
  5
E0
330
1F
100
AcDbEntity
  8
1
100
AcDbLine
 10
33.183276653
 20
-35.519838333
 30
0.0
 11
30.111249536
 21
-31.960621476
 31
0.0
  0
LINE
  5
E1
330
1F
100
AcDbEntity
  8
1
100
AcDbLine
 10
30.111249536
 20
-31.960621476
 30
0.0
 11
27.259517461
 21
-28.236098588
 31
0.0
  0
LINE
  5
E2
330
1F
100
AcDbEntity
  8
1
100
AcDbLine
 10
27.259517461
 20
-28.236098588
 30
0.0
 11
25.575881824
 21
-25.751465932
 31
0.0
  0
LINE
  5
E3
330
1F
100
AcDbEntity
  8
1
100
AcDbLine
 10
25.575881824
 20
-25.751465932
 30
0.0
 11
24.036973715
 21
-23.178080097
 31
0.0
  0
LINE
  5
E4
330
1F
100
AcDbEntity
  8
1
100
AcDbLine
 10
24.036973715
 20
-23.178080097
 30
0.0
 11
22.65226841
 21
-20.46437189
 31
0.0
  0
LINE
  5
E5
330
1F
100
AcDbEntity
  8
1
100
AcDbLine
 10
22.65226841
 20
-20.46437189
 30
0.0
 11
21.488411352
 21
-17.652994022
 31
0.0
  0
LINE
  5
E6
330
1F
100
AcDbEntity
  8
1
100
AcDbLine
 10
21.488411352
 20
-17.652994022
 30
0.0
 11
20.751791075
 21
-15.35970252
 31
0.0
  0
LINE
  5
E7
330
1F
100
AcDbEntity
  8
1
100
AcDbLine
 10
20.751791075
 20
-15.35970252
 30
0.0
 11
20.201724023
 21
-13.016701676
 31
0.0
  0
LINE
  5
E8
330
1F
100
AcDbEntity
  8
1
100
AcDbLine
 10
20.201724023
 20
-13.016701676
 30
0.0
 11
19.851306453
 21
-10.565232486
 31
0.0
  0
LINE
  5
E9
330
1F
100
AcDbEntity
  8
1
100
AcDbLine
 10
19.851306453
 20
-10.565232486
 30
0.0
 11
19.732050598
 21
-8.092643693
 31
0.0
  0
LINE
  5
EA
330
1F
100
AcDbEntity
  8
1
100
AcDbLine
 10
19.732050598
 20
-8.092643693
 30
0.0
 11
19.732050598
 21
43.72478276499999
 31
0.0
  0
LINE
  5
EB
330
1F
100
AcDbEntity
  8
1
100
AcDbLine
 10
19.732050598
 20
43.72478276499999
 30
0.0
 11
19.858302548
 21
44.212698936
 31
0.0
  0
LINE
  5
EC
330
1F
100
AcDbEntity
  8
1
100
AcDbLine
 10
19.858302548
 20
44.212698936
 30
0.0
 11
20.215040073
 21
44.77531090399999
 31
0.0
  0
LINE
  5
ED
330
1F
100
AcDbEntity
  8
1
100
AcDbLine
 10
20.215040073
 20
44.77531090399999
 30
0.0
 11
20.945563912
 21
45.56169733399999
 31
0.0
  0
LINE
  5
EE
330
1F
100
AcDbEntity
  8
1
100
AcDbLine
 10
20.945563912
 20
45.56169733399999
 30
0.0
 11
21.905446425
 21
46.39641568099999
 31
0.0
  0
LINE
  5
EF
330
1F
100
AcDbEntity
  8
1
100
AcDbLine
 10
21.905446425
 20
46.39641568099999
 30
0.0
 11
23.219281807
 21
47.398980707
 31
0.0
  0
LINE
  5
F0
330
1F
100
AcDbEntity
  8
1
100
AcDbLine
 10
23.219281807
 20
47.398980707
 30
0.0
 11
24.683983996
 21
48.421360552
 31
0.0
  0
LINE
  5
F1
330
1F
100
AcDbEntity
  8
1
100
AcDbLine
 10
24.683983996
 20
48.421360552
 30
0.0
 11
26.245782152
 21
49.450218677
 31
0.0
  0
LINE
  5
F2
330
1F
100
AcDbEntity
  8
1
100
AcDbLine
 10
26.245782152
 20
49.450218677
 30
0.0
 11
28.956593946
 21
51.158100367
 31
0.0
  0
LINE
  5
F3
330
1F
100
AcDbEntity
  8
1
100
AcDbLine
 10
28.956593946
 20
51.158100367
 30
0.0
 11
31.791895628
 21
52.87801474299999
 31
0.0
  0
LINE
  5
F4
330
1F
100
AcDbEntity
  8
1
100
AcDbLine
 10
31.791895628
 20
52.87801474299999
 30
0.0
 11
34.709624946
 21
54.60492521499999
 31
0.0
  0
LINE
  5
F5
330
1F
100
AcDbEntity
  8
1
100
AcDbLine
 10
34.709624946
 20
54.60492521499999
 30
0.0
 11
37.667714059
 21
56.333780289
 31
0.0
  0
LINE
  5
F6
330
1F
100
AcDbEntity
  8
1
100
AcDbLine
 10
37.667714059
 20
56.333780289
 30
0.0
 11
41.32872074799999
 21
58.461602777
 31
0.0
  0
LINE
  5
F7
330
1F
100
AcDbEntity
  8
1
100
AcDbLine
 10
82.999996841
 20
69.500006735
 30
0.0
 11
82.5000032528
 21
70.0005115868
 31
0.0
  0
LINE
  5
F8
102
{ACAD_REACTORS
330
39E
102
}
330
1F
100
AcDbEntity
  8
1
100
AcDbLine
 10
82.5000032528
 20
70.0005115868
 30
0.0
 11
61.3012686376
 21
69.9994646576
 31
0.0
  0
LINE
  5
F9
330
1F
100
AcDbEntity
  8
1
100
AcDbLine
 10
61.3012686376
 20
69.9994646576
 30
0.0
 11
17.999999225
 21
45.000001788
 31
0.0
  0
LINE
  5
FA
330
1F
100
AcDbEntity
  8
1
100
AcDbLine
 10
17.999999225
 20
45.000001788
 30
0.0
 11
0.500000024
 21
45.000001788
 31
0.0
  0
LINE
  5
FB
330
1F
100
AcDbEntity
  8
1
100
AcDbLine
 10
0.500000024
 20
45.000001788
 30
0.0
 11
0.0
 21
44.500000775
 31
0.0
  0
LINE
  5
FD
330
1F
100
AcDbEntity
  8
1
100
AcDbLine
 10
0.0
 20
44.500000775
 30
0.0
 11
0.0
 21
-44.50000077500001
 31
0.0
  0
LINE
  5
FE
330
1F
100
AcDbEntity
  8
1
100
AcDbLine
 10
0.0
 20
-44.500000775
 30
0.0
 11
0.500000024
 21
-45.00000178800001
 31
0.0
  0
LINE
  5
FF
330
1F
100
AcDbEntity
  8
1
100
AcDbLine
 10
0.500000024
 20
-45.00000178800001
 30
0.0
 11
17.999999225
 21
-45.00000178800001
 31
0.0
  0
LINE
  5
100
330
1F
100
AcDbEntity
  8
1
100
AcDbLine
 10
17.999999225
 20
-45.00000178800001
 30
0.0
 11
61.301268637
 21
-70.000000298
 31
0.0
  0
LINE
  5
101
330
1F
100
AcDbEntity
  8
1
100
AcDbLine
 10
61.301268637
 20
-70.000000298
 30
0.0
 11
61.300583184
 21
-60.03332510600001
 31
0.0
  0
LINE
  5
102
330
1F
100
AcDbEntity
  8
1
100
AcDbLine
 10
61.300583184
 20
-60.03332510600001
 30
0.0
 11
82.500003278
 21
-60.03332510600001
 31
0.0
  0
LINE
  5
103
102
{ACAD_REACTORS
330
39E
102
}
330
1F
100
AcDbEntity
  8
1
100
AcDbLine
 10
61.301268637
 20
-70.000000298
 30
0.0
 11
82.999996841
 21
-69.99892867599999
 31
0.0
  0
LINE
  5
104
330
1F
100
AcDbEntity
  8
1
100
AcDbLine
 10
82.999996841
 20
69.500006735
 30
0.0
 11
82.999996841
 21
-69.99892867599999
 31
0.0
  0
LINE
  5
105
330
1F
100
AcDbEntity
  8
1
100
AcDbLine
 10
48.722334206
 20
62.735557556
 30
0.0
 11
58.499999344
 21
62.735557556
 31
0.0
  0
LINE
  5
106
330
1F
100
AcDbEntity
  8
1
100
AcDbLine
 10
58.499999344
 20
62.735557556
 30
0.0
 11
58.498554129
 21
57.50823691999999
 31
0.0
  0
LINE
  5
107
330
1F
100
AcDbEntity
  8
3
100
AcDbLine
 10
64.3652255945
 20
43.35050539349999
 30
0.0
 11
58.100506663
 21
37.08578646199999
 31
0.0
  0
LINE
  5
108
330
1F
100
AcDbEntity
  8
3
100
AcDbLine
 10
58.100506663
 20
37.08578646199999
 30
0.0
 11
59.449728578
 21
34.192368388
 31
0.0
  0
LINE
  5
109
330
1F
100
AcDbEntity
  8
3
100
AcDbLine
 10
59.449728578
 20
34.192368388
 30
0.0
 11
36.3073600455
 21
11.0499998555
 31
0.0
  0
LINE
  5
10A
330
1F
100
AcDbEntity
  8
3
100
AcDbLine
 10
37.900000811
 20
-11.0
 30
0.0
 11
41.9036793
 21
0.0
 31
0.0
  0
LINE
  5
10B
330
1F
100
AcDbEntity
  8
3
100
AcDbLine
 10
41.9036793
 20
0.0
 30
0.0
 11
37.900000811
 21
11.000015259
 31
0.0
  0
LINE
  5
10C
330
1F
100
AcDbEntity
  8
3
100
AcDbLine
 10
37.900000811
 20
11.000015259
 30
0.0
 11
37.900000811
 21
-11.0
 31
0.0
  0
LINE
  5
10E
330
1F
100
AcDbEntity
  8
1
100
AcDbLine
 10
17.999999225
 20
45.000001788
 30
0.0
 11
17.999999225
 21
-45.00000178800001
 31
0.0
  0
LINE
  5
10F
330
1F
100
AcDbEntity
  8
1
100
AcDbLine
 10
61.299998313
 20
-60.032896698
 30
0.0
 11
61.3
 21
28.635642127
 31
0.0
  0
LINE
  5
110
330
1F
100
AcDbEntity
  8
3
100
AcDbLine
 10
39.7392751935
 20
5.9966354715
 30
0.0
 11
63.69236856649999
 21
29.9497283995
 31
0.0
  0
LINE
  5
111
330
1F
100
AcDbEntity
  8
3
100
AcDbLine
 10
63.69236856649999
 20
29.9497283995
 30
0.0
 11
66.5857866405
 21
28.6005046215
 31
0.0
  0
LINE
  5
112
330
1F
100
AcDbEntity
  8
3
100
AcDbLine
 10
66.5857866405
 20
28.6005046215
 30
0.0
 11
75.6844643575
 21
37.6991728645
 31
0.0
  0
LINE
  5
113
330
1F
100
AcDbEntity
  8
3
100
AcDbLine
 10
59.449728578
 20
34.192368388
 30
0.0
 11
63.69236856649999
 21
29.9497283995
 31
0.0
  0
LINE
  5
114
330
1F
100
AcDbEntity
  8
3
100
AcDbLine
 10
66.5857866405
 20
28.6005046215
 30
0.0
 11
58.100506663
 21
37.08578646199999
 31
0.0
  0
LINE
  5
115
330
1F
100
AcDbEntity
  8
1
100
AcDbLine
 10
78.5000026223
 20
37.5000014904
 30
0.0
 11
82.9999968408
 21
37.5000014904
 31
0.0
  0
LINE
  5
116
330
1F
100
AcDbEntity
  8
1
100
AcDbLine
 10
39.816997945
 20
-42.22124815
 30
0.0
 11
43.2930924
 21
-45.402880758
 31
0.0
  0
LINE
  5
117
330
1F
100
AcDbEntity
  8
1
100
AcDbLine
 10
55.16641586999999
 20
-55.313769728
 30
0.0
 11
61.300583184
 21
-60.032803565
 31
0.0
  0
LINE
  5
118
330
1F
100
AcDbEntity
  8
4
100
AcDbLine
 10
36.75213164399999
 20
7.252131746
 30
0.0
 11
70.410971069
 21
40.91097054399999
 31
0.0
  0
LINE
  5
119
330
1F
100
AcDbEntity
  8
1
100
AcDbLine
 10
79.7000014019
 20
37.500284855
 30
0.0
 11
99.3000016339
 21
37.500284855
 31
0.0
  0
LINE
  5
11A
330
1F
100
AcDbEntity
  8
1
100
AcDbLine
 10
100.2999999349
 20
36.500282829
 30
0.0
 11
99.7938037639
 21
37.006479
 31
0.0
  0
LINE
  5
11B
330
1F
100
AcDbEntity
  8
1
100
AcDbLine
 10
99.7938037639
 20
37.006479
 30
0.0
 11
99.3000016339
 21
37.500284855
 31
0.0
  0
LINE
  5
11D
330
1F
100
AcDbEntity
  8
1
100
AcDbLine
 10
100.2999999349
 20
28.635924925
 30
0.0
 11
83.1980787939
 21
28.635924925
 31
0.0
  0
LINE
  5
11E
330
1F
100
AcDbEntity
  8
1
100
AcDbLine
 10
115.269642234
 20
-73.054850101
 30
0.0
 11
115.269642234
 21
-73.055177927
 31
0.0
  0
LINE
  5
11F
330
1F
100
AcDbEntity
  8
1
100
AcDbLine
 10
104.534707874
 20
-71.158803999
 30
0.0
 11
115.269642234
 21
-73.055177927
 31
0.0
  0
LINE
  5
120
330
1F
100
AcDbEntity
  8
1
100
AcDbLine
 10
104.534707874
 20
-71.27443701
 30
0.0
 11
104.534707874
 21
-71.158803999
 31
0.0
  0
LINE
  5
121
330
1F
100
AcDbEntity
  8
1
100
AcDbLine
 10
104.3638048464
 20
-71.2642884024
 30
0.0
 11
103.4204670014
 21
-71.0979548651
 31
0.0
  0
LINE
  5
122
330
1F
100
AcDbEntity
  8
1
100
AcDbLine
 10
103.4204670014
 20
-71.0979548651
 30
0.0
 11
97.1904703204
 21
-69.99943381109999
 31
0.0
  0
LINE
  5
123
330
1F
100
AcDbEntity
  8
1
100
AcDbLine
 10
97.1904703204
 20
-60.03304174110001
 30
0.0
 11
97.1904703204
 21
-69.99943381109999
 31
0.0
  0
LINE
  5
124
330
1F
100
AcDbEntity
  8
1
100
AcDbLine
 10
97.1904703204
 20
-60.03304174110001
 30
0.0
 11
99.7944370634
 21
-60.56779226210001
 31
0.0
  0
LINE
  5
125
330
1F
100
AcDbEntity
  8
1
100
AcDbLine
 10
99.7944370634
 20
-60.56779226210001
 30
0.0
 11
111.0974744684
 21
-62.8751364901
 31
0.0
  0
LINE
  5
126
330
1F
100
AcDbEntity
  8
1
100
AcDbLine
 10
100.2999999349
 20
-1.568181314
 30
0.0
 11
100.2999999349
 21
36.500282829
 31
0.0
  0
LINE
  5
127
330
1F
100
AcDbEntity
  8
1
100
AcDbLine
 10
83.1980787939
 20
-60.03304174110001
 30
0.0
 11
97.1904703204
 21
-60.03304174110001
 31
0.0
  0
LINE
  5
128
330
1F
100
AcDbEntity
  8
1
100
AcDbLine
 10
111.097473562
 20
-22.949451581
 30
0.0
 11
101.6397459622
 21
-6.568181548
 31
0.0
  0
LINE
  5
129
330
1F
100
AcDbEntity
  8
1
100
AcDbLine
 10
113.097477615
 20
-26.413554326
 30
0.0
 11
113.097477615
 21
-63.34336847100001
 31
0.0
  0
LINE
  5
12A
330
1F
100
AcDbEntity
  8
1
100
AcDbLine
 10
113.097477615
 20
-63.34336847100001
 30
0.0
 11
113.081078887
 21
-63.507206738
 31
0.0
  0
LINE
  5
12B
330
1F
100
AcDbEntity
  8
1
100
AcDbLine
 10
113.081078887
 20
-63.507206738
 30
0.0
 11
113.027077079
 21
-63.655205071
 31
0.0
  0
LINE
  5
12C
330
1F
100
AcDbEntity
  8
1
100
AcDbLine
 10
113.027077079
 20
-63.655205071
 30
0.0
 11
112.947117448
 21
-63.758149743
 31
0.0
  0
LINE
  5
12D
330
1F
100
AcDbEntity
  8
1
100
AcDbLine
 10
112.947117448
 20
-63.758149743
 30
0.0
 11
112.820055246
 21
-63.83524090100001
 31
0.0
  0
LINE
  5
12E
330
1F
100
AcDbEntity
  8
1
100
AcDbLine
 10
112.820055246
 20
-63.83524090100001
 30
0.0
 11
112.612146795
 21
-63.85964155200001
 31
0.0
  0
LINE
  5
12F
330
1F
100
AcDbEntity
  8
1
100
AcDbLine
 10
112.612146795
 20
-63.85964155200001
 30
0.0
 11
112.265255213
 21
-63.74617666
 31
0.0
  0
LINE
  5
130
330
1F
100
AcDbEntity
  8
1
100
AcDbLine
 10
112.265255213
 20
-63.74617666
 30
0.0
 11
112.087961197
 21
-63.631393015
 31
0.0
  0
LINE
  5
131
330
1F
100
AcDbEntity
  8
1
100
AcDbLine
 10
113.097477615
 20
-26.413554326
 30
0.0
 11
111.097473562
 21
-22.949451581
 31
0.0
  0
LINE
  5
132
330
1F
100
AcDbEntity
  8
1
100
AcDbLine
 10
97.1904703204
 20
-69.99943381109999
 30
0.0
 11
82.999996841
 21
-69.99892867599999
 31
0.0
  0
LINE
  5
133
330
1F
100
AcDbEntity
  8
1
100
AcDbLine
 10
79.70000000019999
 20
-61.35824279600001
 30
0.0
 11
79.649999648
 21
-61.317052692
 31
0.0
  0
LINE
  5
134
330
1F
100
AcDbEntity
  8
1
100
AcDbLine
 10
113.825324833
 20
-27.674220502
 30
0.0
 11
113.825324833
 21
-44.499717653
 31
0.0
  0
LINE
  5
135
330
1F
100
AcDbEntity
  8
1
100
AcDbLine
 10
116.153382489
 20
-44.499716878
 30
0.0
 11
116.153385401
 21
-31.706538051
 31
0.0
  0
LINE
  5
136
330
1F
100
AcDbEntity
  8
1
100
AcDbLine
 10
116.153385401
 20
-31.706538051
 30
0.0
 11
116.6499964
 21
-32.566703856
 31
0.0
  0
LINE
  5
137
330
1F
100
AcDbEntity
  8
1
100
AcDbLine
 10
116.6499964
 20
-32.566703856
 30
0.0
 11
116.6499964
 21
-61.264690012
 31
0.0
  0
LINE
  5
138
330
1F
100
AcDbEntity
  8
1
100
AcDbLine
 10
116.6499964
 20
-61.264690012
 30
0.0
 11
116.492342114
 21
-61.41031533500001
 31
0.0
  0
LINE
  5
139
330
1F
100
AcDbEntity
  8
1
100
AcDbLine
 10
116.208564401
 20
-61.360023916
 30
0.0
 11
116.492342114
 21
-61.41031533500001
 31
0.0
  0
LINE
  5
13A
330
1F
100
AcDbEntity
  8
1
100
AcDbLine
 10
116.208564401
 20
-72.265893221
 30
0.0
 11
116.208564401
 21
-61.360023916
 31
0.0
  0
LINE
  5
13B
330
1F
100
AcDbEntity
  8
1
100
AcDbLine
 10
116.208564401
 20
-72.265893221
 30
0.0
 11
116.2085420485
 21
-72.2716897724
 31
0.0
  0
LINE
  5
13C
330
1F
100
AcDbEntity
  8
1
100
AcDbLine
 10
113.097477615
 20
-26.413554326
 30
0.0
 11
113.825324833
 21
-27.674220502
 31
0.0
  0
LINE
  5
13D
330
1F
100
AcDbEntity
  8
1
100
AcDbLine
 10
79.649999648
 20
-62.026411295
 30
0.0
 11
79.6999999989
 21
-62.097819692
 31
0.0
  0
LINE
  5
13E
330
1F
100
AcDbEntity
  8
1
100
AcDbLine
 10
79.649999648
 20
-61.317052692
 30
0.0
 11
79.56988728
 21
-61.257209629
 31
0.0
  0
LINE
  5
13F
330
1F
100
AcDbEntity
  8
1
100
AcDbLine
 10
79.56988728
 20
-61.257209629
 30
0.0
 11
79.492982387
 21
-61.216168106
 31
0.0
  0
LINE
  5
140
330
1F
100
AcDbEntity
  8
1
100
AcDbLine
 10
79.492982387
 20
-61.216168106
 30
0.0
 11
79.434625715
 21
-61.20847538100001
 31
0.0
  0
LINE
  5
141
330
1F
100
AcDbEntity
  8
1
100
AcDbLine
 10
79.434625715
 20
-61.20847538100001
 30
0.0
 11
79.406928182
 21
-61.23136729
 31
0.0
  0
LINE
  5
142
330
1F
100
AcDbEntity
  8
1
100
AcDbLine
 10
79.406928182
 20
-61.23136729
 30
0.0
 11
79.399999142
 21
-61.268538237
 31
0.0
  0
LINE
  5
143
330
1F
100
AcDbEntity
  8
1
100
AcDbLine
 10
79.700000495
 20
32.7443555
 30
0.0
 11
79.6499996486
 21
32.6455086469
 31
0.0
  0
LINE
  5
144
330
1F
100
AcDbEntity
  8
1
100
AcDbLine
 10
79.6999999991
 20
-64.2894455941
 30
0.0
 11
79.649999648
 21
-64.247436821
 31
0.0
  0
LINE
  5
145
330
1F
100
AcDbEntity
  8
1
100
AcDbLine
 10
79.4462905059
 20
37.246570234
 30
0.0
 11
79.4080764779
 21
37.11320856699999
 31
0.0
  0
LINE
  5
146
330
1F
100
AcDbEntity
  8
1
100
AcDbLine
 10
79.4080764779
 20
37.11320856699999
 30
0.0
 11
79.4000000489
 21
37.03875119
 31
0.0
  0
LINE
  5
147
330
1F
100
AcDbEntity
  8
1
100
AcDbLine
 10
79.4462905059
 20
37.246570234
 30
0.0
 11
79.7000014019
 21
37.500284855
 31
0.0
  0
LINE
  5
148
330
1F
100
AcDbEntity
  8
1
100
AcDbLine
 10
79.649999648
 20
-64.802162349
 30
0.0
 11
79.6999999991
 21
-64.8678435473
 31
0.0
  0
LINE
  5
149
330
1F
100
AcDbEntity
  8
1
100
AcDbLine
 10
79.649999648
 20
-64.247436821
 30
0.0
 11
79.561185002
 21
-64.178854227
 31
0.0
  0
LINE
  5
14A
330
1F
100
AcDbEntity
  8
1
100
AcDbLine
 10
79.561185002
 20
-64.178854227
 30
0.0
 11
79.482760191
 21
-64.13308531
 31
0.0
  0
LINE
  5
14B
330
1F
100
AcDbEntity
  8
1
100
AcDbLine
 10
79.482760191
 20
-64.13308531
 30
0.0
 11
79.425923437
 21
-64.12117928299999
 31
0.0
  0
LINE
  5
14C
330
1F
100
AcDbEntity
  8
1
100
AcDbLine
 10
79.425923437
 20
-64.12117928299999
 30
0.0
 11
79.402640372
 21
-64.141727984
 31
0.0
  0
LINE
  5
14D
330
1F
100
AcDbEntity
  8
1
100
AcDbLine
 10
79.402640372
 20
-64.141727984
 30
0.0
 11
79.399999142
 21
-64.160659909
 31
0.0
  0
LINE
  5
14E
330
1F
100
AcDbEntity
  8
1
100
AcDbLine
 10
79.4000000489
 20
37.03875119
 30
0.0
 11
79.4000000489
 21
-69.644644613
 31
0.0
  0
LINE
  5
14F
330
1F
100
AcDbEntity
  8
1
100
AcDbLine
 10
79.7000000005
 20
-66.5539784532
 30
0.0
 11
79.649999648
 21
-66.510796547
 31
0.0
  0
LINE
  5
150
330
1F
100
AcDbEntity
  8
1
100
AcDbLine
 10
79.649999648
 20
-66.92805886299999
 30
0.0
 11
79.69999999939999
 21
-66.9890693311
 31
0.0
  0
LINE
  5
151
330
1F
100
AcDbEntity
  8
1
100
AcDbLine
 10
79.649999648
 20
-66.510796547
 30
0.0
 11
79.552899957
 21
-66.432476044
 31
0.0
  0
LINE
  5
152
330
1F
100
AcDbEntity
  8
1
100
AcDbLine
 10
79.552899957
 20
-66.432476044
 30
0.0
 11
79.473603427
 21
-66.381148994
 31
0.0
  0
LINE
  5
153
330
1F
100
AcDbEntity
  8
1
100
AcDbLine
 10
79.473603427
 20
-66.381148994
 30
0.0
 11
79.418852836
 21
-66.364012659
 31
0.0
  0
LINE
  5
154
330
1F
100
AcDbEntity
  8
1
100
AcDbLine
 10
79.418852836
 20
-66.364012659
 30
0.0
 11
79.40046480299999
 21
-66.381447017
 31
0.0
  0
LINE
  5
155
330
1F
100
AcDbEntity
  8
1
100
AcDbLine
 10
79.40046480299999
 20
-66.381447017
 30
0.0
 11
79.399999142
 21
-66.387854517
 31
0.0
  0
LINE
  5
156
330
1F
100
AcDbEntity
  8
1
100
AcDbLine
 10
79.7000000003
 20
-68.21826457
 30
0.0
 11
79.649999648
 21
-68.17359477299999
 31
0.0
  0
LINE
  5
157
330
1F
100
AcDbEntity
  8
1
100
AcDbLine
 10
79.649999648
 20
-68.464659154
 30
0.0
 11
79.6999999984
 21
-68.5217777533
 31
0.0
  0
LINE
  5
158
330
1F
100
AcDbEntity
  8
1
100
AcDbLine
 10
79.649999648
 20
-68.17359477299999
 30
0.0
 11
79.544909209
 21
-68.084351718
 31
0.0
  0
LINE
  5
159
330
1F
100
AcDbEntity
  8
1
100
AcDbLine
 10
79.544909209
 20
-68.084351718
 30
0.0
 11
79.465299755
 21
-68.026646972
 31
0.0
  0
LINE
  5
15A
330
1F
100
AcDbEntity
  8
1
100
AcDbLine
 10
79.465299755
 20
-68.026646972
 30
0.0
 11
79.419001847
 21
-68.00423562499999
 31
0.0
  0
LINE
  5
15B
330
1F
100
AcDbEntity
  8
1
100
AcDbLine
 10
79.419001847
 20
-68.00423562499999
 30
0.0
 11
79.400259912
 21
-68.012133241
 31
0.0
  0
LINE
  5
15C
330
1F
100
AcDbEntity
  8
1
100
AcDbLine
 10
79.400259912
 20
-68.012133241
 30
0.0
 11
79.399999142
 21
-68.01546365
 31
0.0
  0
LINE
  5
15D
330
1F
100
AcDbEntity
  8
1
100
AcDbLine
 10
79.6999999998
 20
-69.3255473078
 30
0.0
 11
79.649999648
 21
-69.27908957
 31
0.0
  0
LINE
  5
15E
330
1F
100
AcDbEntity
  8
1
100
AcDbLine
 10
79.649999648
 20
-69.45110112399999
 30
0.0
 11
79.699999999
 21
-69.50491316669999
 31
0.0
  0
LINE
  5
15F
330
1F
100
AcDbEntity
  8
1
100
AcDbLine
 10
79.7000000016
 20
-69.9023010947
 30
0.0
 11
79.649999648
 21
-69.853752851
 31
0.0
  0
LINE
  5
160
330
1F
100
AcDbEntity
  8
1
100
AcDbLine
 10
113.825324833
 20
-27.674220502
 30
0.0
 11
116.153385401
 21
-31.706538051
 31
0.0
  0
LINE
  5
161
330
1F
100
AcDbEntity
  8
1
100
AcDbLine
 10
79.6500005554
 20
-69.9106601426
 30
0.0
 11
79.7468290941
 21
-69.9990893382
 31
0.0
  0
LINE
  5
162
330
1F
100
AcDbEntity
  8
1
100
AcDbLine
 10
97.19046941399999
 20
70.000000298
 30
0.0
 11
83.356331944
 21
70.000000298
 31
0.0
  0
LINE
  5
163
330
1F
100
AcDbEntity
  8
1
100
AcDbLine
 10
104.301046491
 20
71.253791451
 30
0.0
 11
103.420466095
 21
71.098521352
 31
0.0
  0
LINE
  5
164
330
1F
100
AcDbEntity
  8
1
100
AcDbLine
 10
103.420466095
 20
71.098521352
 30
0.0
 11
97.19046941399999
 21
70.000000298
 31
0.0
  0
LINE
  5
165
330
1F
100
AcDbEntity
  8
1
100
AcDbLine
 10
103.313285768
 20
61.88737601
 30
0.0
 11
104.299999684
 21
63.063293695
 31
0.0
  0
LINE
  5
166
330
1F
100
AcDbEntity
  8
1
100
AcDbLine
 10
108.283430248
 20
59.72080305199999
 30
0.0
 11
107.2967155521
 21
58.54487994479999
 31
0.0
  0
LINE
  5
167
330
1F
100
AcDbEntity
  8
1
100
AcDbLine
 10
116.6499964
 20
61.26525625599999
 30
0.0
 11
116.645272732
 21
61.264418066
 31
0.0
  0
LINE
  5
168
330
1F
100
AcDbEntity
  8
1
100
AcDbLine
 10
116.6499964
 20
32.56727009999999
 30
0.0
 11
116.6499964
 21
61.26525625599999
 31
0.0
  0
LINE
  5
169
330
1F
100
AcDbEntity
  8
1
100
AcDbLine
 10
101.63974753
 20
6.568747573
 30
0.0
 11
116.6499964
 21
32.56727009999999
 31
0.0
  0
LINE
  5
16A
330
1F
100
AcDbEntity
  8
1
100
AcDbLine
 10
116.6499964
 20
61.26525625599999
 30
0.0
 11
116.648528635
 21
61.266612262
 31
0.0
  0
LINE
  5
16B
330
1F
100
AcDbEntity
  8
1
100
AcDbLine
 10
83.356331944
 20
70.000000298
 30
0.0
 11
83.264298648
 21
69.99945640600001
 31
0.0
  0
LINE
  5
16C
330
1F
100
AcDbEntity
  8
1
100
AcDbLine
 10
83.264298648
 20
69.99945640600001
 30
0.0
 11
83.148077041
 21
69.998942316
 31
0.0
  0
LINE
  5
16D
330
1F
100
AcDbEntity
  8
1
100
AcDbLine
 10
79.849999308
 20
69.9112266299
 30
0.0
 11
79.900000155
 21
69.96221095290001
 31
0.0
  0
LINE
  5
16E
330
1F
100
AcDbEntity
  8
1
100
AcDbLine
 10
79.599998802
 20
37.400282919
 30
0.0
 11
79.599998802
 21
69.645211101
 31
0.0
  0
LINE
  5
170
330
1F
100
AcDbEntity
  8
1
100
AcDbLine
 10
116.0610799726
 20
73.98813233460001
 30
0.0
 11
104.9610812724
 21
72.030899993
 31
0.0
  0
LINE
  5
171
330
1F
100
AcDbEntity
  8
1
100
AcDbLine
 10
117.0000008297
 20
61.92904809669999
 30
0.0
 11
116.9999985057
 21
73.20028410970001
 31
0.0
  0
LINE
  5
173
330
1F
100
AcDbEntity
  8
CUT
100
AcDbLine
 10
117.0
 20
-61.92848148500001
 30
0.0
 11
117.0
 21
-73.199716877
 31
0.0
  0
LINE
  5
174
330
1F
100
AcDbEntity
  8
CUT
100
AcDbLine
 10
116.41554549
 20
-73.199716877
 30
0.0
 11
116.41554549
 21
-61.92848148500001
 31
0.0
  0
LINE
  5
175
330
1F
100
AcDbEntity
  8
1
100
AcDbLine
 10
116.2374290816
 20
-61.7162106154
 30
0.0
 11
116.208564401
 21
-61.711121351
 31
0.0
  0
LINE
  5
176
330
1F
100
AcDbEntity
  8
CUT
100
AcDbLine
 10
105.062570333
 20
-71.454755962
 30
0.0
 11
116.1625709185
 21
-73.41198774669999
 31
0.0
  0
LINE
  5
177
330
1F
100
AcDbEntity
  8
1
100
AcDbLine
 10
104.8844542968
 20
-71.2205831494
 30
0.0
 11
104.8844557788
 21
-71.2424863264
 31
0.0
  0
LINE
  5
178
330
1F
100
AcDbEntity
  8
CUT
100
AcDbLine
 10
116.0610814579
 20
-73.98756307949999
 30
0.0
 11
104.96108225
 21
-72.030335665
 31
0.0
  0
LINE
  5
179
330
1F
100
AcDbEntity
  8
1
100
AcDbLine
 10
115.269642234
 20
-73.054850101
 30
0.0
 11
115.10482794
 21
-72.912804782
 31
0.0
  0
LINE
  5
17A
330
1F
100
AcDbEntity
  8
1
100
AcDbLine
 10
115.10482794
 20
-72.912804782
 30
0.0
 11
114.776257336
 21
-72.525538504
 31
0.0
  0
LINE
  5
17B
330
1F
100
AcDbEntity
  8
1
100
AcDbLine
 10
114.776257336
 20
-72.525538504
 30
0.0
 11
114.449124694
 21
-72.000257671
 31
0.0
  0
LINE
  5
17C
330
1F
100
AcDbEntity
  8
1
100
AcDbLine
 10
114.449124694
 20
-72.000257671
 30
0.0
 11
114.043418229
 21
-71.150131524
 31
0.0
  0
LINE
  5
17D
330
1F
100
AcDbEntity
  8
1
100
AcDbLine
 10
114.043418229
 20
-71.150131524
 30
0.0
 11
113.642778158
 21
-70.088021457
 31
0.0
  0
LINE
  5
17E
330
1F
100
AcDbEntity
  8
1
100
AcDbLine
 10
113.642778158
 20
-70.088021457
 30
0.0
 11
113.248977721
 21
-68.818509579
 31
0.0
  0
LINE
  5
17F
330
1F
100
AcDbEntity
  8
1
100
AcDbLine
 10
113.248977721
 20
-68.818509579
 30
0.0
 11
112.852293909
 21
-67.299664021
 31
0.0
  0
LINE
  5
180
330
1F
100
AcDbEntity
  8
1
100
AcDbLine
 10
112.852293909
 20
-67.299664021
 30
0.0
 11
112.464677453
 21
-65.567977726
 31
0.0
  0
LINE
  5
181
330
1F
100
AcDbEntity
  8
1
100
AcDbLine
 10
112.464677453
 20
-65.567977726
 30
0.0
 11
112.087961197
 21
-63.631393015
 31
0.0
  0
LINE
  5
182
330
1F
100
AcDbEntity
  8
CUT
100
AcDbLine
 10
116.41554549
 20
-73.199716877
 30
0.0
 11
117.0
 21
-73.199716877
 31
0.0
  0
LINE
  5
183
330
1F
100
AcDbEntity
  8
CUT
100
AcDbLine
 10
116.1625709185
 20
-73.41198774669999
 30
0.0
 11
116.0610814579
 21
-73.98756307949999
 31
0.0
  0
LINE
  5
184
330
1F
100
AcDbEntity
  8
CUT
100
AcDbLine
 10
116.2374290816
 20
-61.7162106154
 30
0.0
 11
116.297457278
 21
-61.375778168
 31
0.0
  0
LINE
  5
185
330
1F
100
AcDbEntity
  8
CUT
100
AcDbLine
 10
116.41554549
 20
-61.92848148500001
 30
0.0
 11
117.0
 21
-61.92848148500001
 31
0.0
  0
LINE
  5
186
330
1F
100
AcDbEntity
  8
CUT
100
AcDbLine
 10
105.062570333
 20
-71.454755962
 30
0.0
 11
104.96108225
 21
-72.030335665
 31
0.0
  0
LINE
  5
187
330
1F
100
AcDbEntity
  8
CUT
100
AcDbLine
 10
104.8844557788
 20
-71.2424863264
 30
0.0
 11
104.5347091428
 21
-71.24248785639999
 31
0.0
  0
ARC
  5
188
330
1F
100
AcDbEntity
  8
3
100
AcDbCircle
 10
78.499988817
 20
-57.499981932
 30
0.0
 40
19.99998044200002
100
AcDbArc
 50
89.99996045000003
 51
136.467917958
  0
ARC
  5
189
330
1F
100
AcDbEntity
  8
3
100
AcDbCircle
 10
78.51537727
 20
-57.50823692
 30
0.0
 40
20.01682314099191
100
AcDbArc
 50
136.4811255193
 51
180.0
  0
ARC
  5
18A
330
1F
100
AcDbEntity
  8
SK1
100
AcDbCircle
 10
-0.299926758
 20
23.299987793
 30
0.0
 40
0.5000000001622754
100
AcDbArc
 50
255.0002074473
 51
306.859407195
  0
ARC
  5
18B
330
1F
100
AcDbEntity
  8
SK1
100
AcDbCircle
 10
-0.299926758
 20
-23.299987793
 30
0.0
 40
0.4999999999999993
100
AcDbArc
 50
53.14059280500002
 51
104.999792576
  0
ARC
  5
18C
330
1F
100
AcDbEntity
  8
SK1
100
AcDbCircle
 10
-21.9906221402
 20
-0.019596033
 30
0.0
 40
3.893026908260009
100
AcDbArc
 50
141.458324148
 51
175.291033093
  0
ARC
  5
18D
330
1F
100
AcDbEntity
  8
SK1
100
AcDbCircle
 10
-19.3426783152
 20
0.5107650799
 30
0.0
 40
9.198565880000002
100
AcDbArc
 50
224.9727331999999
 51
238.501705538
  0
ARC
  5
18E
330
1F
100
AcDbEntity
  8
SK1
100
AcDbCircle
 10
-19.336024487
 20
0.5174125780000001
 30
0.0
 40
9.207940956000016
100
AcDbArc
 50
215.841217633
 51
224.9727331999999
  0
ARC
  5
18F
330
1F
100
AcDbEntity
  8
SK1
100
AcDbCircle
 10
-17.9320000004
 20
-0.0000000004
 30
0.0
 40
7.499999999705363
100
AcDbArc
 50
205.3222106574
 51
357.707557224
  0
ARC
  5
192
330
1F
100
AcDbEntity
  8
SK1
100
AcDbCircle
 10
-21.9962214781
 20
0.0173762358
 30
0.0
 40
3.887264632929641
100
AcDbArc
 50
184.683134273
 51
218.5675084895
  0
ARC
  5
193
330
1F
100
AcDbEntity
  8
SK1
100
AcDbCircle
 10
-21.669313573
 20
0.4193223146
 30
0.0
 40
7.372899239940769
100
AcDbArc
 50
185.5988555017999
 51
206.1963176507
  0
ARC
  5
194
330
1F
100
AcDbEntity
  8
SK1
100
AcDbCircle
 10
-21.6808272051
 20
0.4135766989
 30
0.0
 40
7.360031819279709
100
AcDbArc
 50
206.1957509794
 51
224.9727332
  0
ARC
  5
195
330
1F
100
AcDbEntity
  8
SK1
100
AcDbCircle
 10
-21.6861476798
 20
0.408261285
 30
0.0
 40
7.352511109442188
100
AcDbArc
 50
224.9727331962
 51
225.92716713
  0
ARC
  5
196
330
1F
100
AcDbEntity
  8
SK1
100
AcDbCircle
 10
-17.9860483557
 20
1.9284433057
 30
0.0
 40
11.41009527000001
100
AcDbArc
 50
278.553906134
 51
293.153327867
  0
ARC
  5
197
330
1F
100
AcDbEntity
  8
SK3
100
AcDbCircle
 10
-46.0
 20
0.0
 30
0.0
 40
0.3000000000000225
100
AcDbArc
 50
90.0
 51
270.0
  0
ARC
  5
198
330
1F
100
AcDbEntity
  8
SK1
100
AcDbCircle
 10
-17.8496622252
 20
2.3777378408
 30
0.0
 40
7.149430876000034
100
AcDbArc
 50
77.39055863000002
 51
90.00270694400001
  0
ARC
  5
199
330
1F
100
AcDbEntity
  8
SK1
100
AcDbCircle
 10
-19.4432189392
 20
-2.4140490373
 30
0.0
 40
11.94158159679412
100
AcDbArc
 50
89.55273043369999
 51
166.863179002
  0
ARC
  5
19A
330
1F
100
AcDbEntity
  8
SK1
100
AcDbCircle
 10
-17.7899443925
 20
0.8252367184
 30
0.0
 40
8.847244815403254
100
AcDbArc
 50
60.99232127820002
 51
90.3889300388
  0
ARC
  5
19B
330
1F
100
AcDbEntity
  8
SK1
100
AcDbCircle
 10
-17.3433920336
 20
-0.1258704817
 30
0.0
 40
9.500752119009015
100
AcDbArc
 50
2.569139741100001
 51
66.1358506675
  0
ARC
  5
19C
330
1F
100
AcDbEntity
  8
SK1
100
AcDbCircle
 10
-17.9320000004
 20
-0.0000000004
 30
0.0
 40
7.499999999759841
100
AcDbArc
 50
2.292442776000001
 51
161.2879965472
  0
ARC
  5
19D
330
1F
100
AcDbEntity
  8
SK1
100
AcDbCircle
 10
-17.925935458
 20
-0.5553718928
 30
0.0
 40
10.04690147164938
100
AcDbArc
 50
120.023685125
 51
128.2701249132
  0
ARC
  5
19E
330
1F
100
AcDbEntity
  8
SK1
100
AcDbCircle
 10
-17.9292736349
 20
-0.5496023047999999
 30
0.0
 40
10.04024785199998
100
AcDbArc
 50
108.258119846
 51
120.023685125
  0
ARC
  5
1A0
330
1F
100
AcDbEntity
  8
SK1
100
AcDbCircle
 10
-17.9320006631
 20
-0.5413322648
 30
0.0
 40
10.03153979575075
100
AcDbArc
 50
80.5729207302
 51
108.2581270142
  0
ARC
  5
1A1
330
1F
100
AcDbEntity
  8
SK1
100
AcDbCircle
 10
-17.9860483562
 20
-1.9284433065
 30
0.0
 40
11.41009527112877
100
AcDbArc
 50
66.84667213540001
 51
81.44609386990001
  0
ARC
  5
1A3
330
1F
100
AcDbEntity
  8
SK1
100
AcDbCircle
 10
-17.9259354582
 20
0.5553718919
 30
0.0
 40
10.04690147196613
100
AcDbArc
 50
231.7298750892
 51
239.976314875
  0
ARC
  5
1A4
330
1F
100
AcDbEntity
  8
SK1
100
AcDbCircle
 10
-17.9292736347
 20
0.5496023051
 30
0.0
 40
10.040247852
100
AcDbArc
 50
239.976314875
 51
251.741880154
  0
ARC
  5
1A5
330
1F
100
AcDbEntity
  8
SK1
100
AcDbCircle
 10
-17.9320006627
 20
0.5413322646000001
 30
0.0
 40
10.03153979537089
100
AcDbArc
 50
251.741872984
 51
279.4270792743001
  0
ARC
  5
1A7
330
1F
100
AcDbEntity
  8
SK1
100
AcDbCircle
 10
-17.8496622247
 20
-2.3777378405
 30
0.0
 40
7.149430876130544
100
AcDbArc
 50
269.997293056
 51
282.6094413748999
  0
ARC
  5
1A8
330
1F
100
AcDbEntity
  8
SK1
100
AcDbCircle
 10
-19.4432189387
 20
2.414049037
 30
0.0
 40
11.94158159624463
100
AcDbArc
 50
193.1368209974999
 51
270.4472695663
  0
ARC
  5
1A9
330
1F
100
AcDbEntity
  8
SK1
100
AcDbCircle
 10
-17.7899443927
 20
-0.8252367187
 30
0.0
 40
8.847244815126293
100
AcDbArc
 50
269.6110699624
 51
299.0076787283
  0
ARC
  5
1AA
330
1F
100
AcDbEntity
  8
SK1
100
AcDbCircle
 10
-17.3847161239
 20
0.1541153788
 30
0.0
 40
9.54333716371517
100
AcDbArc
 50
294.0224332716999
 51
357.2725763266
  0
ARC
  5
1AB
330
1F
100
AcDbEntity
  8
SK1
100
AcDbCircle
 10
-4.6000000006
 20
-0.0000000004
 30
0.0
 40
0.2999999999924452
100
AcDbArc
 50
269.9999999948
 51
89.9999999948
  0
ARC
  5
1AC
330
1F
100
AcDbEntity
  8
SK1
100
AcDbCircle
 10
-21.6693134468
 20
-0.4193210281
 30
0.0
 40
7.372899239940765
100
AcDbArc
 50
153.8036905213
 51
174.4011545441
  0
ARC
  5
1AD
330
1F
100
AcDbEntity
  8
SK1
100
AcDbCircle
 10
-21.6808275433
 20
-0.4135763568
 30
0.0
 40
7.360031819500405
100
AcDbArc
 50
135.0272668
 51
153.8042490146
  0
ARC
  5
1AE
330
1F
100
AcDbEntity
  8
SK1
100
AcDbCircle
 10
-21.6861478477
 20
-0.4082611131
 30
0.0
 40
7.352511350391567
100
AcDbArc
 50
134.07283287
 51
135.0272668038
  0
ARC
  5
1AF
330
1F
100
AcDbEntity
  8
SK1
100
AcDbCircle
 10
-19.3360244871
 20
-0.5174125781
 30
0.0
 40
9.207910019540984
100
AcDbArc
 50
135.0272668
 51
144.158782368
  0
ARC
  5
1B0
330
1F
100
AcDbEntity
  8
SK1
100
AcDbCircle
 10
-19.342678315
 20
-0.51076508
 30
0.0
 40
9.198535498
100
AcDbArc
 50
121.498294462
 51
135.0272668
  0
ARC
  5
1B1
330
1F
100
AcDbEntity
  8
SK1
100
AcDbCircle
 10
-48.7875644342
 20
21.8000000003
 30
0.0
 40
1.200000000259189
100
AcDbArc
 50
80.00000000339998
 51
150.0000000331
  0
ARC
  5
1B2
330
1F
100
AcDbEntity
  8
SK1
100
AcDbCircle
 10
-48.787564435
 20
-21.8
 30
0.0
 40
1.199999999765578
100
AcDbArc
 50
210.0000000128999
 51
279.9999999989998
  0
ARC
  5
1B3
330
1F
100
AcDbEntity
  8
1
100
AcDbCircle
 10
104.5130011101
 20
8.5911961429
 30
0.0
 40
47.63552539592337
100
AcDbArc
 50
155.1156679959
 51
157.461812867
  0
ARC
  5
1B4
330
1F
100
AcDbEntity
  8
1
100
AcDbCircle
 10
114.992912704
 20
4.242089201
 30
0.0
 40
58.97795591800001
100
AcDbArc
 50
157.461812867
 51
166.864202143
  0
ARC
  5
1B5
330
1F
100
AcDbEntity
  8
1
100
AcDbCircle
 10
133.1691676669
 20
0.0
 30
0.0
 40
77.64267035909388
100
AcDbArc
 50
166.8639368925
 51
185.98209961
  0
ARC
  5
1B7
330
1F
100
AcDbEntity
  8
1
100
AcDbCircle
 10
78.51537727
 20
57.50823691999999
 30
0.0
 40
20.01682314099997
100
AcDbArc
 50
180.0
 51
223.518874481
  0
ARC
  5
1B8
330
1F
100
AcDbEntity
  8
1
100
AcDbCircle
 10
78.4999888168
 20
57.4999819327
 30
0.0
 40
19.99998044235252
100
AcDbArc
 50
223.5320820444
 51
270.0000395499999
  0
ARC
  5
1B9
330
1F
100
AcDbEntity
  8
1
100
AcDbCircle
 10
120.7792124681
 20
-38.8468299418
 30
0.0
 40
82.52335813700002
100
AcDbArc
 50
117.285807823
 51
119.847317639
  0
ARC
  5
1BA
330
1F
100
AcDbEntity
  8
1
100
AcDbCircle
 10
46.616940201
 20
-38.846830348
 30
0.0
 40
82.51494706654015
100
AcDbArc
 50
63.8771260088
 51
66.586486918
  0
ARC
  5
1BB
330
1F
100
AcDbEntity
  8
1
100
AcDbCircle
 10
36.2246362524
 20
-38.8468301206
 30
0.0
 40
82.52055512296747
100
AcDbArc
 50
55.5140811484
 51
58.46205983799999
  0
ARC
  5
1BC
330
1F
100
AcDbEntity
  8
1
100
AcDbCircle
 10
104.5041966034
 20
-70.1585256751
 30
0.0
 40
1.11463942799999
100
AcDbArc
 50
262.7642282669997
 51
270.0
  0
ARC
  5
1BD
330
1F
100
AcDbEntity
  8
1
100
AcDbCircle
 10
104.5041966034
 20
-70.1585256751
 30
0.0
 40
1.116410353999981
100
AcDbArc
 50
270.0
 51
271.5662173480004
  0
ARC
  5
1BE
330
1F
100
AcDbEntity
  8
1
100
AcDbCircle
 10
160.7030638939
 20
1.0691261555
 30
0.0
 40
80.92949541145562
100
AcDbArc
 50
232.1970155387
 51
233.079293609
  0
ARC
  5
1BF
330
1F
100
AcDbEntity
  8
1
100
AcDbCircle
 10
110.3000004209
 20
-1.568181305
 30
0.0
 40
10.00000048599999
100
AcDbArc
 50
180.0000000516
 51
210.0
  0
ARC
  5
1C0
330
1F
100
AcDbEntity
  8
1
100
AcDbCircle
 10
73.305771366
 20
136.855799204
 30
0.0
 40
206.856951053
100
AcDbArc
 50
271.7713723480001
 51
272.671696999
  0
ARC
  5
1C1
330
1F
100
AcDbEntity
  8
1
100
AcDbCircle
 10
94.090381057
 20
136.855799204
 30
0.0
 40
206.861854089
100
AcDbArc
 50
266.010987308
 51
266.912320398
  0
ARC
  5
1C2
330
1F
100
AcDbEntity
  8
1
100
AcDbCircle
 10
62.91346652
 20
136.855799204
 30
0.0
 40
206.863567009
100
AcDbArc
 50
274.654547167
 51
275.557716197
  0
ARC
  5
1C3
330
1F
100
AcDbEntity
  8
1
100
AcDbCircle
 10
104.482685902
 20
136.855799204
 30
0.0
 40
206.867422852
100
AcDbArc
 50
263.119448591
 51
264.024735981
  0
ARC
  5
1C4
330
1F
100
AcDbEntity
  8
1
100
AcDbCircle
 10
52.52116167499999
 20
136.855799204
 30
0.0
 40
206.867254261
100
AcDbArc
 50
277.5495173030001
 51
278.458072162
  0
ARC
  5
1C5
330
1F
100
AcDbEntity
  8
1
100
AcDbCircle
 10
114.874990747
 20
136.855799204
 30
0.0
 40
206.857463975
100
AcDbArc
 50
260.209588912
 51
261.121593957
  0
ARC
  5
1C6
330
1F
100
AcDbEntity
  8
1
100
AcDbCircle
 10
47.538438135
 20
106.179433245
 30
0.0
 40
175.702013587
100
AcDbArc
 50
280.54723489
 51
281.626858282
  0
ARC
  5
1C7
330
1F
100
AcDbEntity
  8
1
100
AcDbCircle
 10
119.857714288
 20
106.179433245
 30
0.0
 40
175.698073168
100
AcDbArc
 50
256.787637759
 51
257.873240652
  0
ARC
  5
1C8
330
1F
100
AcDbEntity
  8
1
100
AcDbCircle
 10
37.146133289
 20
106.179433245
 30
0.0
 40
175.699943724
100
AcDbArc
 50
284.016200883
 51
285.110300725
  0
ARC
  5
1C9
330
1F
100
AcDbEntity
  8
1
100
AcDbCircle
 10
130.250019133
 20
106.179433245
 30
0.0
 40
175.705828846
100
AcDbArc
 50
253.279878155
 51
254.382545966
  0
ARC
  5
1CA
330
1F
100
AcDbEntity
  8
1
100
AcDbCircle
 10
33.041617236
 20
85.26683356000001
 30
0.0
 40
153.869807625
100
AcDbArc
 50
287.65188044
 51
288.9250165479999
  0
ARC
  5
1CB
330
1F
100
AcDbEntity
  8
1
100
AcDbCircle
 10
115.4064872491
 20
-72.264523141
 30
0.0
 40
0.8020868169463811
100
AcDbArc
 50
260.1766410914998
 51
359.4880564226997
  0
ARC
  5
1CC
330
1F
100
AcDbEntity
  8
1
100
AcDbCircle
 10
202.031164669
 20
-44.4997292577
 30
0.0
 40
88.20583983599998
100
AcDbArc
 50
179.999992462
 51
185.3447141896
  0
ARC
  5
1CD
330
1F
100
AcDbEntity
  8
1
100
AcDbCircle
 10
128.5909074513
 20
-51.37030837010001
 30
0.0
 40
14.44490005409443
100
AcDbArc
 50
185.3450241526
 51
192.606993773
  0
ARC
  5
1CE
330
1F
100
AcDbEntity
  8
1
100
AcDbCircle
 10
118.4683662176
 20
-53.63426178300001
 30
0.0
 40
4.072276177583039
100
AcDbArc
 50
192.606993769
 51
207.0028841100001
  0
ARC
  5
1CF
330
1F
100
AcDbEntity
  8
1
100
AcDbCircle
 10
114.9893530832
 20
-55.4071289632
 30
0.0
 40
0.167587915000012
100
AcDbArc
 50
207.0026237783008
 51
332.9973761989995
  0
ARC
  5
1D1
330
1F
100
AcDbEntity
  8
1
100
AcDbCircle
 10
111.5103399488
 20
-53.63426178300001
 30
0.0
 40
4.072276177567259
100
AcDbArc
 50
332.9971158891
 51
347.393006227
  0
ARC
  5
1D2
330
1F
100
AcDbEntity
  8
1
100
AcDbCircle
 10
101.3877987148
 20
-51.37030837
 30
0.0
 40
14.44490005441691
100
AcDbArc
 50
347.3930062259001
 51
354.6549758489999
  0
ARC
  5
1D3
330
1F
100
AcDbEntity
  8
1
100
AcDbCircle
 10
27.9475420751
 20
-44.499716878
 30
0.0
 40
88.20584041390562
100
AcDbArc
 50
354.6552777693
 51
0.0
  0
ARC
  5
1D4
330
1F
100
AcDbEntity
  8
1
100
AcDbCircle
 10
80.481831089
 20
-61.3027069481
 30
0.0
 40
1.102584023074386
100
AcDbArc
 50
191.1338683530001
 51
221.0237000144
  0
ARC
  5
1D5
330
1F
100
AcDbEntity
  8
1
100
AcDbCircle
 10
81.080257495
 20
31.758621706
 30
0.0
 40
1.682915908000038
100
AcDbArc
 50
148.1974101760001
 51
176.779637838
  0
ARC
  5
1D6
330
1F
100
AcDbEntity
  8
1
100
AcDbCircle
 10
80.5702643621
 20
-63.9951551599
 30
0.0
 40
1.223988458829635
100
AcDbArc
 50
197.0385056489998
 51
221.2484759202998
  0
ARC
  5
1D7
330
1F
100
AcDbEntity
  8
1
100
AcDbCircle
 10
80.4857604058
 20
-66.1224500402
 30
0.0
 40
1.160819374270143
100
AcDbArc
 50
200.7167903730001
 51
223.9475957447002
  0
ARC
  5
1D8
330
1F
100
AcDbEntity
  8
1
100
AcDbCircle
 10
80.4280329418
 20
-67.6417868372
 30
0.0
 40
1.132455145269456
100
AcDbArc
 50
204.798006843
 51
226.6043514848
  0
ARC
  5
1D9
330
1F
100
AcDbEntity
  8
1
100
AcDbCircle
 10
79.1600795242
 20
-69.6547143049
 30
0.0
 40
0.6173456642366529
100
AcDbArc
 50
37.47760157959993
 51
67.1306615579995
  0
ARC
  5
1DA
330
1F
100
AcDbEntity
  8
1
100
AcDbCircle
 10
80.58921281399999
 20
-68.4271114171
 30
0.0
 40
1.389487780082861
100
AcDbArc
 50
211.1445948299999
 51
227.4726543539001
  0
ARC
  5
1DB
330
1F
100
AcDbEntity
  8
1
100
AcDbCircle
 10
81.8439276362
 20
-67.5983322118
 30
0.0
 40
3.187503175701474
100
AcDbArc
 50
219.9396012519
 51
226.5050875974
  0
ARC
  5
1DC
330
1F
100
AcDbEntity
  8
1
100
AcDbCircle
 10
78.2470543731
 20
-71.1349748809
 30
0.0
 40
1.899943508159341
100
AcDbArc
 50
42.4034952068
 51
52.63927966199999
  0
ARC
  5
1DD
330
1F
100
AcDbEntity
  8
1
100
AcDbCircle
 10
105.3050002655
 20
60.2161275072
 30
0.0
 40
2.599999653399401
100
AcDbArc
 50
139.9999729476002
 51
319.9999999999999
  0
ARC
  5
1DE
330
1F
100
AcDbEntity
  8
1
100
AcDbCircle
 10
110.3000006354
 20
1.5687474251
 30
0.0
 40
9.999999266353491
100
AcDbArc
 50
149.9999965951
 51
180.0
  0
ARC
  5
1DF
330
1F
100
AcDbEntity
  8
1
100
AcDbCircle
 10
83.8980762138
 20
-136.8552337155
 30
0.0
 40
206.8555356775029
100
AcDbArc
 50
90.2077386097
 51
91.10747119
  0
ARC
  5
1E0
330
1F
100
AcDbEntity
  8
1
100
AcDbCircle
 10
82.04392638899999
 20
67.5988986989
 30
0.0
 40
3.187503176022472
100
AcDbArc
 50
133.4949124026
 51
140.0603987343999
  0
ARC
  5
1E1
330
1F
100
AcDbEntity
  8
1
100
AcDbCircle
 10
105.099999842
 20
71.24305363500001
 30
0.0
 40
0.800000158000757
100
AcDbArc
 50
100.0000000000004
 51
179.9998904218999
  0
ARC
  5
1E2
330
1F
100
AcDbEntity
  8
1
100
AcDbCircle
 10
116.1999969867
 20
73.2002843203
 30
0.0
 40
0.8000015189636251
100
AcDbArc
 50
359.9999849153998
 51
99.99986969469971
  0
ARC
  5
1E3
330
1F
100
AcDbEntity
  8
1
100
AcDbCircle
 10
116.1999996677
 20
61.9290487177
 30
0.0
 40
0.8000011620001141
100
AcDbArc
 50
279.9999999999995
 51
359.9999555242998
  0
ARC
  5
1E4
330
1F
100
AcDbEntity
  8
1
100
AcDbCircle
 10
105.099999842
 20
59.97181824299999
 30
0.0
 40
0.8000001580006303
100
AcDbArc
 50
180.0001006256999
 51
280.0
  0
ARC
  5
1E5
330
1F
100
AcDbEntity
  8
CUT
100
AcDbCircle
 10
116.2
 20
-73.199716877
 30
0.0
 40
0.8000000000000228
100
AcDbArc
 50
259.9999999999998
 51
0.0
  0
ARC
  5
1E6
330
1F
100
AcDbEntity
  8
CUT
100
AcDbCircle
 10
116.2
 20
-73.199716877
 30
0.0
 40
0.2155454900000281
100
AcDbArc
 50
260.0000000000015
 51
0.0
  0
ARC
  5
1E7
330
1F
100
AcDbEntity
  8
CUT
100
AcDbCircle
 10
116.2
 20
-61.92848148500001
 30
0.0
 40
0.8000000000000114
100
AcDbArc
 50
0.0
 51
55.89825163399991
  0
ARC
  5
1E8
330
1F
100
AcDbEntity
  8
CUT
100
AcDbCircle
 10
116.2
 20
-61.92848148500001
 30
0.0
 40
0.2155454900000109
100
AcDbArc
 50
0.0
 51
80.00000000000053
  0
ARC
  5
1E9
330
1F
100
AcDbEntity
  8
CUT
100
AcDbCircle
 10
105.1000001877
 20
-71.2424863264
 30
0.0
 40
0.2155444089545495
100
AcDbArc
 50
180.0
 51
259.9997406328013
  0
ARC
  5
1EA
330
1F
100
AcDbEntity
  8
CUT
100
AcDbCircle
 10
105.1000001877
 20
-71.2424863264
 30
0.0
 40
0.8000029836118756
100
AcDbArc
 50
180.0
 51
260.0000816333995
  0
ARC
  5
1EC
330
1F
100
AcDbEntity
  8
1
100
AcDbCircle
 10
111.4552561839
 20
64.6270202525
 30
0.0
 40
0.7000000001105677
100
AcDbArc
 50
63.38416180600052
 51
176.6158382150001
  0
ARC
  5
1ED
330
1F
100
AcDbEntity
  8
1
100
AcDbCircle
 10
111.903262424
 20
65.5210506818
 30
0.0
 40
0.2999999997642243
100
AcDbArc
 50
243.3841618809001
 51
56.61583819400052
  0
ARC
  5
1EF
330
1F
100
AcDbEntity
  8
1
100
AcDbCircle
 10
109.4587438162
 20
64.6270202526
 30
0.0
 40
0.6999999997642141
100
AcDbArc
 50
3.384161806000144
 51
116.6158381618999
  0
ARC
  5
1F0
330
1F
100
AcDbEntity
  8
1
100
AcDbCircle
 10
110.4569999999
 20
64.6860506815
 30
0.0
 40
0.3000000001105434
100
AcDbArc
 50
183.3841617570993
 51
356.6158381940001
  0
ARC
  5
1F2
330
1F
100
AcDbEntity
  8
1
100
AcDbCircle
 10
108.460487632
 20
66.356050682
 30
0.0
 40
0.7000000002180298
100
AcDbArc
 50
303.3841618059997
 51
56.6158381392996
  0
ARC
  5
1F3
330
1F
100
AcDbEntity
  8
1
100
AcDbCircle
 10
109.010737576
 20
65.52105068200001
 30
0.0
 40
0.3000000002180186
100
AcDbArc
 50
123.3841619335001
 51
296.6158381939989
  0
ARC
  5
1F5
330
1F
100
AcDbEntity
  8
1
100
AcDbCircle
 10
112.4535123666
 20
66.3560506819
 30
0.0
 40
0.699999999942887
100
AcDbArc
 50
123.3841617748005
 51
236.6158382424996
  0
ARC
  5
1F6
330
1F
100
AcDbEntity
  8
1
100
AcDbCircle
 10
111.903262424
 20
67.191050682
 30
0.0
 40
0.2999999997642209
100
AcDbArc
 50
303.3841617741005
 51
116.6158381190986
  0
ARC
  5
1F7
330
1F
100
AcDbEntity
  8
1
100
AcDbCircle
 10
111.4552561839
 20
68.0850811112
 30
0.0
 40
0.7000000000000152
100
AcDbArc
 50
183.3841618059996
 51
296.6158381939997
  0
ARC
  5
1F8
330
1F
100
AcDbEntity
  8
1
100
AcDbCircle
 10
110.457
 20
68.02605068220001
 30
0.0
 40
0.3000000001105576
100
AcDbArc
 50
3.384161757099107
 51
176.6158382429009
  0
ARC
  5
1FA
330
1F
100
AcDbEntity
  8
1
100
AcDbCircle
 10
109.4587438161
 20
68.0850811112
 30
0.0
 40
0.7000000000000011
100
AcDbArc
 50
243.3841618059997
 51
356.6158381940003
  0
ARC
  5
1FC
330
1F
100
AcDbEntity
  8
1
100
AcDbCircle
 10
109.0107375759
 20
67.19105068180001
 30
0.0
 40
0.2999999999999884
100
AcDbArc
 50
63.3841618807993
 51
236.6158381940003
  0
ARC
  5
1FD
330
1F
100
AcDbEntity
  8
1
100
AcDbCircle
 10
235.9926689471
 20
-39.9369873642
 30
0.0
 40
125.1043033994732
100
AcDbArc
 50
190.7832960557
 51
192.4748840009999
  0
ARC
  5
1FE
330
1F
100
AcDbEntity
  8
1
100
AcDbCircle
 10
133.0885307668
 20
-62.7028128761
 30
0.0
 40
19.67152529900005
100
AcDbArc
 50
192.4753148389999
 51
202.812008309
  0
ARC
  5
1FF
330
1F
100
AcDbEntity
  8
1
100
AcDbCircle
 10
121.6425485261
 20
-67.51708381489999
 30
0.0
 40
7.254290738651108
100
AcDbArc
 50
202.8120083126
 51
219.574065791
  0
ARC
  5
200
330
1F
100
AcDbEntity
  8
1
100
AcDbCircle
 10
116.80346311
 20
-71.516630486
 30
0.0
 40
0.9763037014998756
100
AcDbArc
 50
219.5742891671999
 51
231.765037451
  0
DIMENSION
  5
202
330
1F
100
AcDbEntity
  8
SK2
100
AcDbDimension
280
     0
  2
_D
 10
-60.6084002491
 20
-22.9999999998
 30
0.0
 11
-60.6084002491
 21
0.0000000002
 31
0.0
 70
   160
  1
%%c<>
 71
     5
 42
46.0
 73
     0
 74
     0
 75
     0
  3
ISO-25
100
AcDbAlignedDimension
 13
-43.99987793
 23
23.0000000002
 33
0.0
 14
-44.0
 24
-22.9999999998
 34
0.0
 50
90.0
100
AcDbRotatedDimension
  0
DIMENSION
  5
20F
330
1F
100
AcDbEntity
  8
SK2
100
AcDbDimension
280
     0
  2
_D_1
 10
-71.0497726876
 20
-45.00000178800001
 30
0.0
 11
-71.0497726876
 21
0.0
 31
0.0
 70
   160
  1
%%c<>
 71
     5
 42
90.00000357600001
 73
     0
 74
     0
 75
     0
  3
ISO-25
100
AcDbAlignedDimension
 13
0.500000024
 23
45.000001788
 33
0.0
 14
0.500000024
 24
-45.00000178800001
 34
0.0
 50
90.0
100
AcDbRotatedDimension
  0
DIMENSION
  5
225
330
1F
100
AcDbEntity
  8
2
100
AcDbDimension
280
     0
  2
_D_3
 10
82.999996841
 20
-82.8299165297
 30
0.0
 11
41.4999984205
 21
-82.8299165297
 31
0.0
 70
   160
  1
<>
 71
     5
 42
82.999996841
 73
     0
 74
     0
 75
     0
  3
ISO-25
100
AcDbAlignedDimension
 13
0.0
 23
-44.500000775
 33
0.0
 14
82.999996841
 24
-69.99892867599999
 34
0.0
100
AcDbRotatedDimension
  0
DIMENSION
  5
22F
330
1F
100
AcDbEntity
  8
2
100
AcDbDimension
280
     0
  2
_D_4
 10
0.0
 20
83.82745705650001
 30
0.0
 11
58.4999992528
 21
83.82745705650001
 31
0.0
 70
   160
  1
<>
 71
     5
 42
116.9999985057
 73
     0
 74
     0
 75
     0
  3
ISO-25
100
AcDbAlignedDimension
 13
116.9999985057
 23
73.20028410970001
 33
0.0
 14
0.0
 24
44.500000775
 34
0.0
100
AcDbRotatedDimension
  0
DIMENSION
  5
239
330
1F
100
AcDbEntity
  8
SK2
100
AcDbDimension
280
     0
  2
_D_5
 10
134.1275026435448
 20
-73.98756289816028
 30
0.0
 11
134.1275019009
 21
0.0002848089
 31
0.0
 70
   160
  1
%%c148 - 203
 71
     5
 42
147.9756954141
 73
     0
 74
     0
 75
     0
  3
ISO-25
100
AcDbAlignedDimension
 13
116.0610799726
 23
73.98813233460001
 33
0.0
 14
116.0610814579
 24
-73.98756307949999
 34
0.0
 50
-89.9999994249
100
AcDbRotatedDimension
  0
MTEXT
  5
244
330
1F
100
AcDbEntity
  8
SK6
100
AcDbMText
 10
26.3127977166
 20
-36.5661680059
 30
0.0
 40
3.5
 41
0.0
 46
0.0
 71
     1
 72
     1
  1
319.707N
  7
BMG_Text
 73
     1
 44
1.0
  0
LINE
  5
2FF
330
1F
100
AcDbEntity
  8
1
100
AcDbLine
 10
116.3389184116
 20
61.1412013709
 30
0.0
 11
116.6499964
 21
61.1412013709
 31
0.0
  0
LINE
  5
301
330
1F
100
AcDbEntity
  8
3
100
AcDbLine
 10
116.6499964
 20
61.26525625599999
 30
0.0
 11
116.1999996677
 21
61.9290487177
 31
0.0
  0
LINE
  5
302
330
1F
100
AcDbEntity
  8
3
100
AcDbLine
 10
116.1999996677
 20
61.9290487177
 30
0.0
 11
116.1999996677
 21
73.17785118368022
 31
0.0
  0
LINE
  5
303
330
1F
100
AcDbEntity
  8
3
100
AcDbLine
 10
116.1999996677
 20
73.17785118368022
 30
0.0
 11
105.099999842
 21
71.24305363500001
 31
0.0
  0
LINE
  5
304
330
1F
100
AcDbEntity
  8
3
100
AcDbLine
 10
105.099999842
 20
71.24305363500001
 30
0.0
 11
104.3021497879797
 21
71.24305363500001
 31
0.0
  0
LINE
  5
305
330
1F
100
AcDbEntity
  8
1
100
AcDbLine
 10
108.283430248
 20
59.72080305199999
 30
0.0
 11
116.3389184116127
 21
61.14120137094351
 31
0.0
  0
LINE
  5
308
330
1F
100
AcDbEntity
  8
1
100
AcDbLine
 10
105.2389184115701
 20
59.18397188498998
 30
0.0
 11
116.3389184116127
 21
61.14120137094351
 31
0.0
  0
LINE
  5
309
330
1F
100
AcDbEntity
  8
1
100
AcDbLine
 10
104.2999996840006
 20
59.9718168379999
 30
0.0
 11
104.2999996840007
 21
71.24305516499922
 31
0.0
  0
LINE
  5
310
330
1F
100
AcDbEntity
  8
NOCUT
100
AcDbLine
 10
0.0
 20
44.500000775
 30
0.0
 11
0.500000024
 21
45.000001788
 31
0.0
  0
LINE
  5
311
330
1F
100
AcDbEntity
  8
NOCUT
100
AcDbLine
 10
0.500000024
 20
45.000001788
 30
0.0
 11
17.999999225
 21
45.000001788
 31
0.0
  0
LINE
  5
312
330
1F
100
AcDbEntity
  8
NOCUT
100
AcDbLine
 10
17.999999225
 20
45.000001788
 30
0.0
 11
61.3012686376
 21
69.9994646576
 31
0.0
  0
LINE
  5
313
330
1F
100
AcDbEntity
  8
NOCUT
100
AcDbLine
 10
61.3012686376
 20
69.9994646576
 30
0.0
 11
97.1904273638361
 21
69.9994646576
 31
0.0
  0
LINE
  5
314
330
1F
100
AcDbEntity
  8
NOCUT
100
AcDbLine
 10
97.1904273638361
 20
69.9994646576
 30
0.0
 11
104.301046491
 21
71.253791451
 31
0.0
  0
ARC
  5
31C
330
1F
100
AcDbEntity
  8
NOCUT
100
AcDbCircle
 10
110.3000006354002
 20
1.568747425099934
 30
0.0
 40
9.999999266353715
100
AcDbArc
 50
149.9999965951003
 51
179.9999999999996
  0
LINE
  5
31E
330
1F
100
AcDbEntity
  8
NOCUT
100
AcDbLine
 10
100.2999999349
 20
0.0000000002
 30
0.0
 11
100.2999999349
 21
2.149887312584026
 31
0.0
  0
LWPOLYLINE
  5
32A
330
1F
100
AcDbEntity
  8
INFTOTAL
100
AcDbPolyline
 90
        4
 70
     1
 43
0.0
 10
167.2333991428261
 20
103.2465946296572
 10
167.2333991428261
 20
-104.5125517118061
 10
-114.9769667108324
 20
-104.5125517118061
 10
-114.9769667108324
 20
103.2465946296572
  0
LINE
  5
32D
330
1F
100
AcDbEntity
  8
SK4
100
AcDbLine
 10
-53.449810034
 20
0.0
 30
0.0
 11
110.8892641442691
 21
-0.0000000000000053
 31
0.0
  0
LINE
  5
340
330
1F
100
AcDbEntity
  8
3
100
AcDbLine
 10
-0.0000000001188916
 20
11.000015259
 30
0.0
 11
37.900000811
 21
11.000015259
 31
0.0
  0
LINE
  5
341
330
1F
100
AcDbEntity
  8
3
100
AcDbLine
 10
-0.0000000001656499
 20
-11.0
 30
0.0
 11
37.900000811
 21
-11.0
 31
0.0
  0
LINE
  5
357
330
1F
100
AcDbEntity
  8
NOCUT
100
AcDbLine
 10
104.3021497879797
 20
71.24305363500001
 30
0.0
 11
105.1091058150233
 21
71.24305363500001
 31
0.0
  0
LINE
  5
358
330
1F
100
AcDbEntity
  8
NOCUT
100
AcDbLine
 10
105.1091058150233
 20
71.24305363500001
 30
0.0
 11
116.1999996677
 21
73.17785118368022
 31
0.0
  0
LINE
  5
359
330
1F
100
AcDbEntity
  8
NOCUT
100
AcDbLine
 10
116.1999996677
 20
73.17785118368022
 30
0.0
 11
116.1999996677
 21
61.9290487177
 31
0.0
  0
LINE
  5
35A
330
1F
100
AcDbEntity
  8
NOCUT
100
AcDbLine
 10
116.1999996677
 20
61.9290487177
 30
0.0
 11
116.6499964
 21
61.26525625599999
 31
0.0
  0
LINE
  5
35B
330
1F
100
AcDbEntity
  8
NOCUT
100
AcDbLine
 10
116.6499964
 20
61.26525625599999
 30
0.0
 11
116.6499964
 21
32.56727009999999
 31
0.0
  0
LINE
  5
35C
330
1F
100
AcDbEntity
  8
NOCUT
100
AcDbLine
 10
116.6499964
 20
32.56727009999999
 30
0.0
 11
101.6397475300457
 21
6.568747572927159
 31
0.0
  0
DIMENSION
  5
39C
102
{ACAD_REACTORS
330
39E
102
}
102
{ACAD_XDICTIONARY
360
39D
102
}
330
1F
100
AcDbEntity
  8
SK2
100
AcDbDimension
280
     0
  2
*D7
 10
-80.698731363
 20
-70.00000029799999
 30
0.0
 11
-82.57373136299998
 21
-0.000267820199994
 31
0.0
 70
    32
  1
ø140
 71
     5
 42
139.9994649556
 73
     0
 74
     0
 75
     0
  3
ISO-25
100
AcDbAlignedDimension
 13
61.3012686376
 23
69.9994646576
 33
0.0
 14
61.301268637
 24
-70.000000298
 34
0.0
 50
90.0
100
AcDbRotatedDimension
  0
LINE
  5
3C0
330
1F
100
AcDbEntity
  8
SK1
100
AcDbLine
 10
-0.0000000000935999
 20
22.8999328717029
 30
0.0
 11
-0.000000000190942
 21
-22.89993287183274
 31
0.0
  0
LINE
  5
3C1
330
1F
100
AcDbEntity
  8
SK4
100
AcDbLine
 10
36.752131644
 20
-7.252131745999996
 30
0.0
 11
70.410971069
 21
-40.910970544
 31
0.0
  0
LINE
  5
3C2
330
1F
100
AcDbEntity
  8
SK4
100
AcDbLine
 10
36.752131644
 20
7.252131746
 30
0.0
 11
70.410971069
 21
40.91097054399999
 31
0.0
  0
LINE
  5
3CD
330
1F
100
AcDbEntity
  8
NOCUT
100
AcDbLine
 10
0.0
 20
44.500000775
 30
0.0
 11
0.0
 21
0.0
 31
0.0
  0
LINE
  5
3CE
330
1F
100
AcDbEntity
  8
NOCUT
100
AcDbLine
 10
0.0
 20
0.0
 30
0.0
 11
100.2999999349
 21
0.0000000002
 31
0.0
  0
LINE
  5
3DB
330
1F
100
AcDbEntity
  8
CUT
100
AcDbLine
 10
116.0610799726
 20
73.98813233460001
 30
0.0
 11
104.9610812724
 21
72.030899993
 31
0.0
  0
LINE
  5
3DC
330
1F
100
AcDbEntity
  8
CUT
100
AcDbLine
 10
117.0000008297
 20
61.92904809669999
 30
0.0
 11
116.9999985057
 21
73.20028410970001
 31
0.0
  0
ARC
  5
3DD
330
1F
100
AcDbEntity
  8
CUT
100
AcDbCircle
 10
105.099999842
 20
71.24305363500001
 30
0.0
 40
0.800000158000757
100
AcDbArc
 50
99.9999999999994
 51
179.9998904218999
  0
ARC
  5
3DE
330
1F
100
AcDbEntity
  8
CUT
100
AcDbCircle
 10
116.1999969867
 20
73.2002843203
 30
0.0
 40
0.8000015189636251
100
AcDbArc
 50
359.9999849153998
 51
99.99986969470072
  0
ARC
  5
3DF
330
1F
100
AcDbEntity
  8
CUT
100
AcDbCircle
 10
116.1999996677
 20
61.9290487177
 30
0.0
 40
0.8000011620001141
100
AcDbArc
 50
279.9999999999995
 51
359.9999555242998
  0
ARC
  5
3E0
330
1F
100
AcDbEntity
  8
CUT
100
AcDbCircle
 10
105.099999842
 20
59.97181824299999
 30
0.0
 40
0.8000001580006303
100
AcDbArc
 50
180.0001006256999
 51
280.0000000000011
  0
LINE
  5
3E1
330
1F
100
AcDbEntity
  8
CUT
100
AcDbLine
 10
105.2389184115701
 20
59.18397188498998
 30
0.0
 11
116.3389184116127
 21
61.14120137094351
 31
0.0
  0
LINE
  5
3E2
330
1F
100
AcDbEntity
  8
CUT
100
AcDbLine
 10
104.2999996840006
 20
59.9718168379999
 30
0.0
 11
104.2999996840007
 21
71.24305516499922
 31
0.0
  0
CIRCLE
  5
3E3
330
1F
100
AcDbEntity
  8
1
100
AcDbCircle
 10
110.457
 20
66.356050682
 30
0.0
 40
3.640250390999995
  0
HATCH
  5
3E9
330
1F
100
AcDbEntity
  8
7
100
AcDbHatch
 10
0.0
 20
0.0
 30
0.0
210
0.0
220
0.0
230
1.0
  2
ANSI37
 70
     0
 71
     0
 91
        2
 92
        7
 72
     1
 73
     1
 93
        8
 10
117.0000008296999
 20
61.92904862066763
 42
0.0
 10
116.9999985056727
 20
73.20028410968412
 42
0.4663070460656208
 10
116.061079972577
 20
73.98813233454892
 42
0.0
 10
104.9610811308543
 20
72.03089996804243
 42
0.3639700029069297
 10
104.2999996840007
 20
71.24305414499975
 42
0.0
 10
104.2999996840006
 20
59.97181777466665
 42
0.4663074799780699
 10
105.2389184115701
 20
59.18397188498999
 42
0.0
 10
116.3389184116165
 20
61.14120137094417
 42
0.3639701999255486
 97
        0
 92
       22
 72
     1
 73
     1
 93
        2
 10
106.816749609
 20
66.356050682
 42
1.0
 10
114.097250391
 20
66.356050682
 42
1.0
 97
        0
 75
     0
 76
     1
 52
90.0
 41
0.5
 77
     0
 78
     2
 53
135.0
 43
-94.2801887389139
 44
-0.0000000000000142
 45
-1.122532015133644
 46
-1.122532015133644
 79
     0
 53
225.0
 43
-94.2801887389139
 44
-0.0000000000000142
 45
1.122532015133644
 46
-1.122532015133644
 79
     0
 47
0.0
 98
        2
 10
115.118101836357
 20
67.42179277354354
 10
115.118101836357
 20
67.42179277354354
1001
ACAD
1010
0.0
1020
0.0
1030
0.0
1001
PE_URL
1000

  0
ENDSEC
  0
SECTION
  2
OBJECTS
  0
DICTIONARY
  5
C
330
0
100
AcDbDictionary
281
     1
  3
ACAD_COLOR
350
38C
  3
ACAD_DETAILVIEWSTYLE
350
327
  3
ACAD_GROUP
350
D
  3
ACAD_LAYOUT
350
267
  3
ACAD_MATERIAL
350
27B
  3
ACAD_MLEADERSTYLE
350
298
  3
ACAD_MLINESTYLE
350
17
  3
ACAD_PLOTSETTINGS
350
2DA
  3
ACAD_PLOTSTYLENAME
350
2DB
  3
ACAD_SCALELIST
350
245
  3
ACAD_SECTIONVIEWSTYLE
350
328
  3
ACAD_TABLESTYLE
350
2E7
  3
ACAD_VISUALSTYLE
350
26A
  3
ACDB_RECOMPOSE_DATA
350
3F2
  3
AcDbVariableDictionary
350
296
  3
APPDATA
350
2EA
  3
FX_DICT_DIMENSION_PALETTE
350
3AC
  3
FX_DICT_DIMENSION_PALETTE_RECENTLIST
350
3AE
  0
SUN
  5
32B
330
29
100
AcDbSun
 90
        1
290
     0
 63
     7
421
 16777215
 40
1.0
291
     1
 91
  2455826
 92
 54000000
292
     0
 70
     2
 71
   256
280
     1
  0
DICTIONARY
  5
2EB
330
2
100
AcDbDictionary
280
     1
281
     1
  3
ACAD_LAYERSTATES
360
2EC
  0
DICTIONARY
  5
3E7
330
1F
100
AcDbDictionary
280
     1
281
     1
  3
ACAD_SORTENTS
360
3E8
  0
DICTIONARY
  5
39D
330
39C
100
AcDbDictionary
280
     1
281
     1
  3
ACAD_DIMASSOC
360
39E
  0
DICTIONARY
  5
38C
102
{ACAD_REACTORS
330
C
102
}
330
C
100
AcDbDictionary
281
     1
  0
DICTIONARY
  5
327
102
{ACAD_REACTORS
330
C
102
}
330
C
100
AcDbDictionary
281
     1
  0
DICTIONARY
  5
D
102
{ACAD_REACTORS
330
C
102
}
330
C
100
AcDbDictionary
281
     1
  0
DICTIONARY
  5
267
102
{ACAD_REACTORS
330
C
102
}
330
C
100
AcDbDictionary
281
     1
  3
Layout1
350
269
  3
Model
350
268
  0
DICTIONARY
  5
27B
102
{ACAD_REACTORS
330
C
102
}
330
C
100
AcDbDictionary
281
     1
  3
ByBlock
350
27D
  3
ByLayer
350
27C
  3
Global
350
27E
  0
DICTIONARY
  5
298
102
{ACAD_REACTORS
330
C
102
}
330
C
100
AcDbDictionary
281
     1
  3
Standard
350
2E9
  0
DICTIONARY
  5
17
102
{ACAD_REACTORS
330
C
102
}
330
C
100
AcDbDictionary
281
     1
  3
STANDARD
350
18
  0
DICTIONARY
  5
2DA
102
{ACAD_REACTORS
330
C
102
}
330
C
100
AcDbDictionary
281
     1
  0
ACDBDICTIONARYWDFLT
  5
2DB
102
{ACAD_REACTORS
330
C
102
}
330
C
100
AcDbDictionary
281
     1
  3
Normal
350
2DC
100
AcDbDictionaryWithDefault
340
2DC
  0
DICTIONARY
  5
245
102
{ACAD_REACTORS
330
C
102
}
330
C
100
AcDbDictionary
281
     1
  3
A0
350
246
  3
A1
350
247
  3
A2
350
248
  3
A3
350
249
  3
A4
350
24A
  3
A5
350
24B
  3
A6
350
24C
  3
A7
350
24D
  3
A8
350
24E
  3
A9
350
24F
  3
B0
350
250
  3
B1
350
251
  3
B2
350
252
  3
B3
350
253
  3
B4
350
254
  3
B5
350
255
  3
B6
350
256
  3
B7
350
257
  3
B8
350
258
  3
B9
350
259
  3
C0
350
25A
  3
C1
350
25B
  3
C2
350
25C
  3
C3
350
25D
  3
C4
350
25E
  3
C5
350
25F
  3
C6
350
260
  3
C7
350
261
  3
C8
350
262
  3
C9
350
263
  3
D0
350
264
  3
D1
350
265
  3
D2
350
266
  0
DICTIONARY
  5
328
102
{ACAD_REACTORS
330
C
102
}
330
C
100
AcDbDictionary
281
     1
  0
DICTIONARY
  5
2E7
102
{ACAD_REACTORS
330
C
102
}
330
C
100
AcDbDictionary
281
     1
  3
Standard
350
2E8
  0
DICTIONARY
  5
26A
102
{ACAD_REACTORS
330
C
102
}
330
C
100
AcDbDictionary
281
     1
  3
2dWireframe
350
26F
  3
3D Hidden
350
271
  3
3dWireframe
350
270
  3
Basic
350
272
  3
Brighten
350
276
  3
ColorChange
350
27A
  3
Conceptual
350
274
  3
Dim
350
275
  3
EdgeColorOff
350
2E1
  3
Facepattern
350
279
  3
Flat
350
26B
  3
FlatWithEdges
350
26C
  3
Gouraud
350
26D
  3
GouraudWithEdges
350
26E
  3
Hidden
350
2DE
  3
JitterOff
350
2DF
  3
Linepattern
350
278
  3
OverhangOff
350
2E0
  3
Realistic
350
273
  3
Shaded
350
2E6
  3
Shaded with edges
350
2E5
  3
Shades of Gray
350
2E2
  3
Sketchy
350
2E3
  3
Thicken
350
277
  3
Wireframe
350
2DD
  3
X-Ray
350
2E4
  0
XRECORD
  5
3F2
102
{ACAD_REACTORS
330
C
102
}
330
C
100
AcDbXrecord
280
     1
 90
        1
330
2E8
  0
DICTIONARY
  5
296
102
{ACAD_REACTORS
330
C
102
}
330
C
100
AcDbDictionary
281
     1
  3
CANNOSCALE
350
324
  3
CMLEADERSTYLE
350
326
  3
CTABLESTYLE
350
325
  3
DIMASSOC
350
29A
  3
HIDETEXT
350
29B
  3
MSLTSCALE
350
299
  0
DICTIONARY
  5
2EA
102
{ACAD_REACTORS
330
C
102
}
330
C
100
AcDbDictionary
281
     1
  0
DICTIONARY
  5
3AC
102
{ACAD_REACTORS
330
C
102
}
330
C
100
AcDbDictionary
281
     1
1001
FX_DIMP_FAV_VERSION
1071
        1
  0
DICTIONARY
  5
3AE
102
{ACAD_REACTORS
330
C
102
}
330
C
100
AcDbDictionary
281
     1
  3
0
350
3B0
1001
FX_DIMP_RECENT_VERSION
1071
        1
  0
DICTIONARY
  5
2EC
102
{ACAD_REACTORS
330
2EB
102
}
330
2EB
100
AcDbDictionary
281
     1
  0
SORTENTSTABLE
  5
3E8
102
{ACAD_REACTORS
330
3E7
102
}
330
3E7
100
AcDbSortentsTable
330
1F
331
3DB
  5
3DD
331
3DC
  5
3DE
331
3DD
  5
3DF
331
3DE
  5
3E0
331
3DF
  5
3E1
331
3E0
  5
3E2
331
3E1
  5
3E3
331
3E2
  5
3E6
331
3E3
  5
3E9
331
0
  5
3DB
331
3E9
  5
3DC
  0
DIMASSOC
  5
39E
102
{ACAD_REACTORS
330
39D
102
}
330
39D
100
AcDbDimAssoc
330
39C
 90
        3
 70
     0
 71
     1
  1
AcDbOsnapPointRef
 72
     1
331
F8
 73
     0
 91
        0
 40
0.0
 10
0.0
 20
0.0
 30
0.0
 75
     0
  1
AcDbOsnapPointRef
 72
    13
331
103
 73
     0
 91
        0
 40
0.0
 10
0.0
 20
0.0
 30
0.0
 75
     0
  0
LAYOUT
  5
269
102
{ACAD_REACTORS
330
267
102
}
330
267
100
AcDbPlotSettings
  1

  2
none_device
  4

  6

 40
0.0
 41
0.0
 42
0.0
 43
0.0
 44
0.0
 45
0.0
 46
0.0
 47
0.0
 48
0.0
 49
0.0
140
0.0
141
0.0
142
1.0
143
1.0
 70
   688
 72
     0
 73
     0
 74
     5
  7

 75
    16
 76
     0
 77
     2
 78
   300
147
1.0
148
0.0
149
0.0
100
AcDbLayout
  1
Layout1
 70
     1
 71
     1
 10
0.0
 20
0.0
 11
420.0
 21
297.0
 12
0.0
 22
0.0
 32
0.0
 14
1.000000000000000E+20
 24
1.000000000000000E+20
 34
1.000000000000000E+20
 15
-1.000000000000000E+20
 25
-1.000000000000000E+20
 35
-1.000000000000000E+20
146
0.0
 13
0.0
 23
0.0
 33
0.0
 16
1.0
 26
0.0
 36
0.0
 17
0.0
 27
1.0
 37
0.0
 76
     0
330
1B
  0
LAYOUT
  5
268
102
{ACAD_REACTORS
330
267
102
}
330
267
100
AcDbPlotSettings
  1

  2
none_device
  4

  6

 40
0.0
 41
0.0
 42
0.0
 43
0.0
 44
0.0
 45
0.0
 46
0.0
 47
0.0
 48
0.0
 49
0.0
140
0.0
141
0.0
142
1.0
143
1.0
 70
  1712
 72
     0
 73
     0
 74
     0
  7

 75
     0
 76
     0
 77
     2
 78
   300
147
1.0
148
-0.0000001562100806
149
0.0
100
AcDbLayout
  1
Model
 70
     1
 71
     0
 10
0.0
 20
0.0
 11
420.0
 21
297.0
 12
0.0
 22
0.0
 32
0.0
 14
-114.9769667108324
 24
-104.5125517118061
 34
0.0
 15
167.233399142826
 25
103.2465946296572
 35
0.0
146
0.0
 13
0.0
 23
0.0
 33
0.0
 16
1.0
 26
0.0
 36
0.0
 17
0.0
 27
1.0
 37
0.0
 76
     0
330
1F
331
29
  0
MATERIAL
  5
27D
102
{ACAD_REACTORS
330
27B
102
}
330
27B
100
AcDbMaterial
  1
ByBlock
 72
     1
 94
      127
  0
MATERIAL
  5
27C
102
{ACAD_REACTORS
330
27B
102
}
330
27B
100
AcDbMaterial
  1
ByLayer
 72
     1
 94
      127
  0
MATERIAL
  5
27E
102
{ACAD_REACTORS
330
27B
102
}
330
27B
100
AcDbMaterial
  1
Global
 72
     1
 94
      127
  0
MLEADERSTYLE
  5
2E9
102
{ACAD_REACTORS
330
298
102
}
330
298
100
AcDbMLeaderStyle
179
     2
170
     2
171
     1
172
     0
 90
        2
 40
0.0
 41
0.0
173
     1
 91
-1056964608
340
14
 92
       -2
290
     1
 42
2.0
291
     1
 43
8.0
  3
Standard
341
0
 44
4.0
300

342
11
174
     1
178
     1
175
     1
176
     0
 93
-1056964608
 45
4.0
292
     0
297
     0
 46
4.0
343
0
 94
-1056964608
 47
1.0
 49
1.0
140
1.0
293
     1
141
0.0
294
     1
177
     0
142
1.0
295
     0
296
     0
143
3.75
271
     0
272
     9
273
     9
298
     0
  0
MLINESTYLE
  5
18
102
{ACAD_REACTORS
330
17
102
}
330
17
100
AcDbMlineStyle
  2
Standard
 70
     0
  3

 62
   256
 51
90.0
 52
90.0
 71
     2
 49
0.5
 62
   256
  6
BYLAYER
 49
-0.5
 62
   256
  6
BYLAYER
  0
ACDBPLACEHOLDER
  5
2DC
102
{ACAD_REACTORS
330
2DB
102
}
330
2DB
  0
SCALE
  5
246
102
{ACAD_REACTORS
330
245
102
}
330
245
100
AcDbScale
 70
     0
300
1:1
140
1.0
141
1.0
290
     1
  0
SCALE
  5
247
102
{ACAD_REACTORS
330
245
102
}
330
245
100
AcDbScale
 70
     0
300
1:2
140
1.0
141
2.0
290
     0
  0
SCALE
  5
248
102
{ACAD_REACTORS
330
245
102
}
330
245
100
AcDbScale
 70
     0
300
1:4
140
1.0
141
4.0
290
     0
  0
SCALE
  5
249
102
{ACAD_REACTORS
330
245
102
}
330
245
100
AcDbScale
 70
     0
300
1:5
140
1.0
141
5.0
290
     0
  0
SCALE
  5
24A
102
{ACAD_REACTORS
330
245
102
}
330
245
100
AcDbScale
 70
     0
300
1:8
140
1.0
141
8.0
290
     0
  0
SCALE
  5
24B
102
{ACAD_REACTORS
330
245
102
}
330
245
100
AcDbScale
 70
     0
300
1:10
140
1.0
141
10.0
290
     0
  0
SCALE
  5
24C
102
{ACAD_REACTORS
330
245
102
}
330
245
100
AcDbScale
 70
     0
300
1:16
140
1.0
141
16.0
290
     0
  0
SCALE
  5
24D
102
{ACAD_REACTORS
330
245
102
}
330
245
100
AcDbScale
 70
     0
300
1:20
140
1.0
141
20.0
290
     0
  0
SCALE
  5
24E
102
{ACAD_REACTORS
330
245
102
}
330
245
100
AcDbScale
 70
     0
300
1:30
140
1.0
141
30.0
290
     0
  0
SCALE
  5
24F
102
{ACAD_REACTORS
330
245
102
}
330
245
100
AcDbScale
 70
     0
300
1:40
140
1.0
141
40.0
290
     0
  0
SCALE
  5
250
102
{ACAD_REACTORS
330
245
102
}
330
245
100
AcDbScale
 70
     0
300
1:50
140
1.0
141
50.0
290
     0
  0
SCALE
  5
251
102
{ACAD_REACTORS
330
245
102
}
330
245
100
AcDbScale
 70
     0
300
1:100
140
1.0
141
100.0
290
     0
  0
SCALE
  5
252
102
{ACAD_REACTORS
330
245
102
}
330
245
100
AcDbScale
 70
     0
300
2:1
140
2.0
141
1.0
290
     0
  0
SCALE
  5
253
102
{ACAD_REACTORS
330
245
102
}
330
245
100
AcDbScale
 70
     0
300
4:1
140
4.0
141
1.0
290
     0
  0
SCALE
  5
254
102
{ACAD_REACTORS
330
245
102
}
330
245
100
AcDbScale
 70
     0
300
8:1
140
8.0
141
1.0
290
     0
  0
SCALE
  5
255
102
{ACAD_REACTORS
330
245
102
}
330
245
100
AcDbScale
 70
     0
300
10:1
140
10.0
141
1.0
290
     0
  0
SCALE
  5
256
102
{ACAD_REACTORS
330
245
102
}
330
245
100
AcDbScale
 70
     0
300
100:1
140
100.0
141
1.0
290
     0
  0
SCALE
  5
257
102
{ACAD_REACTORS
330
245
102
}
330
245
100
AcDbScale
 70
     0
300
1/128" = 1'-0"
140
0.0078125
141
12.0
290
     0
  0
SCALE
  5
258
102
{ACAD_REACTORS
330
245
102
}
330
245
100
AcDbScale
 70
     0
300
1/64" = 1'-0"
140
0.015625
141
12.0
290
     0
  0
SCALE
  5
259
102
{ACAD_REACTORS
330
245
102
}
330
245
100
AcDbScale
 70
     0
300
1/32" = 1'-0"
140
0.03125
141
12.0
290
     0
  0
SCALE
  5
25A
102
{ACAD_REACTORS
330
245
102
}
330
245
100
AcDbScale
 70
     0
300
1/16" = 1'-0"
140
0.0625
141
12.0
290
     0
  0
SCALE
  5
25B
102
{ACAD_REACTORS
330
245
102
}
330
245
100
AcDbScale
 70
     0
300
3/32" = 1'-0"
140
0.09375
141
12.0
290
     0
  0
SCALE
  5
25C
102
{ACAD_REACTORS
330
245
102
}
330
245
100
AcDbScale
 70
     0
300
1/8" = 1'-0"
140
0.125
141
12.0
290
     0
  0
SCALE
  5
25D
102
{ACAD_REACTORS
330
245
102
}
330
245
100
AcDbScale
 70
     0
300
3/16" = 1'-0"
140
0.1875
141
12.0
290
     0
  0
SCALE
  5
25E
102
{ACAD_REACTORS
330
245
102
}
330
245
100
AcDbScale
 70
     0
300
1/4" = 1'-0"
140
0.25
141
12.0
290
     0
  0
SCALE
  5
25F
102
{ACAD_REACTORS
330
245
102
}
330
245
100
AcDbScale
 70
     0
300
3/8" = 1'-0"
140
0.375
141
12.0
290
     0
  0
SCALE
  5
260
102
{ACAD_REACTORS
330
245
102
}
330
245
100
AcDbScale
 70
     0
300
1/2" = 1'-0"
140
0.5
141
12.0
290
     0
  0
SCALE
  5
261
102
{ACAD_REACTORS
330
245
102
}
330
245
100
AcDbScale
 70
     0
300
3/4" = 1'-0"
140
0.75
141
12.0
290
     0
  0
SCALE
  5
262
102
{ACAD_REACTORS
330
245
102
}
330
245
100
AcDbScale
 70
     0
300
1" = 1'-0"
140
1.0
141
12.0
290
     0
  0
SCALE
  5
263
102
{ACAD_REACTORS
330
245
102
}
330
245
100
AcDbScale
 70
     0
300
1-1/2" = 1'-0"
140
1.5
141
12.0
290
     0
  0
SCALE
  5
264
102
{ACAD_REACTORS
330
245
102
}
330
245
100
AcDbScale
 70
     0
300
3" = 1'-0"
140
3.0
141
12.0
290
     0
  0
SCALE
  5
265
102
{ACAD_REACTORS
330
245
102
}
330
245
100
AcDbScale
 70
     0
300
6" = 1'-0"
140
6.0
141
12.0
290
     0
  0
SCALE
  5
266
102
{ACAD_REACTORS
330
245
102
}
330
245
100
AcDbScale
 70
     0
300
1'-0" = 1'-0"
140
12.0
141
12.0
290
     0
  0
TABLESTYLE
  5
2E8
102
{ACAD_REACTORS
330
2E7
102
}
102
{ACAD_XDICTIONARY
360
3F0
102
}
330
2E7
100
AcDbTableStyle
  3
Standard
 70
     0
 71
     0
 40
1.5
 41
1.5
280
     0
281
     0
  7
STANDARD
140
4.5
170
     2
 62
     0
 63
   257
283
     0
 90
        4
 91
        0
  1

274
    -2
284
     1
 64
     0
275
    -2
285
     1
 65
     0
276
    -2
286
     1
 66
     0
277
    -2
287
     1
 67
     0
278
    -2
288
     1
 68
     0
279
    -2
289
     1
 69
     0
  7
STANDARD
140
6.0
170
     5
 62
     0
 63
   257
283
     0
 90
        4
 91
        0
  1

274
    -2
284
     1
 64
     0
275
    -2
285
     1
 65
     0
276
    -2
286
     1
 66
     0
277
    -2
287
     1
 67
     0
278
    -2
288
     1
 68
     0
279
    -2
289
     1
 69
     0
  7
STANDARD
140
4.5
170
     5
 62
     0
 63
   257
283
     0
 90
        4
 91
        0
  1

274
    -2
284
     1
 64
     0
275
    -2
285
     1
 65
     0
276
    -2
286
     1
 66
     0
277
    -2
287
     1
 67
     0
278
    -2
288
     1
 68
     0
279
    -2
289
     1
 69
     0
  0
VISUALSTYLE
  5
26F
102
{ACAD_REACTORS
330
26A
102
}
330
26A
100
AcDbVisualStyle
  2
2dWireframe
 70
     4
177
     3
291
     0
 70
    58
 90
        0
176
     1
 90
        2
176
     1
 90
        0
176
     1
 90
        0
176
     1
 40
-0.6
176
     1
 40
-30.0
176
     1
 62
     7
176
     1
 90
        1
176
     1
 90
        4
176
     1
 62
     7
176
     1
 62
   257
176
     1
 90
        1
176
     1
 90
        1
176
     1
 40
1.0
176
     1
 90
        0
176
     1
 62
   257
176
     1
 40
1.0
176
     1
 90
        1
176
     1
 90
        6
176
     1
 90
        2
176
     1
 62
     7
176
     1
 90
        5
176
     1
 90
        0
176
     1
 90
        0
176
     1
290
     0
176
     1
 90
        1
176
     1
 40
0.0
176
     1
 90
        0
176
     1
290
     1
176
     1
290
     1
176
     1
290
     0
176
     1
290
     0
176
     1
290
     0
176
     1
290
     0
176
     1
290
     0
176
     1
290
     0
176
     1
290
     0
176
     1
 90
       50
176
     1
 40
0.0
176
     1
 40
1.0
176
     1
 90
        0
176
     1
 62
    18
420
        0
176
     1
 90
       50
176
     1
 90
        3
176
     1
 62
     5
420
      255
176
     1
290
     0
176
     1
 90
       50
176
     1
 90
       50
176
     1
 90
       50
176
     1
290
     0
176
     1
 90
       50
176
     1
 62
   256
176
     0
 40
1.0
176
     0
 90
        2
176
     1
  1
strokes_ogs.tif
176
     1
290
     0
176
     1
 40
1.0
176
     1
 40
1.0
176
     1
  0
VISUALSTYLE
  5
271
102
{ACAD_REACTORS
330
26A
102
}
330
26A
100
AcDbVisualStyle
  2
3D Hidden
 70
     6
177
     3
291
     0
 70
    58
 90
        1
176
     1
 90
        2
176
     1
 90
        2
176
     1
 90
        0
176
     1
 40
-0.6
176
     1
 40
-30.0
176
     1
 62
     7
176
     1
 90
        2
176
     1
 90
        2
176
     1
 62
     7
176
     1
 62
   257
176
     1
 90
        2
176
     1
 90
        1
176
     1
 40
40.0
176
     1
 90
        0
176
     1
 62
   257
176
     1
 40
1.0
176
     1
 90
        1
176
     1
 90
        6
176
     1
 90
        2
176
     1
 62
     7
176
     1
 90
        3
176
     1
 90
        0
176
     1
 90
        0
176
     1
290
     0
176
     1
 90
        1
176
     1
 40
0.0
176
     1
 90
        0
176
     1
290
     0
176
     1
290
     1
176
     1
290
     1
176
     1
290
     0
176
     1
290
     0
176
     1
290
     0
176
     1
290
     0
176
     1
290
     0
176
     1
290
     0
176
     1
 90
       50
176
     1
 40
0.0
176
     1
 40
1.0
176
     1
 90
        0
176
     1
 62
    18
420
        0
176
     1
 90
       50
176
     1
 90
        3
176
     1
 62
     5
420
      255
176
     1
290
     0
176
     1
 90
       50
176
     1
 90
       50
176
     1
 90
       50
176
     1
290
     0
176
     1
 90
       50
176
     1
 62
   256
176
     0
 40
1.0
176
     0
 90
        2
176
     1
  1
strokes_ogs.tif
176
     1
290
     0
176
     1
 40
1.0
176
     1
 40
1.0
176
     1
  0
VISUALSTYLE
  5
270
102
{ACAD_REACTORS
330
26A
102
}
330
26A
100
AcDbVisualStyle
  2
3dWireframe
 70
     5
177
     3
291
     0
 70
    58
 90
        0
176
     1
 90
        2
176
     1
 90
        0
176
     1
 90
        0
176
     1
 40
-0.6
176
     1
 40
-30.0
176
     1
 62
     7
176
     1
 90
        1
176
     1
 90
        4
176
     1
 62
     7
176
     1
 62
   257
176
     1
 90
        1
176
     1
 90
        1
176
     1
 40
1.0
176
     1
 90
        0
176
     1
 62
   257
176
     1
 40
1.0
176
     1
 90
        1
176
     1
 90
        6
176
     1
 90
        2
176
     1
 62
     7
176
     1
 90
        5
176
     1
 90
        0
176
     1
 90
        0
176
     1
290
     0
176
     1
 90
        1
176
     1
 40
0.0
176
     1
 90
        0
176
     1
290
     0
176
     1
290
     1
176
     1
290
     1
176
     1
290
     0
176
     1
290
     0
176
     1
290
     0
176
     1
290
     0
176
     1
290
     0
176
     1
290
     0
176
     1
 90
       50
176
     1
 40
0.0
176
     1
 40
1.0
176
     1
 90
        0
176
     1
 62
    18
420
        0
176
     1
 90
       50
176
     1
 90
        3
176
     1
 62
     5
420
      255
176
     1
290
     0
176
     1
 90
       50
176
     1
 90
       50
176
     1
 90
       50
176
     1
290
     0
176
     1
 90
       50
176
     1
 62
   256
176
     0
 40
1.0
176
     0
 90
        2
176
     1
  1
strokes_ogs.tif
176
     1
290
     0
176
     1
 40
1.0
176
     1
 40
1.0
176
     1
  0
VISUALSTYLE
  5
272
102
{ACAD_REACTORS
330
26A
102
}
330
26A
100
AcDbVisualStyle
  2
Basic
 70
     7
177
     3
291
     1
 70
    58
 90
        1
176
     1
 90
        0
176
     1
 90
        1
176
     1
 90
        0
176
     1
 40
-0.6
176
     1
 40
-30.0
176
     1
 62
     7
176
     1
 90
        0
176
     1
 90
        4
176
     1
 62
     7
176
     1
 62
   257
176
     1
 90
        1
176
     1
 90
        1
176
     1
 40
1.0
176
     1
 90
        8
176
     1
 62
     7
176
     1
 40
1.0
176
     1
 90
        1
176
     1
 90
        6
176
     1
 90
        2
176
     1
 62
     7
176
     1
 90
        5
176
     1
 90
        0
176
     1
 90
        0
176
     1
290
     0
176
     1
 90
        1
176
     1
 40
0.0
176
     1
 90
        0
176
     1
290
     0
176
     1
290
     1
176
     1
290
     1
176
     1
290
     0
176
     1
290
     0
176
     1
290
     0
176
     1
290
     0
176
     1
290
     0
176
     1
290
     0
176
     1
 90
       50
176
     1
 40
0.0
176
     1
 40
1.0
176
     1
 90
        0
176
     1
 62
    18
420
        0
176
     1
 90
       50
176
     1
 90
        3
176
     1
 62
     5
420
      255
176
     1
290
     0
176
     1
 90
       50
176
     1
 90
       50
176
     1
 90
       50
176
     1
290
     0
176
     1
 90
       50
176
     1
 62
   256
176
     0
 40
1.0
176
     0
 90
        2
176
     1
  1
strokes_ogs.tif
176
     1
290
     0
176
     1
 40
1.0
176
     1
 40
1.0
176
     1
  0
VISUALSTYLE
  5
276
102
{ACAD_REACTORS
330
26A
102
}
330
26A
100
AcDbVisualStyle
  2
Brighten
 70
    12
177
     3
291
     1
 70
    58
 90
        2
176
     1
 90
        2
176
     1
 90
        0
176
     1
 90
        0
176
     1
 40
-0.6
176
     1
 40
-30.0
176
     1
 62
     7
176
     1
 90
        1
176
     1
 90
        4
176
     1
 62
     7
176
     1
 62
   257
176
     1
 90
        1
176
     1
 90
        1
176
     1
 40
1.0
176
     1
 90
        8
176
     1
 62
     7
176
     1
 40
1.0
176
     1
 90
        1
176
     1
 90
        6
176
     1
 90
        2
176
     1
 62
     7
176
     1
 90
        5
176
     1
 90
        0
176
     1
 90
        0
176
     1
290
     0
176
     1
 90
        1
176
     1
 40
50.0
176
     1
 90
        0
176
     1
290
     0
176
     1
290
     1
176
     1
290
     1
176
     1
290
     0
176
     1
290
     0
176
     1
290
     0
176
     1
290
     0
176
     1
290
     0
176
     1
290
     0
176
     1
 90
       50
176
     1
 40
0.0
176
     1
 40
1.0
176
     1
 90
        0
176
     1
 62
    18
420
        0
176
     1
 90
       50
176
     1
 90
        3
176
     1
 62
     5
420
      255
176
     1
290
     0
176
     1
 90
       50
176
     1
 90
       50
176
     1
 90
       50
176
     1
290
     0
176
     1
 90
       50
176
     1
 62
   256
176
     0
 40
1.0
176
     0
 90
        2
176
     1
  1
strokes_ogs.tif
176
     1
290
     0
176
     1
 40
1.0
176
     1
 40
1.0
176
     1
  0
VISUALSTYLE
  5
27A
102
{ACAD_REACTORS
330
26A
102
}
330
26A
100
AcDbVisualStyle
  2
ColorChange
 70
    16
177
     3
291
     1
 70
    58
 90
        2
176
     1
 90
        2
176
     1
 90
        3
176
     1
 90
        0
176
     1
 40
-0.6
176
     1
 40
-30.0
176
     1
 62
     8
176
     1
 90
        1
176
     1
 90
        4
176
     1
 62
     7
176
     1
 62
   257
176
     1
 90
        1
176
     1
 90
        1
176
     1
 40
1.0
176
     1
 90
        8
176
     1
 62
     8
176
     1
 40
1.0
176
     1
 90
        1
176
     1
 90
        6
176
     1
 90
        2
176
     1
 62
     7
176
     1
 90
        5
176
     1
 90
        0
176
     1
 90
        0
176
     1
290
     0
176
     1
 90
        1
176
     1
 40
0.0
176
     1
 90
        0
176
     1
290
     0
176
     1
290
     1
176
     1
290
     1
176
     1
290
     0
176
     1
290
     0
176
     1
290
     0
176
     1
290
     0
176
     1
290
     0
176
     1
290
     0
176
     1
 90
       50
176
     1
 40
0.0
176
     1
 40
1.0
176
     1
 90
        0
176
     1
 62
    18
420
        0
176
     1
 90
       50
176
     1
 90
        3
176
     1
 62
     5
420
      255
176
     1
290
     0
176
     1
 90
       50
176
     1
 90
       50
176
     1
 90
       50
176
     1
290
     0
176
     1
 90
       50
176
     1
 62
   256
176
     0
 40
1.0
176
     0
 90
        2
176
     1
  1
strokes_ogs.tif
176
     1
290
     0
176
     1
 40
1.0
176
     1
 40
1.0
176
     1
  0
VISUALSTYLE
  5
274
102
{ACAD_REACTORS
330
26A
102
}
330
26A
100
AcDbVisualStyle
  2
Conceptual
 70
     9
177
     3
291
     0
 70
    58
 90
        3
176
     1
 90
        2
176
     1
 90
        0
176
     1
 90
        0
176
     1
 40
-0.6
176
     1
 40
-30.0
176
     1
 62
     7
176
     1
 90
        2
176
     1
 90
        2
176
     1
 62
     7
176
     1
 62
   257
176
     1
 90
        1
176
     1
 90
        1
176
     1
 40
40.0
176
     1
 90
        8
176
     1
 62
     7
176
     1
 40
1.0
176
     1
 90
        1
176
     1
 90
        6
176
     1
 90
        2
176
     1
 62
     7
176
     1
 90
        3
176
     1
 90
        0
176
     1
 90
        0
176
     1
290
     0
176
     1
 90
        1
176
     1
 40
0.0
176
     1
 90
        0
176
     1
290
     0
176
     1
290
     1
176
     1
290
     1
176
     1
290
     0
176
     1
290
     0
176
     1
290
     0
176
     1
290
     0
176
     1
290
     0
176
     1
290
     0
176
     1
 90
       50
176
     1
 40
0.0
176
     1
 40
1.0
176
     1
 90
        0
176
     1
 62
    18
420
        0
176
     1
 90
       50
176
     1
 90
        3
176
     1
 62
     5
420
      255
176
     1
290
     0
176
     1
 90
       50
176
     1
 90
       50
176
     1
 90
       50
176
     1
290
     0
176
     1
 90
       50
176
     1
 62
   256
176
     0
 40
1.0
176
     0
 90
        2
176
     1
  1
strokes_ogs.tif
176
     1
290
     0
176
     1
 40
1.0
176
     1
 40
1.0
176
     1
  0
VISUALSTYLE
  5
275
102
{ACAD_REACTORS
330
26A
102
}
330
26A
100
AcDbVisualStyle
  2
Dim
 70
    11
177
     3
291
     1
 70
    58
 90
        2
176
     1
 90
        2
176
     1
 90
        0
176
     1
 90
        0
176
     1
 40
-0.6
176
     1
 40
-30.0
176
     1
 62
     7
176
     1
 90
        1
176
     1
 90
        4
176
     1
 62
     7
176
     1
 62
   257
176
     1
 90
        1
176
     1
 90
        1
176
     1
 40
1.0
176
     1
 90
        8
176
     1
 62
     7
176
     1
 40
1.0
176
     1
 90
        1
176
     1
 90
        6
176
     1
 90
        2
176
     1
 62
     7
176
     1
 90
        5
176
     1
 90
        0
176
     1
 90
        0
176
     1
290
     0
176
     1
 90
        1
176
     1
 40
-50.0
176
     1
 90
        0
176
     1
290
     0
176
     1
290
     1
176
     1
290
     1
176
     1
290
     0
176
     1
290
     0
176
     1
290
     0
176
     1
290
     0
176
     1
290
     0
176
     1
290
     0
176
     1
 90
       50
176
     1
 40
0.0
176
     1
 40
1.0
176
     1
 90
        0
176
     1
 62
    18
420
        0
176
     1
 90
       50
176
     1
 90
        3
176
     1
 62
     5
420
      255
176
     1
290
     0
176
     1
 90
       50
176
     1
 90
       50
176
     1
 90
       50
176
     1
290
     0
176
     1
 90
       50
176
     1
 62
   256
176
     0
 40
1.0
176
     0
 90
        2
176
     1
  1
strokes_ogs.tif
176
     1
290
     0
176
     1
 40
1.0
176
     1
 40
1.0
176
     1
  0
VISUALSTYLE
  5
2E1
102
{ACAD_REACTORS
330
26A
102
}
330
26A
100
AcDbVisualStyle
  2
EdgeColorOff
 70
    22
177
     3
291
     1
 70
    58
 90
        2
176
     0
 90
        2
176
     0
 90
        0
176
     0
 90
        0
176
     0
 40
0.6
176
     0
 40
30.0
176
     0
 62
     7
420
 16777215
176
     0
 90
        1
176
     0
 90
        4
176
     0
 62
     7
176
     0
 62
   257
176
     0
 90
        1
176
     0
 90
        1
176
     0
 40
1.0
176
     0
 90
        8
176
     2
 62
     7
176
     0
 40
1.0
176
     0
 90
        1
176
     0
 90
        6
176
     0
 90
        2
176
     0
 62
     7
176
     0
 90
        5
176
     0
 90
        0
176
     0
 90
        0
176
     0
290
     0
176
     0
 90
        1
176
     0
 40
0.0
176
     0
 90
        0
176
     0
290
     0
176
     0
290
     1
176
     0
290
     1
176
     0
290
     0
176
     0
290
     0
176
     0
290
     0
176
     0
290
     0
176
     0
290
     0
176
     0
290
     0
176
     0
 90
       50
176
     0
 40
0.0
176
     0
 40
1.0
176
     0
 90
        0
176
     0
 62
    18
420
        0
176
     0
 90
       50
176
     0
 90
        3
176
     0
 62
     5
420
      255
176
     0
290
     0
176
     0
 90
       50
176
     0
 90
       50
176
     0
 90
       50
176
     0
290
     0
176
     0
 90
       50
176
     0
 62
   256
176
     0
 40
1.0
176
     0
 90
        2
176
     0
  1
strokes_ogs.tif
176
     0
290
     0
176
     0
 40
1.0
176
     0
 40
1.0
176
     0
  0
VISUALSTYLE
  5
279
102
{ACAD_REACTORS
330
26A
102
}
330
26A
100
AcDbVisualStyle
  2
Facepattern
 70
    15
177
     3
291
     1
 70
    58
 90
        2
176
     1
 90
        2
176
     1
 90
        0
176
     1
 90
        0
176
     1
 40
-0.6
176
     1
 40
-30.0
176
     1
 62
     7
176
     1
 90
        1
176
     1
 90
        4
176
     1
 62
     7
176
     1
 62
   257
176
     1
 90
        1
176
     1
 90
        1
176
     1
 40
1.0
176
     1
 90
        8
176
     1
 62
     7
176
     1
 40
1.0
176
     1
 90
        1
176
     1
 90
        6
176
     1
 90
        2
176
     1
 62
     7
176
     1
 90
        5
176
     1
 90
        0
176
     1
 90
        0
176
     1
290
     0
176
     1
 90
        1
176
     1
 40
0.0
176
     1
 90
        0
176
     1
290
     0
176
     1
290
     1
176
     1
290
     1
176
     1
290
     0
176
     1
290
     0
176
     1
290
     0
176
     1
290
     0
176
     1
290
     0
176
     1
290
     0
176
     1
 90
       50
176
     1
 40
0.0
176
     1
 40
1.0
176
     1
 90
        0
176
     1
 62
    18
420
        0
176
     1
 90
       50
176
     1
 90
        3
176
     1
 62
     5
420
      255
176
     1
290
     0
176
     1
 90
       50
176
     1
 90
       50
176
     1
 90
       50
176
     1
290
     0
176
     1
 90
       50
176
     1
 62
   256
176
     0
 40
1.0
176
     0
 90
        2
176
     1
  1
strokes_ogs.tif
176
     1
290
     0
176
     1
 40
1.0
176
     1
 40
1.0
176
     1
  0
VISUALSTYLE
  5
26B
102
{ACAD_REACTORS
330
26A
102
}
330
26A
100
AcDbVisualStyle
  2
Flat
 70
     0
177
     3
291
     1
 70
    58
 90
        2
176
     1
 90
        1
176
     1
 90
        1
176
     1
 90
        2
176
     1
 40
-0.6
176
     1
 40
30.0
176
     1
 62
     7
176
     1
 90
        0
176
     1
 90
        4
176
     1
 62
     7
176
     1
 62
   257
176
     1
 90
        1
176
     1
 90
        1
176
     1
 40
1.0
176
     1
 90
        8
176
     1
 62
     7
176
     1
 40
1.0
176
     1
 90
        1
176
     1
 90
        6
176
     1
 90
        2
176
     1
 62
     7
176
     1
 90
        5
176
     1
 90
        0
176
     1
 90
        0
176
     1
290
     0
176
     1
 90
       13
176
     1
 40
0.0
176
     1
 90
        0
176
     1
290
     0
176
     1
290
     1
176
     1
290
     1
176
     1
290
     0
176
     1
290
     0
176
     1
290
     0
176
     1
290
     0
176
     1
290
     0
176
     1
290
     0
176
     1
 90
       50
176
     1
 40
0.0
176
     1
 40
1.0
176
     1
 90
        0
176
     1
 62
    18
420
        0
176
     1
 90
       50
176
     1
 90
        3
176
     1
 62
     5
420
      255
176
     1
290
     0
176
     1
 90
       50
176
     1
 90
       50
176
     1
 90
       50
176
     1
290
     0
176
     1
 90
       50
176
     1
 62
   256
176
     0
 40
1.0
176
     0
 90
        2
176
     1
  1
strokes_ogs.tif
176
     1
290
     0
176
     1
 40
1.0
176
     1
 40
1.0
176
     1
  0
VISUALSTYLE
  5
26C
102
{ACAD_REACTORS
330
26A
102
}
330
26A
100
AcDbVisualStyle
  2
FlatWithEdges
 70
     1
177
     3
291
     1
 70
    58
 90
        2
176
     1
 90
        1
176
     1
 90
        1
176
     1
 90
        2
176
     1
 40
-0.6
176
     1
 40
30.0
176
     1
 62
     7
176
     1
 90
        1
176
     1
 90
        4
176
     1
 62
     7
176
     1
 62
   257
176
     1
 90
        1
176
     1
 90
        1
176
     1
 40
1.0
176
     1
 90
        0
176
     1
 62
   257
176
     1
 40
1.0
176
     1
 90
        1
176
     1
 90
        6
176
     1
 90
        2
176
     1
 62
     7
176
     1
 90
        5
176
     1
 90
        0
176
     1
 90
        0
176
     1
290
     0
176
     1
 90
       13
176
     1
 40
0.0
176
     1
 90
        0
176
     1
290
     0
176
     1
290
     1
176
     1
290
     1
176
     1
290
     0
176
     1
290
     0
176
     1
290
     0
176
     1
290
     0
176
     1
290
     0
176
     1
290
     0
176
     1
 90
       50
176
     1
 40
0.0
176
     1
 40
1.0
176
     1
 90
        0
176
     1
 62
    18
420
        0
176
     1
 90
       50
176
     1
 90
        3
176
     1
 62
     5
420
      255
176
     1
290
     0
176
     1
 90
       50
176
     1
 90
       50
176
     1
 90
       50
176
     1
290
     0
176
     1
 90
       50
176
     1
 62
   256
176
     0
 40
1.0
176
     0
 90
        2
176
     1
  1
strokes_ogs.tif
176
     1
290
     0
176
     1
 40
1.0
176
     1
 40
1.0
176
     1
  0
VISUALSTYLE
  5
26D
102
{ACAD_REACTORS
330
26A
102
}
330
26A
100
AcDbVisualStyle
  2
Gouraud
 70
     2
177
     3
291
     1
 70
    58
 90
        2
176
     1
 90
        2
176
     1
 90
        1
176
     1
 90
        2
176
     1
 40
-0.6
176
     1
 40
30.0
176
     1
 62
     7
176
     1
 90
        0
176
     1
 90
        4
176
     1
 62
     7
176
     1
 62
   257
176
     1
 90
        1
176
     1
 90
        1
176
     1
 40
1.0
176
     1
 90
        0
176
     1
 62
     7
176
     1
 40
1.0
176
     1
 90
        1
176
     1
 90
        6
176
     1
 90
        2
176
     1
 62
     7
176
     1
 90
        5
176
     1
 90
        0
176
     1
 90
        0
176
     1
290
     0
176
     1
 90
       13
176
     1
 40
0.0
176
     1
 90
        0
176
     1
290
     0
176
     1
290
     1
176
     1
290
     1
176
     1
290
     0
176
     1
290
     0
176
     1
290
     0
176
     1
290
     0
176
     1
290
     0
176
     1
290
     0
176
     1
 90
       50
176
     1
 40
0.0
176
     1
 40
1.0
176
     1
 90
        0
176
     1
 62
    18
420
        0
176
     1
 90
       50
176
     1
 90
        3
176
     1
 62
     5
420
      255
176
     1
290
     0
176
     1
 90
       50
176
     1
 90
       50
176
     1
 90
       50
176
     1
290
     0
176
     1
 90
       50
176
     1
 62
   256
176
     0
 40
1.0
176
     0
 90
        2
176
     1
  1
strokes_ogs.tif
176
     1
290
     0
176
     1
 40
1.0
176
     1
 40
1.0
176
     1
  0
VISUALSTYLE
  5
26E
102
{ACAD_REACTORS
330
26A
102
}
330
26A
100
AcDbVisualStyle
  2
GouraudWithEdges
 70
     3
177
     3
291
     1
 70
    58
 90
        2
176
     1
 90
        2
176
     1
 90
        1
176
     1
 90
        2
176
     1
 40
-0.6
176
     1
 40
30.0
176
     1
 62
     7
176
     1
 90
        1
176
     1
 90
        4
176
     1
 62
     7
176
     1
 62
   257
176
     1
 90
        1
176
     1
 90
        1
176
     1
 40
1.0
176
     1
 90
        0
176
     1
 62
   257
176
     1
 40
1.0
176
     1
 90
        1
176
     1
 90
        6
176
     1
 90
        2
176
     1
 62
     7
176
     1
 90
        5
176
     1
 90
        0
176
     1
 90
        0
176
     1
290
     0
176
     1
 90
       13
176
     1
 40
0.0
176
     1
 90
        0
176
     1
290
     0
176
     1
290
     1
176
     1
290
     1
176
     1
290
     0
176
     1
290
     0
176
     1
290
     0
176
     1
290
     0
176
     1
290
     0
176
     1
290
     0
176
     1
 90
       50
176
     1
 40
0.0
176
     1
 40
1.0
176
     1
 90
        0
176
     1
 62
    18
420
        0
176
     1
 90
       50
176
     1
 90
        3
176
     1
 62
     5
420
      255
176
     1
290
     0
176
     1
 90
       50
176
     1
 90
       50
176
     1
 90
       50
176
     1
290
     0
176
     1
 90
       50
176
     1
 62
   256
176
     0
 40
1.0
176
     0
 90
        2
176
     1
  1
strokes_ogs.tif
176
     1
290
     0
176
     1
 40
1.0
176
     1
 40
1.0
176
     1
  0
VISUALSTYLE
  5
2DE
102
{ACAD_REACTORS
330
26A
102
}
330
26A
100
AcDbVisualStyle
  2
Hidden
 70
     6
177
     3
291
     0
 70
    58
 90
        1
176
     1
 90
        2
176
     1
 90
        2
176
     1
 90
        0
176
     1
 40
0.6
176
     1
 40
30.0
176
     1
 62
     7
420
 16777215
176
     1
 90
        2
176
     1
 90
        2
176
     1
 62
     7
176
     1
 62
   257
176
     1
 90
        2
176
     1
 90
        1
176
     1
 40
40.0
176
     1
 90
        0
176
     1
 62
   257
176
     1
 40
1.0
176
     1
 90
        1
176
     1
 90
        6
176
     1
 90
        2
176
     1
 62
     7
176
     1
 90
        3
176
     1
 90
        0
176
     1
 90
        0
176
     1
290
     0
176
     1
 90
        1
176
     1
 40
0.0
176
     1
 90
        0
176
     1
290
     0
176
     1
290
     1
176
     1
290
     1
176
     1
290
     0
176
     1
290
     0
176
     1
290
     0
176
     1
290
     0
176
     1
290
     0
176
     1
290
     0
176
     1
 90
       50
176
     1
 40
0.0
176
     1
 40
1.0
176
     1
 90
        0
176
     1
 62
    18
420
        0
176
     1
 90
       50
176
     1
 90
        3
176
     1
 62
     5
420
      255
176
     1
290
     0
176
     1
 90
       50
176
     1
 90
       50
176
     1
 90
       50
176
     1
290
     0
176
     1
 90
       50
176
     1
 62
   256
176
     0
 40
1.0
176
     0
 90
        2
176
     1
  1
strokes_ogs.tif
176
     1
290
     0
176
     1
 40
1.0
176
     1
 40
1.0
176
     1
  0
VISUALSTYLE
  5
2DF
102
{ACAD_REACTORS
330
26A
102
}
330
26A
100
AcDbVisualStyle
  2
JitterOff
 70
    20
177
     3
291
     1
 70
    58
 90
        2
176
     0
 90
        2
176
     0
 90
        0
176
     0
 90
        0
176
     0
 40
0.6
176
     0
 40
30.0
176
     0
 62
     7
420
 16777215
176
     0
 90
        1
176
     0
 90
        4
176
     0
 62
     7
176
     0
 62
   257
176
     0
 90
        1
176
     0
 90
        1
176
     0
 40
1.0
176
     0
 90
       10
176
     2
 62
     7
176
     0
 40
1.0
176
     0
 90
        1
176
     0
 90
        6
176
     0
 90
        2
176
     0
 62
     7
176
     0
 90
        5
176
     0
 90
        0
176
     0
 90
        0
176
     0
290
     0
176
     0
 90
        1
176
     0
 40
0.0
176
     0
 90
        0
176
     0
290
     0
176
     0
290
     1
176
     0
290
     1
176
     0
290
     0
176
     0
290
     0
176
     0
290
     0
176
     0
290
     0
176
     0
290
     0
176
     0
290
     0
176
     0
 90
       50
176
     0
 40
0.0
176
     0
 40
1.0
176
     0
 90
        0
176
     0
 62
    18
420
        0
176
     0
 90
       50
176
     0
 90
        3
176
     0
 62
     5
420
      255
176
     0
290
     0
176
     0
 90
       50
176
     0
 90
       50
176
     0
 90
       50
176
     0
290
     0
176
     0
 90
       50
176
     0
 62
   256
176
     0
 40
1.0
176
     0
 90
        2
176
     0
  1
strokes_ogs.tif
176
     0
290
     0
176
     0
 40
1.0
176
     0
 40
1.0
176
     0
  0
VISUALSTYLE
  5
278
102
{ACAD_REACTORS
330
26A
102
}
330
26A
100
AcDbVisualStyle
  2
Linepattern
 70
    14
177
     3
291
     1
 70
    58
 90
        2
176
     1
 90
        2
176
     1
 90
        0
176
     1
 90
        0
176
     1
 40
-0.6
176
     1
 40
-30.0
176
     1
 62
     7
176
     1
 90
        1
176
     1
 90
        4
176
     1
 62
     7
176
     1
 62
   257
176
     1
 90
        7
176
     1
 90
        7
176
     1
 40
1.0
176
     1
 90
        8
176
     1
 62
     7
176
     1
 40
1.0
176
     1
 90
        1
176
     1
 90
        6
176
     1
 90
        2
176
     1
 62
     7
176
     1
 90
        5
176
     1
 90
        0
176
     1
 90
        0
176
     1
290
     0
176
     1
 90
        1
176
     1
 40
0.0
176
     1
 90
        0
176
     1
290
     0
176
     1
290
     1
176
     1
290
     1
176
     1
290
     0
176
     1
290
     0
176
     1
290
     0
176
     1
290
     0
176
     1
290
     0
176
     1
290
     0
176
     1
 90
       50
176
     1
 40
0.0
176
     1
 40
1.0
176
     1
 90
        0
176
     1
 62
    18
420
        0
176
     1
 90
       50
176
     1
 90
        3
176
     1
 62
     5
420
      255
176
     1
290
     0
176
     1
 90
       50
176
     1
 90
       50
176
     1
 90
       50
176
     1
290
     0
176
     1
 90
       50
176
     1
 62
   256
176
     0
 40
1.0
176
     0
 90
        2
176
     1
  1
strokes_ogs.tif
176
     1
290
     0
176
     1
 40
1.0
176
     1
 40
1.0
176
     1
  0
VISUALSTYLE
  5
2E0
102
{ACAD_REACTORS
330
26A
102
}
330
26A
100
AcDbVisualStyle
  2
OverhangOff
 70
    21
177
     3
291
     1
 70
    58
 90
        2
176
     0
 90
        2
176
     0
 90
        0
176
     0
 90
        0
176
     0
 40
0.6
176
     0
 40
30.0
176
     0
 62
     7
420
 16777215
176
     0
 90
        1
176
     0
 90
        4
176
     0
 62
     7
176
     0
 62
   257
176
     0
 90
        1
176
     0
 90
        1
176
     0
 40
1.0
176
     0
 90
        9
176
     2
 62
     7
176
     0
 40
1.0
176
     0
 90
        1
176
     0
 90
        6
176
     0
 90
        2
176
     0
 62
     7
176
     0
 90
        5
176
     0
 90
        0
176
     0
 90
        0
176
     0
290
     0
176
     0
 90
        1
176
     0
 40
0.0
176
     0
 90
        0
176
     0
290
     0
176
     0
290
     1
176
     0
290
     1
176
     0
290
     0
176
     0
290
     0
176
     0
290
     0
176
     0
290
     0
176
     0
290
     0
176
     0
290
     0
176
     0
 90
       50
176
     0
 40
0.0
176
     0
 40
1.0
176
     0
 90
        0
176
     0
 62
    18
420
        0
176
     0
 90
       50
176
     0
 90
        3
176
     0
 62
     5
420
      255
176
     0
290
     0
176
     0
 90
       50
176
     0
 90
       50
176
     0
 90
       50
176
     0
290
     0
176
     0
 90
       50
176
     0
 62
   256
176
     0
 40
1.0
176
     0
 90
        2
176
     0
  1
strokes_ogs.tif
176
     0
290
     0
176
     0
 40
1.0
176
     0
 40
1.0
176
     0
  0
VISUALSTYLE
  5
273
102
{ACAD_REACTORS
330
26A
102
}
330
26A
100
AcDbVisualStyle
  2
Realistic
 70
     8
177
     3
291
     0
 70
    58
 90
        2
176
     1
 90
        2
176
     1
 90
        0
176
     1
 90
        0
176
     1
 40
-0.6
176
     1
 40
-30.0
176
     1
 62
     7
176
     1
 90
        1
176
     1
 90
        0
176
     1
 62
     7
176
     1
 62
   257
176
     1
 90
        1
176
     1
 90
        1
176
     1
 40
1.0
176
     1
 90
        8
176
     1
 62
     8
176
     1
 40
1.0
176
     1
 90
        1
176
     1
 90
        6
176
     1
 90
        2
176
     1
 62
     7
176
     1
 90
        5
176
     1
 90
        0
176
     1
 90
        0
176
     1
290
     0
176
     1
 90
       13
176
     1
 40
0.0
176
     1
 90
        0
176
     1
290
     0
176
     1
290
     1
176
     1
290
     1
176
     1
290
     0
176
     1
290
     0
176
     1
290
     0
176
     1
290
     0
176
     1
290
     0
176
     1
290
     0
176
     1
 90
       50
176
     1
 40
0.0
176
     1
 40
1.0
176
     1
 90
        0
176
     1
 62
    18
420
        0
176
     1
 90
       50
176
     1
 90
        3
176
     1
 62
     5
420
      255
176
     1
290
     0
176
     1
 90
       50
176
     1
 90
       50
176
     1
 90
       50
176
     1
290
     0
176
     1
 90
       50
176
     1
 62
   256
176
     0
 40
1.0
176
     0
 90
        2
176
     1
  1
strokes_ogs.tif
176
     1
290
     0
176
     1
 40
1.0
176
     1
 40
1.0
176
     1
  0
VISUALSTYLE
  5
2E6
102
{ACAD_REACTORS
330
26A
102
}
330
26A
100
AcDbVisualStyle
  2
Shaded
 70
    27
177
     3
291
     0
 70
    58
 90
        2
176
     1
 90
        2
176
     1
 90
        1
176
     1
 90
        2
176
     1
 40
0.6
176
     1
 40
30.0
176
     1
 62
     7
420
 16777215
176
     1
 90
        0
176
     1
 90
        4
176
     1
 62
     7
176
     1
 62
   257
176
     1
 90
        1
176
     1
 90
        1
176
     1
 40
1.0
176
     1
 90
        8
176
     1
 62
   257
176
     1
 40
1.0
176
     1
 90
        1
176
     1
 90
        6
176
     1
 90
        2
176
     1
 62
     8
420
  7895160
176
     1
 90
        3
176
     1
 90
        0
176
     1
 90
        0
176
     1
290
     0
176
     1
 90
        5
176
     1
 40
0.0
176
     1
 90
        0
176
     1
290
     0
176
     1
290
     1
176
     1
290
     1
176
     1
290
     0
176
     1
290
     0
176
     1
290
     0
176
     1
290
     0
176
     1
290
     0
176
     1
290
     0
176
     1
 90
       50
176
     1
 40
0.0
176
     1
 40
1.0
176
     1
 90
        0
176
     1
 62
    18
420
        0
176
     1
 90
       50
176
     1
 90
        3
176
     1
 62
     5
420
      255
176
     1
290
     0
176
     1
 90
       50
176
     1
 90
       50
176
     1
 90
       50
176
     1
290
     0
176
     1
 90
       50
176
     1
 62
   256
176
     0
 40
1.0
176
     0
 90
        2
176
     1
  1
strokes_ogs.tif
176
     1
290
     0
176
     1
 40
1.0
176
     1
 40
1.0
176
     1
  0
VISUALSTYLE
  5
2E5
102
{ACAD_REACTORS
330
26A
102
}
330
26A
100
AcDbVisualStyle
  2
Shaded with edges
 70
    26
177
     3
291
     0
 70
    58
 90
        2
176
     1
 90
        2
176
     1
 90
        1
176
     1
 90
        2
176
     1
 40
0.6
176
     1
 40
30.0
176
     1
 62
     7
420
 16777215
176
     1
 90
        1
176
     1
 90
       10
176
     1
 62
     7
176
     1
 62
   257
176
     1
 90
        2
176
     1
 90
        1
176
     1
 40
1.0
176
     1
 90
        8
176
     1
 62
   257
176
     1
 40
1.0
176
     1
 90
        1
176
     1
 90
        6
176
     1
 90
        2
176
     1
 62
     7
176
     1
 90
        3
176
     1
 90
        0
176
     1
 90
        0
176
     1
290
     0
176
     1
 90
        5
176
     1
 40
0.0
176
     1
 90
        0
176
     1
290
     0
176
     1
290
     1
176
     1
290
     1
176
     1
290
     0
176
     1
290
     0
176
     1
290
     0
176
     1
290
     0
176
     1
290
     0
176
     1
290
     0
176
     1
 90
       50
176
     1
 40
0.0
176
     1
 40
1.0
176
     1
 90
        0
176
     1
 62
    18
420
        0
176
     1
 90
       50
176
     1
 90
        3
176
     1
 62
     5
420
      255
176
     1
290
     0
176
     1
 90
       50
176
     1
 90
       50
176
     1
 90
       50
176
     1
290
     0
176
     1
 90
       50
176
     1
 62
   256
176
     0
 40
1.0
176
     0
 90
        2
176
     1
  1
strokes_ogs.tif
176
     1
290
     0
176
     1
 40
1.0
176
     1
 40
1.0
176
     1
  0
VISUALSTYLE
  5
2E2
102
{ACAD_REACTORS
330
26A
102
}
330
26A
100
AcDbVisualStyle
  2
Shades of Gray
 70
    23
177
     3
291
     0
 70
    58
 90
        2
176
     1
 90
        2
176
     1
 90
        3
176
     1
 90
        0
176
     1
 40
0.6
176
     1
 40
30.0
176
     1
 62
     7
420
 16777215
176
     1
 90
        2
176
     1
 90
        2
176
     1
 62
     7
176
     1
 62
     7
176
     1
 90
        1
176
     1
 90
        1
176
     1
 40
40.0
176
     1
 90
        8
176
     1
 62
     7
176
     1
 40
1.0
176
     1
 90
        1
176
     1
 90
        6
176
     1
 90
        2
176
     1
 62
     7
176
     1
 90
        3
176
     1
 90
        0
176
     1
 90
        0
176
     1
290
     0
176
     1
 90
        1
176
     1
 40
0.0
176
     1
 90
        0
176
     1
290
     0
176
     1
290
     1
176
     1
290
     1
176
     1
290
     0
176
     1
290
     0
176
     1
290
     0
176
     1
290
     0
176
     1
290
     0
176
     1
290
     0
176
     1
 90
       50
176
     1
 40
0.0
176
     1
 40
1.0
176
     1
 90
        0
176
     1
 62
    18
420
        0
176
     1
 90
       50
176
     1
 90
        3
176
     1
 62
     5
420
      255
176
     1
290
     0
176
     1
 90
       50
176
     1
 90
       50
176
     1
 90
       50
176
     1
290
     0
176
     1
 90
       50
176
     1
 62
   256
176
     0
 40
1.0
176
     0
 90
        2
176
     1
  1
strokes_ogs.tif
176
     1
290
     0
176
     1
 40
1.0
176
     1
 40
1.0
176
     1
  0
VISUALSTYLE
  5
2E3
102
{ACAD_REACTORS
330
26A
102
}
330
26A
100
AcDbVisualStyle
  2
Sketchy
 70
    24
177
     3
291
     0
 70
    58
 90
        1
176
     1
 90
        2
176
     1
 90
        2
176
     1
 90
        0
176
     1
 40
0.6
176
     1
 40
30.0
176
     1
 62
     7
420
 16777215
176
     1
 90
        2
176
     1
 90
        2
176
     1
 62
     7
176
     1
 62
     7
176
     1
 90
        1
176
     1
 90
        1
176
     1
 40
40.0
176
     1
 90
       11
176
     1
 62
     7
176
     1
 40
1.0
176
     1
 90
        1
176
     1
 90
        6
176
     1
 90
        2
176
     1
 62
     7
176
     1
 90
        6
176
     1
 90
        0
176
     1
 90
        0
176
     1
290
     0
176
     1
 90
        1
176
     1
 40
0.0
176
     1
 90
        0
176
     1
290
     0
176
     1
290
     1
176
     1
290
     1
176
     1
290
     0
176
     1
290
     0
176
     1
290
     0
176
     1
290
     0
176
     1
290
     0
176
     1
290
     0
176
     1
 90
       50
176
     1
 40
0.0
176
     1
 40
1.0
176
     1
 90
        0
176
     1
 62
    18
420
        0
176
     1
 90
       50
176
     1
 90
        3
176
     1
 62
     5
420
      255
176
     1
290
     0
176
     1
 90
       50
176
     1
 90
       50
176
     1
 90
       50
176
     1
290
     0
176
     1
 90
       50
176
     1
 62
   256
176
     0
 40
1.0
176
     0
 90
        2
176
     1
  1
strokes_ogs.tif
176
     1
290
     0
176
     1
 40
1.0
176
     1
 40
1.0
176
     1
  0
VISUALSTYLE
  5
277
102
{ACAD_REACTORS
330
26A
102
}
330
26A
100
AcDbVisualStyle
  2
Thicken
 70
    13
177
     3
291
     1
 70
    58
 90
        2
176
     1
 90
        2
176
     1
 90
        0
176
     1
 90
        0
176
     1
 40
-0.6
176
     1
 40
-30.0
176
     1
 62
     7
176
     1
 90
        1
176
     1
 90
        4
176
     1
 62
     7
176
     1
 62
   257
176
     1
 90
        1
176
     1
 90
        1
176
     1
 40
1.0
176
     1
 90
       12
176
     1
 62
     7
176
     1
 40
1.0
176
     1
 90
        1
176
     1
 90
        6
176
     1
 90
        2
176
     1
 62
     7
176
     1
 90
        5
176
     1
 90
        0
176
     1
 90
        0
176
     1
290
     0
176
     1
 90
        1
176
     1
 40
0.0
176
     1
 90
        0
176
     1
290
     0
176
     1
290
     1
176
     1
290
     1
176
     1
290
     0
176
     1
290
     0
176
     1
290
     0
176
     1
290
     0
176
     1
290
     0
176
     1
290
     0
176
     1
 90
       50
176
     1
 40
0.0
176
     1
 40
1.0
176
     1
 90
        0
176
     1
 62
    18
420
        0
176
     1
 90
       50
176
     1
 90
        3
176
     1
 62
     5
420
      255
176
     1
290
     0
176
     1
 90
       50
176
     1
 90
       50
176
     1
 90
       50
176
     1
290
     0
176
     1
 90
       50
176
     1
 62
   256
176
     0
 40
1.0
176
     0
 90
        2
176
     1
  1
strokes_ogs.tif
176
     1
290
     0
176
     1
 40
1.0
176
     1
 40
1.0
176
     1
  0
VISUALSTYLE
  5
2DD
102
{ACAD_REACTORS
330
26A
102
}
330
26A
100
AcDbVisualStyle
  2
Wireframe
 70
     5
177
     3
291
     0
 70
    58
 90
        0
176
     1
 90
        2
176
     1
 90
        0
176
     1
 90
        0
176
     1
 40
0.6
176
     1
 40
30.0
176
     1
 62
     7
420
 16777215
176
     1
 90
        1
176
     1
 90
        4
176
     1
 62
     7
176
     1
 62
   257
176
     1
 90
        1
176
     1
 90
        1
176
     1
 40
1.0
176
     1
 90
        0
176
     1
 62
   257
176
     1
 40
1.0
176
     1
 90
        1
176
     1
 90
        6
176
     1
 90
        2
176
     1
 62
     7
176
     1
 90
        3
176
     1
 90
        0
176
     1
 90
        0
176
     1
290
     0
176
     1
 90
        1
176
     1
 40
0.0
176
     1
 90
        0
176
     1
290
     0
176
     1
290
     1
176
     1
290
     1
176
     1
290
     0
176
     1
290
     0
176
     1
290
     0
176
     1
290
     0
176
     1
290
     0
176
     1
290
     0
176
     1
 90
       50
176
     1
 40
0.0
176
     1
 40
1.0
176
     1
 90
        0
176
     1
 62
    18
420
        0
176
     1
 90
       50
176
     1
 90
        3
176
     1
 62
     5
420
      255
176
     1
290
     0
176
     1
 90
       50
176
     1
 90
       50
176
     1
 90
       50
176
     1
290
     0
176
     1
 90
       50
176
     1
 62
   256
176
     0
 40
1.0
176
     0
 90
        2
176
     1
  1
strokes_ogs.tif
176
     1
290
     0
176
     1
 40
1.0
176
     1
 40
1.0
176
     1
  0
VISUALSTYLE
  5
2E4
102
{ACAD_REACTORS
330
26A
102
}
330
26A
100
AcDbVisualStyle
  2
X-Ray
 70
    25
177
     3
291
     0
 70
    58
 90
        2
176
     1
 90
        2
176
     1
 90
        1
176
     1
 90
        1
176
     1
 40
0.5
176
     1
 40
30.0
176
     1
 62
     7
420
 16777215
176
     1
 90
        1
176
     1
 90
        0
176
     1
 62
     7
176
     1
 62
   257
176
     1
 90
        1
176
     1
 90
        1
176
     1
 40
1.0
176
     1
 90
        8
176
     1
 62
     7
176
     1
 40
1.0
176
     1
 90
        1
176
     1
 90
        6
176
     1
 90
        2
176
     1
 62
     7
176
     1
 90
        3
176
     1
 90
        0
176
     1
 90
        0
176
     1
290
     0
176
     1
 90
       13
176
     1
 40
0.0
176
     1
 90
        0
176
     1
290
     0
176
     1
290
     1
176
     1
290
     1
176
     1
290
     0
176
     1
290
     0
176
     1
290
     0
176
     1
290
     0
176
     1
290
     0
176
     1
290
     0
176
     1
 90
       50
176
     1
 40
0.0
176
     1
 40
1.0
176
     1
 90
        0
176
     1
 62
    18
420
        0
176
     1
 90
       50
176
     1
 90
        3
176
     1
 62
     5
420
      255
176
     1
290
     0
176
     1
 90
       50
176
     1
 90
       50
176
     1
 90
       50
176
     1
290
     0
176
     1
 90
       50
176
     1
 62
   256
176
     0
 40
1.0
176
     0
 90
        2
176
     1
  1
strokes_ogs.tif
176
     1
290
     0
176
     1
 40
1.0
176
     1
 40
1.0
176
     1
  0
DICTIONARYVAR
  5
324
102
{ACAD_REACTORS
330
296
102
}
330
296
100
DictionaryVariables
280
     0
  1
1:1
  0
DICTIONARYVAR
  5
326
102
{ACAD_REACTORS
330
296
102
}
330
296
100
DictionaryVariables
280
     0
  1
Standard
  0
DICTIONARYVAR
  5
325
102
{ACAD_REACTORS
330
296
102
}
330
296
100
DictionaryVariables
280
     0
  1
Standard
  0
DICTIONARYVAR
  5
29A
102
{ACAD_REACTORS
330
296
102
}
330
296
100
DictionaryVariables
280
     0
  1
2
  0
DICTIONARYVAR
  5
29B
102
{ACAD_REACTORS
330
296
102
}
330
296
100
DictionaryVariables
280
     0
  1
1
  0
DICTIONARYVAR
  5
299
102
{ACAD_REACTORS
330
296
102
}
330
296
100
DictionaryVariables
280
     0
  1
0
  0
XRECORD
  5
3B0
102
{ACAD_REACTORS
330
3AE
102
}
330
3AE
100
AcDbXrecord
280
     1
  2

  2

  2

 40
0.0
 40
0.0
 90
        0
 40
139.9994649556
 90
        2
 90
        2
 90
        0
 90
        5
  2

  2

  2

  2

290
     1
290
     0
  2
0
  2
ø140
  0
DICTIONARY
  5
3F0
330
2E8
100
AcDbDictionary
280
     1
281
     1
  3
ACAD_ROUNDTRIP_2008_TABLESTYLE_CELLSTYLEMAP
360
3F1
  0
CELLSTYLEMAP
  5
3F1
102
{ACAD_REACTORS
330
3F0
102
}
330
3F0
100
AcDbCellStyleMap
 90
        3
300
CELLSTYLE
  1
TABLEFORMAT_BEGIN
 90
        5
170
     1
 91
        0
 92
    32768
 62
   257
 93
        1
300
CONTENTFORMAT
  1
CONTENTFORMAT_BEGIN
 90
        0
 91
        0
 92
        4
 93
        0
300

 40
0.0
140
1.0
 94
        5
 62
     0
340
11
144
6.0
309
CONTENTFORMAT_END
171
     1
301
MARGIN
  1
CELLMARGIN_BEGIN
 40
1.5
 40
1.5
 40
1.5
 40
1.5
 40
1.5
 40
1.5
309
CELLMARGIN_END
 94
        6
 95
        1
302
GRIDFORMAT
  1
GRIDFORMAT_BEGIN
 90
        0
 91
        1
 62
     0
 92
       -2
340
14
 93
        0
 40
0.045
309
GRIDFORMAT_END
 95
        2
302
GRIDFORMAT
  1
GRIDFORMAT_BEGIN
 90
        0
 91
        1
 62
     0
 92
       -2
340
14
 93
        0
 40
0.045
309
GRIDFORMAT_END
 95
        4
302
GRIDFORMAT
  1
GRIDFORMAT_BEGIN
 90
        0
 91
        1
 62
     0
 92
       -2
340
14
 93
        0
 40
0.045
309
GRIDFORMAT_END
 95
        8
302
GRIDFORMAT
  1
GRIDFORMAT_BEGIN
 90
        0
 91
        1
 62
     0
 92
       -2
340
14
 93
        0
 40
0.045
309
GRIDFORMAT_END
 95
       16
302
GRIDFORMAT
  1
GRIDFORMAT_BEGIN
 90
        0
 91
        1
 62
     0
 92
       -2
340
14
 93
        0
 40
0.045
309
GRIDFORMAT_END
 95
       32
302
GRIDFORMAT
  1
GRIDFORMAT_BEGIN
 90
        0
 91
        1
 62
     0
 92
       -2
340
14
 93
        0
 40
0.045
309
GRIDFORMAT_END
309
TABLEFORMAT_END
  1
CELLSTYLE_BEGIN
 90
        1
 91
        1
300
_TITLE
309
CELLSTYLE_END
300
CELLSTYLE
  1
TABLEFORMAT_BEGIN
 90
        5
170
     1
 91
        0
 92
        0
 62
   257
 93
        1
300
CONTENTFORMAT
  1
CONTENTFORMAT_BEGIN
 90
        0
 91
        0
 92
        4
 93
        0
300

 40
0.0
140
1.0
 94
        5
 62
     0
340
11
144
4.5
309
CONTENTFORMAT_END
171
     1
301
MARGIN
  1
CELLMARGIN_BEGIN
 40
1.5
 40
1.5
 40
1.5
 40
1.5
 40
1.5
 40
1.5
309
CELLMARGIN_END
 94
        6
 95
        1
302
GRIDFORMAT
  1
GRIDFORMAT_BEGIN
 90
        0
 91
        1
 62
     0
 92
       -2
340
14
 93
        0
 40
0.045
309
GRIDFORMAT_END
 95
        2
302
GRIDFORMAT
  1
GRIDFORMAT_BEGIN
 90
        0
 91
        1
 62
     0
 92
       -2
340
14
 93
        0
 40
0.045
309
GRIDFORMAT_END
 95
        4
302
GRIDFORMAT
  1
GRIDFORMAT_BEGIN
 90
        0
 91
        1
 62
     0
 92
       -2
340
14
 93
        0
 40
0.045
309
GRIDFORMAT_END
 95
        8
302
GRIDFORMAT
  1
GRIDFORMAT_BEGIN
 90
        0
 91
        1
 62
     0
 92
       -2
340
14
 93
        0
 40
0.045
309
GRIDFORMAT_END
 95
       16
302
GRIDFORMAT
  1
GRIDFORMAT_BEGIN
 90
        0
 91
        1
 62
     0
 92
       -2
340
14
 93
        0
 40
0.045
309
GRIDFORMAT_END
 95
       32
302
GRIDFORMAT
  1
GRIDFORMAT_BEGIN
 90
        0
 91
        1
 62
     0
 92
       -2
340
14
 93
        0
 40
0.045
309
GRIDFORMAT_END
309
TABLEFORMAT_END
  1
CELLSTYLE_BEGIN
 90
        2
 91
        1
300
_HEADER
309
CELLSTYLE_END
300
CELLSTYLE
  1
TABLEFORMAT_BEGIN
 90
        5
170
     1
 91
        0
 92
        0
 62
   257
 93
        1
300
CONTENTFORMAT
  1
CONTENTFORMAT_BEGIN
 90
        0
 91
        0
 92
        4
 93
        0
300

 40
0.0
140
1.0
 94
        2
 62
     0
340
11
144
4.5
309
CONTENTFORMAT_END
171
     1
301
MARGIN
  1
CELLMARGIN_BEGIN
 40
1.5
 40
1.5
 40
1.5
 40
1.5
 40
1.5
 40
1.5
309
CELLMARGIN_END
 94
        6
 95
        1
302
GRIDFORMAT
  1
GRIDFORMAT_BEGIN
 90
        0
 91
        1
 62
     0
 92
       -2
340
14
 93
        0
 40
0.045
309
GRIDFORMAT_END
 95
        2
302
GRIDFORMAT
  1
GRIDFORMAT_BEGIN
 90
        0
 91
        1
 62
     0
 92
       -2
340
14
 93
        0
 40
0.045
309
GRIDFORMAT_END
 95
        4
302
GRIDFORMAT
  1
GRIDFORMAT_BEGIN
 90
        0
 91
        1
 62
     0
 92
       -2
340
14
 93
        0
 40
0.045
309
GRIDFORMAT_END
 95
        8
302
GRIDFORMAT
  1
GRIDFORMAT_BEGIN
 90
        0
 91
        1
 62
     0
 92
       -2
340
14
 93
        0
 40
0.045
309
GRIDFORMAT_END
 95
       16
302
GRIDFORMAT
  1
GRIDFORMAT_BEGIN
 90
        0
 91
        1
 62
     0
 92
       -2
340
14
 93
        0
 40
0.045
309
GRIDFORMAT_END
 95
       32
302
GRIDFORMAT
  1
GRIDFORMAT_BEGIN
 90
        0
 91
        1
 62
     0
 92
       -2
340
14
 93
        0
 40
0.045
309
GRIDFORMAT_END
309
TABLEFORMAT_END
  1
CELLSTYLE_BEGIN
 90
        3
 91
        2
300
_DATA
309
CELLSTYLE_END
  0
ENDSEC
  0
EOF
