  0
SECTION
  2
HEADER
  9
$ACADVER
  1
AC1027
  9
$ACADMAINTVER
 70
   105
  9
$DWGCODEPAGE
  3
ANSI_1252
  9
$REQUIREDVERSIONS
160
                 0
  9
$LASTSAVEDBY
  1
matthias.ochs
  9
$INSBASE
 10
0.0
 20
0.0
 30
0.0
  9
$EXTMIN
 10
-100.8477993928889
 20
-72.90957572688777
 30
0.0
  9
$EXTMAX
 10
155.7070786558915
 20
79.01115598042921
 30
0.0
  9
$LIMMIN
 10
0.0
 20
0.0
  9
$LIMMAX
 10
210.0
 20
297.0
  9
$ORTHOMODE
 70
     0
  9
$REGENMODE
 70
     1
  9
$FILLMODE
 70
     1
  9
$QTEXTMODE
 70
     0
  9
$MIRRTEXT
 70
     1
  9
$LTSCALE
 40
1.0
  9
$ATTMODE
 70
     1
  9
$TEXTSIZE
 40
3.5
  9
$TRACEWID
 40
1.0
  9
$TEXTSTYLE
  7
STANDARD
  9
$CLAYER
  8
2
  9
$CELTYPE
  6
BYLAYER
  9
$CECOLOR
 62
   256
  9
$CELTSCALE
 40
1.0
  9
$DISPSILH
 70
     0
  9
$DIMSCALE
 40
1.0
  9
$DIMASZ
 40
3.5
  9
$DIMEXO
 40
0.0
  9
$DIMDLI
 40
3.75
  9
$DIMRND
 40
0.0
  9
$DIMDLE
 40
0.0
  9
$DIMEXE
 40
1.0
  9
$DIMTP
 40
0.0
  9
$DIMTM
 40
0.0
  9
$DIMTXT
 40
3.5
  9
$DIMCEN
 40
2.5
  9
$DIMTSZ
 40
0.0
  9
$DIMTOL
 70
     0
  9
$DIMLIM
 70
     0
  9
$DIMTIH
 70
     1
  9
$DIMTOH
 70
     1
  9
$DIMSE1
 70
     0
  9
$DIMSE2
 70
     0
  9
$DIMTAD
 70
     1
  9
$DIMZIN
 70
     0
  9
$DIMBLK
  1

  9
$DIMASO
 70
     1
  9
$DIMSHO
 70
     1
  9
$DIMPOST
  1

  9
$DIMAPOST
  1

  9
$DIMALT
 70
     0
  9
$DIMALTD
 70
     3
  9
$DIMALTF
 40
0.0393700787
  9
$DIMLFAC
 40
1.0
  9
$DIMTOFL
 70
     1
  9
$DIMTVP
 40
0.0
  9
$DIMTIX
 70
     0
  9
$DIMSOXD
 70
     0
  9
$DIMSAH
 70
     0
  9
$DIMBLK1
  1

  9
$DIMBLK2
  1

  9
$DIMSTYLE
  2
ISO-25
  9
$DIMCLRD
 70
     0
  9
$DIMCLRE
 70
     0
  9
$DIMCLRT
 70
     0
  9
$DIMTFAC
 40
1.0
  9
$DIMGAP
 40
1.5
  9
$DIMJUST
 70
     0
  9
$DIMSD1
 70
     0
  9
$DIMSD2
 70
     0
  9
$DIMTOLJ
 70
     0
  9
$DIMTZIN
 70
     0
  9
$DIMALTZ
 70
     0
  9
$DIMALTTZ
 70
     0
  9
$DIMUPT
 70
     0
  9
$DIMDEC
 70
     2
  9
$DIMTDEC
 70
     3
  9
$DIMALTU
 70
     2
  9
$DIMALTTD
 70
     3
  9
$DIMTXSTY
  7
STANDARD
  9
$DIMAUNIT
 70
     0
  9
$DIMADEC
 70
     0
  9
$DIMALTRND
 40
0.0
  9
$DIMAZIN
 70
     0
  9
$DIMDSEP
 70
    46
  9
$DIMATFIT
 70
     3
  9
$DIMFRAC
 70
     0
  9
$DIMLDRBLK
  1

  9
$DIMLUNIT
 70
     2
  9
$DIMLWD
 70
    -2
  9
$DIMLWE
 70
    -2
  9
$DIMTMOVE
 70
     2
  9
$DIMFXL
 40
1.0
  9
$DIMFXLON
 70
     0
  9
$DIMJOGANG
 40
0.7853981633974483
  9
$DIMTFILL
 70
     0
  9
$DIMTFILLCLR
 70
     0
  9
$DIMARCSYM
 70
     0
  9
$DIMLTYPE
  6

  9
$DIMLTEX1
  6

  9
$DIMLTEX2
  6

  9
$DIMTXTDIRECTION
 70
     0
  9
$LUNITS
 70
     2
  9
$LUPREC
 70
     2
  9
$SKETCHINC
 40
1.0
  9
$FILLETRAD
 40
10.0
  9
$AUNITS
 70
     0
  9
$AUPREC
 70
     2
  9
$MENU
  1
.
  9
$ELEVATION
 40
0.0
  9
$PELEVATION
 40
0.0
  9
$THICKNESS
 40
0.0
  9
$LIMCHECK
 70
     0
  9
$CHAMFERA
 40
0.0
  9
$CHAMFERB
 40
0.0
  9
$CHAMFERC
 40
0.0
  9
$CHAMFERD
 40
0.0
  9
$SKPOLY
 70
     0
  9
$TDCREATE
 40
2456737.316419607
  9
$TDUCREATE
 40
2456737.27475294
  9
$TDUPDATE
 40
2458507.489027303
  9
$TDUUPDATE
 40
2458507.447360637
  9
$TDINDWG
 40
0.0070672454
  9
$TDUSRTIMER
 40
0.0053358796
  9
$USRTIMER
 70
     1
  9
$ANGBASE
 50
0.0
  9
$ANGDIR
 70
     0
  9
$PDMODE
 70
     0
  9
$PDSIZE
 40
-1.0
  9
$PLINEWID
 40
0.0
  9
$SPLFRAME
 70
     0
  9
$SPLINETYPE
 70
     6
  9
$SPLINESEGS
 70
     8
  9
$HANDSEED
  5
385
  9
$SURFTAB1
 70
     6
  9
$SURFTAB2
 70
     6
  9
$SURFTYPE
 70
     6
  9
$SURFU
 70
     6
  9
$SURFV
 70
     6
  9
$UCSBASE
  2

  9
$UCSNAME
  2

  9
$UCSORG
 10
0.0
 20
0.0
 30
0.0
  9
$UCSXDIR
 10
1.0
 20
0.0
 30
0.0
  9
$UCSYDIR
 10
0.0
 20
1.0
 30
0.0
  9
$UCSORTHOREF
  2

  9
$UCSORTHOVIEW
 70
     0
  9
$UCSORGTOP
 10
0.0
 20
0.0
 30
0.0
  9
$UCSORGBOTTOM
 10
0.0
 20
0.0
 30
0.0
  9
$UCSORGLEFT
 10
0.0
 20
0.0
 30
0.0
  9
$UCSORGRIGHT
 10
0.0
 20
0.0
 30
0.0
  9
$UCSORGFRONT
 10
0.0
 20
0.0
 30
0.0
  9
$UCSORGBACK
 10
0.0
 20
0.0
 30
0.0
  9
$PUCSBASE
  2

  9
$PUCSNAME
  2

  9
$PUCSORG
 10
0.0
 20
0.0
 30
0.0
  9
$PUCSXDIR
 10
1.0
 20
0.0
 30
0.0
  9
$PUCSYDIR
 10
0.0
 20
1.0
 30
0.0
  9
$PUCSORTHOREF
  2

  9
$PUCSORTHOVIEW
 70
     0
  9
$PUCSORGTOP
 10
0.0
 20
0.0
 30
0.0
  9
$PUCSORGBOTTOM
 10
0.0
 20
0.0
 30
0.0
  9
$PUCSORGLEFT
 10
0.0
 20
0.0
 30
0.0
  9
$PUCSORGRIGHT
 10
0.0
 20
0.0
 30
0.0
  9
$PUCSORGFRONT
 10
0.0
 20
0.0
 30
0.0
  9
$PUCSORGBACK
 10
0.0
 20
0.0
 30
0.0
  9
$USERI1
 70
     0
  9
$USERI2
 70
     0
  9
$USERI3
 70
     0
  9
$USERI4
 70
     0
  9
$USERI5
 70
     0
  9
$USERR1
 40
0.0
  9
$USERR2
 40
0.0
  9
$USERR3
 40
0.0
  9
$USERR4
 40
0.0
  9
$USERR5
 40
0.0
  9
$WORLDVIEW
 70
     1
  9
$SHADEDGE
 70
     3
  9
$SHADEDIF
 70
    70
  9
$TILEMODE
 70
     1
  9
$MAXACTVP
 70
    64
  9
$PINSBASE
 10
0.0
 20
0.0
 30
0.0
  9
$PLIMCHECK
 70
     0
  9
$PEXTMIN
 10
1.000000000000000E+20
 20
1.000000000000000E+20
 30
1.000000000000000E+20
  9
$PEXTMAX
 10
-1.000000000000000E+20
 20
-1.000000000000000E+20
 30
-1.000000000000000E+20
  9
$PLIMMIN
 10
0.0
 20
0.0
  9
$PLIMMAX
 10
0.0
 20
0.0
  9
$UNITMODE
 70
     0
  9
$VISRETAIN
 70
     1
  9
$PLINEGEN
 70
     0
  9
$PSLTSCALE
 70
     1
  9
$TREEDEPTH
 70
  3020
  9
$CMLSTYLE
  2
STANDARD
  9
$CMLJUST
 70
     0
  9
$CMLSCALE
 40
20.0
  9
$PROXYGRAPHICS
 70
     1
  9
$MEASUREMENT
 70
     1
  9
$CELWEIGHT
370
    -1
  9
$ENDCAPS
280
     0
  9
$JOINSTYLE
280
     0
  9
$LWDISPLAY
290
     0
  9
$INSUNITS
 70
     0
  9
$HYPERLINKBASE
  1

  9
$STYLESHEET
  1

  9
$XEDIT
290
     1
  9
$CEPSNTYPE
380
     0
  9
$PSTYLEMODE
290
     1
  9
$FINGERPRINTGUID
  2
{11637EDC-3149-41CA-AAF6-E4F0853919EC}
  9
$VERSIONGUID
  2
{FAEB1C32-E019-11D5-929B-00C0DF256EC4}
  9
$EXTNAMES
290
     1
  9
$PSVPSCALE
 40
0.0
  9
$OLESTARTUP
290
     0
  9
$SORTENTS
280
   127
  9
$INDEXCTL
280
     0
  9
$HIDETEXT
280
     1
  9
$XCLIPFRAME
280
     2
  9
$HALOGAP
280
     0
  9
$OBSCOLOR
 70
   257
  9
$OBSLTYPE
280
     0
  9
$INTERSECTIONDISPLAY
280
     0
  9
$INTERSECTIONCOLOR
 70
   257
  9
$DIMASSOC
280
     2
  9
$PROJECTNAME
  1

  9
$CAMERADISPLAY
290
     0
  9
$LENSLENGTH
 40
50.0
  9
$CAMERAHEIGHT
 40
0.0
  9
$STEPSPERSEC
 40
2.0
  9
$STEPSIZE
 40
6.0
  9
$3DDWFPREC
 40
2.0
  9
$PSOLWIDTH
 40
0.25
  9
$PSOLHEIGHT
 40
4.0
  9
$LOFTANG1
 40
1.570796326794897
  9
$LOFTANG2
 40
1.570796326794897
  9
$LOFTMAG1
 40
0.0
  9
$LOFTMAG2
 40
0.0
  9
$LOFTPARAM
 70
     7
  9
$LOFTNORMALS
280
     1
  9
$LATITUDE
 40
37.795
  9
$LONGITUDE
 40
-122.394
  9
$NORTHDIRECTION
 40
0.0
  9
$TIMEZONE
 70
 -8000
  9
$LIGHTGLYPHDISPLAY
280
     1
  9
$TILEMODELIGHTSYNCH
280
     1
  9
$SOLIDHIST
280
     0
  9
$SHOWHIST
280
     1
  9
$DWFFRAME
280
     2
  9
$DGNFRAME
280
     2
  9
$REALWORLDSCALE
290
     1
  9
$INTERFERECOLOR
 62
   256
  9
$CSHADOW
280
     0
  9
$SHADOWPLANELOCATION
 40
0.0
  0
ENDSEC
  0
SECTION
  2
CLASSES
  0
CLASS
  1
ACDBDICTIONARYWDFLT
  2
AcDbDictionaryWithDefault
  3
ObjectDBX Classes
 90
        0
 91
        5
280
     0
281
     0
  0
CLASS
  1
VISUALSTYLE
  2
AcDbVisualStyle
  3
ObjectDBX Classes
 90
     4095
 91
        5
280
     0
281
     0
  0
CLASS
  1
MATERIAL
  2
AcDbMaterial
  3
ObjectDBX Classes
 90
     1153
 91
        5
280
     0
281
     0
  0
CLASS
  1
SCALE
  2
AcDbScale
  3
ObjectDBX Classes
 90
     1153
 91
        5
280
     0
281
     0
  0
CLASS
  1
SUN
  2
AcDbSun
  3
SCENEOE
 90
     1153
 91
        5
280
     0
281
     0
  0
CLASS
  1
XRECORD
  2
AcDbXrecord
  3
ObjectDBX Classes
 90
        0
 91
        1
280
     0
281
     0
  0
CLASS
  1
LWPOLYLINE
  2
AcDbPolyline
  3
ObjectDBX Classes
 90
        0
 91
        1
280
     0
281
     1
  0
CLASS
  1
HATCH
  2
AcDbHatch
  3
ObjectDBX Classes
 90
        0
 91
        1
280
     0
281
     1
  0
CLASS
  1
DICTIONARYVAR
  2
AcDbDictionaryVar
  3
ObjectDBX Classes
 90
        0
 91
        5
280
     0
281
     0
  0
CLASS
  1
ACDBPLACEHOLDER
  2
AcDbPlaceHolder
  3
ObjectDBX Classes
 90
        0
 91
        1
280
     0
281
     0
  0
CLASS
  1
LAYOUT
  2
AcDbLayout
  3
ObjectDBX Classes
 90
        0
 91
        1
280
     0
281
     0
  0
CLASS
  1
TABLESTYLE
  2
AcDbTableStyle
  3
ObjectDBX Classes
 90
     4095
 91
        5
280
     0
281
     0
  0
CLASS
  1
MLEADERSTYLE
  2
AcDbMLeaderStyle
  3
ACDB_MLEADERSTYLE_CLASS
 90
     4095
 91
        5
280
     0
281
     0
  0
CLASS
  1
CELLSTYLEMAP
  2
AcDbCellStyleMap
  3
ObjectDBX Classes
 90
     1152
 91
        5
280
     0
281
     0
  0
ENDSEC
  0
SECTION
  2
TABLES
  0
TABLE
  2
VPORT
  5
8
330
0
100
AcDbSymbolTable
 70
     1
  0
VPORT
  5
29
330
8
100
AcDbSymbolTableRecord
100
AcDbViewportTableRecord
  2
*ACTIVE
 70
     0
 10
0.0
 20
0.0
 11
1.0
 21
1.0
 12
114.6820791674191
 22
-20.01953983016386
 13
0.0
 23
0.0
 14
10.0
 24
10.0
 15
10.0
 25
10.0
 16
0.0
 26
0.0
 36
1.0
 17
0.0
 27
0.0
 37
0.0
 40
321.2211423514609
 41
1.941903584672435
 42
50.0
 43
0.0
 44
0.0
 50
0.0
 51
0.0
 71
    16
 72
  2000
 73
     1
 74
     3
 75
     0
 76
     0
 77
     0
 78
     0
281
     0
 65
     1
110
0.0
120
0.0
130
0.0
111
1.0
121
0.0
131
0.0
112
0.0
122
1.0
132
0.0
 79
     0
146
0.0
348
24B
 60
     3
 61
     5
292
     1
282
     1
141
0.0
142
0.0
 63
   256
361
30F
  0
ENDTAB
  0
TABLE
  2
LTYPE
  5
5
330
0
100
AcDbSymbolTable
 70
     9
  0
LTYPE
  5
14
330
5
100
AcDbSymbolTableRecord
100
AcDbLinetypeTableRecord
  2
BYBLOCK
 70
     0
  3

 72
    65
 73
     0
 40
0.0
  0
LTYPE
  5
15
330
5
100
AcDbSymbolTableRecord
100
AcDbLinetypeTableRecord
  2
BYLAYER
 70
     0
  3

 72
    65
 73
     0
 40
0.0
  0
LTYPE
  5
16
330
5
100
AcDbSymbolTableRecord
100
AcDbLinetypeTableRecord
  2
CONTINUOUS
 70
     0
  3
Solid line
 72
    65
 73
     0
 40
0.0
  0
LTYPE
  5
6A
330
5
100
AcDbSymbolTableRecord
100
AcDbLinetypeTableRecord
  2
HIDDEN
 70
     0
  3
Hidden __ __ __ __ __ __ __ __ __ __ __ __ __ __
 72
    65
 73
     2
 40
1.905
 49
1.27
 74
     0
 49
-0.635
 74
     0
  0
LTYPE
  5
6B
330
5
100
AcDbSymbolTableRecord
100
AcDbLinetypeTableRecord
  2
PHANTOM
 70
     0
  3
Phantom ______  __  __  ______  __  __  ______
 72
    65
 73
     6
 40
12.7
 49
6.35
 74
     0
 49
-1.27
 74
     0
 49
1.27
 74
     0
 49
-1.27
 74
     0
 49
1.27
 74
     0
 49
-1.27
 74
     0
  0
LTYPE
  5
6C
330
5
100
AcDbSymbolTableRecord
100
AcDbLinetypeTableRecord
  2
CENTER
 70
     0
  3
Center ____ _ ____ _ ____ _ ____ _ ____ _ ____
 72
    65
 73
     4
 40
10.16
 49
6.35
 74
     0
 49
-1.27
 74
     0
 49
1.27
 74
     0
 49
-1.27
 74
     0
  0
LTYPE
  5
6D
330
5
100
AcDbSymbolTableRecord
100
AcDbLinetypeTableRecord
  2
CENTERX2
 70
     0
  3
Center (2x) ________  __  ________  __  _____
 72
    65
 73
     4
 40
20.32
 49
12.7
 74
     0
 49
-2.54
 74
     0
 49
2.54
 74
     0
 49
-2.54
 74
     0
  0
LTYPE
  5
6E
330
5
100
AcDbSymbolTableRecord
100
AcDbLinetypeTableRecord
  2
DOT2
 70
     0
  3
Dot (.5x) ........................................
 72
    65
 73
     2
 40
0.635
 49
0.0
 74
     0
 49
-0.635
 74
     0
  0
LTYPE
  5
2A0
330
5
100
AcDbSymbolTableRecord
100
AcDbLinetypeTableRecord
  2
DASH
 70
     0
  3
DASH _ _ _ _ _
 72
    65
 73
     2
 40
0.75
 49
0.4
 74
     0
 49
-0.35
 74
     0
  0
LTYPE
  5
2A1
330
5
100
AcDbSymbolTableRecord
100
AcDbLinetypeTableRecord
  2
LONGDASH_DASH
 70
     0
  3
LONGDASH_DASH __ . __ . __
 72
    65
 73
     4
 40
0.85
 49
0.4
 74
     0
 49
-0.2
 74
     0
 49
0.05
 74
     0
 49
-0.2
 74
     0
  0
LTYPE
  5
2A2
330
5
100
AcDbSymbolTableRecord
100
AcDbLinetypeTableRecord
  2
LONGDASH_DASH_DASH
 70
     0
  3
LONGDASH_DASH_DASH __ . . __ . . __
 72
    65
 73
     6
 40
1.1
 49
0.4
 74
     0
 49
-0.2
 74
     0
 49
0.05
 74
     0
 49
-0.2
 74
     0
 49
0.05
 74
     0
 49
-0.2
 74
     0
  0
ENDTAB
  0
TABLE
  2
LAYER
  5
2
102
{ACAD_XDICTIONARY
360
2C2
102
}
330
0
100
AcDbSymbolTable
 70
    16
  0
LAYER
  5
25C
330
2
100
AcDbSymbolTableRecord
100
AcDbLayerTableRecord
  2
200
 70
     0
 62
    -2
  6
CONTINUOUS
370
    50
390
2B3
347
25A
348
0
  0
LAYER
  5
25F
330
2
100
AcDbSymbolTableRecord
100
AcDbLayerTableRecord
  2
Defpoints
 70
     0
 62
     7
  6
CONTINUOUS
290
     0
370
    -3
390
2B3
347
25A
348
0
  0
LAYER
  5
2A3
330
2
100
AcDbSymbolTableRecord
100
AcDbLayerTableRecord
  2
0
 70
     0
 62
    -1
  6
CONTINUOUS
370
    -3
390
2B3
347
25A
348
0
  0
LAYER
  5
2A4
330
2
100
AcDbSymbolTableRecord
100
AcDbLayerTableRecord
  2
1
 70
     0
 62
     4
  6
CONTINUOUS
370
    50
390
2B3
347
25A
348
0
  0
LAYER
  5
2A5
330
2
100
AcDbSymbolTableRecord
100
AcDbLayerTableRecord
  2
2
 70
     0
 62
     7
  6
CONTINUOUS
370
    25
390
2B3
347
25A
348
0
  0
LAYER
  5
2A6
330
2
100
AcDbSymbolTableRecord
100
AcDbLayerTableRecord
  2
3
 70
     0
 62
     1
  6
DASH
370
    35
390
2B3
347
25A
348
0
  0
LAYER
  5
2A7
330
2
100
AcDbSymbolTableRecord
100
AcDbLayerTableRecord
  2
4
 70
     0
 62
     2
  6
LONGDASH_DASH
370
    25
390
2B3
347
25A
348
0
  0
LAYER
  5
2A8
330
2
100
AcDbSymbolTableRecord
100
AcDbLayerTableRecord
  2
6
 70
     0
 62
    -5
  6
CONTINUOUS
370
    -3
390
2B3
347
25A
348
0
  0
LAYER
  5
2A9
330
2
100
AcDbSymbolTableRecord
100
AcDbLayerTableRecord
  2
CUT
 70
     0
 62
     1
  6
CONTINUOUS
370
    25
390
2B3
347
25A
348
0
  0
LAYER
  5
2AA
330
2
100
AcDbSymbolTableRecord
100
AcDbLayerTableRecord
  2
NOCUT
 70
     0
 62
     7
  6
CONTINUOUS
370
    25
390
2B3
347
25A
348
0
  0
LAYER
  5
2AB
330
2
100
AcDbSymbolTableRecord
100
AcDbLayerTableRecord
  2
SK1
 70
     0
 62
     4
  6
CONTINUOUS
370
    50
390
2B3
347
25A
348
0
  0
LAYER
  5
2AC
330
2
100
AcDbSymbolTableRecord
100
AcDbLayerTableRecord
  2
SK2
 70
     0
 62
     7
  6
CONTINUOUS
370
    25
390
2B3
347
25A
348
0
  0
LAYER
  5
2AD
330
2
100
AcDbSymbolTableRecord
100
AcDbLayerTableRecord
  2
SK3
 70
     0
 62
     1
  6
DASH
370
    35
390
2B3
347
25A
348
0
  0
LAYER
  5
2AE
330
2
100
AcDbSymbolTableRecord
100
AcDbLayerTableRecord
  2
SK4
 70
     0
 62
     2
  6
LONGDASH_DASH
370
    25
390
2B3
347
25A
348
0
  0
LAYER
  5
2AF
330
2
100
AcDbSymbolTableRecord
100
AcDbLayerTableRecord
  2
SK6
 70
     0
 62
     5
  6
CONTINUOUS
370
    -3
390
2B3
347
25A
348
0
  0
LAYER
  5
2B0
330
2
100
AcDbSymbolTableRecord
100
AcDbLayerTableRecord
  2
INFTOTAL
 70
     0
 62
     9
  6
CONTINUOUS
370
    18
390
2B3
347
25A
348
0
  0
ENDTAB
  0
TABLE
  2
STYLE
  5
3
330
0
100
AcDbSymbolTable
 70
     3
  0
STYLE
  5
11
330
3
100
AcDbSymbolTableRecord
100
AcDbTextStyleTableRecord
  2
STANDARD
 70
     0
 40
0.0
 41
1.0
 50
0.0
 71
     0
 42
3.5
  3
txt
  4

  0
STYLE
  5
76
330
3
100
AcDbSymbolTableRecord
100
AcDbTextStyleTableRecord
  2
SLDTEXTSTYLE0
 70
     0
 40
0.0
 41
0.605
 50
0.0
 71
     0
 42
3.5
  3
TXT
  4

  0
STYLE
  5
25B
330
3
100
AcDbSymbolTableRecord
100
AcDbTextStyleTableRecord
  2
BMG_Text
 70
     0
 40
3.5
 41
1.0
 50
0.0
 71
     0
 42
3.5
  3
monos.ttf
  4

1001
ACAD
1000
Monospac821 BT
1071
       49
  0
ENDTAB
  0
TABLE
  2
VIEW
  5
6
330
0
100
AcDbSymbolTable
 70
     0
  0
ENDTAB
  0
TABLE
  2
UCS
  5
7
330
0
100
AcDbSymbolTable
 70
     0
  0
ENDTAB
  0
TABLE
  2
APPID
  5
9
330
0
100
AcDbSymbolTable
 70
     4
  0
APPID
  5
12
330
9
100
AcDbSymbolTableRecord
100
AcDbRegAppTableRecord
  2
ACAD
 70
     0
  0
APPID
  5
273
330
9
100
AcDbSymbolTableRecord
100
AcDbRegAppTableRecord
  2
ACAD_DSTYLE_DIM_LINETYPE
 70
     0
  0
APPID
  5
274
330
9
100
AcDbSymbolTableRecord
100
AcDbRegAppTableRecord
  2
ACAD_DSTYLE_DIM_EXT1_LINETYPE
 70
     0
  0
APPID
  5
275
330
9
100
AcDbSymbolTableRecord
100
AcDbRegAppTableRecord
  2
ACAD_DSTYLE_DIM_EXT2_LINETYPE
 70
     0
  0
ENDTAB
  0
TABLE
  2
DIMSTYLE
  5
A
330
0
100
AcDbSymbolTable
 70
     2
100
AcDbDimStyleTable
  0
DIMSTYLE
105
27
330
A
100
AcDbSymbolTableRecord
100
AcDbDimStyleTableRecord
  2
ISO-25
 70
     0
 41
2.5
 42
0.625
 43
3.75
 44
1.25
 73
     0
 74
     0
 77
     1
 78
     8
140
2.5
141
2.5
143
0.0393700787
147
0.625
171
     3
172
     1
178
     0
271
     2
272
     2
274
     3
283
     0
284
     8
340
11
  0
DIMSTYLE
105
1F6
102
{ACAD_REACTORS
330
1F5
330
201
330
20C
330
216
102
}
330
A
100
AcDbSymbolTableRecord
100
AcDbDimStyleTableRecord
  2
SLDDIMSTYLE0
 70
     0
 41
3.5
 44
0.0
 45
0.000000001
 73
     0
 74
     0
 77
     1
 78
    12
140
3.5
147
0.875
173
     1
178
     0
271
     2
272
     3
284
    12
340
76
  0
ENDTAB
  0
TABLE
  2
BLOCK_RECORD
  5
1
330
0
100
AcDbSymbolTable
 70
     4
  0
BLOCK_RECORD
  5
1F
330
1
100
AcDbSymbolTableRecord
100
AcDbBlockTableRecord
  2
*MODEL_SPACE
340
244
 70
     0
280
     1
281
     0
  0
BLOCK_RECORD
  5
1B
330
1
100
AcDbSymbolTableRecord
100
AcDbBlockTableRecord
  2
*PAPER_SPACE
340
245
 70
     0
280
     1
281
     0
  0
BLOCK_RECORD
  5
1F7
330
1
100
AcDbSymbolTableRecord
100
AcDbBlockTableRecord
  2
_D
340
0
 70
     0
280
     1
281
     0
  0
BLOCK_RECORD
  5
202
330
1
100
AcDbSymbolTableRecord
100
AcDbBlockTableRecord
  2
_D_1
340
0
 70
     0
280
     1
281
     0
  0
BLOCK_RECORD
  5
20D
330
1
100
AcDbSymbolTableRecord
100
AcDbBlockTableRecord
  2
_D_2
340
0
 70
     0
280
     1
281
     0
  0
BLOCK_RECORD
  5
217
330
1
100
AcDbSymbolTableRecord
100
AcDbBlockTableRecord
  2
_D_3
340
0
 70
     0
280
     1
281
     0
  0
ENDTAB
  0
ENDSEC
  0
SECTION
  2
BLOCKS
  0
BLOCK
  5
20
330
1F
100
AcDbEntity
  8
0
100
AcDbBlockBegin
  2
*MODEL_SPACE
 70
     0
 10
0.0
 20
0.0
 30
0.0
  3
*MODEL_SPACE
  1

  0
ENDBLK
  5
21
330
1F
100
AcDbEntity
  8
0
100
AcDbBlockEnd
  0
BLOCK
  5
1C
330
1B
100
AcDbEntity
 67
     1
  8
0
100
AcDbBlockBegin
  2
*PAPER_SPACE
 70
     0
 10
0.0
 20
0.0
 30
0.0
  3
*PAPER_SPACE
  1

  0
ENDBLK
  5
1D
330
1B
100
AcDbEntity
 67
     1
  8
0
100
AcDbBlockEnd
  0
BLOCK
  5
1F8
330
1F7
100
AcDbEntity
  8
0
100
AcDbBlockBegin
  2
_D
 70
     0
 10
0.0
 20
0.0
 30
0.0
  3
_D
  1
_D
  0
LINE
  5
1FA
330
1F7
100
AcDbEntity
  8
SK2
  6
ByBlock
370
    -2
100
AcDbLine
 10
-44.0624997616
 20
23.0000000447
 30
0.0
 11
-58.324944767
 21
23.0000000447
 31
0.0
  0
LINE
  5
1FB
330
1F7
100
AcDbEntity
  8
SK2
  6
ByBlock
370
    -2
100
AcDbLine
 10
-44.0624997616
 20
-23.0000000447
 30
0.0
 11
-58.324944767
 21
-23.0000000447
 31
0.0
  0
LINE
  5
1FC
330
1F7
100
AcDbEntity
  8
SK2
  6
ByBlock
370
    -2
100
AcDbLine
 10
-58.324944767
 20
19.5000000447
 30
0.0
 11
-58.324944767
 21
-19.5000000447
 31
0.0
  0
SOLID
  5
1FD
330
1F7
100
AcDbEntity
  8
SK2
100
AcDbTrace
 10
-57.74161143366666
 20
19.5000000447
 30
0.0
 11
-58.90827810033333
 21
19.5000000447
 31
0.0
 12
-58.324944767
 22
23.0000000447
 32
0.0
 13
-58.324944767
 23
23.0000000447
 33
0.0
  0
SOLID
  5
1FE
330
1F7
100
AcDbEntity
  8
SK2
100
AcDbTrace
 10
-58.90827810033333
 20
-19.5000000447
 30
0.0
 11
-57.74161143366666
 21
-19.5000000447
 31
0.0
 12
-58.324944767
 22
-23.0000000447
 32
0.0
 13
-58.324944767
 23
-23.0000000447
 33
0.0
  0
MTEXT
  5
1FF
330
1F7
100
AcDbEntity
  8
SK2
100
AcDbMText
 10
-61.061944767
 20
0.0
 30
0.0
 40
3.5
 41
0.0
 46
0.0
 71
     5
 72
     1
  1
\A1;%%c46
  7
BMG_Text
 11
0.0
 21
1.0
 31
0.0
 73
     1
 44
1.0
  0
POINT
  5
200
330
1F7
100
AcDbEntity
  8
Defpoints
 62
     0
100
AcDbPoint
 10
-43.9999997616
 20
23.0000000447
 30
0.0
  0
POINT
  5
260
330
1F7
100
AcDbEntity
  8
Defpoints
 62
     0
100
AcDbPoint
 10
-43.9999997616
 20
-23.0000000447
 30
0.0
  0
POINT
  5
261
330
1F7
100
AcDbEntity
  8
Defpoints
 62
     0
100
AcDbPoint
 10
-58.324944767
 20
-23.0000000447
 30
0.0
  0
ENDBLK
  5
1F9
330
1F7
100
AcDbEntity
  8
0
100
AcDbBlockEnd
  0
BLOCK
  5
203
330
202
100
AcDbEntity
  8
0
100
AcDbBlockBegin
  2
_D_1
 70
     0
 10
0.0
 20
0.0
 30
0.0
  3
_D_1
  1
_D_1
  0
LINE
  5
205
330
202
100
AcDbEntity
  8
2
  6
Continuous
370
    -2
100
AcDbLine
 10
0.932500010139483
 20
45.00001140243224
 30
0.0
 11
-66.68684847389228
 21
45.01041324067279
 31
0.0
  0
LINE
  5
206
330
202
100
AcDbEntity
  8
2
  6
Continuous
370
    -2
100
AcDbLine
 10
0.932500010139483
 20
-44.99999217376776
 30
0.0
 11
-66.70069311270771
 21
-44.98958820581586
 31
0.0
  0
LINE
  5
207
330
202
100
AcDbEntity
  8
2
  6
Continuous
370
    -2
100
AcDbLine
 10
-66.68738687649785
 20
41.51041328208385
 30
0.0
 11
-66.70015471010214
 21
-41.48958824722692
 31
0.0
  0
SOLID
  5
208
330
202
100
AcDbEntity
  8
2
100
AcDbTrace
 10
-66.10405355006637
 20
41.51032354831625
 30
0.0
 11
-67.27072020292934
 21
41.51050301585144
 31
0.0
 12
-66.68684847389228
 22
45.01041324067279
 32
0.0
 13
-66.68684847389228
 23
45.01041324067279
 33
0.0
  0
SOLID
  5
209
330
202
100
AcDbEntity
  8
2
100
AcDbTrace
 10
-67.28348803653363
 20
-41.48949851345932
 30
0.0
 11
-66.11682138367065
 21
-41.48967798099451
 31
0.0
 12
-66.70069311270771
 22
-44.98958820581586
 32
0.0
 13
-66.70069311270771
 23
-44.98958820581586
 33
0.0
  0
MTEXT
  5
20A
330
202
100
AcDbEntity
  8
2
370
    25
100
AcDbMText
 10
-69.43077076091656
 20
0.0108335482375608
 30
0.0
 40
3.5
 41
0.0
 46
0.0
 71
     5
 72
     1
  1
\A1;%%c90
  7
BMG_Text
 11
0.0001538293158789942
 21
0.9999999881682707
 31
0.0
 73
     1
 44
1.0
  0
POINT
  5
20B
330
202
100
AcDbEntity
  8
Defpoints
 62
     0
100
AcDbPoint
 10
0.9950000094
 20
45.0000017881
 30
0.0
  0
POINT
  5
262
330
202
100
AcDbEntity
  8
Defpoints
 62
     0
100
AcDbPoint
 10
0.9950000094
 20
-45.0000017881
 30
0.0
  0
POINT
  5
263
330
202
100
AcDbEntity
  8
Defpoints
 62
     0
100
AcDbPoint
 10
-66.70069311270771
 20
-44.98958820581586
 30
0.0
  0
ENDBLK
  5
204
330
202
100
AcDbEntity
  8
0
100
AcDbBlockEnd
  0
BLOCK
  5
20E
330
20D
100
AcDbEntity
  8
0
100
AcDbBlockBegin
  2
_D_2
 70
     0
 10
0.0
 20
0.0
 30
0.0
  3
_D_2
  1
_D_2
  0
LINE
  5
210
330
20D
100
AcDbEntity
  8
2
  6
Continuous
370
    -2
100
AcDbLine
 10
87.0000008829
 20
48.2624980677
 30
0.0
 11
87.0000008829
 21
58.396739138
 31
0.0
  0
LINE
  5
211
330
20D
100
AcDbEntity
  8
2
  6
Continuous
370
    -2
100
AcDbLine
 10
0.0
 20
44.0674991012
 30
0.0
 11
0.0
 21
58.396739138
 31
0.0
  0
LINE
  5
212
330
20D
100
AcDbEntity
  8
2
  6
Continuous
370
    -2
100
AcDbLine
 10
83.5000008829
 20
58.396739138
 30
0.0
 11
3.5
 21
58.396739138
 31
0.0
  0
SOLID
  5
213
330
20D
100
AcDbEntity
  8
2
100
AcDbTrace
 10
83.5000008829
 20
57.81340580466667
 30
0.0
 11
83.5000008829
 21
58.98007247133334
 31
0.0
 12
87.0000008829
 22
58.396739138
 32
0.0
 13
87.0000008829
 23
58.396739138
 33
0.0
  0
SOLID
  5
214
330
20D
100
AcDbEntity
  8
2
100
AcDbTrace
 10
3.5
 20
58.98007247133334
 30
0.0
 11
3.5
 21
57.81340580466667
 31
0.0
 12
0.0
 22
58.396739138
 32
0.0
 13
0.0
 23
58.396739138
 33
0.0
  0
MTEXT
  5
215
330
20D
100
AcDbEntity
  8
2
370
    25
100
AcDbMText
 10
43.5000004415
 20
61.082989138
 30
0.0
 40
3.5
 41
0.0
 46
0.0
 71
     5
 72
     1
  1
\A1;87
  7
BMG_Text
 73
     1
 44
1.0
  0
POINT
  5
264
330
20D
100
AcDbEntity
  8
Defpoints
 62
     0
100
AcDbPoint
 10
87.0000008829
 20
48.1999980677
 30
0.0
  0
POINT
  5
265
330
20D
100
AcDbEntity
  8
Defpoints
 62
     0
100
AcDbPoint
 10
0.0
 20
44.0049991012
 30
0.0
  0
POINT
  5
266
330
20D
100
AcDbEntity
  8
Defpoints
 62
     0
100
AcDbPoint
 10
0.0
 20
58.396739138
 30
0.0
  0
ENDBLK
  5
20F
330
20D
100
AcDbEntity
  8
0
100
AcDbBlockEnd
  0
BLOCK
  5
218
330
217
100
AcDbEntity
  8
0
100
AcDbBlockBegin
  2
_D_3
 70
     0
 10
0.0
 20
0.0
 30
0.0
  3
_D_3
  1
_D_3
  0
LINE
  5
21A
330
217
100
AcDbEntity
  8
2
  6
Continuous
370
    -2
100
AcDbLine
 10
86.1235819478
 20
48.98784751968748
 30
0.0
 11
98.15263989265728
 21
48.98784745953778
 31
0.0
  0
LINE
  5
21B
330
217
100
AcDbEntity
  8
2
  6
Continuous
370
    -2
100
AcDbLine
 10
86.1235814579
 20
-48.98784620161253
 30
0.0
 11
98.15263940274271
 21
-48.98784626176224
 31
0.0
  0
LINE
  5
21C
330
217
100
AcDbEntity
  8
2
  6
Continuous
370
    -2
100
AcDbLine
 10
98.15263987515598
 20
45.48784745953778
 30
0.0
 11
98.152639420244
 21
-45.48784626176224
 31
0.0
  0
SOLID
  5
21D
330
217
100
AcDbEntity
  8
2
100
AcDbTrace
 10
98.73597320848931
 20
45.48784745662089
 30
0.0
 11
97.56930654182266
 21
45.48784746245466
 31
0.0
 12
98.15263989265728
 22
48.98784745953778
 32
0.0
 13
98.15263989265728
 23
48.98784745953778
 33
0.0
  0
SOLID
  5
21E
330
217
100
AcDbEntity
  8
2
100
AcDbTrace
 10
97.56930608691067
 20
-45.48784625884535
 30
0.0
 11
98.73597275357733
 21
-45.48784626467912
 31
0.0
 12
98.15263940274271
 22
-48.98784626176224
 32
0.0
 13
98.15263940274271
 23
-48.98784626176224
 33
0.0
  0
MTEXT
  5
21F
330
217
100
AcDbEntity
  8
2
370
    25
100
AcDbMText
 10
95.4156396477
 20
0.0000006125860085
 30
0.0
 40
3.5
 41
0.0
 46
0.0
 71
     5
 72
     1
  1
\A1;%%c98 - 153
  7
BMG_Text
 11
5.000368466394326E-9
 21
1.0
 31
0.0
 73
     1
 44
1.0
  0
POINT
  5
220
330
217
100
AcDbEntity
  8
Defpoints
 62
     0
100
AcDbPoint
 10
86.0610819478
 20
48.98784752
 30
0.0
  0
POINT
  5
267
330
217
100
AcDbEntity
  8
Defpoints
 62
     0
100
AcDbPoint
 10
86.0610814579
 20
-48.9878462013
 30
0.0
  0
POINT
  5
268
330
217
100
AcDbEntity
  8
Defpoints
 62
     0
100
AcDbPoint
 10
98.15263940274271
 20
-48.98784626176225
 30
0.0
  0
ENDBLK
  5
219
330
217
100
AcDbEntity
  8
0
100
AcDbBlockEnd
  0
ENDSEC
  0
SECTION
  2
ENTITIES
  0
LINE
  5
75
330
1F
100
AcDbEntity
  8
1
100
AcDbLine
 10
0.0
 20
-44.0049991012
 30
0.0
 11
0.0
 21
-22.2549208214
 31
0.0
  0
MTEXT
  5
77
330
1F
100
AcDbEntity
  8
SK6
  6
Continuous
370
    35
100
AcDbMText
 10
-29.58602286585353
 20
-27.22872256097563
 30
0.0
 40
3.5
 41
0.0
 46
0.0
 71
     1
 72
     1
  1
319.705N
  7
BMG_Text
 73
     1
 44
1.0
  0
LINE
  5
78
330
1F
100
AcDbEntity
  8
1
100
AcDbLine
 10
0.0
 20
44.0049991012
 30
0.0
 11
0.9950000094
 21
45.0000017881
 31
0.0
  0
LINE
  5
79
330
1F
100
AcDbEntity
  8
1
100
AcDbLine
 10
0.9950000094
 20
45.0000017881
 30
0.0
 11
26.7377104609
 21
44.9960418045
 31
0.0
  0
LINE
  5
7A
330
1F
100
AcDbEntity
  8
1
100
AcDbLine
 10
0.0
 20
-44.0049991012
 30
0.0
 11
0.9950000094
 21
-45.0000017881
 31
0.0
  0
LINE
  5
7B
330
1F
100
AcDbEntity
  8
1
100
AcDbLine
 10
53.0
 20
-45.0344860768
 30
0.0
 11
53.0
 21
44.8201596737
 31
0.0
  0
LINE
  5
7C
330
1F
100
AcDbEntity
  8
1
100
AcDbLine
 10
0.9950000094
 20
-45.0000017881
 30
0.0
 11
26.7095339236
 21
-45.0039574373
 31
0.0
  0
LINE
  5
7D
330
1F
100
AcDbEntity
  8
SK1
  6
Continuous
370
    50
100
AcDbLine
 10
-43.9999997616
 20
23.0000000447
 30
0.0
 11
-46.6688238085
 21
22.6249210536
 31
0.0
  0
LINE
  5
7E
330
1F
100
AcDbEntity
  8
SK1
  6
Continuous
370
    50
100
AcDbLine
 10
-46.6688238085
 20
-22.6249210537
 30
0.0
 11
-43.9999997616
 21
-23.0000000447
 31
0.0
  0
LINE
  5
7F
330
1F
100
AcDbEntity
  8
SK1
  6
Continuous
370
    50
100
AcDbLine
 10
-2.5880471804
 20
23.0000000447
 30
0.0
 11
-43.9999997616
 21
23.0000000447
 31
0.0
  0
LINE
  5
80
330
1F
100
AcDbEntity
  8
SK1
  6
Continuous
370
    50
100
AcDbLine
 10
-43.9999997616
 20
-23.0000000447
 30
0.0
 11
-2.5880471804
 21
-23.0000000447
 31
0.0
  0
LINE
  5
81
330
1F
100
AcDbEntity
  8
SK1
  6
Continuous
370
    50
100
AcDbLine
 10
-2.5880471804
 20
-23.0000000447
 30
0.0
 11
0.0
 21
-22.2549208214
 31
0.0
  0
LINE
  5
82
330
1F
100
AcDbEntity
  8
SK1
  6
Continuous
370
    50
100
AcDbLine
 10
0.0
 20
22.3227145885
 30
0.0
 11
-2.5880471804
 21
23.0000000447
 31
0.0
  0
LINE
  5
83
330
1F
100
AcDbEntity
  8
SK1
  6
Continuous
370
    50
100
AcDbLine
 10
-48.5791866215
 20
-22.9617693036
 30
0.0
 11
-46.6688238085
 21
-22.6249210537
 31
0.0
  0
LINE
  5
84
330
1F
100
AcDbEntity
  8
SK1
  6
Continuous
370
    50
100
AcDbLine
 10
-46.6688238085
 20
22.6249210536
 30
0.0
 11
-48.5791867756
 21
22.9617693308
 31
0.0
  0
LINE
  5
85
330
1F
100
AcDbEntity
  8
SK1
  6
Continuous
370
    50
100
AcDbLine
 10
-49.8267949192
 20
22.38
 30
0.0
 11
-49.9992482364
 21
22.0813043416
 31
0.0
  0
LINE
  5
86
330
1F
100
AcDbEntity
  8
SK1
  6
Continuous
370
    50
100
AcDbLine
 10
-49.9992482364
 20
-22.0813043416
 30
0.0
 11
-49.8267949192
 21
-22.38
 31
0.0
  0
LINE
  5
87
330
1F
100
AcDbEntity
  8
4
100
AcDbLine
 10
-0.0000000000000071
 20
-0.0000000447
 30
0.0
 11
93.52866038710002
 21
-0.0000000447
 31
0.0
  0
LINE
  5
88
330
1F
100
AcDbEntity
  8
1
100
AcDbLine
 10
0.0
 20
-22.2549208214
 30
0.0
 11
0.0
 21
0.0
 31
0.0
  0
LINE
  5
89
330
1F
100
AcDbEntity
  8
1
100
AcDbLine
 10
39.9998005112
 20
39.5002839216
 30
0.0
 11
53.0
 21
39.5002839216
 31
0.0
  0
LINE
  5
8A
330
1F
100
AcDbEntity
  8
1
100
AcDbLine
 10
69.3000056864
 20
37.5000022841
 30
0.0
 11
53.0
 21
37.4916084095
 31
0.0
  0
LINE
  5
8B
330
1F
100
AcDbEntity
  8
1
100
AcDbLine
 10
70.3000002485
 20
36.5000002714
 30
0.0
 11
69.7929435492
 21
37.0070569707
 31
0.0
  0
LINE
  5
8C
330
1F
100
AcDbEntity
  8
1
100
AcDbLine
 10
69.7929435492
 20
37.0070569707
 30
0.0
 11
69.3000056864
 21
37.5000022841
 31
0.0
  0
LINE
  5
8D
330
1F
100
AcDbEntity
  8
1
100
AcDbLine
 10
70.3000002485
 20
27.0000015082
 30
0.0
 11
70.3000002485
 21
36.5000002714
 31
0.0
  0
LINE
  5
8E
330
1F
100
AcDbEntity
  8
1
100
AcDbLine
 10
70.3000002485
 20
27.0000015082
 30
0.0
 11
53.0
 21
26.9815751963
 31
0.0
  0
LINE
  5
8F
330
1F
100
AcDbEntity
  8
1
100
AcDbLine
 10
53.0
 20
-27.0000004114
 30
0.0
 11
67.1904687262
 21
-27.0000004114
 31
0.0
  0
LINE
  5
90
330
1F
100
AcDbEntity
  8
1
100
AcDbLine
 10
67.1904687262
 20
-27.0000004114
 30
0.0
 11
67.1904687262
 21
-44.999554464
 31
0.0
  0
LINE
  5
91
330
1F
100
AcDbEntity
  8
1
100
AcDbLine
 10
67.1904687262
 20
-44.999554464
 30
0.0
 11
53.0
 21
-45.0344860768
 31
0.0
  0
LINE
  5
92
330
1F
100
AcDbEntity
  8
1
100
AcDbLine
 10
85.2727966416
 20
-47.987101629
 30
0.0
 11
85.2696448564
 21
-47.9837395251
 31
0.0
  0
LINE
  5
93
330
1F
100
AcDbEntity
  8
1
100
AcDbLine
 10
74.5347069609
 20
-46.0854154375
 30
0.0
 11
74.5460541952
 21
-46.0874270942
 31
0.0
  0
LINE
  5
94
330
1F
100
AcDbEntity
  8
1
100
AcDbLine
 10
74.5460541952
 20
-46.0874270942
 30
0.0
 11
85.2727966416
 21
-47.987101629
 31
0.0
  0
LINE
  5
95
330
1F
100
AcDbEntity
  8
1
100
AcDbLine
 10
74.5347069609
 20
-46.2637637105
 30
0.0
 11
74.5347069609
 21
-46.0854154375
 31
0.0
  0
LINE
  5
96
330
1F
100
AcDbEntity
  8
1
100
AcDbLine
 10
74.3638043557
 20
-46.264419826
 30
0.0
 11
67.1904687262
 21
-44.999554464
 31
0.0
  0
LINE
  5
97
330
1F
100
AcDbEntity
  8
1
100
AcDbLine
 10
67.1904687262
 20
-27.0000004114
 30
0.0
 11
72.9357976891
 21
-28.6566109301
 31
0.0
  0
LINE
  5
98
330
1F
100
AcDbEntity
  8
1
100
AcDbLine
 10
72.9357976891
 20
-28.6566109301
 30
0.0
 11
81.0974765997
 21
-30.9145503583
 31
0.0
  0
LINE
  5
99
330
1F
100
AcDbEntity
  8
1
100
AcDbLine
 10
81.0974765997
 20
2.0502651961
 30
0.0
 11
81.0974765997
 21
-30.9145503583
 31
0.0
  0
LINE
  5
9A
330
1F
100
AcDbEntity
  8
1
100
AcDbLine
 10
83.1007137369
 20
-1.4194373656
 30
0.0
 11
83.1007137369
 21
-32.2819330988
 31
0.0
  0
LINE
  5
9B
330
1F
100
AcDbEntity
  8
1
100
AcDbLine
 10
83.1007137369
 20
-32.2819330988
 30
0.0
 11
83.0821320414
 21
-32.5207710266
 31
0.0
  0
LINE
  5
9C
330
1F
100
AcDbEntity
  8
1
100
AcDbLine
 10
83.0821320414
 20
-32.5207710266
 30
0.0
 11
83.0391943454
 21
-32.6693430543
 31
0.0
  0
LINE
  5
9D
330
1F
100
AcDbEntity
  8
1
100
AcDbLine
 10
83.0391943454
 20
-32.6693430543
 30
0.0
 11
82.9822719097
 21
-32.7610932291
 31
0.0
  0
LINE
  5
9E
330
1F
100
AcDbEntity
  8
1
100
AcDbLine
 10
82.9822719097
 20
-32.7610932291
 30
0.0
 11
82.9065293073
 21
-32.8202359378
 31
0.0
  0
LINE
  5
9F
330
1F
100
AcDbEntity
  8
1
100
AcDbLine
 10
82.9065293073
 20
-32.8202359378
 30
0.0
 11
82.8035548329
 21
-32.8440666199
 31
0.0
  0
LINE
  5
A0
330
1F
100
AcDbEntity
  8
1
100
AcDbLine
 10
82.8035548329
 20
-32.8440666199
 30
0.0
 11
82.6436281204
 21
-32.8077413142
 31
0.0
  0
LINE
  5
A1
330
1F
100
AcDbEntity
  8
1
100
AcDbLine
 10
82.6436281204
 20
-32.8077413142
 30
0.0
 11
82.3666006326
 21
-32.6132141054
 31
0.0
  0
LINE
  5
A2
330
1F
100
AcDbEntity
  8
1
100
AcDbLine
 10
82.3666006326
 20
-32.6132141054
 30
0.0
 11
82.1113261745
 21
-32.3214576118
 31
0.0
  0
LINE
  5
A3
330
1F
100
AcDbEntity
  8
1
100
AcDbLine
 10
83.1007137369
 20
-1.4194373656
 30
0.0
 11
81.0974765997
 21
2.0502651961
 31
0.0
  0
LINE
  5
A4
330
1F
100
AcDbEntity
  8
1
100
AcDbLine
 10
70.3000002485
 20
23.431536618
 30
0.0
 11
70.3000002485
 21
27.0000015082
 31
0.0
  0
LINE
  5
A5
330
1F
100
AcDbEntity
  8
1
100
AcDbLine
 10
81.0974765997
 20
2.0502651961
 30
0.0
 11
71.6397463496
 21
18.4315356033
 31
0.0
  0
LINE
  5
A6
330
1F
100
AcDbEntity
  8
1
100
AcDbLine
 10
83.8253200054
 20
-2.6745044161
 30
0.0
 11
83.8253200054
 21
-19.5000004023
 31
0.0
  0
LINE
  5
A7
330
1F
100
AcDbEntity
  8
1
100
AcDbLine
 10
86.1533788173
 20
-19.5
 30
0.0
 11
86.1533805728
 21
-6.7068203352
 31
0.0
  0
LINE
  5
A8
330
1F
100
AcDbEntity
  8
1
100
AcDbLine
 10
86.1533805728
 20
-6.7068203352
 30
0.0
 11
86.6499990225
 21
-7.5669870712
 31
0.0
  0
LINE
  5
A9
330
1F
100
AcDbEntity
  8
1
100
AcDbLine
 10
86.6499990225
 20
-7.5669870712
 30
0.0
 11
86.650004476
 21
-36.264972445
 31
0.0
  0
LINE
  5
AA
330
1F
100
AcDbEntity
  8
1
100
AcDbLine
 10
86.650004476
 20
-36.264972445
 30
0.0
 11
86.4923501905
 21
-36.4105977681
 31
0.0
  0
LINE
  5
AB
330
1F
100
AcDbEntity
  8
1
100
AcDbLine
 10
86.2085650262
 20
-36.3603026238
 30
0.0
 11
86.4923501905
 21
-36.4105977681
 31
0.0
  0
LINE
  5
AC
330
1F
100
AcDbEntity
  8
1
100
AcDbLine
 10
86.2085650262
 20
-47.1971122732
 30
0.0
 11
86.2085650262
 21
-36.3603026238
 31
0.0
  0
LINE
  5
AD
330
1F
100
AcDbEntity
  8
1
100
AcDbLine
 10
86.2085650262
 20
-47.1971122732
 30
0.0
 11
86.2085356734
 21
-47.2026623893
 31
0.0
  0
LINE
  5
AE
330
1F
100
AcDbEntity
  8
1
100
AcDbLine
 10
83.1007137369
 20
-1.4194373656
 30
0.0
 11
83.8253200054
 21
-2.6745044161
 31
0.0
  0
LINE
  5
AF
330
1F
100
AcDbEntity
  8
1
100
AcDbLine
 10
83.8253200054
 20
-2.6745044161
 30
0.0
 11
86.1533805728
 21
-6.7068203352
 31
0.0
  0
LINE
  5
B0
330
1F
100
AcDbEntity
  8
CUT
100
AcDbLine
 10
87.0
 20
-36.928764607
 30
0.0
 11
87.0
 21
-48.1999999989
 31
0.0
  0
LINE
  5
B1
330
1F
100
AcDbEntity
  8
CUT
100
AcDbLine
 10
86.4155454901
 20
-48.1999999989
 30
0.0
 11
86.4155454901
 21
-36.928764607
 31
0.0
  0
LINE
  5
B2
330
1F
100
AcDbEntity
  8
CUT
100
AcDbLine
 10
86.2374290816
 20
-36.7164937372
 30
0.0
 11
86.2085595727
 21
-36.7114022374
 31
0.0
  0
LINE
  5
B3
330
1F
100
AcDbEntity
  8
CUT
100
AcDbLine
 10
75.0625729561
 20
-46.4550405741
 30
0.0
 11
86.1625709184
 21
-48.4122708687
 31
0.0
  0
LINE
  5
B4
330
1F
100
AcDbEntity
  8
CUT
100
AcDbLine
 10
74.8844526007
 20
-46.1473682819
 30
0.0
 11
74.8844551849
 21
-46.2427699466
 31
0.0
  0
LINE
  5
B5
330
1F
100
AcDbEntity
  8
CUT
100
AcDbLine
 10
86.0610814579
 20
-48.9878462013
 30
0.0
 11
74.9610811472
 21
-47.0306165516
 31
0.0
  0
LINE
  5
B7
330
1F
100
AcDbEntity
  8
CUT
  6
Continuous
100
AcDbLine
 10
86.0610819478
 20
48.98784752
 30
0.0
 11
74.9610806254
 21
47.0306174139
 31
0.0
  0
LINE
  5
B8
330
1F
100
AcDbEntity
  8
CUT
  6
Continuous
100
AcDbLine
 10
86.9999983795
 20
36.9287635445
 30
0.0
 11
87.0000008829
 21
48.1999980677
 31
0.0
  0
LINE
  5
BA
330
1F
100
AcDbEntity
  8
1
100
AcDbLine
 10
76.957001141
 20
41.355766356
 30
0.0
 11
76.973273209
 21
41.0186201334
 31
0.0
  0
LINE
  5
BB
330
1F
100
AcDbEntity
  8
1
100
AcDbLine
 10
67.1904683113
 20
44.9995547533
 30
0.0
 11
53.0
 21
44.8201596737
 31
0.0
  0
LINE
  5
BC
330
1F
100
AcDbEntity
  8
1
100
AcDbLine
 10
74.29884920122154
 20
46.242770513
 30
0.0
 11
67.1904683113
 21
44.9995547533
 31
0.0
  0
LINE
  5
BD
330
1F
100
AcDbEntity
  8
1
100
AcDbLine
 10
73.31328094
 20
36.8870906532
 30
0.0
 11
74.2999985814
 21
38.0630157888
 31
0.0
  0
LINE
  5
BE
330
1F
100
AcDbEntity
  8
1
100
AcDbLine
 10
78.2834291458
 20
34.7205176949
 30
0.0
 11
77.2967155521
 21
33.5445968224
 31
0.0
  0
LINE
  5
C0
330
1F
100
AcDbEntity
  8
1
100
AcDbLine
 10
86.6499990225
 20
7.5669870712
 30
0.0
 11
86.6499990225
 21
36.14091770607385
 31
0.0
  0
LINE
  5
C1
330
1F
100
AcDbEntity
  8
1
100
AcDbLine
 10
83.2000002265
 20
1.5914120013
 30
0.0
 11
86.6499990225
 21
7.5669870712
 31
0.0
  0
LINE
  5
C3
330
1F
100
AcDbEntity
  8
1
100
AcDbLine
 10
31.3999988138
 20
44.8201596737
 30
0.0
 11
53.0
 21
44.8201596737
 31
0.0
  0
LINE
  5
C4
330
1F
100
AcDbEntity
  8
1
100
AcDbLine
 10
26.7044231295
 20
44.9951775372
 30
0.0
 11
26.694567874
 21
44.9940301478
 31
0.0
  0
LINE
  5
C5
330
1F
100
AcDbEntity
  8
1
100
AcDbLine
 10
26.694567874
 20
44.9940301478
 30
0.0
 11
26.738807559
 21
44.9899509549
 31
0.0
  0
LINE
  5
C6
330
1F
100
AcDbEntity
  8
1
100
AcDbLine
 10
31.3999988138
 20
-44.8201596737
 30
0.0
 11
53.0
 21
-44.7905418407
 31
0.0
  0
LINE
  5
C7
330
1F
100
AcDbEntity
  8
1
100
AcDbLine
 10
26.7377104609
 20
-44.9960418045
 30
0.0
 11
26.7201345414
 21
-44.9970066547
 31
0.0
  0
LINE
  5
C8
330
1F
100
AcDbEntity
  8
1
100
AcDbLine
 10
26.7201345414
 20
-44.9970066547
 30
0.0
 11
26.7095342278
 21
-44.9957698584
 31
0.0
  0
LINE
  5
C9
330
1F
100
AcDbEntity
  8
SK1
  6
Continuous
370
    50
100
AcDbLine
 10
-46.6688238085
 20
-22.6249210537
 30
0.0
 11
-46.6688238085
 21
22.6249210536
 31
0.0
  0
LINE
  5
CA
330
1F
100
AcDbEntity
  8
SK1
  6
Continuous
370
    50
100
AcDbLine
 10
-43.9999997616
 20
-22.8124605492
 30
0.0
 11
-43.9999997616
 21
23.0000000447
 31
0.0
  0
LINE
  5
CB
330
1F
100
AcDbEntity
  8
SK1
  6
Continuous
370
    50
100
AcDbLine
 10
-2.5880471804
 20
-23.0000000447
 30
0.0
 11
-2.5880471804
 21
23.0000000447
 31
0.0
  0
LINE
  5
CC
330
1F
100
AcDbEntity
  8
SK1
  6
Continuous
370
    50
100
AcDbLine
 10
-49.9992482364
 20
-22.0813043416
 30
0.0
 11
-49.9992482364
 21
22.0813043416
 31
0.0
  0
LINE
  5
CD
330
1F
100
AcDbEntity
  8
SK1
  6
Continuous
370
    50
100
AcDbLine
 10
-50.0000007451
 20
0.0
 30
0.0
 11
-50.0
 21
22.0425
 31
0.0
  0
LINE
  5
CE
330
1F
100
AcDbEntity
  8
SK1
  6
Continuous
370
    50
100
AcDbLine
 10
-50.0
 20
-22.0425
 30
0.0
 11
-50.0000007451
 21
0.0
 31
0.0
  0
LINE
  5
CF
330
1F
100
AcDbEntity
  8
1
100
AcDbLine
 10
26.7376694828
 20
44.9921041727
 30
0.0
 11
26.7377104609
 21
44.9960418045
 31
0.0
  0
LINE
  5
D0
330
1F
100
AcDbEntity
  8
1
100
AcDbLine
 10
26.7376694828
 20
44.9921041727
 30
0.0
 11
26.7382580787
 21
44.9909903109
 31
0.0
  0
LINE
  5
D1
330
1F
100
AcDbEntity
  8
1
100
AcDbLine
 10
85.2696448564
 20
-47.9837395251
 30
0.0
 11
85.1095318794
 21
-47.7869994938
 31
0.0
  0
LINE
  5
D2
330
1F
100
AcDbEntity
  8
1
100
AcDbLine
 10
85.1095318794
 20
-47.7869994938
 30
0.0
 11
84.784604609
 21
-47.2292900085
 31
0.0
  0
LINE
  5
D3
330
1F
100
AcDbEntity
  8
1
100
AcDbLine
 10
84.784604609
 20
-47.2292900085
 30
0.0
 11
84.4641551375
 21
-46.4652441442
 31
0.0
  0
LINE
  5
D4
330
1F
100
AcDbEntity
  8
1
100
AcDbLine
 10
84.4641551375
 20
-46.4652441442
 30
0.0
 11
84.0637534857
 21
-45.1916754246
 31
0.0
  0
LINE
  5
D5
330
1F
100
AcDbEntity
  8
1
100
AcDbLine
 10
84.0637534857
 20
-45.1916754246
 30
0.0
 11
83.6744084954
 21
-43.5896255076
 31
0.0
  0
LINE
  5
D6
330
1F
100
AcDbEntity
  8
1
100
AcDbLine
 10
83.6744084954
 20
-43.5896255076
 30
0.0
 11
83.3001807332
 21
-41.6773892939
 31
0.0
  0
LINE
  5
D7
330
1F
100
AcDbEntity
  8
1
100
AcDbLine
 10
83.3001807332
 20
-41.6773892939
 30
0.0
 11
82.9451233148
 21
-39.4732728601
 31
0.0
  0
LINE
  5
D8
330
1F
100
AcDbEntity
  8
1
100
AcDbLine
 10
82.9451233148
 20
-39.4732728601
 30
0.0
 11
82.6493352651
 21
-37.2936986387
 31
0.0
  0
LINE
  5
D9
330
1F
100
AcDbEntity
  8
1
100
AcDbLine
 10
82.6493352651
 20
-37.2936986387
 30
0.0
 11
82.3706313967
 21
-34.9032245576
 31
0.0
  0
LINE
  5
DA
330
1F
100
AcDbEntity
  8
1
100
AcDbLine
 10
82.3706313967
 20
-34.9032245576
 30
0.0
 11
82.1113261745
 21
-32.3214576118
 31
0.0
  0
LINE
  5
DB
330
1F
100
AcDbEntity
  8
1
100
AcDbLine
 10
83.8253200054
 20
-19.5000004023
 30
0.0
 11
86.1533788173
 21
-19.5
 31
0.0
  0
LINE
  5
DC
330
1F
100
AcDbEntity
  8
CUT
100
AcDbLine
 10
86.2374290816
 20
-36.7164937372
 30
0.0
 11
86.2974599004
 21
-36.3760590553
 31
0.0
  0
LINE
  5
DD
330
1F
100
AcDbEntity
  8
CUT
100
AcDbLine
 10
86.4155454901
 20
-36.928764607
 30
0.0
 11
87.0
 21
-36.928764607
 31
0.0
  0
LINE
  5
DE
330
1F
100
AcDbEntity
  8
CUT
100
AcDbLine
 10
86.4155454901
 20
-48.1999999989
 30
0.0
 11
87.0
 21
-48.1999999989
 31
0.0
  0
LINE
  5
DF
330
1F
100
AcDbEntity
  8
CUT
100
AcDbLine
 10
86.1625709184
 20
-48.4122708687
 30
0.0
 11
86.0610814579
 21
-48.9878462013
 31
0.0
  0
LINE
  5
E0
330
1F
100
AcDbEntity
  8
CUT
100
AcDbLine
 10
75.0625729561
 20
-46.4550405741
 30
0.0
 11
74.9610811472
 21
-47.0306165516
 31
0.0
  0
LINE
  5
E1
330
1F
100
AcDbEntity
  8
CUT
100
AcDbLine
 10
74.8844551849
 20
-46.2427699466
 30
0.0
 11
74.5347074463
 21
-46.2427692412
 31
0.0
  0
LINE
  5
E2
330
1F
100
AcDbEntity
  8
SK1
  6
Continuous
370
    50
100
AcDbLine
 10
-48.5791867756
 20
-22.9617693036
 30
0.0
 11
-48.5791867756
 21
22.9617693308
 31
0.0
  0
LINE
  5
E3
330
1F
100
AcDbEntity
  8
1
100
AcDbLine
 10
0.0
 20
44.0049991012
 30
0.0
 11
0.0
 21
0.0
 31
0.0
  0
LINE
  5
E4
330
1F
100
AcDbEntity
  8
1
100
AcDbLine
 10
0.9950000094
 20
-45.0000017881
 30
0.0
 11
0.9950000094
 21
45.0000017881
 31
0.0
  0
LINE
  5
E5
330
1F
100
AcDbEntity
  8
1
100
AcDbLine
 10
19.9999999996
 20
-27.0
 30
0.0
 11
53.0
 21
-27.0000004112
 31
0.0
  0
LINE
  5
E6
330
1F
100
AcDbEntity
  8
1
100
AcDbLine
 10
19.9999999996
 20
27.0
 30
0.0
 11
53.0
 21
26.9815751963
 31
0.0
  0
LINE
  5
E7
330
1F
100
AcDbEntity
  8
3
100
AcDbLine
 10
26.7377104609
 20
44.9960418045
 30
0.0
 11
26.7201345414
 21
44.9970066547
 31
0.0
  0
LINE
  5
E8
330
1F
100
AcDbEntity
  8
3
100
AcDbLine
 10
26.7201345414
 20
44.9970066547
 30
0.0
 11
26.7044231295
 21
44.9951775372
 31
0.0
  0
LINE
  5
E9
330
1F
100
AcDbEntity
  8
3
100
AcDbLine
 10
26.7095342278
 20
-44.9957698584
 30
0.0
 11
26.694567874
 21
-44.9940301478
 31
0.0
  0
LINE
  5
EA
330
1F
100
AcDbEntity
  8
3
100
AcDbLine
 10
26.694567874
 20
-44.9940301478
 30
0.0
 11
26.738807559
 21
-44.9899509549
 31
0.0
  0
LINE
  5
EB
330
1F
100
AcDbEntity
  8
SK1
  6
Continuous
370
    50
100
AcDbLine
 10
-49.9992482364
 20
0.0
 30
0.0
 11
-49.9992482364
 21
-22.0813043416
 31
0.0
  0
LINE
  5
EC
330
1F
100
AcDbEntity
  8
SK1
  6
Continuous
370
    50
100
AcDbLine
 10
-49.9992482364
 20
22.0813043416
 30
0.0
 11
-49.9992482364
 21
0.0
 31
0.0
  0
LINE
  5
ED
330
1F
100
AcDbEntity
  8
SK1
  6
Continuous
370
    50
100
AcDbLine
 10
-50.0
 20
22.0425
 30
0.0
 11
-50.0
 21
-22.0425
 31
0.0
  0
LINE
  5
EE
330
1F
100
AcDbEntity
  8
3
100
AcDbLine
 10
21.2357025593
 20
37.9643812776
 30
0.0
 11
21.2071817368
 21
38.0250252783
 31
0.0
  0
LINE
  5
EF
330
1F
100
AcDbEntity
  8
3
100
AcDbLine
 10
21.2071817368
 20
38.0250252783
 30
0.0
 11
21.2357025593
 21
37.9643812776
 31
0.0
  0
LINE
  5
F0
330
1F
100
AcDbEntity
  8
3
100
AcDbLine
 10
21.2357025593
 20
37.9643812776
 30
0.0
 11
21.3206224143
 21
37.7838052809
 31
0.0
  0
LINE
  5
F1
330
1F
100
AcDbEntity
  8
3
100
AcDbLine
 10
21.3206224143
 20
37.7838052809
 30
0.0
 11
21.4600488543
 21
37.4873280525
 31
0.0
  0
LINE
  5
F2
330
1F
100
AcDbEntity
  8
3
100
AcDbLine
 10
21.4600488543
 20
37.4873280525
 30
0.0
 11
21.650865674
 21
37.0815768838
 31
0.0
  0
LINE
  5
F3
330
1F
100
AcDbEntity
  8
3
100
AcDbLine
 10
21.650865674
 20
37.0815768838
 30
0.0
 11
21.8888092786
 21
36.5756116807
 31
0.0
  0
LINE
  5
F4
330
1F
100
AcDbEntity
  8
3
100
AcDbLine
 10
21.8888092786
 20
36.5756116807
 30
0.0
 11
22.1685636788
 21
35.9807386994
 31
0.0
  0
LINE
  5
F5
330
1F
100
AcDbEntity
  8
3
100
AcDbLine
 10
22.1685636788
 20
35.9807386994
 30
0.0
 11
22.4838834256
 21
35.3102423251
 31
0.0
  0
LINE
  5
F6
330
1F
100
AcDbEntity
  8
3
100
AcDbLine
 10
22.4838834256
 20
35.3102423251
 30
0.0
 11
22.8277221322
 21
34.5791056752
 31
0.0
  0
LINE
  5
F7
330
1F
100
AcDbEntity
  8
3
100
AcDbLine
 10
22.8277221322
 20
34.5791056752
 30
0.0
 11
23.1924001127
 21
33.803652972
 31
0.0
  0
LINE
  5
F8
330
1F
100
AcDbEntity
  8
3
100
AcDbLine
 10
23.1924001127
 20
33.803652972
 30
0.0
 11
23.5697682947
 21
33.0012142658
 31
0.0
  0
LINE
  5
F9
330
1F
100
AcDbEntity
  8
3
100
AcDbLine
 10
23.5697682947
 20
33.0012142658
 30
0.0
 11
23.951401934
 21
32.1897119284
 31
0.0
  0
LINE
  5
FA
330
1F
100
AcDbEntity
  8
3
100
AcDbLine
 10
23.951401934
 20
32.1897119284
 30
0.0
 11
24.3287701159
 21
31.3872732222
 31
0.0
  0
LINE
  5
FB
330
1F
100
AcDbEntity
  8
3
100
AcDbLine
 10
24.3287701159
 20
31.3872732222
 30
0.0
 11
24.6934480965
 21
30.6118223816
 31
0.0
  0
LINE
  5
FC
330
1F
100
AcDbEntity
  8
3
100
AcDbLine
 10
24.6934480965
 20
30.6118223816
 30
0.0
 11
25.0372868031
 21
29.8806820065
 31
0.0
  0
LINE
  5
FD
330
1F
100
AcDbEntity
  8
3
100
AcDbLine
 10
25.0372868031
 20
29.8806820065
 30
0.0
 11
25.3526065498
 21
29.2101874948
 31
0.0
  0
LINE
  5
FE
330
1F
100
AcDbEntity
  8
3
100
AcDbLine
 10
25.3526065498
 20
29.2101874948
 30
0.0
 11
25.6323609501
 21
28.6153126508
 31
0.0
  0
LINE
  5
FF
330
1F
100
AcDbEntity
  8
3
100
AcDbLine
 10
25.6323609501
 20
28.6153126508
 30
0.0
 11
25.8703045547
 21
28.1093493104
 31
0.0
  0
LINE
  5
100
330
1F
100
AcDbEntity
  8
3
100
AcDbLine
 10
25.8703045547
 20
28.1093493104
 30
0.0
 11
26.0611213743
 21
27.7035981417
 31
0.0
  0
LINE
  5
101
330
1F
100
AcDbEntity
  8
3
100
AcDbLine
 10
26.0611213743
 20
27.7035981417
 30
0.0
 11
26.2005478143
 21
27.4071227759
 31
0.0
  0
LINE
  5
102
330
1F
100
AcDbEntity
  8
3
100
AcDbLine
 10
26.2005478143
 20
27.4071227759
 30
0.0
 11
26.2854676693
 21
27.2265449166
 31
0.0
  0
LINE
  5
103
330
1F
100
AcDbEntity
  8
3
100
AcDbLine
 10
26.2854676693
 20
27.2265449166
 30
0.0
 11
26.3139884919
 21
27.1659009159
 31
0.0
  0
LINE
  5
104
330
1F
100
AcDbEntity
  8
3
100
AcDbLine
 10
26.3139884919
 20
27.1659009159
 30
0.0
 11
26.2854676693
 21
27.2265449166
 31
0.0
  0
LINE
  5
105
330
1F
100
AcDbEntity
  8
3
100
AcDbLine
 10
26.2854676693
 20
27.2265449166
 30
0.0
 11
26.2005478143
 21
27.4071227759
 31
0.0
  0
LINE
  5
106
330
1F
100
AcDbEntity
  8
3
100
AcDbLine
 10
26.2005478143
 20
27.4071227759
 30
0.0
 11
26.0611213743
 21
27.7035981417
 31
0.0
  0
LINE
  5
107
330
1F
100
AcDbEntity
  8
3
100
AcDbLine
 10
26.0611213743
 20
27.7035981417
 30
0.0
 11
25.8703045547
 21
28.1093493104
 31
0.0
  0
LINE
  5
108
330
1F
100
AcDbEntity
  8
3
100
AcDbLine
 10
25.8703045547
 20
28.1093493104
 30
0.0
 11
25.6323609501
 21
28.6153126508
 31
0.0
  0
LINE
  5
109
330
1F
100
AcDbEntity
  8
3
100
AcDbLine
 10
25.6323609501
 20
28.6153126508
 30
0.0
 11
25.3526065498
 21
29.2101874948
 31
0.0
  0
LINE
  5
10A
330
1F
100
AcDbEntity
  8
3
100
AcDbLine
 10
25.3526065498
 20
29.2101874948
 30
0.0
 11
25.0372868031
 21
29.8806820065
 31
0.0
  0
LINE
  5
10B
330
1F
100
AcDbEntity
  8
3
100
AcDbLine
 10
25.0372868031
 20
29.8806820065
 30
0.0
 11
24.6934480965
 21
30.6118223816
 31
0.0
  0
LINE
  5
10C
330
1F
100
AcDbEntity
  8
3
100
AcDbLine
 10
24.6934480965
 20
30.6118223816
 30
0.0
 11
24.3287701159
 21
31.3872732222
 31
0.0
  0
LINE
  5
10D
330
1F
100
AcDbEntity
  8
3
100
AcDbLine
 10
24.3287701159
 20
31.3872732222
 30
0.0
 11
23.951401934
 21
32.1897119284
 31
0.0
  0
LINE
  5
10E
330
1F
100
AcDbEntity
  8
3
100
AcDbLine
 10
23.951401934
 20
32.1897119284
 30
0.0
 11
23.5697682947
 21
33.0012142658
 31
0.0
  0
LINE
  5
10F
330
1F
100
AcDbEntity
  8
3
100
AcDbLine
 10
23.5697682947
 20
33.0012142658
 30
0.0
 11
23.1924001127
 21
33.803652972
 31
0.0
  0
LINE
  5
110
330
1F
100
AcDbEntity
  8
3
100
AcDbLine
 10
23.1924001127
 20
33.803652972
 30
0.0
 11
22.8277221322
 21
34.5791056752
 31
0.0
  0
LINE
  5
111
330
1F
100
AcDbEntity
  8
3
100
AcDbLine
 10
22.8277221322
 20
34.5791056752
 30
0.0
 11
22.4838834256
 21
35.3102423251
 31
0.0
  0
LINE
  5
112
330
1F
100
AcDbEntity
  8
3
100
AcDbLine
 10
22.4838834256
 20
35.3102423251
 30
0.0
 11
22.1685636788
 21
35.9807386994
 31
0.0
  0
LINE
  5
113
330
1F
100
AcDbEntity
  8
3
100
AcDbLine
 10
22.1685636788
 20
35.9807386994
 30
0.0
 11
21.8888092786
 21
36.5756116807
 31
0.0
  0
LINE
  5
114
330
1F
100
AcDbEntity
  8
3
100
AcDbLine
 10
21.8888092786
 20
36.5756116807
 30
0.0
 11
21.650865674
 21
37.0815768838
 31
0.0
  0
LINE
  5
115
330
1F
100
AcDbEntity
  8
3
100
AcDbLine
 10
21.650865674
 20
37.0815768838
 30
0.0
 11
21.4600488543
 21
37.4873280525
 31
0.0
  0
LINE
  5
116
330
1F
100
AcDbEntity
  8
3
100
AcDbLine
 10
21.4600488543
 20
37.4873280525
 30
0.0
 11
21.3206224143
 21
37.7838052809
 31
0.0
  0
LINE
  5
117
330
1F
100
AcDbEntity
  8
3
100
AcDbLine
 10
21.3206224143
 20
37.7838052809
 30
0.0
 11
21.2357025593
 21
37.9643812776
 31
0.0
  0
LINE
  5
118
330
1F
100
AcDbEntity
  8
3
100
AcDbLine
 10
22.0678132027
 20
32.8169316053
 30
0.0
 11
22.2970675677
 21
32.568898052
 31
0.0
  0
LINE
  5
119
330
1F
100
AcDbEntity
  8
3
100
AcDbLine
 10
22.2970675677
 20
32.568898052
 30
0.0
 11
22.7285344153
 21
32.0169962943
 31
0.0
  0
LINE
  5
11A
330
1F
100
AcDbEntity
  8
3
100
AcDbLine
 10
22.7285344153
 20
32.0169962943
 30
0.0
 11
23.2025906443
 21
31.3367061317
 31
0.0
  0
LINE
  5
11B
330
1F
100
AcDbEntity
  8
3
100
AcDbLine
 10
23.2025906443
 20
31.3367061317
 30
0.0
 11
23.6830711364
 21
30.593752861
 31
0.0
  0
LINE
  5
11C
330
1F
100
AcDbEntity
  8
3
100
AcDbLine
 10
23.6830711364
 20
30.593752861
 30
0.0
 11
24.1079181432
 21
29.8953223973
 31
0.0
  0
LINE
  5
11D
330
1F
100
AcDbEntity
  8
3
100
AcDbLine
 10
24.1079181432
 20
29.8953223973
 30
0.0
 11
24.4236644357
 21
29.3394774199
 31
0.0
  0
LINE
  5
11E
330
1F
100
AcDbEntity
  8
3
100
AcDbLine
 10
24.4236644357
 20
29.3394774199
 30
0.0
 11
24.6009957045
 21
28.9858877659
 31
0.0
  0
LINE
  5
11F
330
1F
100
AcDbEntity
  8
3
100
AcDbLine
 10
24.6009957045
 20
28.9858877659
 30
0.0
 11
24.6295686811
 21
28.8663376123
 31
0.0
  0
LINE
  5
120
330
1F
100
AcDbEntity
  8
3
100
AcDbLine
 10
24.6295686811
 20
28.8663376123
 30
0.0
 11
24.6318802237
 21
28.856664896
 31
0.0
  0
LINE
  5
121
330
1F
100
AcDbEntity
  8
3
100
AcDbLine
 10
24.6318802237
 20
28.856664896
 30
0.0
 11
24.5531201362
 21
28.9242453873
 31
0.0
  0
LINE
  5
122
330
1F
100
AcDbEntity
  8
3
100
AcDbLine
 10
24.5531201362
 20
28.9242453873
 30
0.0
 11
24.517763406
 21
28.9545822889
 31
0.0
  0
LINE
  5
123
330
1F
100
AcDbEntity
  8
3
100
AcDbLine
 10
24.517763406
 20
28.9545822889
 30
0.0
 11
24.2641083896
 21
29.2727425694
 31
0.0
  0
LINE
  5
124
330
1F
100
AcDbEntity
  8
3
100
AcDbLine
 10
24.2641083896
 20
29.2727425694
 30
0.0
 11
23.8845627755
 21
29.7884047031
 31
0.0
  0
LINE
  5
125
330
1F
100
AcDbEntity
  8
3
100
AcDbLine
 10
23.8845627755
 20
29.7884047031
 30
0.0
 11
23.4100278467
 21
30.4484348744
 31
0.0
  0
LINE
  5
126
330
1F
100
AcDbEntity
  8
3
100
AcDbLine
 10
23.4100278467
 20
30.4484348744
 30
0.0
 11
22.8938758373
 21
31.162314117
 31
0.0
  0
LINE
  5
127
330
1F
100
AcDbEntity
  8
3
100
AcDbLine
 10
22.8938758373
 20
31.162314117
 30
0.0
 11
22.4032755941
 21
31.8225510418
 31
0.0
  0
LINE
  5
128
330
1F
100
AcDbEntity
  8
3
100
AcDbLine
 10
22.4032755941
 20
31.8225510418
 30
0.0
 11
21.9994187355
 21
32.3522239923
 31
0.0
  0
LINE
  5
129
330
1F
100
AcDbEntity
  8
3
100
AcDbLine
 10
21.9994187355
 20
32.3522239923
 30
0.0
 11
21.7364225536
 21
32.7381640673
 31
0.0
  0
LINE
  5
12A
330
1F
100
AcDbEntity
  8
3
100
AcDbLine
 10
21.7364225536
 20
32.7381640673
 30
0.0
 11
21.6929186135
 21
32.9057946801
 31
0.0
  0
LINE
  5
12B
330
1F
100
AcDbEntity
  8
3
100
AcDbLine
 10
21.6929186135
 20
32.9057946801
 30
0.0
 11
21.6735228896
 21
32.9805351794
 31
0.0
  0
LINE
  5
12C
330
1F
100
AcDbEntity
  8
3
100
AcDbLine
 10
21.6735228896
 20
32.9805351794
 30
0.0
 11
21.8017175793
 21
33.0173932016
 31
0.0
  0
LINE
  5
12D
330
1F
100
AcDbEntity
  8
3
100
AcDbLine
 10
21.8017175793
 20
33.0173932016
 30
0.0
 11
22.0678132027
 21
32.8169316053
 31
0.0
  0
LINE
  5
12E
330
1F
100
AcDbEntity
  8
SK3
100
AcDbLine
 10
-4.5163105242
 20
5.4998612031
 30
0.0
 11
-4.0603168309
 21
5.4657766595
 31
0.0
  0
LINE
  5
12F
330
1F
100
AcDbEntity
  8
SK3
100
AcDbLine
 10
-4.0603168309
 20
5.4657766595
 30
0.0
 11
-3.422930371
 21
5.3930277936
 31
0.0
  0
LINE
  5
130
330
1F
100
AcDbEntity
  8
SK3
100
AcDbLine
 10
-3.422930371
 20
5.3930277936
 30
0.0
 11
-2.6371167042
 21
5.3327954374
 31
0.0
  0
LINE
  5
131
330
1F
100
AcDbEntity
  8
SK3
100
AcDbLine
 10
-2.6371167042
 20
5.3327954374
 30
0.0
 11
-1.3436974259
 21
5.3245634772
 31
0.0
  0
LINE
  5
132
330
1F
100
AcDbEntity
  8
SK3
100
AcDbLine
 10
-1.3436974259
 20
5.3245634772
 30
0.0
 11
-0.4691034847
 21
5.3684576415
 31
0.0
  0
LINE
  5
133
330
1F
100
AcDbEntity
  8
SK3
100
AcDbLine
 10
-0.4691034847
 20
5.3684576415
 30
0.0
 11
0.386661588
 21
5.4318183102
 31
0.0
  0
LINE
  5
134
330
1F
100
AcDbEntity
  8
3
100
AcDbLine
 10
0.386661588
 20
5.4318183102
 30
0.0
 11
1.3356100535
 21
5.4947752506
 31
0.0
  0
LINE
  5
135
330
1F
100
AcDbEntity
  8
3
100
AcDbLine
 10
1.3356100535
 20
5.4947752506
 30
0.0
 11
1.8153190613
 21
5.491183605
 31
0.0
  0
LINE
  5
136
330
1F
100
AcDbEntity
  8
3
100
AcDbLine
 10
1.8153190613
 20
5.491183605
 30
0.0
 11
2.034666948
 21
5.4414994083
 31
0.0
  0
LINE
  5
137
330
1F
100
AcDbEntity
  8
3
100
AcDbLine
 10
2.034666948
 20
5.4414994083
 30
0.0
 11
2.070833696
 21
5.3365603089
 31
0.0
  0
LINE
  5
138
330
1F
100
AcDbEntity
  8
3
100
AcDbLine
 10
2.070833696
 20
5.3365603089
 30
0.0
 11
1.9421473844
 21
5.211959593
 31
0.0
  0
LINE
  5
139
330
1F
100
AcDbEntity
  8
3
100
AcDbLine
 10
1.9421473844
 20
5.211959593
 30
0.0
 11
1.5698326751
 21
5.00937365
 31
0.0
  0
LINE
  5
13A
330
1F
100
AcDbEntity
  8
3
100
AcDbLine
 10
1.5698326751
 20
5.00937365
 30
0.0
 11
0.7212453056
 21
4.693034105
 31
0.0
  0
LINE
  5
13B
330
1F
100
AcDbEntity
  8
SK3
100
AcDbLine
 10
0.7212453056
 20
4.693034105
 30
0.0
 11
-0.0629860224
 21
4.483545199
 31
0.0
  0
LINE
  5
13C
330
1F
100
AcDbEntity
  8
SK3
100
AcDbLine
 10
-0.0629860224
 20
4.483545199
 30
0.0
 11
-0.9216869367
 21
4.3302038684
 31
0.0
  0
LINE
  5
13D
330
1F
100
AcDbEntity
  8
SK3
100
AcDbLine
 10
-0.9216869367
 20
4.3302038684
 30
0.0
 11
-1.6134588514
 21
4.2695025913
 31
0.0
  0
LINE
  5
13E
330
1F
100
AcDbEntity
  8
SK3
100
AcDbLine
 10
-1.6134588514
 20
4.2695025913
 30
0.0
 11
-2.3283925839
 21
4.277118016
 31
0.0
  0
LINE
  5
13F
330
1F
100
AcDbEntity
  8
SK3
100
AcDbLine
 10
-2.3283925839
 20
4.277118016
 30
0.0
 11
-3.2859947533
 21
4.4319578446
 31
0.0
  0
LINE
  5
140
330
1F
100
AcDbEntity
  8
SK3
100
AcDbLine
 10
-3.2859947533
 20
4.4319578446
 30
0.0
 11
-3.9875209332
 21
4.6925935894
 31
0.0
  0
LINE
  5
141
330
1F
100
AcDbEntity
  8
SK3
100
AcDbLine
 10
-3.9875209332
 20
4.6925935894
 30
0.0
 11
-4.4931969606
 21
5.0096376799
 31
0.0
  0
LINE
  5
142
330
1F
100
AcDbEntity
  8
SK3
100
AcDbLine
 10
-46.5000011027
 20
-7.4999998324
 30
0.0
 11
-46.5000011027
 21
7.4999998324
 31
0.0
  0
LINE
  5
143
330
1F
100
AcDbEntity
  8
SK3
100
AcDbLine
 10
-45.9540449083
 20
-6.0000000522
 30
0.0
 11
-45.9540449083
 21
5.9999999628
 31
0.0
  0
LINE
  5
144
330
1F
100
AcDbEntity
  8
3
100
AcDbLine
 10
2.0343738142
 20
-5.2884016186
 30
0.0
 11
1.78078108
 21
-5.1137511618
 31
0.0
  0
LINE
  5
145
330
1F
100
AcDbEntity
  8
3
100
AcDbLine
 10
1.78078108
 20
-5.1137511618
 30
0.0
 11
1.1920762481
 21
-4.8537994735
 31
0.0
  0
LINE
  5
146
330
1F
100
AcDbEntity
  8
3
100
AcDbLine
 10
1.1920762481
 20
-4.8537994735
 30
0.0
 11
0.5909843021
 21
-4.6535311267
 31
0.0
  0
LINE
  5
147
330
1F
100
AcDbEntity
  8
SK3
100
AcDbLine
 10
0.5909843021
 20
-4.6535311267
 30
0.0
 11
-0.0803507064
 21
-4.4796536677
 31
0.0
  0
LINE
  5
148
330
1F
100
AcDbEntity
  8
SK3
100
AcDbLine
 10
-0.0803507064
 20
-4.4796536677
 30
0.0
 11
-1.6034221044
 21
-4.2699365877
 31
0.0
  0
LINE
  5
149
330
1F
100
AcDbEntity
  8
SK3
100
AcDbLine
 10
-1.6034221044
 20
-4.2699365877
 30
0.0
 11
-2.7526256163
 21
-4.3223500252
 31
0.0
  0
LINE
  5
14A
330
1F
100
AcDbEntity
  8
SK3
100
AcDbLine
 10
-2.7526256163
 20
-4.3223500252
 30
0.0
 11
-3.6031627097
 21
-4.530696664
 31
0.0
  0
LINE
  5
14B
330
1F
100
AcDbEntity
  8
SK3
100
AcDbLine
 10
-3.6031627097
 20
-4.530696664
 30
0.0
 11
-4.2812726461
 21
-4.8574102111
 31
0.0
  0
LINE
  5
14C
330
1F
100
AcDbEntity
  8
SK3
100
AcDbLine
 10
-4.2812726461
 20
-4.8574102111
 30
0.0
 11
-4.6492498368
 21
-5.1551973447
 31
0.0
  0
LINE
  5
14D
330
1F
100
AcDbEntity
  8
SK3
100
AcDbLine
 10
-4.6517485753
 20
-5.4867076688
 30
0.0
 11
-4.2952615768
 21
-5.4898848757
 31
0.0
  0
LINE
  5
14E
330
1F
100
AcDbEntity
  8
SK3
100
AcDbLine
 10
-4.2952615768
 20
-5.4898848757
 30
0.0
 11
-3.7342389114
 21
-5.4274005815
 31
0.0
  0
LINE
  5
14F
330
1F
100
AcDbEntity
  8
SK3
100
AcDbLine
 10
-3.7342389114
 20
-5.4274005815
 30
0.0
 11
-3.0164425262
 21
-5.35652088
 31
0.0
  0
LINE
  5
150
330
1F
100
AcDbEntity
  8
SK3
100
AcDbLine
 10
-3.0164425262
 20
-5.35652088
 30
0.0
 11
-1.9002209883
 21
-5.3153880872
 31
0.0
  0
LINE
  5
151
330
1F
100
AcDbEntity
  8
SK3
100
AcDbLine
 10
-1.9002209883
 20
-5.3153880872
 30
0.0
 11
-1.0973798344
 21
-5.333758425
 31
0.0
  0
LINE
  5
152
330
1F
100
AcDbEntity
  8
SK3
100
AcDbLine
 10
-1.0973798344
 20
-5.333758425
 30
0.0
 11
-0.2947786125
 21
-5.380329676
 31
0.0
  0
LINE
  5
153
330
1F
100
AcDbEntity
  8
SK3
100
AcDbLine
 10
-0.2947786125
 20
-5.380329676
 30
0.0
 11
0.4738174611
 21
-5.4386002012
 31
0.0
  0
LINE
  5
154
330
1F
100
AcDbEntity
  8
3
100
AcDbLine
 10
0.4738174611
 20
-5.4386002012
 30
0.0
 11
1.1962889693
 21
-5.4884040728
 31
0.0
  0
LINE
  5
155
330
1F
100
AcDbEntity
  8
3
100
AcDbLine
 10
1.1962889693
 20
-5.4884040728
 30
0.0
 11
1.6858503222
 21
-5.4984870367
 31
0.0
  0
LINE
  5
156
330
1F
100
AcDbEntity
  8
3
100
AcDbLine
 10
1.6858503222
 20
-5.4984870367
 30
0.0
 11
2.0172607619
 21
-5.4500489496
 31
0.0
  0
LINE
  5
157
330
1F
100
AcDbEntity
  8
3
100
AcDbLine
 10
2.0172607619
 20
-5.4500489496
 30
0.0
 11
2.0817331969
 21
-5.3689084016
 31
0.0
  0
LINE
  5
158
330
1F
100
AcDbEntity
  8
3
100
AcDbLine
 10
2.0817331969
 20
-5.3689084016
 30
0.0
 11
2.0343738142
 21
-5.2884016186
 31
0.0
  0
LINE
  5
159
330
1F
100
AcDbEntity
  8
3
100
AcDbLine
 10
18.2249993086
 20
5.4999999702
 30
0.0
 11
18.2249993086
 21
-5.4999999702
 31
0.0
  0
LINE
  5
15A
330
1F
100
AcDbEntity
  8
3
100
AcDbLine
 10
26.737669398
 20
-44.9921053801
 30
0.0
 11
26.7377104609
 21
-44.9960418045
 31
0.0
  0
LINE
  5
15B
330
1F
100
AcDbEntity
  8
3
  6
Continuous
370
    25
100
AcDbLine
 10
18.2249993086
 20
3.1824701
 30
0.0
 11
18.2249993086
 21
-3.1824701
 31
0.0
  0
LINE
  5
15C
330
1F
100
AcDbEntity
  8
3
100
AcDbLine
 10
24.1283364594
 20
-29.4544864446
 30
0.0
 11
23.7868875265
 21
-29.9237072468
 31
0.0
  0
LINE
  5
15D
330
1F
100
AcDbEntity
  8
3
100
AcDbLine
 10
23.7868875265
 20
-29.9237072468
 30
0.0
 11
23.3672186732
 21
-30.5080432445
 31
0.0
  0
LINE
  5
15E
330
1F
100
AcDbEntity
  8
3
100
AcDbLine
 10
23.3672186732
 20
-30.5080432445
 30
0.0
 11
22.8511635214
 21
-31.2206763774
 31
0.0
  0
LINE
  5
15F
330
1F
100
AcDbEntity
  8
3
100
AcDbLine
 10
22.8511635214
 20
-31.2206763774
 30
0.0
 11
22.3656538874
 21
-31.8721905351
 31
0.0
  0
LINE
  5
160
330
1F
100
AcDbEntity
  8
3
100
AcDbLine
 10
22.3656538874
 20
-31.8721905351
 30
0.0
 11
21.9713654369
 21
-32.3895439506
 31
0.0
  0
LINE
  5
161
330
1F
100
AcDbEntity
  8
3
100
AcDbLine
 10
21.9713654369
 20
-32.3895439506
 30
0.0
 11
21.7229500413
 21
-32.7643342316
 31
0.0
  0
LINE
  5
162
330
1F
100
AcDbEntity
  8
3
100
AcDbLine
 10
21.7229500413
 20
-32.7643342316
 30
0.0
 11
21.7211358249
 21
-32.773450017
 31
0.0
  0
LINE
  5
163
330
1F
100
AcDbEntity
  8
3
100
AcDbLine
 10
21.7211358249
 20
-32.773450017
 30
0.0
 11
21.6953661293
 21
-32.9029746354
 31
0.0
  0
LINE
  5
164
330
1F
100
AcDbEntity
  8
3
100
AcDbLine
 10
21.6953661293
 20
-32.9029746354
 30
0.0
 11
21.6776002198
 21
-32.9922772944
 31
0.0
  0
LINE
  5
165
330
1F
100
AcDbEntity
  8
3
100
AcDbLine
 10
21.6776002198
 20
-32.9922772944
 30
0.0
 11
21.819403395
 21
-33.0095812678
 31
0.0
  0
LINE
  5
166
330
1F
100
AcDbEntity
  8
3
100
AcDbLine
 10
21.819403395
 20
-33.0095812678
 30
0.0
 11
22.094650194
 21
-32.7903553844
 31
0.0
  0
LINE
  5
167
330
1F
100
AcDbEntity
  8
3
100
AcDbLine
 10
22.094650194
 20
-32.7903553844
 30
0.0
 11
22.4654953927
 21
-32.3636457324
 31
0.0
  0
LINE
  5
168
330
1F
100
AcDbEntity
  8
3
100
AcDbLine
 10
22.4654953927
 20
-32.3636457324
 30
0.0
 11
22.9108594358
 21
-31.7625775933
 31
0.0
  0
LINE
  5
169
330
1F
100
AcDbEntity
  8
3
100
AcDbLine
 10
22.9108594358
 20
-31.7625775933
 30
0.0
 11
23.394536227
 21
-31.0457199812
 31
0.0
  0
LINE
  5
16A
330
1F
100
AcDbEntity
  8
3
100
AcDbLine
 10
23.394536227
 20
-31.0457199812
 30
0.0
 11
23.8605309277
 21
-30.3071402013
 31
0.0
  0
LINE
  5
16B
330
1F
100
AcDbEntity
  8
3
100
AcDbLine
 10
23.8605309277
 20
-30.3071402013
 30
0.0
 11
24.2475904524
 21
-29.6549480408
 31
0.0
  0
LINE
  5
16C
330
1F
100
AcDbEntity
  8
3
100
AcDbLine
 10
24.2475904524
 20
-29.6549480408
 30
0.0
 11
24.5108623057
 21
-29.1741117835
 31
0.0
  0
LINE
  5
16D
330
1F
100
AcDbEntity
  8
3
100
AcDbLine
 10
24.5108623057
 20
-29.1741117835
 30
0.0
 11
24.6306732297
 21
-28.9077740163
 31
0.0
  0
LINE
  5
16E
330
1F
100
AcDbEntity
  8
3
100
AcDbLine
 10
24.6306732297
 20
-28.9077740163
 30
0.0
 11
24.6040131896
 21
-28.8683008403
 31
0.0
  0
LINE
  5
16F
330
1F
100
AcDbEntity
  8
3
100
AcDbLine
 10
24.6040131896
 20
-28.8683008403
 30
0.0
 11
24.5532989502
 21
-28.9238169789
 31
0.0
  0
LINE
  5
170
330
1F
100
AcDbEntity
  8
3
100
AcDbLine
 10
24.5532989502
 20
-28.9238169789
 30
0.0
 11
24.4642253965
 21
-29.0213208646
 31
0.0
  0
LINE
  5
171
330
1F
100
AcDbEntity
  8
3
100
AcDbLine
 10
24.4642253965
 20
-29.0213208646
 30
0.0
 11
24.4339797646
 21
-29.0544312447
 31
0.0
  0
LINE
  5
172
330
1F
100
AcDbEntity
  8
3
100
AcDbLine
 10
24.4339797646
 20
-29.0544312447
 30
0.0
 11
24.1283364594
 21
-29.4544864446
 31
0.0
  0
LINE
  5
173
330
1F
100
AcDbEntity
  8
3
100
AcDbLine
 10
26.7382580787
 20
44.9909903109
 30
0.0
 11
26.738807559
 21
44.9899509549
 31
0.0
  0
LINE
  5
174
330
1F
100
AcDbEntity
  8
3
100
AcDbLine
 10
26.737669398
 20
-44.9921053801
 30
0.0
 11
26.7382580787
 21
-44.9909903109
 31
0.0
  0
LINE
  5
175
330
1F
100
AcDbEntity
  8
3
100
AcDbLine
 10
26.7382580787
 20
-44.9909903109
 30
0.0
 11
26.738807559
 21
-44.9899509549
 31
0.0
  0
LINE
  5
176
330
1F
100
AcDbEntity
  8
3
100
AcDbLine
 10
21.2357025593
 20
-37.9643812776
 30
0.0
 11
21.2071817368
 21
-38.0250252783
 31
0.0
  0
LINE
  5
177
330
1F
100
AcDbEntity
  8
3
100
AcDbLine
 10
21.2071817368
 20
-38.0250252783
 30
0.0
 11
21.2357025593
 21
-37.9643812776
 31
0.0
  0
LINE
  5
178
330
1F
100
AcDbEntity
  8
3
100
AcDbLine
 10
21.2357025593
 20
-37.9643812776
 30
0.0
 11
21.3206224143
 21
-37.7838052809
 31
0.0
  0
LINE
  5
179
330
1F
100
AcDbEntity
  8
3
100
AcDbLine
 10
21.3206224143
 20
-37.7838052809
 30
0.0
 11
21.4600488543
 21
-37.4873280525
 31
0.0
  0
LINE
  5
17A
330
1F
100
AcDbEntity
  8
3
100
AcDbLine
 10
21.4600488543
 20
-37.4873280525
 30
0.0
 11
21.650865674
 21
-37.0815768838
 31
0.0
  0
LINE
  5
17B
330
1F
100
AcDbEntity
  8
3
100
AcDbLine
 10
21.650865674
 20
-37.0815768838
 30
0.0
 11
21.8888092786
 21
-36.5756116807
 31
0.0
  0
LINE
  5
17C
330
1F
100
AcDbEntity
  8
3
100
AcDbLine
 10
21.8888092786
 20
-36.5756116807
 30
0.0
 11
22.1685636788
 21
-35.9807386994
 31
0.0
  0
LINE
  5
17D
330
1F
100
AcDbEntity
  8
3
100
AcDbLine
 10
22.1685636788
 20
-35.9807386994
 30
0.0
 11
22.4838834256
 21
-35.3102423251
 31
0.0
  0
LINE
  5
17E
330
1F
100
AcDbEntity
  8
3
100
AcDbLine
 10
22.4838834256
 20
-35.3102423251
 30
0.0
 11
22.8277221322
 21
-34.5791056752
 31
0.0
  0
LINE
  5
17F
330
1F
100
AcDbEntity
  8
3
100
AcDbLine
 10
22.8277221322
 20
-34.5791056752
 30
0.0
 11
23.1924001127
 21
-33.803652972
 31
0.0
  0
LINE
  5
180
330
1F
100
AcDbEntity
  8
3
100
AcDbLine
 10
23.1924001127
 20
-33.803652972
 30
0.0
 11
23.5697682947
 21
-33.0012142658
 31
0.0
  0
LINE
  5
181
330
1F
100
AcDbEntity
  8
3
100
AcDbLine
 10
23.5697682947
 20
-33.0012142658
 30
0.0
 11
23.951401934
 21
-32.1897119284
 31
0.0
  0
LINE
  5
182
330
1F
100
AcDbEntity
  8
3
100
AcDbLine
 10
23.951401934
 20
-32.1897119284
 30
0.0
 11
24.3287701159
 21
-31.3872732222
 31
0.0
  0
LINE
  5
183
330
1F
100
AcDbEntity
  8
3
100
AcDbLine
 10
24.3287701159
 20
-31.3872732222
 30
0.0
 11
24.6934480965
 21
-30.6118223816
 31
0.0
  0
LINE
  5
184
330
1F
100
AcDbEntity
  8
3
100
AcDbLine
 10
24.6934480965
 20
-30.6118223816
 30
0.0
 11
25.0372868031
 21
-29.8806820065
 31
0.0
  0
LINE
  5
185
330
1F
100
AcDbEntity
  8
3
100
AcDbLine
 10
25.0372868031
 20
-29.8806820065
 30
0.0
 11
25.3526065498
 21
-29.2101874948
 31
0.0
  0
LINE
  5
186
330
1F
100
AcDbEntity
  8
3
100
AcDbLine
 10
25.3526065498
 20
-29.2101874948
 30
0.0
 11
25.6323609501
 21
-28.6153126508
 31
0.0
  0
LINE
  5
187
330
1F
100
AcDbEntity
  8
3
100
AcDbLine
 10
25.6323609501
 20
-28.6153126508
 30
0.0
 11
25.8703045547
 21
-28.1093493104
 31
0.0
  0
LINE
  5
188
330
1F
100
AcDbEntity
  8
3
100
AcDbLine
 10
25.8703045547
 20
-28.1093493104
 30
0.0
 11
26.0611213743
 21
-27.7035981417
 31
0.0
  0
LINE
  5
189
330
1F
100
AcDbEntity
  8
3
100
AcDbLine
 10
26.0611213743
 20
-27.7035981417
 30
0.0
 11
26.2005478143
 21
-27.4071227759
 31
0.0
  0
LINE
  5
18A
330
1F
100
AcDbEntity
  8
3
100
AcDbLine
 10
26.2005478143
 20
-27.4071227759
 30
0.0
 11
26.2854676693
 21
-27.2265449166
 31
0.0
  0
LINE
  5
18B
330
1F
100
AcDbEntity
  8
3
100
AcDbLine
 10
26.2854676693
 20
-27.2265449166
 30
0.0
 11
26.3139884919
 21
-27.1659009159
 31
0.0
  0
LINE
  5
18C
330
1F
100
AcDbEntity
  8
3
100
AcDbLine
 10
26.3139884919
 20
-27.1659009159
 30
0.0
 11
26.2854676693
 21
-27.2265449166
 31
0.0
  0
LINE
  5
18D
330
1F
100
AcDbEntity
  8
3
100
AcDbLine
 10
26.2854676693
 20
-27.2265449166
 30
0.0
 11
26.2005478143
 21
-27.4071227759
 31
0.0
  0
LINE
  5
18E
330
1F
100
AcDbEntity
  8
3
100
AcDbLine
 10
26.2005478143
 20
-27.4071227759
 30
0.0
 11
26.0611213743
 21
-27.7035981417
 31
0.0
  0
LINE
  5
18F
330
1F
100
AcDbEntity
  8
3
100
AcDbLine
 10
26.0611213743
 20
-27.7035981417
 30
0.0
 11
25.8703045547
 21
-28.1093493104
 31
0.0
  0
LINE
  5
190
330
1F
100
AcDbEntity
  8
3
100
AcDbLine
 10
25.8703045547
 20
-28.1093493104
 30
0.0
 11
25.6323609501
 21
-28.6153126508
 31
0.0
  0
LINE
  5
191
330
1F
100
AcDbEntity
  8
3
100
AcDbLine
 10
25.6323609501
 20
-28.6153126508
 30
0.0
 11
25.3526065498
 21
-29.2101874948
 31
0.0
  0
LINE
  5
192
330
1F
100
AcDbEntity
  8
3
100
AcDbLine
 10
25.3526065498
 20
-29.2101874948
 30
0.0
 11
25.0372868031
 21
-29.8806820065
 31
0.0
  0
LINE
  5
193
330
1F
100
AcDbEntity
  8
3
100
AcDbLine
 10
25.0372868031
 20
-29.8806820065
 30
0.0
 11
24.6934480965
 21
-30.6118223816
 31
0.0
  0
LINE
  5
194
330
1F
100
AcDbEntity
  8
3
100
AcDbLine
 10
24.6934480965
 20
-30.6118223816
 30
0.0
 11
24.3287701159
 21
-31.3872732222
 31
0.0
  0
LINE
  5
195
330
1F
100
AcDbEntity
  8
3
100
AcDbLine
 10
24.3287701159
 20
-31.3872732222
 30
0.0
 11
23.951401934
 21
-32.1897119284
 31
0.0
  0
LINE
  5
196
330
1F
100
AcDbEntity
  8
3
100
AcDbLine
 10
23.951401934
 20
-32.1897119284
 30
0.0
 11
23.5697682947
 21
-33.0012142658
 31
0.0
  0
LINE
  5
197
330
1F
100
AcDbEntity
  8
3
100
AcDbLine
 10
23.5697682947
 20
-33.0012142658
 30
0.0
 11
23.1924001127
 21
-33.803652972
 31
0.0
  0
LINE
  5
198
330
1F
100
AcDbEntity
  8
3
100
AcDbLine
 10
23.1924001127
 20
-33.803652972
 30
0.0
 11
22.8277221322
 21
-34.5791056752
 31
0.0
  0
LINE
  5
199
330
1F
100
AcDbEntity
  8
3
100
AcDbLine
 10
22.8277221322
 20
-34.5791056752
 30
0.0
 11
22.4838834256
 21
-35.3102423251
 31
0.0
  0
LINE
  5
19A
330
1F
100
AcDbEntity
  8
3
100
AcDbLine
 10
22.4838834256
 20
-35.3102423251
 30
0.0
 11
22.1685636788
 21
-35.9807386994
 31
0.0
  0
LINE
  5
19B
330
1F
100
AcDbEntity
  8
3
100
AcDbLine
 10
22.1685636788
 20
-35.9807386994
 30
0.0
 11
21.8888092786
 21
-36.5756116807
 31
0.0
  0
LINE
  5
19C
330
1F
100
AcDbEntity
  8
3
100
AcDbLine
 10
21.8888092786
 20
-36.5756116807
 30
0.0
 11
21.650865674
 21
-37.0815768838
 31
0.0
  0
LINE
  5
19D
330
1F
100
AcDbEntity
  8
3
100
AcDbLine
 10
21.650865674
 20
-37.0815768838
 30
0.0
 11
21.4600488543
 21
-37.4873280525
 31
0.0
  0
LINE
  5
19E
330
1F
100
AcDbEntity
  8
3
100
AcDbLine
 10
21.4600488543
 20
-37.4873280525
 30
0.0
 11
21.3206224143
 21
-37.7838052809
 31
0.0
  0
LINE
  5
19F
330
1F
100
AcDbEntity
  8
3
100
AcDbLine
 10
21.3206224143
 20
-37.7838052809
 30
0.0
 11
21.2357025593
 21
-37.9643812776
 31
0.0
  0
LINE
  5
1A0
330
1F
100
AcDbEntity
  8
1
100
AcDbLine
 10
19.9999999996
 20
-27.0
 30
0.0
 11
19.9999999996
 21
27.0
 31
0.0
  0
LINE
  5
1A1
330
1F
100
AcDbEntity
  8
3
100
AcDbLine
 10
33.6595939477
 20
30.344584247
 30
0.0
 11
52.2211678533
 21
39.48630313
 31
0.0
  0
LINE
  5
1A2
330
1F
100
AcDbEntity
  8
3
100
AcDbLine
 10
21.2071817368
 20
38.0250252783
 30
0.0
 11
21.6720309108
 21
32.9038985074
 31
0.0
  0
LINE
  5
1A3
330
1F
100
AcDbEntity
  8
3
100
AcDbLine
 10
24.5486665517
 20
28.9197638631
 30
0.0
 11
26.3139884919
 21
27.1659009159
 31
0.0
  0
LINE
  5
1A4
330
1F
100
AcDbEntity
  8
3
100
AcDbLine
 10
26.3139884919
 20
27.1659009159
 30
0.0
 11
33.5534028709
 21
30.5704381317
 31
0.0
  0
LINE
  5
1A5
330
1F
100
AcDbEntity
  8
3
100
AcDbLine
 10
31.508197014
 20
42.8273190157
 30
0.0
 11
21.2071817368
 21
38.0250252783
 31
0.0
  0
LINE
  5
1A6
330
1F
100
AcDbEntity
  8
3
100
AcDbLine
 10
21.6875858605
 20
33.0093130469
 30
0.0
 11
0.0000000000000036
 21
10.39110382498061
 31
0.0
  0
LINE
  5
1A7
330
1F
100
AcDbEntity
  8
3
100
AcDbLine
 10
2.0241893362
 20
5.2777803503
 30
0.0
 11
24.6362816542
 21
28.8601703942
 31
0.0
  0
LINE
  5
1A8
330
1F
100
AcDbEntity
  8
SK3
100
AcDbLine
 10
-49.9992482364
 20
-7.4395439222
 30
0.0
 11
-46.5000011027
 21
-7.4999998324
 31
0.0
  0
LINE
  5
1A9
330
1F
100
AcDbEntity
  8
SK3
100
AcDbLine
 10
-46.5000011027
 20
7.4999998324
 30
0.0
 11
-49.9992482364
 21
7.4910682472
 31
0.0
  0
LINE
  5
1AA
330
1F
100
AcDbEntity
  8
SK3
100
AcDbLine
 10
-46.5000011027
 20
-7.4999998324
 30
0.0
 11
-45.9540449083
 21
-6.0000000522
 31
0.0
  0
LINE
  5
1AB
330
1F
100
AcDbEntity
  8
SK3
100
AcDbLine
 10
-45.9540449083
 20
5.9999999628
 30
0.0
 11
-46.5000011027
 21
7.4999998324
 31
0.0
  0
LINE
  5
1AC
330
1F
100
AcDbEntity
  8
SK3
100
AcDbLine
 10
-45.9540449083
 20
-6.0000000522
 30
0.0
 11
-4.1922965452
 21
-6.0000000522
 31
0.0
  0
LINE
  5
1AD
330
1F
100
AcDbEntity
  8
SK3
100
AcDbLine
 10
-4.367970258
 20
5.9999999628
 30
0.0
 11
-45.9540449083
 21
5.9999999628
 31
0.0
  0
LINE
  5
1AE
330
1F
100
AcDbEntity
  8
3
100
AcDbLine
 10
1.5559807652
 20
-5.4999999702
 30
0.0
 11
18.2249993086
 21
-5.4999999702
 31
0.0
  0
LINE
  5
1AF
330
1F
100
AcDbEntity
  8
3
100
AcDbLine
 10
18.2249993086
 20
5.4999999702
 30
0.0
 11
1.5442485455
 21
5.4999999702
 31
0.0
  0
LINE
  5
1B0
330
1F
100
AcDbEntity
  8
3
100
AcDbLine
 10
24.6401615441
 20
-28.8642141968
 30
0.0
 11
2.0343738142
 21
-5.2884016186
 31
0.0
  0
LINE
  5
1B1
330
1F
100
AcDbEntity
  8
3
100
AcDbLine
 10
0.0
 20
-10.39110450443489
 30
0.0
 11
21.6882191598
 21
-33.0099761486
 31
0.0
  0
LINE
  5
1B2
330
1F
100
AcDbEntity
  8
3
100
AcDbLine
 10
52.6362359799
 20
-39.3881707193
 30
0.0
 11
33.6610008422
 21
-30.3419220277
 31
0.0
  0
LINE
  5
1B3
330
1F
100
AcDbEntity
  8
3
100
AcDbLine
 10
26.3139884919
 20
-27.1659009159
 30
0.0
 11
24.5489720255
 21
-28.9194602519
 31
0.0
  0
LINE
  5
1B4
330
1F
100
AcDbEntity
  8
3
100
AcDbLine
 10
21.6723047197
 20
-32.9008810222
 30
0.0
 11
21.2071817368
 21
-38.0250252783
 31
0.0
  0
LINE
  5
1B5
330
1F
100
AcDbEntity
  8
3
100
AcDbLine
 10
21.2071817368
 20
-38.0250252783
 30
0.0
 11
31.1533772148
 21
-43.2425763759
 31
0.0
  0
LINE
  5
1B6
330
1F
100
AcDbEntity
  8
3
100
AcDbLine
 10
33.5534028709
 20
-30.5704381317
 30
0.0
 11
26.3139884919
 21
-27.1659009159
 31
0.0
  0
LINE
  5
1B7
330
1F
100
AcDbEntity
  8
1
100
AcDbLine
 10
40.0012074059
 20
-39.4982911781
 30
0.0
 11
53.0
 21
-39.3850003378
 31
0.0
  0
CIRCLE
  5
1B8
330
1F
100
AcDbEntity
  8
SK1
  6
Continuous
370
    50
100
AcDbCircle
 10
-19.1455082677
 20
-0.0000000447
 30
0.0
 40
8.725655986278133
  0
CIRCLE
  5
1B9
330
1F
100
AcDbEntity
  8
SK1
  6
Continuous
370
    50
100
AcDbCircle
 10
-19.1455082677
 20
-0.0000000447
 30
0.0
 40
10.07276912079311
  0
ARC
  5
1BA
330
1F
100
AcDbEntity
  8
SK1
  6
Continuous
370
    50
100
AcDbCircle
 10
-48.7875644347
 20
-21.78
 30
0.0
 40
1.199999999999985
100
AcDbArc
 50
210.0
 51
280.0
  0
ARC
  5
1BB
330
1F
100
AcDbEntity
  8
SK1
  6
Continuous
370
    50
100
AcDbCircle
 10
-48.7875644347
 20
21.78
 30
0.0
 40
1.199999999999972
100
AcDbArc
 50
80.0000074715
 51
150.0
  0
ARC
  5
1BC
330
1F
100
AcDbEntity
  8
SK1
  6
Continuous
370
    50
100
AcDbCircle
 10
-48.9999992969
 20
-22.0425362565
 30
0.0
 40
1.000000703718402
100
AcDbArc
 50
179.9979226576
 51
182.2218028783
  0
ARC
  5
1BD
330
1F
100
AcDbEntity
  8
SK1
  6
Continuous
370
    50
100
AcDbCircle
 10
-48.9999992969
 20
22.0425362565
 30
0.0
 40
1.000000703718401
100
AcDbArc
 50
177.7781971217
 51
180.0020773424
  0
ARC
  5
1BE
330
1F
100
AcDbEntity
  8
1
100
AcDbCircle
 10
80.3000012856
 20
23.4315361218
 30
0.0
 40
10.00000103715001
100
AcDbArc
 50
179.9999971571
 51
210.0
  0
ARC
  5
1BF
330
1F
100
AcDbEntity
  8
1
100
AcDbCircle
 10
85.405555477
 20
-47.1922767268
 30
0.0
 40
0.8030473571620769
100
AcDbArc
 50
260.2561570852999
 51
359.2589836545
  0
ARC
  5
1C0
330
1F
100
AcDbEntity
  8
1
100
AcDbCircle
 10
85.40722055
 20
-47.1971122732
 30
0.0
 40
0.8013444761220218
100
AcDbArc
 50
260.3430930433
 51
0.0
  0
ARC
  5
1C1
330
1F
100
AcDbEntity
  8
CUT
100
AcDbCircle
 10
86.2
 20
-36.928764607
 30
0.0
 40
0.799999999999983
100
AcDbArc
 50
0.0
 51
55.8982516337
  0
ARC
  5
1C2
330
1F
100
AcDbEntity
  8
CUT
100
AcDbCircle
 10
86.2
 20
-36.928764607
 30
0.0
 40
0.2155454901021869
100
AcDbArc
 50
0.0
 51
80.0
  0
ARC
  5
1C3
330
1F
100
AcDbEntity
  8
CUT
100
AcDbCircle
 10
86.2
 20
-48.1999999989
 30
0.0
 40
0.8000000000000114
100
AcDbArc
 50
260.0
 51
0.0
  0
ARC
  5
1C4
330
1F
100
AcDbEntity
  8
CUT
100
AcDbCircle
 10
86.2
 20
-48.1999999989
 30
0.0
 40
0.2155454901021869
100
AcDbArc
 50
260.0
 51
0.0
  0
ARC
  5
1C5
330
1F
100
AcDbEntity
  8
CUT
100
AcDbCircle
 10
75.1000000999
 20
-46.2427699466
 30
0.0
 40
0.2155449149913125
100
AcDbArc
 50
180.0
 51
260.0004960922
  0
ARC
  5
1C6
330
1F
100
AcDbEntity
  8
CUT
100
AcDbCircle
 10
75.1000000999
 20
-46.2427699466
 30
0.0
 40
0.8000004677364814
100
AcDbArc
 50
180.0
 51
259.9999760513
  0
ARC
  5
1C7
330
1F
100
AcDbEntity
  8
CUT
  6
Continuous
100
AcDbCircle
 10
75.0999992907
 20
46.242770513
 30
0.0
 40
0.8000007093001625
100
AcDbArc
 50
100.0
 51
180.0000505205
  0
ARC
  5
1C8
330
1F
100
AcDbEntity
  8
CUT
  6
Continuous
100
AcDbCircle
 10
86.2000006924
 20
48.2000011598
 30
0.0
 40
0.800000190565605
100
AcDbArc
 50
359.9997785444999
 51
100.0000123129
  0
ARC
  5
1C9
330
1F
100
AcDbEntity
  8
CUT
  6
Continuous
100
AcDbCircle
 10
86.1999996312
 20
36.9287626758
 30
0.0
 40
0.7999987483002426
100
AcDbArc
 50
280.0
 51
0.0000622162
  0
ARC
  5
1CA
330
1F
100
AcDbEntity
  8
CUT
  6
Continuous
100
AcDbCircle
 10
75.0999992907
 20
34.9715351211
 30
0.0
 40
0.8000007092999982
100
AcDbArc
 50
179.9999939338
 51
280.0
  0
CIRCLE
  5
1CB
330
1F
100
AcDbEntity
  8
CUT
100
AcDbCircle
 10
80.65
 20
41.58576756
 30
0.0
 40
3.784065056533976
  0
CIRCLE
  5
1CC
330
1F
100
AcDbEntity
  8
CUT
100
AcDbCircle
 10
80.65
 20
41.58576756
 30
0.0
 40
3.749999999999986
  0
ARC
  5
1CD
330
1F
100
AcDbEntity
  8
1
100
AcDbCircle
 10
80.457
 20
41.35576756
 30
0.0
 40
3.499998858950129
100
AcDbArc
 50
274.4701861222998
 51
180.0000197098
  0
ARC
  5
1CE
330
1F
100
AcDbEntity
  8
1
100
AcDbCircle
 10
80.457
 20
41.35576756
 30
0.0
 40
1.969999999999986
100
AcDbArc
 50
330.0
 51
30.0
  0
ARC
  5
1CF
330
1F
100
AcDbEntity
  8
1
100
AcDbCircle
 10
80.457
 20
41.35576756
 30
0.0
 40
1.969999999999999
100
AcDbArc
 50
30.0
 51
89.9999999992
  0
ARC
  5
1D0
330
1F
100
AcDbEntity
  8
1
100
AcDbCircle
 10
80.457
 20
41.35576756
 30
0.0
 40
1.97000000000002
100
AcDbArc
 50
89.9999999992
 51
149.9999999998
  0
ARC
  5
1D1
330
1F
100
AcDbEntity
  8
1
100
AcDbCircle
 10
80.457
 20
41.35576756
 30
0.0
 40
1.97000000000002
100
AcDbArc
 50
149.9999999998
 51
209.9999999997
  0
ARC
  5
1D2
330
1F
100
AcDbEntity
  8
1
100
AcDbCircle
 10
80.457
 20
41.35576756
 30
0.0
 40
1.969999999999994
100
AcDbArc
 50
209.9999999997
 51
270.0
  0
ARC
  5
1D3
330
1F
100
AcDbEntity
  8
1
100
AcDbCircle
 10
80.457
 20
41.35576756
 30
0.0
 40
1.969999999999972
100
AcDbArc
 50
270.0
 51
330.0
  0
ARC
  5
1D4
330
1F
100
AcDbEntity
  8
1
100
AcDbCircle
 10
79.0107375757
 20
40.52076756
 30
0.0
 40
0.3000000000340584
100
AcDbArc
 50
209.9999999981
 51
296.6158381937
  0
ARC
  5
1D5
330
1F
100
AcDbEntity
  8
1
100
AcDbCircle
 10
79.4587438162
 20
39.6267371307
 30
0.0
 40
0.6999999999656399
100
AcDbArc
 50
3.3841618063
 51
116.6158381913
  0
ARC
  5
1D6
330
1F
100
AcDbEntity
  8
1
100
AcDbCircle
 10
80.4569999999
 20
39.6857675599
 30
0.0
 40
0.2999999999666869
100
AcDbArc
 50
183.3841618001
 51
270.0000000117
  0
ARC
  5
1D7
330
1F
100
AcDbEntity
  8
1
100
AcDbCircle
 10
81.4552561837
 20
39.6267371307
 30
0.0
 40
0.700000000000034
100
AcDbArc
 50
63.3841618064
 51
176.6158381937
  0
ARC
  5
1D8
330
1F
100
AcDbEntity
  8
1
100
AcDbCircle
 10
81.9032624243
 20
40.52076756
 30
0.0
 40
0.3000000000066035
100
AcDbArc
 50
243.3841617909
 51
330.0000000044
  0
ARC
  5
1D9
330
1F
100
AcDbEntity
  8
1
100
AcDbCircle
 10
80.4569999999
 20
39.6857675599
 30
0.0
 40
0.2999999999666872
100
AcDbArc
 50
270.0000000117
 51
356.6158382021
  0
ARC
  5
1DA
330
1F
100
AcDbEntity
  8
1
100
AcDbCircle
 10
82.4535123675
 20
41.35576756
 30
0.0
 40
0.7000000000000152
100
AcDbArc
 50
123.3841618045
 51
236.6158381947
  0
ARC
  5
1DB
330
1F
100
AcDbEntity
  8
1
100
AcDbCircle
 10
81.9032624243
 20
42.19076756
 30
0.0
 40
0.2999999999967049
100
AcDbArc
 50
303.3841618052
 51
29.9999999977
  0
ARC
  5
1DC
330
1F
100
AcDbEntity
  8
1
100
AcDbCircle
 10
81.9032624243
 20
40.52076756
 30
0.0
 40
0.300000000006579
100
AcDbArc
 50
330.0000000044
 51
56.6158381948
  0
ARC
  5
1DD
330
1F
100
AcDbEntity
  8
1
100
AcDbCircle
 10
79.0107375757
 20
42.19076756
 30
0.0
 40
0.300000000008662
100
AcDbArc
 50
150.0000000019
 51
236.6158381937
  0
ARC
  5
1DE
330
1F
100
AcDbEntity
  8
1
100
AcDbCircle
 10
78.4604876324
 20
41.35576756
 30
0.0
 40
0.7000000000254435
100
AcDbArc
 50
303.3841618063
 51
56.6158381873
  0
ARC
  5
1DF
330
1F
100
AcDbEntity
  8
1
100
AcDbCircle
 10
79.0107375757
 20
40.52076756
 30
0.0
 40
0.3000000000340584
100
AcDbArc
 50
123.3841618212
 51
209.9999999981
  0
ARC
  5
1E0
330
1F
100
AcDbEntity
  8
1
100
AcDbCircle
 10
80.457
 20
43.02576756
 30
0.0
 40
0.2999999999666993
100
AcDbArc
 50
89.9999999917
 51
176.6158381814
  0
ARC
  5
1E1
330
1F
100
AcDbEntity
  8
1
100
AcDbCircle
 10
79.4587438162
 20
43.0847979893
 30
0.0
 40
0.7000000000166161
100
AcDbArc
 50
243.3841618063
 51
356.6158381978
  0
ARC
  5
1E2
330
1F
100
AcDbEntity
  8
1
100
AcDbCircle
 10
79.0107375757
 20
42.19076756
 30
0.0
 40
0.300000000008662
100
AcDbArc
 50
63.38416181189999
 51
150.0000000019
  0
ARC
  5
1E3
330
1F
100
AcDbEntity
  8
1
100
AcDbCircle
 10
81.4552561837
 20
43.0847979892
 30
0.0
 40
0.7000000000000176
100
AcDbArc
 50
183.3841618063
 51
296.6158381937
  0
ARC
  5
1E4
330
1F
100
AcDbEntity
  8
1
100
AcDbCircle
 10
80.457
 20
43.02576756
 30
0.0
 40
0.299999999966698
100
AcDbArc
 50
3.3841617979
 51
89.9999999917
  0
ARC
  5
1E5
330
1F
100
AcDbEntity
  8
1
100
AcDbCircle
 10
81.9032624243
 20
42.19076756
 30
0.0
 40
0.2999999999967049
100
AcDbArc
 50
29.9999999977
 51
116.6158382031
  0
ARC
  5
1E6
330
1F
100
AcDbEntity
  8
1
100
AcDbCircle
 10
75.304999399
 20
35.2158451119
 30
0.0
 40
2.600000784509481
100
AcDbArc
 50
140.0000790555
 51
320.0
  0
ARC
  5
1E7
330
1F
100
AcDbEntity
  8
1
100
AcDbCircle
 10
31.5179404129
 20
107.2109752482
 30
0.0
 40
62.39092705093631
100
AcDbArc
 50
266.4166726548
 51
269.8916900229
  0
ARC
  5
1E8
330
1F
100
AcDbEntity
  8
1
100
AcDbCircle
 10
28.0389554548
 20
59.0059572676
 30
0.0
 40
14.07021569901653
100
AcDbArc
 50
264.6935755705
 51
268.2876002912
  0
ARC
  5
1E9
330
1F
100
AcDbEntity
  8
1
100
AcDbCircle
 10
31.5179404129
 20
-107.2109752482
 30
0.0
 40
62.39092705099076
100
AcDbArc
 50
90.10830997710002
 51
93.5833273452
  0
ARC
  5
1EA
330
1F
100
AcDbEntity
  8
1
100
AcDbCircle
 10
28.0389554548
 20
-59.0059572676
 30
0.0
 40
14.07021569897093
100
AcDbArc
 50
91.7123997088
 51
95.3064244295
  0
ARC
  5
1EB
330
1F
100
AcDbEntity
  8
1
100
AcDbCircle
 10
26.5822873157
 20
37.7861251059
 30
0.0
 40
7.230535536952035
100
AcDbArc
 50
56.9613017953
 51
81.7605249272
  0
ARC
  5
1EC
330
1F
100
AcDbEntity
  8
1
100
AcDbCircle
 10
39.999803603
 20
52.0003842552
 30
0.0
 40
12.50010033366594
100
AcDbArc
 50
220.7095986146
 51
269.9999858282
  0
ARC
  5
1ED
330
1F
100
AcDbEntity
  8
3
100
AcDbCircle
 10
26.2
 20
43.05
 30
0.0
 40
1.999999999999984
100
AcDbArc
 50
74.4482348034
 51
75.4285239555
  0
ARC
  5
1EE
330
1F
100
AcDbEntity
  8
3
100
AcDbCircle
 10
26.2
 20
-43.05
 30
0.0
 40
2.000000000000011
100
AcDbArc
 50
284.5783679165
 51
285.5585812528
  0
ARC
  5
1EF
330
1F
100
AcDbEntity
  8
1
100
AcDbCircle
 10
40.0745296113
 20
-51.9975067339
 30
0.0
 40
12.49943061325799
100
AcDbArc
 50
90.3361014702
 51
145.0832687343
  0
ELLIPSE
  5
1F0
330
1F
100
AcDbEntity
  8
1
100
AcDbEllipse
 10
74.4469490708
 20
0.0000002892
 30
0.0
 11
-1.705302565824240E-13
 21
46.27017280445494
 31
0.0
210
0.0
220
0.0
230
1.0
 40
0.1139586078
 41
3.125823644910906
 42
3.158236663608995
  0
ELLIPSE
  5
1F1
330
1F
100
AcDbEntity
  8
1
100
AcDbEllipse
 10
126.8882674016
 20
0.0
 30
0.0
 11
55.52633246629274
 21
5.828670879282072E-13
 31
0.0
210
0.0
220
0.0
230
1.0
 40
0.9843316493
 41
3.7427739613004
 42
3.774334504670548
  0
ELLIPSE
  5
1F2
330
1F
100
AcDbEntity
  8
1
100
AcDbEllipse
 10
84.9893494113
 20
-19.5
 30
0.0
 11
-1.136868377216160E-13
 21
11.07499999999997
 31
0.0
210
0.0
220
0.0
230
1.0
 40
0.1051042353
 41
1.570796363119839
 42
4.71238898038469
  0
ELLIPSE
  5
1F3
330
1F
100
AcDbEntity
  8
1
100
AcDbEllipse
 10
86.7547532478
 20
0.0000003451
 30
0.0
 11
-4.831690603168681E-13
 21
47.48892293529758
 31
0.0
210
0.0
220
0.0
230
1.0
 40
0.1049130442
 41
2.318256467480136
 42
3.031738186001864
  0
ELLIPSE
  5
1F4
330
1F
100
AcDbEntity
  8
1
100
AcDbEllipse
 10
40.7846096908
 20
0.0
 30
0.0
 11
-4.689582056016661E-13
 21
44.99999999999999
 31
0.0
210
0.0
220
0.0
230
1.0
 40
0.5773502692
 41
0.9272952180016126
 42
2.214297435588183
  0
DIMENSION
  5
1F5
330
1F
100
AcDbEntity
  8
SK2
100
AcDbDimension
280
     0
  2
_D
 10
-58.324944767
 20
-23.0000000447
 30
0.0
 11
-58.324944767
 21
0.0
 31
0.0
 70
   160
  1
%%c<>
 71
     5
 42
46.0000000894
 73
     0
 74
     0
 75
     0
  3
SLDDIMSTYLE0
100
AcDbAlignedDimension
 13
-43.9999997616
 23
23.0000000447
 33
0.0
 14
-43.9999997616
 24
-23.0000000447
 34
0.0
 50
90.0
100
AcDbRotatedDimension
1001
ACAD
1000
DSTYLE
1002
{
1070
   140
1040
3.5
1070
   340
1005
25B
1070
   177
1070
   256
1070
   176
1070
   256
1070
   178
1070
   256
1070
   347
1005
14
1070
   346
1005
14
1070
   345
1005
14
1002
}
  0
DIMENSION
  5
201
330
1F
100
AcDbEntity
  8
2
  6
Continuous
370
    25
100
AcDbDimension
280
     0
  2
_D_1
 10
-66.70069311270771
 20
-44.98958820581586
 30
0.0
 11
-66.6937707933
 21
0.0104125174
 31
0.0
 70
   160
  1
%%c<>
 71
     5
 42
90.00000251134433
 73
     0
 74
     0
 75
     0
  3
SLDDIMSTYLE0
100
AcDbAlignedDimension
 13
0.9950000094
 23
45.0000017881
 33
0.0
 14
0.9950000094
 24
-45.0000017881
 34
0.0
 50
89.99118622939999
100
AcDbRotatedDimension
1001
ACAD
1000
DSTYLE
1002
{
1070
   140
1040
3.5
1070
   340
1005
25B
1070
   177
1070
   256
1070
   176
1070
   256
1070
   178
1070
   256
1070
   347
1005
14
1070
   346
1005
14
1070
   345
1005
14
1002
}
  0
DIMENSION
  5
20C
330
1F
100
AcDbEntity
  8
2
  6
Continuous
370
    25
100
AcDbDimension
280
     0
  2
_D_2
 10
0.0
 20
58.396739138
 30
0.0
 11
43.5000004415
 21
58.396739138
 31
0.0
 70
   160
  1
<>
 71
     5
 42
87.0000008829
 73
     0
 74
     0
 75
     0
  3
SLDDIMSTYLE0
100
AcDbAlignedDimension
 13
87.0000008829
 23
48.1999980677
 33
0.0
 14
0.0
 24
44.0049991012
 34
0.0
100
AcDbRotatedDimension
1001
ACAD
1000
DSTYLE
1002
{
1070
   140
1040
3.5
1070
   340
1005
25B
1070
   177
1070
   256
1070
   176
1070
   256
1070
   178
1070
   256
1070
   347
1005
14
1070
   346
1005
14
1070
   345
1005
14
1002
}
  0
DIMENSION
  5
216
330
1F
100
AcDbEntity
  8
2
  6
Continuous
370
    25
100
AcDbDimension
280
     0
  2
_D_3
 10
98.15263940274271
 20
-48.98784626176224
 30
0.0
 11
98.1526396477
 21
0.0000005989
 31
0.0
 70
   160
  1
%%c98 - 153
 71
     5
 42
97.9756937213
 73
     0
 74
     0
 75
     0
  3
SLDDIMSTYLE0
100
AcDbAlignedDimension
 13
86.0610819478
 23
48.98784752
 33
0.0
 14
86.0610814579
 24
-48.9878462013
 34
0.0
 50
89.9999997135
100
AcDbRotatedDimension
1001
ACAD
1000
DSTYLE
1002
{
1070
   140
1040
3.5
1070
   340
1005
25B
1070
   177
1070
   256
1070
   176
1070
   256
1070
   178
1070
   256
1070
   347
1005
14
1070
   346
1005
14
1070
   345
1005
14
1002
}
  0
LINE
  5
2E8
330
1F
100
AcDbEntity
  8
1
100
AcDbLine
 10
78.2834291458
 20
34.7205176949
 30
0.0
 11
86.33891795597816
 21
36.14091770607386
 31
0.0
  0
LINE
  5
2E9
330
1F
100
AcDbEntity
  8
1
100
AcDbLine
 10
86.33891795597816
 20
36.14091770607386
 30
0.0
 11
86.6499990225
 21
36.14091770607386
 31
0.0
  0
LINE
  5
2EA
330
1F
100
AcDbEntity
  8
1
100
AcDbLine
 10
86.33891795597816
 20
36.14091770607386
 30
0.0
 11
86.1999996312
 21
36.9287626758
 31
0.0
  0
LINE
  5
2EB
330
1F
100
AcDbEntity
  8
1
100
AcDbLine
 10
86.1999996312
 20
36.9287626758
 30
0.0
 11
86.1999996312
 21
48.19353336555998
 31
0.0
  0
LINE
  5
2EC
330
1F
100
AcDbEntity
  8
1
100
AcDbLine
 10
86.1999996312
 20
48.19353336555998
 30
0.0
 11
75.0999992907
 21
46.242770513
 31
0.0
  0
LINE
  5
2ED
330
1F
100
AcDbEntity
  8
1
100
AcDbLine
 10
75.0999992907
 20
46.242770513
 30
0.0
 11
74.29884920122154
 21
46.242770513
 31
0.0
  0
LINE
  5
2EE
330
1F
100
AcDbEntity
  8
1
100
AcDbLine
 10
74.29884920122154
 20
46.242770513
 30
0.0
 11
74.2999985814
 21
38.0630157888
 31
0.0
  0
LINE
  5
2F5
330
1F
100
AcDbEntity
  8
CUT
100
AcDbLine
 10
75.2389179560022
 20
34.18368822016609
 30
0.0
 11
86.33891795597816
 21
36.14091770607386
 31
0.0
  0
LINE
  5
2F6
330
1F
100
AcDbEntity
  8
CUT
100
AcDbLine
 10
74.2999985814
 20
34.9715352058002
 30
0.0
 11
74.29999858140015
 21
46.24276980760013
 31
0.0
  0
LINE
  5
2F8
330
1F
100
AcDbEntity
  8
NOCUT
100
AcDbLine
 10
0.0
 20
0.0
 30
0.0
 11
82.28119978890727
 21
0.0
 31
0.0
  0
LINE
  5
2F9
330
1F
100
AcDbEntity
  8
NOCUT
100
AcDbLine
 10
82.28119978890727
 20
0.0
 30
0.0
 11
86.6499990225
 21
7.5669870712
 31
0.0
  0
LINE
  5
300
330
1F
100
AcDbEntity
  8
NOCUT
100
AcDbLine
 10
74.29884920122154
 20
46.242770513
 30
0.0
 11
67.1904683113
 21
44.9995547533
 31
0.0
  0
LINE
  5
301
330
1F
100
AcDbEntity
  8
NOCUT
100
AcDbLine
 10
67.1904683113
 20
44.9995547533
 30
0.0
 11
29.5814608112681
 21
44.85242147564342
 31
0.0
  0
LINE
  5
302
330
1F
100
AcDbEntity
  8
NOCUT
100
AcDbLine
 10
29.5814608112681
 20
44.85242147564342
 30
0.0
 11
27.61850133536255
 21
44.94202509520778
 31
0.0
  0
LINE
  5
303
330
1F
100
AcDbEntity
  8
NOCUT
100
AcDbLine
 10
27.61850133536255
 20
44.94202509520778
 30
0.0
 11
26.7166877165
 21
44.99199055135
 31
0.0
  0
LINE
  5
304
330
1F
100
AcDbEntity
  8
NOCUT
100
AcDbLine
 10
26.7166877165
 20
44.99199055135
 30
0.0
 11
1.005647047227701
 21
44.99199055135
 31
0.0
  0
LINE
  5
305
330
1F
100
AcDbEntity
  8
NOCUT
100
AcDbLine
 10
1.005647047227701
 20
44.99199055135
 30
0.0
 11
0.0
 21
44.0049991012
 31
0.0
  0
LINE
  5
306
330
1F
100
AcDbEntity
  8
NOCUT
100
AcDbLine
 10
0.0
 20
44.0049991012
 30
0.0
 11
0.0
 21
0.0
 31
0.0
  0
LWPOLYLINE
  5
30E
330
1F
100
AcDbEntity
  8
INFTOTAL
100
AcDbPolyline
 90
        4
 70
     1
 43
0.0
 10
155.7070786558915
 20
79.01115598042921
 10
155.7070786558915
 20
-72.90957572688777
 10
-100.8477993928889
 20
-72.90957572688777
 10
-100.8477993928889
 20
79.01115598042921
  0
LINE
  5
325
330
1F
100
AcDbEntity
  8
NOCUT
100
AcDbLine
 10
74.29884920122154
 20
46.242770513
 30
0.0
 11
75.0999992907
 21
46.242770513
 31
0.0
  0
LINE
  5
326
330
1F
100
AcDbEntity
  8
NOCUT
100
AcDbLine
 10
75.0999992907
 20
46.242770513
 30
0.0
 11
86.1999996312
 21
48.19353336555998
 31
0.0
  0
LINE
  5
327
330
1F
100
AcDbEntity
  8
NOCUT
100
AcDbLine
 10
86.1999996312
 20
48.19353336555998
 30
0.0
 11
86.1999996312
 21
36.9287626758
 31
0.0
  0
LINE
  5
328
330
1F
100
AcDbEntity
  8
NOCUT
100
AcDbLine
 10
86.1999996312
 20
36.9287626758
 30
0.0
 11
86.33891795597816
 21
36.14091770607386
 31
0.0
  0
LINE
  5
329
330
1F
100
AcDbEntity
  8
NOCUT
100
AcDbLine
 10
86.33891795597816
 20
36.14091770607386
 30
0.0
 11
86.6499990225
 21
36.14091770607386
 31
0.0
  0
LINE
  5
32A
330
1F
100
AcDbEntity
  8
NOCUT
100
AcDbLine
 10
86.6499990225
 20
36.14091770607386
 30
0.0
 11
86.6499990225
 21
7.5669870712
 31
0.0
  0
LINE
  5
32F
330
1F
100
AcDbEntity
  8
SK4
100
AcDbLine
 10
-52.6202427541
 20
-0.0000000447
 30
0.0
 11
-0.0078394878692265
 21
-0.0000000447
 31
0.0
  0
LINE
  5
351
330
1F
100
AcDbEntity
  8
SK3
100
AcDbLine
 10
-4.7457981855
 20
5.4416614585
 30
0.0
 11
0.0000000000000036
 21
10.39110382498061
 31
0.0
  0
LINE
  5
352
330
1F
100
AcDbEntity
  8
SK3
100
AcDbLine
 10
-4.7385767103
 20
-5.4491930641
 30
0.0
 11
0.0
 21
-10.39110450443489
 31
0.0
  0
ENDSEC
  0
SECTION
  2
OBJECTS
  0
DICTIONARY
  5
C
330
0
100
AcDbDictionary
281
     1
  3
ACAD_DETAILVIEWSTYLE
350
2F2
  3
ACAD_GROUP
350
D
  3
ACAD_LAYOUT
350
243
  3
ACAD_MATERIAL
350
257
  3
ACAD_MLEADERSTYLE
350
26F
  3
ACAD_MLINESTYLE
350
17
  3
ACAD_PLOTSETTINGS
350
2B1
  3
ACAD_PLOTSTYLENAME
350
2B2
  3
ACAD_SCALELIST
350
221
  3
ACAD_SECTIONVIEWSTYLE
350
2F3
  3
ACAD_TABLESTYLE
350
2BE
  3
ACAD_VISUALSTYLE
350
246
  3
ACDB_RECOMPOSE_DATA
350
384
  3
AcDbVariableDictionary
350
26D
  3
APPDATA
350
2C1
  0
SUN
  5
30F
330
29
100
AcDbSun
 90
        1
290
     0
 63
     7
421
 16777215
 40
1.0
291
     1
 91
  2455826
 92
 54000000
292
     0
 70
     2
 71
   256
280
     1
  0
DICTIONARY
  5
2C2
330
2
100
AcDbDictionary
280
     1
281
     1
  3
ACAD_LAYERSTATES
360
2C3
  0
DICTIONARY
  5
2F2
102
{ACAD_REACTORS
330
C
102
}
330
C
100
AcDbDictionary
281
     1
  0
DICTIONARY
  5
D
102
{ACAD_REACTORS
330
C
102
}
330
C
100
AcDbDictionary
281
     1
  0
DICTIONARY
  5
243
102
{ACAD_REACTORS
330
C
102
}
330
C
100
AcDbDictionary
281
     1
  3
Layout1
350
245
  3
Model
350
244
  0
DICTIONARY
  5
257
102
{ACAD_REACTORS
330
C
102
}
330
C
100
AcDbDictionary
281
     1
  3
ByBlock
350
259
  3
ByLayer
350
258
  3
Global
350
25A
  0
DICTIONARY
  5
26F
102
{ACAD_REACTORS
330
C
102
}
330
C
100
AcDbDictionary
281
     1
  3
Standard
350
2C0
  0
DICTIONARY
  5
17
102
{ACAD_REACTORS
330
C
102
}
330
C
100
AcDbDictionary
281
     1
  3
STANDARD
350
18
  0
DICTIONARY
  5
2B1
102
{ACAD_REACTORS
330
C
102
}
330
C
100
AcDbDictionary
281
     1
  0
ACDBDICTIONARYWDFLT
  5
2B2
102
{ACAD_REACTORS
330
C
102
}
330
C
100
AcDbDictionary
281
     1
  3
Normal
350
2B3
100
AcDbDictionaryWithDefault
340
2B3
  0
DICTIONARY
  5
221
102
{ACAD_REACTORS
330
C
102
}
330
C
100
AcDbDictionary
281
     1
  3
A0
350
222
  3
A1
350
223
  3
A2
350
224
  3
A3
350
225
  3
A4
350
226
  3
A5
350
227
  3
A6
350
228
  3
A7
350
229
  3
A8
350
22A
  3
A9
350
22B
  3
B0
350
22C
  3
B1
350
22D
  3
B2
350
22E
  3
B3
350
22F
  3
B4
350
230
  3
B5
350
231
  3
B6
350
232
  3
B7
350
233
  3
B8
350
234
  3
B9
350
235
  3
C0
350
236
  3
C1
350
237
  3
C2
350
238
  3
C3
350
239
  3
C4
350
23A
  3
C5
350
23B
  3
C6
350
23C
  3
C7
350
23D
  3
C8
350
23E
  3
C9
350
23F
  3
D0
350
240
  3
D1
350
241
  3
D2
350
242
  0
DICTIONARY
  5
2F3
102
{ACAD_REACTORS
330
C
102
}
330
C
100
AcDbDictionary
281
     1
  0
DICTIONARY
  5
2BE
102
{ACAD_REACTORS
330
C
102
}
330
C
100
AcDbDictionary
281
     1
  3
Standard
350
2BF
  0
DICTIONARY
  5
246
102
{ACAD_REACTORS
330
C
102
}
330
C
100
AcDbDictionary
281
     1
  3
2dWireframe
350
24B
  3
3D Hidden
350
24D
  3
3dWireframe
350
24C
  3
Basic
350
24E
  3
Brighten
350
252
  3
ColorChange
350
256
  3
Conceptual
350
250
  3
Dim
350
251
  3
EdgeColorOff
350
2B8
  3
Facepattern
350
255
  3
Flat
350
247
  3
FlatWithEdges
350
248
  3
Gouraud
350
249
  3
GouraudWithEdges
350
24A
  3
Hidden
350
2B5
  3
JitterOff
350
2B6
  3
Linepattern
350
254
  3
OverhangOff
350
2B7
  3
Realistic
350
24F
  3
Shaded
350
2BD
  3
Shaded with edges
350
2BC
  3
Shades of Gray
350
2B9
  3
Sketchy
350
2BA
  3
Thicken
350
253
  3
Wireframe
350
2B4
  3
X-Ray
350
2BB
  0
XRECORD
  5
384
102
{ACAD_REACTORS
330
C
102
}
330
C
100
AcDbXrecord
280
     1
 90
        1
330
2BF
  0
DICTIONARY
  5
26D
102
{ACAD_REACTORS
330
C
102
}
330
C
100
AcDbDictionary
281
     1
  3
CANNOSCALE
350
2EF
  3
CMLEADERSTYLE
350
2F1
  3
CTABLESTYLE
350
2F0
  3
DIMASSOC
350
271
  3
HIDETEXT
350
272
  3
MSLTSCALE
350
270
  0
DICTIONARY
  5
2C1
102
{ACAD_REACTORS
330
C
102
}
330
C
100
AcDbDictionary
281
     1
  0
DICTIONARY
  5
2C3
102
{ACAD_REACTORS
330
2C2
102
}
330
2C2
100
AcDbDictionary
281
     1
  0
LAYOUT
  5
245
102
{ACAD_REACTORS
330
243
102
}
330
243
100
AcDbPlotSettings
  1

  2
none_device
  4

  6

 40
0.0
 41
0.0
 42
0.0
 43
0.0
 44
0.0
 45
0.0
 46
0.0
 47
0.0
 48
0.0
 49
0.0
140
0.0
141
0.0
142
1.0
143
1.0
 70
   688
 72
     0
 73
     0
 74
     5
  7

 75
    16
 76
     0
 77
     2
 78
   300
147
1.0
148
0.0
149
0.0
100
AcDbLayout
  1
Layout1
 70
     1
 71
     1
 10
0.0
 20
0.0
 11
420.0
 21
297.0
 12
0.0
 22
0.0
 32
0.0
 14
1.000000000000000E+20
 24
1.000000000000000E+20
 34
1.000000000000000E+20
 15
-1.000000000000000E+20
 25
-1.000000000000000E+20
 35
-1.000000000000000E+20
146
0.0
 13
0.0
 23
0.0
 33
0.0
 16
1.0
 26
0.0
 36
0.0
 17
0.0
 27
1.0
 37
0.0
 76
     0
330
1B
  0
LAYOUT
  5
244
102
{ACAD_REACTORS
330
243
102
}
330
243
100
AcDbPlotSettings
  1

  2
none_device
  4

  6

 40
0.0
 41
0.0
 42
0.0
 43
0.0
 44
0.0
 45
0.0
 46
0.0
 47
0.0
 48
0.0
 49
0.0
140
0.0
141
0.0
142
1.0
143
1.0
 70
  1712
 72
     0
 73
     0
 74
     0
  7

 75
     0
 76
     0
 77
     2
 78
   300
147
1.0
148
0.0000001104899866
149
0.0
100
AcDbLayout
  1
Model
 70
     1
 71
     0
 10
0.0
 20
0.0
 11
210.0
 21
297.0
 12
0.0
 22
0.0
 32
0.0
 14
-100.8477993928889
 24
-72.90957572688777
 34
0.0
 15
155.7070786558915
 25
79.01115598042921
 35
0.0
146
0.0
 13
0.0
 23
0.0
 33
0.0
 16
1.0
 26
0.0
 36
0.0
 17
0.0
 27
1.0
 37
0.0
 76
     0
330
1F
331
29
  0
MATERIAL
  5
259
102
{ACAD_REACTORS
330
257
102
}
330
257
100
AcDbMaterial
  1
ByBlock
 72
     1
 94
      127
  0
MATERIAL
  5
258
102
{ACAD_REACTORS
330
257
102
}
330
257
100
AcDbMaterial
  1
ByLayer
 72
     1
 94
      127
  0
MATERIAL
  5
25A
102
{ACAD_REACTORS
330
257
102
}
330
257
100
AcDbMaterial
  1
Global
 72
     1
 94
      127
  0
MLEADERSTYLE
  5
2C0
102
{ACAD_REACTORS
330
26F
102
}
330
26F
100
AcDbMLeaderStyle
179
     2
170
     2
171
     1
172
     0
 90
        2
 40
0.0
 41
0.0
173
     1
 91
-1056964608
340
14
 92
       -2
290
     1
 42
2.0
291
     1
 43
8.0
  3
Standard
341
0
 44
4.0
300

342
11
174
     1
178
     1
175
     1
176
     0
 93
-1056964608
 45
4.0
292
     0
297
     0
 46
4.0
343
0
 94
-1056964608
 47
1.0
 49
1.0
140
1.0
293
     1
141
0.0
294
     1
177
     0
142
1.0
295
     0
296
     0
143
3.75
271
     0
272
     9
273
     9
298
     0
  0
MLINESTYLE
  5
18
102
{ACAD_REACTORS
330
17
102
}
330
17
100
AcDbMlineStyle
  2
Standard
 70
     0
  3

 62
   256
 51
90.0
 52
90.0
 71
     2
 49
0.5
 62
   256
  6
BYLAYER
 49
-0.5
 62
   256
  6
BYLAYER
  0
ACDBPLACEHOLDER
  5
2B3
102
{ACAD_REACTORS
330
2B2
102
}
330
2B2
  0
SCALE
  5
222
102
{ACAD_REACTORS
330
221
102
}
330
221
100
AcDbScale
 70
     0
300
1:1
140
1.0
141
1.0
290
     1
  0
SCALE
  5
223
102
{ACAD_REACTORS
330
221
102
}
330
221
100
AcDbScale
 70
     0
300
1:2
140
1.0
141
2.0
290
     0
  0
SCALE
  5
224
102
{ACAD_REACTORS
330
221
102
}
330
221
100
AcDbScale
 70
     0
300
1:4
140
1.0
141
4.0
290
     0
  0
SCALE
  5
225
102
{ACAD_REACTORS
330
221
102
}
330
221
100
AcDbScale
 70
     0
300
1:5
140
1.0
141
5.0
290
     0
  0
SCALE
  5
226
102
{ACAD_REACTORS
330
221
102
}
330
221
100
AcDbScale
 70
     0
300
1:8
140
1.0
141
8.0
290
     0
  0
SCALE
  5
227
102
{ACAD_REACTORS
330
221
102
}
330
221
100
AcDbScale
 70
     0
300
1:10
140
1.0
141
10.0
290
     0
  0
SCALE
  5
228
102
{ACAD_REACTORS
330
221
102
}
330
221
100
AcDbScale
 70
     0
300
1:16
140
1.0
141
16.0
290
     0
  0
SCALE
  5
229
102
{ACAD_REACTORS
330
221
102
}
330
221
100
AcDbScale
 70
     0
300
1:20
140
1.0
141
20.0
290
     0
  0
SCALE
  5
22A
102
{ACAD_REACTORS
330
221
102
}
330
221
100
AcDbScale
 70
     0
300
1:30
140
1.0
141
30.0
290
     0
  0
SCALE
  5
22B
102
{ACAD_REACTORS
330
221
102
}
330
221
100
AcDbScale
 70
     0
300
1:40
140
1.0
141
40.0
290
     0
  0
SCALE
  5
22C
102
{ACAD_REACTORS
330
221
102
}
330
221
100
AcDbScale
 70
     0
300
1:50
140
1.0
141
50.0
290
     0
  0
SCALE
  5
22D
102
{ACAD_REACTORS
330
221
102
}
330
221
100
AcDbScale
 70
     0
300
1:100
140
1.0
141
100.0
290
     0
  0
SCALE
  5
22E
102
{ACAD_REACTORS
330
221
102
}
330
221
100
AcDbScale
 70
     0
300
2:1
140
2.0
141
1.0
290
     0
  0
SCALE
  5
22F
102
{ACAD_REACTORS
330
221
102
}
330
221
100
AcDbScale
 70
     0
300
4:1
140
4.0
141
1.0
290
     0
  0
SCALE
  5
230
102
{ACAD_REACTORS
330
221
102
}
330
221
100
AcDbScale
 70
     0
300
8:1
140
8.0
141
1.0
290
     0
  0
SCALE
  5
231
102
{ACAD_REACTORS
330
221
102
}
330
221
100
AcDbScale
 70
     0
300
10:1
140
10.0
141
1.0
290
     0
  0
SCALE
  5
232
102
{ACAD_REACTORS
330
221
102
}
330
221
100
AcDbScale
 70
     0
300
100:1
140
100.0
141
1.0
290
     0
  0
SCALE
  5
233
102
{ACAD_REACTORS
330
221
102
}
330
221
100
AcDbScale
 70
     0
300
1/128" = 1'-0"
140
0.0078125
141
12.0
290
     0
  0
SCALE
  5
234
102
{ACAD_REACTORS
330
221
102
}
330
221
100
AcDbScale
 70
     0
300
1/64" = 1'-0"
140
0.015625
141
12.0
290
     0
  0
SCALE
  5
235
102
{ACAD_REACTORS
330
221
102
}
330
221
100
AcDbScale
 70
     0
300
1/32" = 1'-0"
140
0.03125
141
12.0
290
     0
  0
SCALE
  5
236
102
{ACAD_REACTORS
330
221
102
}
330
221
100
AcDbScale
 70
     0
300
1/16" = 1'-0"
140
0.0625
141
12.0
290
     0
  0
SCALE
  5
237
102
{ACAD_REACTORS
330
221
102
}
330
221
100
AcDbScale
 70
     0
300
3/32" = 1'-0"
140
0.09375
141
12.0
290
     0
  0
SCALE
  5
238
102
{ACAD_REACTORS
330
221
102
}
330
221
100
AcDbScale
 70
     0
300
1/8" = 1'-0"
140
0.125
141
12.0
290
     0
  0
SCALE
  5
239
102
{ACAD_REACTORS
330
221
102
}
330
221
100
AcDbScale
 70
     0
300
3/16" = 1'-0"
140
0.1875
141
12.0
290
     0
  0
SCALE
  5
23A
102
{ACAD_REACTORS
330
221
102
}
330
221
100
AcDbScale
 70
     0
300
1/4" = 1'-0"
140
0.25
141
12.0
290
     0
  0
SCALE
  5
23B
102
{ACAD_REACTORS
330
221
102
}
330
221
100
AcDbScale
 70
     0
300
3/8" = 1'-0"
140
0.375
141
12.0
290
     0
  0
SCALE
  5
23C
102
{ACAD_REACTORS
330
221
102
}
330
221
100
AcDbScale
 70
     0
300
1/2" = 1'-0"
140
0.5
141
12.0
290
     0
  0
SCALE
  5
23D
102
{ACAD_REACTORS
330
221
102
}
330
221
100
AcDbScale
 70
     0
300
3/4" = 1'-0"
140
0.75
141
12.0
290
     0
  0
SCALE
  5
23E
102
{ACAD_REACTORS
330
221
102
}
330
221
100
AcDbScale
 70
     0
300
1" = 1'-0"
140
1.0
141
12.0
290
     0
  0
SCALE
  5
23F
102
{ACAD_REACTORS
330
221
102
}
330
221
100
AcDbScale
 70
     0
300
1-1/2" = 1'-0"
140
1.5
141
12.0
290
     0
  0
SCALE
  5
240
102
{ACAD_REACTORS
330
221
102
}
330
221
100
AcDbScale
 70
     0
300
3" = 1'-0"
140
3.0
141
12.0
290
     0
  0
SCALE
  5
241
102
{ACAD_REACTORS
330
221
102
}
330
221
100
AcDbScale
 70
     0
300
6" = 1'-0"
140
6.0
141
12.0
290
     0
  0
SCALE
  5
242
102
{ACAD_REACTORS
330
221
102
}
330
221
100
AcDbScale
 70
     0
300
1'-0" = 1'-0"
140
12.0
141
12.0
290
     0
  0
TABLESTYLE
  5
2BF
102
{ACAD_REACTORS
330
2BE
102
}
102
{ACAD_XDICTIONARY
360
382
102
}
330
2BE
100
AcDbTableStyle
  3
Standard
 70
     0
 71
     0
 40
1.5
 41
1.5
280
     0
281
     0
  7
STANDARD
140
4.5
170
     2
 62
     0
 63
   257
283
     0
 90
        4
 91
        0
  1

274
    -2
284
     1
 64
     0
275
    -2
285
     1
 65
     0
276
    -2
286
     1
 66
     0
277
    -2
287
     1
 67
     0
278
    -2
288
     1
 68
     0
279
    -2
289
     1
 69
     0
  7
STANDARD
140
6.0
170
     5
 62
     0
 63
   257
283
     0
 90
        4
 91
        0
  1

274
    -2
284
     1
 64
     0
275
    -2
285
     1
 65
     0
276
    -2
286
     1
 66
     0
277
    -2
287
     1
 67
     0
278
    -2
288
     1
 68
     0
279
    -2
289
     1
 69
     0
  7
STANDARD
140
4.5
170
     5
 62
     0
 63
   257
283
     0
 90
        4
 91
        0
  1

274
    -2
284
     1
 64
     0
275
    -2
285
     1
 65
     0
276
    -2
286
     1
 66
     0
277
    -2
287
     1
 67
     0
278
    -2
288
     1
 68
     0
279
    -2
289
     1
 69
     0
  0
VISUALSTYLE
  5
24B
102
{ACAD_REACTORS
330
246
102
}
330
246
100
AcDbVisualStyle
  2
2dWireframe
 70
     4
177
     3
291
     0
 70
    58
 90
        0
176
     1
 90
        2
176
     1
 90
        0
176
     1
 90
        0
176
     1
 40
-0.6
176
     1
 40
-30.0
176
     1
 62
     7
176
     1
 90
        1
176
     1
 90
        4
176
     1
 62
     7
176
     1
 62
   257
176
     1
 90
        1
176
     1
 90
        1
176
     1
 40
1.0
176
     1
 90
        0
176
     1
 62
   257
176
     1
 40
1.0
176
     1
 90
        1
176
     1
 90
        6
176
     1
 90
        2
176
     1
 62
     7
176
     1
 90
        5
176
     1
 90
        0
176
     1
 90
        0
176
     1
290
     0
176
     1
 90
        1
176
     1
 40
0.0
176
     1
 90
        0
176
     1
290
     1
176
     1
290
     1
176
     1
290
     0
176
     1
290
     0
176
     1
290
     0
176
     1
290
     0
176
     1
290
     0
176
     1
290
     0
176
     1
290
     0
176
     1
 90
       50
176
     1
 40
0.0
176
     1
 40
1.0
176
     1
 90
        0
176
     1
 62
    18
420
        0
176
     1
 90
       50
176
     1
 90
        3
176
     1
 62
     5
420
      255
176
     1
290
     0
176
     1
 90
       50
176
     1
 90
       50
176
     1
 90
       50
176
     1
290
     0
176
     1
 90
       50
176
     1
 62
   256
176
     0
 40
1.0
176
     0
 90
        2
176
     1
  1
strokes_ogs.tif
176
     1
290
     0
176
     1
 40
1.0
176
     1
 40
1.0
176
     1
  0
VISUALSTYLE
  5
24D
102
{ACAD_REACTORS
330
246
102
}
330
246
100
AcDbVisualStyle
  2
3D Hidden
 70
     6
177
     3
291
     0
 70
    58
 90
        1
176
     1
 90
        2
176
     1
 90
        2
176
     1
 90
        0
176
     1
 40
-0.6
176
     1
 40
-30.0
176
     1
 62
     7
176
     1
 90
        2
176
     1
 90
        2
176
     1
 62
     7
176
     1
 62
   257
176
     1
 90
        2
176
     1
 90
        1
176
     1
 40
40.0
176
     1
 90
        0
176
     1
 62
   257
176
     1
 40
1.0
176
     1
 90
        1
176
     1
 90
        6
176
     1
 90
        2
176
     1
 62
     7
176
     1
 90
        3
176
     1
 90
        0
176
     1
 90
        0
176
     1
290
     0
176
     1
 90
        1
176
     1
 40
0.0
176
     1
 90
        0
176
     1
290
     0
176
     1
290
     1
176
     1
290
     1
176
     1
290
     0
176
     1
290
     0
176
     1
290
     0
176
     1
290
     0
176
     1
290
     0
176
     1
290
     0
176
     1
 90
       50
176
     1
 40
0.0
176
     1
 40
1.0
176
     1
 90
        0
176
     1
 62
    18
420
        0
176
     1
 90
       50
176
     1
 90
        3
176
     1
 62
     5
420
      255
176
     1
290
     0
176
     1
 90
       50
176
     1
 90
       50
176
     1
 90
       50
176
     1
290
     0
176
     1
 90
       50
176
     1
 62
   256
176
     0
 40
1.0
176
     0
 90
        2
176
     1
  1
strokes_ogs.tif
176
     1
290
     0
176
     1
 40
1.0
176
     1
 40
1.0
176
     1
  0
VISUALSTYLE
  5
24C
102
{ACAD_REACTORS
330
246
102
}
330
246
100
AcDbVisualStyle
  2
3dWireframe
 70
     5
177
     3
291
     0
 70
    58
 90
        0
176
     1
 90
        2
176
     1
 90
        0
176
     1
 90
        0
176
     1
 40
-0.6
176
     1
 40
-30.0
176
     1
 62
     7
176
     1
 90
        1
176
     1
 90
        4
176
     1
 62
     7
176
     1
 62
   257
176
     1
 90
        1
176
     1
 90
        1
176
     1
 40
1.0
176
     1
 90
        0
176
     1
 62
   257
176
     1
 40
1.0
176
     1
 90
        1
176
     1
 90
        6
176
     1
 90
        2
176
     1
 62
     7
176
     1
 90
        5
176
     1
 90
        0
176
     1
 90
        0
176
     1
290
     0
176
     1
 90
        1
176
     1
 40
0.0
176
     1
 90
        0
176
     1
290
     0
176
     1
290
     1
176
     1
290
     1
176
     1
290
     0
176
     1
290
     0
176
     1
290
     0
176
     1
290
     0
176
     1
290
     0
176
     1
290
     0
176
     1
 90
       50
176
     1
 40
0.0
176
     1
 40
1.0
176
     1
 90
        0
176
     1
 62
    18
420
        0
176
     1
 90
       50
176
     1
 90
        3
176
     1
 62
     5
420
      255
176
     1
290
     0
176
     1
 90
       50
176
     1
 90
       50
176
     1
 90
       50
176
     1
290
     0
176
     1
 90
       50
176
     1
 62
   256
176
     0
 40
1.0
176
     0
 90
        2
176
     1
  1
strokes_ogs.tif
176
     1
290
     0
176
     1
 40
1.0
176
     1
 40
1.0
176
     1
  0
VISUALSTYLE
  5
24E
102
{ACAD_REACTORS
330
246
102
}
330
246
100
AcDbVisualStyle
  2
Basic
 70
     7
177
     3
291
     1
 70
    58
 90
        1
176
     1
 90
        0
176
     1
 90
        1
176
     1
 90
        0
176
     1
 40
-0.6
176
     1
 40
-30.0
176
     1
 62
     7
176
     1
 90
        0
176
     1
 90
        4
176
     1
 62
     7
176
     1
 62
   257
176
     1
 90
        1
176
     1
 90
        1
176
     1
 40
1.0
176
     1
 90
        8
176
     1
 62
     7
176
     1
 40
1.0
176
     1
 90
        1
176
     1
 90
        6
176
     1
 90
        2
176
     1
 62
     7
176
     1
 90
        5
176
     1
 90
        0
176
     1
 90
        0
176
     1
290
     0
176
     1
 90
        1
176
     1
 40
0.0
176
     1
 90
        0
176
     1
290
     0
176
     1
290
     1
176
     1
290
     1
176
     1
290
     0
176
     1
290
     0
176
     1
290
     0
176
     1
290
     0
176
     1
290
     0
176
     1
290
     0
176
     1
 90
       50
176
     1
 40
0.0
176
     1
 40
1.0
176
     1
 90
        0
176
     1
 62
    18
420
        0
176
     1
 90
       50
176
     1
 90
        3
176
     1
 62
     5
420
      255
176
     1
290
     0
176
     1
 90
       50
176
     1
 90
       50
176
     1
 90
       50
176
     1
290
     0
176
     1
 90
       50
176
     1
 62
   256
176
     0
 40
1.0
176
     0
 90
        2
176
     1
  1
strokes_ogs.tif
176
     1
290
     0
176
     1
 40
1.0
176
     1
 40
1.0
176
     1
  0
VISUALSTYLE
  5
252
102
{ACAD_REACTORS
330
246
102
}
330
246
100
AcDbVisualStyle
  2
Brighten
 70
    12
177
     3
291
     1
 70
    58
 90
        2
176
     1
 90
        2
176
     1
 90
        0
176
     1
 90
        0
176
     1
 40
-0.6
176
     1
 40
-30.0
176
     1
 62
     7
176
     1
 90
        1
176
     1
 90
        4
176
     1
 62
     7
176
     1
 62
   257
176
     1
 90
        1
176
     1
 90
        1
176
     1
 40
1.0
176
     1
 90
        8
176
     1
 62
     7
176
     1
 40
1.0
176
     1
 90
        1
176
     1
 90
        6
176
     1
 90
        2
176
     1
 62
     7
176
     1
 90
        5
176
     1
 90
        0
176
     1
 90
        0
176
     1
290
     0
176
     1
 90
        1
176
     1
 40
50.0
176
     1
 90
        0
176
     1
290
     0
176
     1
290
     1
176
     1
290
     1
176
     1
290
     0
176
     1
290
     0
176
     1
290
     0
176
     1
290
     0
176
     1
290
     0
176
     1
290
     0
176
     1
 90
       50
176
     1
 40
0.0
176
     1
 40
1.0
176
     1
 90
        0
176
     1
 62
    18
420
        0
176
     1
 90
       50
176
     1
 90
        3
176
     1
 62
     5
420
      255
176
     1
290
     0
176
     1
 90
       50
176
     1
 90
       50
176
     1
 90
       50
176
     1
290
     0
176
     1
 90
       50
176
     1
 62
   256
176
     0
 40
1.0
176
     0
 90
        2
176
     1
  1
strokes_ogs.tif
176
     1
290
     0
176
     1
 40
1.0
176
     1
 40
1.0
176
     1
  0
VISUALSTYLE
  5
256
102
{ACAD_REACTORS
330
246
102
}
330
246
100
AcDbVisualStyle
  2
ColorChange
 70
    16
177
     3
291
     1
 70
    58
 90
        2
176
     1
 90
        2
176
     1
 90
        3
176
     1
 90
        0
176
     1
 40
-0.6
176
     1
 40
-30.0
176
     1
 62
     8
176
     1
 90
        1
176
     1
 90
        4
176
     1
 62
     7
176
     1
 62
   257
176
     1
 90
        1
176
     1
 90
        1
176
     1
 40
1.0
176
     1
 90
        8
176
     1
 62
     8
176
     1
 40
1.0
176
     1
 90
        1
176
     1
 90
        6
176
     1
 90
        2
176
     1
 62
     7
176
     1
 90
        5
176
     1
 90
        0
176
     1
 90
        0
176
     1
290
     0
176
     1
 90
        1
176
     1
 40
0.0
176
     1
 90
        0
176
     1
290
     0
176
     1
290
     1
176
     1
290
     1
176
     1
290
     0
176
     1
290
     0
176
     1
290
     0
176
     1
290
     0
176
     1
290
     0
176
     1
290
     0
176
     1
 90
       50
176
     1
 40
0.0
176
     1
 40
1.0
176
     1
 90
        0
176
     1
 62
    18
420
        0
176
     1
 90
       50
176
     1
 90
        3
176
     1
 62
     5
420
      255
176
     1
290
     0
176
     1
 90
       50
176
     1
 90
       50
176
     1
 90
       50
176
     1
290
     0
176
     1
 90
       50
176
     1
 62
   256
176
     0
 40
1.0
176
     0
 90
        2
176
     1
  1
strokes_ogs.tif
176
     1
290
     0
176
     1
 40
1.0
176
     1
 40
1.0
176
     1
  0
VISUALSTYLE
  5
250
102
{ACAD_REACTORS
330
246
102
}
330
246
100
AcDbVisualStyle
  2
Conceptual
 70
     9
177
     3
291
     0
 70
    58
 90
        3
176
     1
 90
        2
176
     1
 90
        0
176
     1
 90
        0
176
     1
 40
-0.6
176
     1
 40
-30.0
176
     1
 62
     7
176
     1
 90
        2
176
     1
 90
        2
176
     1
 62
     7
176
     1
 62
   257
176
     1
 90
        1
176
     1
 90
        1
176
     1
 40
40.0
176
     1
 90
        8
176
     1
 62
     7
176
     1
 40
1.0
176
     1
 90
        1
176
     1
 90
        6
176
     1
 90
        2
176
     1
 62
     7
176
     1
 90
        3
176
     1
 90
        0
176
     1
 90
        0
176
     1
290
     0
176
     1
 90
        1
176
     1
 40
0.0
176
     1
 90
        0
176
     1
290
     0
176
     1
290
     1
176
     1
290
     1
176
     1
290
     0
176
     1
290
     0
176
     1
290
     0
176
     1
290
     0
176
     1
290
     0
176
     1
290
     0
176
     1
 90
       50
176
     1
 40
0.0
176
     1
 40
1.0
176
     1
 90
        0
176
     1
 62
    18
420
        0
176
     1
 90
       50
176
     1
 90
        3
176
     1
 62
     5
420
      255
176
     1
290
     0
176
     1
 90
       50
176
     1
 90
       50
176
     1
 90
       50
176
     1
290
     0
176
     1
 90
       50
176
     1
 62
   256
176
     0
 40
1.0
176
     0
 90
        2
176
     1
  1
strokes_ogs.tif
176
     1
290
     0
176
     1
 40
1.0
176
     1
 40
1.0
176
     1
  0
VISUALSTYLE
  5
251
102
{ACAD_REACTORS
330
246
102
}
330
246
100
AcDbVisualStyle
  2
Dim
 70
    11
177
     3
291
     1
 70
    58
 90
        2
176
     1
 90
        2
176
     1
 90
        0
176
     1
 90
        0
176
     1
 40
-0.6
176
     1
 40
-30.0
176
     1
 62
     7
176
     1
 90
        1
176
     1
 90
        4
176
     1
 62
     7
176
     1
 62
   257
176
     1
 90
        1
176
     1
 90
        1
176
     1
 40
1.0
176
     1
 90
        8
176
     1
 62
     7
176
     1
 40
1.0
176
     1
 90
        1
176
     1
 90
        6
176
     1
 90
        2
176
     1
 62
     7
176
     1
 90
        5
176
     1
 90
        0
176
     1
 90
        0
176
     1
290
     0
176
     1
 90
        1
176
     1
 40
-50.0
176
     1
 90
        0
176
     1
290
     0
176
     1
290
     1
176
     1
290
     1
176
     1
290
     0
176
     1
290
     0
176
     1
290
     0
176
     1
290
     0
176
     1
290
     0
176
     1
290
     0
176
     1
 90
       50
176
     1
 40
0.0
176
     1
 40
1.0
176
     1
 90
        0
176
     1
 62
    18
420
        0
176
     1
 90
       50
176
     1
 90
        3
176
     1
 62
     5
420
      255
176
     1
290
     0
176
     1
 90
       50
176
     1
 90
       50
176
     1
 90
       50
176
     1
290
     0
176
     1
 90
       50
176
     1
 62
   256
176
     0
 40
1.0
176
     0
 90
        2
176
     1
  1
strokes_ogs.tif
176
     1
290
     0
176
     1
 40
1.0
176
     1
 40
1.0
176
     1
  0
VISUALSTYLE
  5
2B8
102
{ACAD_REACTORS
330
246
102
}
330
246
100
AcDbVisualStyle
  2
EdgeColorOff
 70
    22
177
     3
291
     1
 70
    58
 90
        2
176
     0
 90
        2
176
     0
 90
        0
176
     0
 90
        0
176
     0
 40
0.6
176
     0
 40
30.0
176
     0
 62
     7
420
 16777215
176
     0
 90
        1
176
     0
 90
        4
176
     0
 62
     7
176
     0
 62
   257
176
     0
 90
        1
176
     0
 90
        1
176
     0
 40
1.0
176
     0
 90
        8
176
     2
 62
     7
176
     0
 40
1.0
176
     0
 90
        1
176
     0
 90
        6
176
     0
 90
        2
176
     0
 62
     7
176
     0
 90
        5
176
     0
 90
        0
176
     0
 90
        0
176
     0
290
     0
176
     0
 90
        1
176
     0
 40
0.0
176
     0
 90
        0
176
     0
290
     0
176
     0
290
     1
176
     0
290
     1
176
     0
290
     0
176
     0
290
     0
176
     0
290
     0
176
     0
290
     0
176
     0
290
     0
176
     0
290
     0
176
     0
 90
       50
176
     0
 40
0.0
176
     0
 40
1.0
176
     0
 90
        0
176
     0
 62
    18
420
        0
176
     0
 90
       50
176
     0
 90
        3
176
     0
 62
     5
420
      255
176
     0
290
     0
176
     0
 90
       50
176
     0
 90
       50
176
     0
 90
       50
176
     0
290
     0
176
     0
 90
       50
176
     0
 62
   256
176
     0
 40
1.0
176
     0
 90
        2
176
     0
  1
strokes_ogs.tif
176
     0
290
     0
176
     0
 40
1.0
176
     0
 40
1.0
176
     0
  0
VISUALSTYLE
  5
255
102
{ACAD_REACTORS
330
246
102
}
330
246
100
AcDbVisualStyle
  2
Facepattern
 70
    15
177
     3
291
     1
 70
    58
 90
        2
176
     1
 90
        2
176
     1
 90
        0
176
     1
 90
        0
176
     1
 40
-0.6
176
     1
 40
-30.0
176
     1
 62
     7
176
     1
 90
        1
176
     1
 90
        4
176
     1
 62
     7
176
     1
 62
   257
176
     1
 90
        1
176
     1
 90
        1
176
     1
 40
1.0
176
     1
 90
        8
176
     1
 62
     7
176
     1
 40
1.0
176
     1
 90
        1
176
     1
 90
        6
176
     1
 90
        2
176
     1
 62
     7
176
     1
 90
        5
176
     1
 90
        0
176
     1
 90
        0
176
     1
290
     0
176
     1
 90
        1
176
     1
 40
0.0
176
     1
 90
        0
176
     1
290
     0
176
     1
290
     1
176
     1
290
     1
176
     1
290
     0
176
     1
290
     0
176
     1
290
     0
176
     1
290
     0
176
     1
290
     0
176
     1
290
     0
176
     1
 90
       50
176
     1
 40
0.0
176
     1
 40
1.0
176
     1
 90
        0
176
     1
 62
    18
420
        0
176
     1
 90
       50
176
     1
 90
        3
176
     1
 62
     5
420
      255
176
     1
290
     0
176
     1
 90
       50
176
     1
 90
       50
176
     1
 90
       50
176
     1
290
     0
176
     1
 90
       50
176
     1
 62
   256
176
     0
 40
1.0
176
     0
 90
        2
176
     1
  1
strokes_ogs.tif
176
     1
290
     0
176
     1
 40
1.0
176
     1
 40
1.0
176
     1
  0
VISUALSTYLE
  5
247
102
{ACAD_REACTORS
330
246
102
}
330
246
100
AcDbVisualStyle
  2
Flat
 70
     0
177
     3
291
     1
 70
    58
 90
        2
176
     1
 90
        1
176
     1
 90
        1
176
     1
 90
        2
176
     1
 40
-0.6
176
     1
 40
30.0
176
     1
 62
     7
176
     1
 90
        0
176
     1
 90
        4
176
     1
 62
     7
176
     1
 62
   257
176
     1
 90
        1
176
     1
 90
        1
176
     1
 40
1.0
176
     1
 90
        8
176
     1
 62
     7
176
     1
 40
1.0
176
     1
 90
        1
176
     1
 90
        6
176
     1
 90
        2
176
     1
 62
     7
176
     1
 90
        5
176
     1
 90
        0
176
     1
 90
        0
176
     1
290
     0
176
     1
 90
       13
176
     1
 40
0.0
176
     1
 90
        0
176
     1
290
     0
176
     1
290
     1
176
     1
290
     1
176
     1
290
     0
176
     1
290
     0
176
     1
290
     0
176
     1
290
     0
176
     1
290
     0
176
     1
290
     0
176
     1
 90
       50
176
     1
 40
0.0
176
     1
 40
1.0
176
     1
 90
        0
176
     1
 62
    18
420
        0
176
     1
 90
       50
176
     1
 90
        3
176
     1
 62
     5
420
      255
176
     1
290
     0
176
     1
 90
       50
176
     1
 90
       50
176
     1
 90
       50
176
     1
290
     0
176
     1
 90
       50
176
     1
 62
   256
176
     0
 40
1.0
176
     0
 90
        2
176
     1
  1
strokes_ogs.tif
176
     1
290
     0
176
     1
 40
1.0
176
     1
 40
1.0
176
     1
  0
VISUALSTYLE
  5
248
102
{ACAD_REACTORS
330
246
102
}
330
246
100
AcDbVisualStyle
  2
FlatWithEdges
 70
     1
177
     3
291
     1
 70
    58
 90
        2
176
     1
 90
        1
176
     1
 90
        1
176
     1
 90
        2
176
     1
 40
-0.6
176
     1
 40
30.0
176
     1
 62
     7
176
     1
 90
        1
176
     1
 90
        4
176
     1
 62
     7
176
     1
 62
   257
176
     1
 90
        1
176
     1
 90
        1
176
     1
 40
1.0
176
     1
 90
        0
176
     1
 62
   257
176
     1
 40
1.0
176
     1
 90
        1
176
     1
 90
        6
176
     1
 90
        2
176
     1
 62
     7
176
     1
 90
        5
176
     1
 90
        0
176
     1
 90
        0
176
     1
290
     0
176
     1
 90
       13
176
     1
 40
0.0
176
     1
 90
        0
176
     1
290
     0
176
     1
290
     1
176
     1
290
     1
176
     1
290
     0
176
     1
290
     0
176
     1
290
     0
176
     1
290
     0
176
     1
290
     0
176
     1
290
     0
176
     1
 90
       50
176
     1
 40
0.0
176
     1
 40
1.0
176
     1
 90
        0
176
     1
 62
    18
420
        0
176
     1
 90
       50
176
     1
 90
        3
176
     1
 62
     5
420
      255
176
     1
290
     0
176
     1
 90
       50
176
     1
 90
       50
176
     1
 90
       50
176
     1
290
     0
176
     1
 90
       50
176
     1
 62
   256
176
     0
 40
1.0
176
     0
 90
        2
176
     1
  1
strokes_ogs.tif
176
     1
290
     0
176
     1
 40
1.0
176
     1
 40
1.0
176
     1
  0
VISUALSTYLE
  5
249
102
{ACAD_REACTORS
330
246
102
}
330
246
100
AcDbVisualStyle
  2
Gouraud
 70
     2
177
     3
291
     1
 70
    58
 90
        2
176
     1
 90
        2
176
     1
 90
        1
176
     1
 90
        2
176
     1
 40
-0.6
176
     1
 40
30.0
176
     1
 62
     7
176
     1
 90
        0
176
     1
 90
        4
176
     1
 62
     7
176
     1
 62
   257
176
     1
 90
        1
176
     1
 90
        1
176
     1
 40
1.0
176
     1
 90
        0
176
     1
 62
     7
176
     1
 40
1.0
176
     1
 90
        1
176
     1
 90
        6
176
     1
 90
        2
176
     1
 62
     7
176
     1
 90
        5
176
     1
 90
        0
176
     1
 90
        0
176
     1
290
     0
176
     1
 90
       13
176
     1
 40
0.0
176
     1
 90
        0
176
     1
290
     0
176
     1
290
     1
176
     1
290
     1
176
     1
290
     0
176
     1
290
     0
176
     1
290
     0
176
     1
290
     0
176
     1
290
     0
176
     1
290
     0
176
     1
 90
       50
176
     1
 40
0.0
176
     1
 40
1.0
176
     1
 90
        0
176
     1
 62
    18
420
        0
176
     1
 90
       50
176
     1
 90
        3
176
     1
 62
     5
420
      255
176
     1
290
     0
176
     1
 90
       50
176
     1
 90
       50
176
     1
 90
       50
176
     1
290
     0
176
     1
 90
       50
176
     1
 62
   256
176
     0
 40
1.0
176
     0
 90
        2
176
     1
  1
strokes_ogs.tif
176
     1
290
     0
176
     1
 40
1.0
176
     1
 40
1.0
176
     1
  0
VISUALSTYLE
  5
24A
102
{ACAD_REACTORS
330
246
102
}
330
246
100
AcDbVisualStyle
  2
GouraudWithEdges
 70
     3
177
     3
291
     1
 70
    58
 90
        2
176
     1
 90
        2
176
     1
 90
        1
176
     1
 90
        2
176
     1
 40
-0.6
176
     1
 40
30.0
176
     1
 62
     7
176
     1
 90
        1
176
     1
 90
        4
176
     1
 62
     7
176
     1
 62
   257
176
     1
 90
        1
176
     1
 90
        1
176
     1
 40
1.0
176
     1
 90
        0
176
     1
 62
   257
176
     1
 40
1.0
176
     1
 90
        1
176
     1
 90
        6
176
     1
 90
        2
176
     1
 62
     7
176
     1
 90
        5
176
     1
 90
        0
176
     1
 90
        0
176
     1
290
     0
176
     1
 90
       13
176
     1
 40
0.0
176
     1
 90
        0
176
     1
290
     0
176
     1
290
     1
176
     1
290
     1
176
     1
290
     0
176
     1
290
     0
176
     1
290
     0
176
     1
290
     0
176
     1
290
     0
176
     1
290
     0
176
     1
 90
       50
176
     1
 40
0.0
176
     1
 40
1.0
176
     1
 90
        0
176
     1
 62
    18
420
        0
176
     1
 90
       50
176
     1
 90
        3
176
     1
 62
     5
420
      255
176
     1
290
     0
176
     1
 90
       50
176
     1
 90
       50
176
     1
 90
       50
176
     1
290
     0
176
     1
 90
       50
176
     1
 62
   256
176
     0
 40
1.0
176
     0
 90
        2
176
     1
  1
strokes_ogs.tif
176
     1
290
     0
176
     1
 40
1.0
176
     1
 40
1.0
176
     1
  0
VISUALSTYLE
  5
2B5
102
{ACAD_REACTORS
330
246
102
}
330
246
100
AcDbVisualStyle
  2
Hidden
 70
     6
177
     3
291
     0
 70
    58
 90
        1
176
     1
 90
        2
176
     1
 90
        2
176
     1
 90
        0
176
     1
 40
0.6
176
     1
 40
30.0
176
     1
 62
     7
420
 16777215
176
     1
 90
        2
176
     1
 90
        2
176
     1
 62
     7
176
     1
 62
   257
176
     1
 90
        2
176
     1
 90
        1
176
     1
 40
40.0
176
     1
 90
        0
176
     1
 62
   257
176
     1
 40
1.0
176
     1
 90
        1
176
     1
 90
        6
176
     1
 90
        2
176
     1
 62
     7
176
     1
 90
        3
176
     1
 90
        0
176
     1
 90
        0
176
     1
290
     0
176
     1
 90
        1
176
     1
 40
0.0
176
     1
 90
        0
176
     1
290
     0
176
     1
290
     1
176
     1
290
     1
176
     1
290
     0
176
     1
290
     0
176
     1
290
     0
176
     1
290
     0
176
     1
290
     0
176
     1
290
     0
176
     1
 90
       50
176
     1
 40
0.0
176
     1
 40
1.0
176
     1
 90
        0
176
     1
 62
    18
420
        0
176
     1
 90
       50
176
     1
 90
        3
176
     1
 62
     5
420
      255
176
     1
290
     0
176
     1
 90
       50
176
     1
 90
       50
176
     1
 90
       50
176
     1
290
     0
176
     1
 90
       50
176
     1
 62
   256
176
     0
 40
1.0
176
     0
 90
        2
176
     1
  1
strokes_ogs.tif
176
     1
290
     0
176
     1
 40
1.0
176
     1
 40
1.0
176
     1
  0
VISUALSTYLE
  5
2B6
102
{ACAD_REACTORS
330
246
102
}
330
246
100
AcDbVisualStyle
  2
JitterOff
 70
    20
177
     3
291
     1
 70
    58
 90
        2
176
     0
 90
        2
176
     0
 90
        0
176
     0
 90
        0
176
     0
 40
0.6
176
     0
 40
30.0
176
     0
 62
     7
420
 16777215
176
     0
 90
        1
176
     0
 90
        4
176
     0
 62
     7
176
     0
 62
   257
176
     0
 90
        1
176
     0
 90
        1
176
     0
 40
1.0
176
     0
 90
       10
176
     2
 62
     7
176
     0
 40
1.0
176
     0
 90
        1
176
     0
 90
        6
176
     0
 90
        2
176
     0
 62
     7
176
     0
 90
        5
176
     0
 90
        0
176
     0
 90
        0
176
     0
290
     0
176
     0
 90
        1
176
     0
 40
0.0
176
     0
 90
        0
176
     0
290
     0
176
     0
290
     1
176
     0
290
     1
176
     0
290
     0
176
     0
290
     0
176
     0
290
     0
176
     0
290
     0
176
     0
290
     0
176
     0
290
     0
176
     0
 90
       50
176
     0
 40
0.0
176
     0
 40
1.0
176
     0
 90
        0
176
     0
 62
    18
420
        0
176
     0
 90
       50
176
     0
 90
        3
176
     0
 62
     5
420
      255
176
     0
290
     0
176
     0
 90
       50
176
     0
 90
       50
176
     0
 90
       50
176
     0
290
     0
176
     0
 90
       50
176
     0
 62
   256
176
     0
 40
1.0
176
     0
 90
        2
176
     0
  1
strokes_ogs.tif
176
     0
290
     0
176
     0
 40
1.0
176
     0
 40
1.0
176
     0
  0
VISUALSTYLE
  5
254
102
{ACAD_REACTORS
330
246
102
}
330
246
100
AcDbVisualStyle
  2
Linepattern
 70
    14
177
     3
291
     1
 70
    58
 90
        2
176
     1
 90
        2
176
     1
 90
        0
176
     1
 90
        0
176
     1
 40
-0.6
176
     1
 40
-30.0
176
     1
 62
     7
176
     1
 90
        1
176
     1
 90
        4
176
     1
 62
     7
176
     1
 62
   257
176
     1
 90
        7
176
     1
 90
        7
176
     1
 40
1.0
176
     1
 90
        8
176
     1
 62
     7
176
     1
 40
1.0
176
     1
 90
        1
176
     1
 90
        6
176
     1
 90
        2
176
     1
 62
     7
176
     1
 90
        5
176
     1
 90
        0
176
     1
 90
        0
176
     1
290
     0
176
     1
 90
        1
176
     1
 40
0.0
176
     1
 90
        0
176
     1
290
     0
176
     1
290
     1
176
     1
290
     1
176
     1
290
     0
176
     1
290
     0
176
     1
290
     0
176
     1
290
     0
176
     1
290
     0
176
     1
290
     0
176
     1
 90
       50
176
     1
 40
0.0
176
     1
 40
1.0
176
     1
 90
        0
176
     1
 62
    18
420
        0
176
     1
 90
       50
176
     1
 90
        3
176
     1
 62
     5
420
      255
176
     1
290
     0
176
     1
 90
       50
176
     1
 90
       50
176
     1
 90
       50
176
     1
290
     0
176
     1
 90
       50
176
     1
 62
   256
176
     0
 40
1.0
176
     0
 90
        2
176
     1
  1
strokes_ogs.tif
176
     1
290
     0
176
     1
 40
1.0
176
     1
 40
1.0
176
     1
  0
VISUALSTYLE
  5
2B7
102
{ACAD_REACTORS
330
246
102
}
330
246
100
AcDbVisualStyle
  2
OverhangOff
 70
    21
177
     3
291
     1
 70
    58
 90
        2
176
     0
 90
        2
176
     0
 90
        0
176
     0
 90
        0
176
     0
 40
0.6
176
     0
 40
30.0
176
     0
 62
     7
420
 16777215
176
     0
 90
        1
176
     0
 90
        4
176
     0
 62
     7
176
     0
 62
   257
176
     0
 90
        1
176
     0
 90
        1
176
     0
 40
1.0
176
     0
 90
        9
176
     2
 62
     7
176
     0
 40
1.0
176
     0
 90
        1
176
     0
 90
        6
176
     0
 90
        2
176
     0
 62
     7
176
     0
 90
        5
176
     0
 90
        0
176
     0
 90
        0
176
     0
290
     0
176
     0
 90
        1
176
     0
 40
0.0
176
     0
 90
        0
176
     0
290
     0
176
     0
290
     1
176
     0
290
     1
176
     0
290
     0
176
     0
290
     0
176
     0
290
     0
176
     0
290
     0
176
     0
290
     0
176
     0
290
     0
176
     0
 90
       50
176
     0
 40
0.0
176
     0
 40
1.0
176
     0
 90
        0
176
     0
 62
    18
420
        0
176
     0
 90
       50
176
     0
 90
        3
176
     0
 62
     5
420
      255
176
     0
290
     0
176
     0
 90
       50
176
     0
 90
       50
176
     0
 90
       50
176
     0
290
     0
176
     0
 90
       50
176
     0
 62
   256
176
     0
 40
1.0
176
     0
 90
        2
176
     0
  1
strokes_ogs.tif
176
     0
290
     0
176
     0
 40
1.0
176
     0
 40
1.0
176
     0
  0
VISUALSTYLE
  5
24F
102
{ACAD_REACTORS
330
246
102
}
330
246
100
AcDbVisualStyle
  2
Realistic
 70
     8
177
     3
291
     0
 70
    58
 90
        2
176
     1
 90
        2
176
     1
 90
        0
176
     1
 90
        0
176
     1
 40
-0.6
176
     1
 40
-30.0
176
     1
 62
     7
176
     1
 90
        1
176
     1
 90
        0
176
     1
 62
     7
176
     1
 62
   257
176
     1
 90
        1
176
     1
 90
        1
176
     1
 40
1.0
176
     1
 90
        8
176
     1
 62
     8
176
     1
 40
1.0
176
     1
 90
        1
176
     1
 90
        6
176
     1
 90
        2
176
     1
 62
     7
176
     1
 90
        5
176
     1
 90
        0
176
     1
 90
        0
176
     1
290
     0
176
     1
 90
       13
176
     1
 40
0.0
176
     1
 90
        0
176
     1
290
     0
176
     1
290
     1
176
     1
290
     1
176
     1
290
     0
176
     1
290
     0
176
     1
290
     0
176
     1
290
     0
176
     1
290
     0
176
     1
290
     0
176
     1
 90
       50
176
     1
 40
0.0
176
     1
 40
1.0
176
     1
 90
        0
176
     1
 62
    18
420
        0
176
     1
 90
       50
176
     1
 90
        3
176
     1
 62
     5
420
      255
176
     1
290
     0
176
     1
 90
       50
176
     1
 90
       50
176
     1
 90
       50
176
     1
290
     0
176
     1
 90
       50
176
     1
 62
   256
176
     0
 40
1.0
176
     0
 90
        2
176
     1
  1
strokes_ogs.tif
176
     1
290
     0
176
     1
 40
1.0
176
     1
 40
1.0
176
     1
  0
VISUALSTYLE
  5
2BD
102
{ACAD_REACTORS
330
246
102
}
330
246
100
AcDbVisualStyle
  2
Shaded
 70
    27
177
     3
291
     0
 70
    58
 90
        2
176
     1
 90
        2
176
     1
 90
        1
176
     1
 90
        2
176
     1
 40
0.6
176
     1
 40
30.0
176
     1
 62
     7
420
 16777215
176
     1
 90
        0
176
     1
 90
        4
176
     1
 62
     7
176
     1
 62
   257
176
     1
 90
        1
176
     1
 90
        1
176
     1
 40
1.0
176
     1
 90
        8
176
     1
 62
   257
176
     1
 40
1.0
176
     1
 90
        1
176
     1
 90
        6
176
     1
 90
        2
176
     1
 62
     8
420
  7895160
176
     1
 90
        3
176
     1
 90
        0
176
     1
 90
        0
176
     1
290
     0
176
     1
 90
        5
176
     1
 40
0.0
176
     1
 90
        0
176
     1
290
     0
176
     1
290
     1
176
     1
290
     1
176
     1
290
     0
176
     1
290
     0
176
     1
290
     0
176
     1
290
     0
176
     1
290
     0
176
     1
290
     0
176
     1
 90
       50
176
     1
 40
0.0
176
     1
 40
1.0
176
     1
 90
        0
176
     1
 62
    18
420
        0
176
     1
 90
       50
176
     1
 90
        3
176
     1
 62
     5
420
      255
176
     1
290
     0
176
     1
 90
       50
176
     1
 90
       50
176
     1
 90
       50
176
     1
290
     0
176
     1
 90
       50
176
     1
 62
   256
176
     0
 40
1.0
176
     0
 90
        2
176
     1
  1
strokes_ogs.tif
176
     1
290
     0
176
     1
 40
1.0
176
     1
 40
1.0
176
     1
  0
VISUALSTYLE
  5
2BC
102
{ACAD_REACTORS
330
246
102
}
330
246
100
AcDbVisualStyle
  2
Shaded with edges
 70
    26
177
     3
291
     0
 70
    58
 90
        2
176
     1
 90
        2
176
     1
 90
        1
176
     1
 90
        2
176
     1
 40
0.6
176
     1
 40
30.0
176
     1
 62
     7
420
 16777215
176
     1
 90
        1
176
     1
 90
       10
176
     1
 62
     7
176
     1
 62
   257
176
     1
 90
        2
176
     1
 90
        1
176
     1
 40
1.0
176
     1
 90
        8
176
     1
 62
   257
176
     1
 40
1.0
176
     1
 90
        1
176
     1
 90
        6
176
     1
 90
        2
176
     1
 62
     7
176
     1
 90
        3
176
     1
 90
        0
176
     1
 90
        0
176
     1
290
     0
176
     1
 90
        5
176
     1
 40
0.0
176
     1
 90
        0
176
     1
290
     0
176
     1
290
     1
176
     1
290
     1
176
     1
290
     0
176
     1
290
     0
176
     1
290
     0
176
     1
290
     0
176
     1
290
     0
176
     1
290
     0
176
     1
 90
       50
176
     1
 40
0.0
176
     1
 40
1.0
176
     1
 90
        0
176
     1
 62
    18
420
        0
176
     1
 90
       50
176
     1
 90
        3
176
     1
 62
     5
420
      255
176
     1
290
     0
176
     1
 90
       50
176
     1
 90
       50
176
     1
 90
       50
176
     1
290
     0
176
     1
 90
       50
176
     1
 62
   256
176
     0
 40
1.0
176
     0
 90
        2
176
     1
  1
strokes_ogs.tif
176
     1
290
     0
176
     1
 40
1.0
176
     1
 40
1.0
176
     1
  0
VISUALSTYLE
  5
2B9
102
{ACAD_REACTORS
330
246
102
}
330
246
100
AcDbVisualStyle
  2
Shades of Gray
 70
    23
177
     3
291
     0
 70
    58
 90
        2
176
     1
 90
        2
176
     1
 90
        3
176
     1
 90
        0
176
     1
 40
0.6
176
     1
 40
30.0
176
     1
 62
     7
420
 16777215
176
     1
 90
        2
176
     1
 90
        2
176
     1
 62
     7
176
     1
 62
     7
176
     1
 90
        1
176
     1
 90
        1
176
     1
 40
40.0
176
     1
 90
        8
176
     1
 62
     7
176
     1
 40
1.0
176
     1
 90
        1
176
     1
 90
        6
176
     1
 90
        2
176
     1
 62
     7
176
     1
 90
        3
176
     1
 90
        0
176
     1
 90
        0
176
     1
290
     0
176
     1
 90
        1
176
     1
 40
0.0
176
     1
 90
        0
176
     1
290
     0
176
     1
290
     1
176
     1
290
     1
176
     1
290
     0
176
     1
290
     0
176
     1
290
     0
176
     1
290
     0
176
     1
290
     0
176
     1
290
     0
176
     1
 90
       50
176
     1
 40
0.0
176
     1
 40
1.0
176
     1
 90
        0
176
     1
 62
    18
420
        0
176
     1
 90
       50
176
     1
 90
        3
176
     1
 62
     5
420
      255
176
     1
290
     0
176
     1
 90
       50
176
     1
 90
       50
176
     1
 90
       50
176
     1
290
     0
176
     1
 90
       50
176
     1
 62
   256
176
     0
 40
1.0
176
     0
 90
        2
176
     1
  1
strokes_ogs.tif
176
     1
290
     0
176
     1
 40
1.0
176
     1
 40
1.0
176
     1
  0
VISUALSTYLE
  5
2BA
102
{ACAD_REACTORS
330
246
102
}
330
246
100
AcDbVisualStyle
  2
Sketchy
 70
    24
177
     3
291
     0
 70
    58
 90
        1
176
     1
 90
        2
176
     1
 90
        2
176
     1
 90
        0
176
     1
 40
0.6
176
     1
 40
30.0
176
     1
 62
     7
420
 16777215
176
     1
 90
        2
176
     1
 90
        2
176
     1
 62
     7
176
     1
 62
     7
176
     1
 90
        1
176
     1
 90
        1
176
     1
 40
40.0
176
     1
 90
       11
176
     1
 62
     7
176
     1
 40
1.0
176
     1
 90
        1
176
     1
 90
        6
176
     1
 90
        2
176
     1
 62
     7
176
     1
 90
        6
176
     1
 90
        0
176
     1
 90
        0
176
     1
290
     0
176
     1
 90
        1
176
     1
 40
0.0
176
     1
 90
        0
176
     1
290
     0
176
     1
290
     1
176
     1
290
     1
176
     1
290
     0
176
     1
290
     0
176
     1
290
     0
176
     1
290
     0
176
     1
290
     0
176
     1
290
     0
176
     1
 90
       50
176
     1
 40
0.0
176
     1
 40
1.0
176
     1
 90
        0
176
     1
 62
    18
420
        0
176
     1
 90
       50
176
     1
 90
        3
176
     1
 62
     5
420
      255
176
     1
290
     0
176
     1
 90
       50
176
     1
 90
       50
176
     1
 90
       50
176
     1
290
     0
176
     1
 90
       50
176
     1
 62
   256
176
     0
 40
1.0
176
     0
 90
        2
176
     1
  1
strokes_ogs.tif
176
     1
290
     0
176
     1
 40
1.0
176
     1
 40
1.0
176
     1
  0
VISUALSTYLE
  5
253
102
{ACAD_REACTORS
330
246
102
}
330
246
100
AcDbVisualStyle
  2
Thicken
 70
    13
177
     3
291
     1
 70
    58
 90
        2
176
     1
 90
        2
176
     1
 90
        0
176
     1
 90
        0
176
     1
 40
-0.6
176
     1
 40
-30.0
176
     1
 62
     7
176
     1
 90
        1
176
     1
 90
        4
176
     1
 62
     7
176
     1
 62
   257
176
     1
 90
        1
176
     1
 90
        1
176
     1
 40
1.0
176
     1
 90
       12
176
     1
 62
     7
176
     1
 40
1.0
176
     1
 90
        1
176
     1
 90
        6
176
     1
 90
        2
176
     1
 62
     7
176
     1
 90
        5
176
     1
 90
        0
176
     1
 90
        0
176
     1
290
     0
176
     1
 90
        1
176
     1
 40
0.0
176
     1
 90
        0
176
     1
290
     0
176
     1
290
     1
176
     1
290
     1
176
     1
290
     0
176
     1
290
     0
176
     1
290
     0
176
     1
290
     0
176
     1
290
     0
176
     1
290
     0
176
     1
 90
       50
176
     1
 40
0.0
176
     1
 40
1.0
176
     1
 90
        0
176
     1
 62
    18
420
        0
176
     1
 90
       50
176
     1
 90
        3
176
     1
 62
     5
420
      255
176
     1
290
     0
176
     1
 90
       50
176
     1
 90
       50
176
     1
 90
       50
176
     1
290
     0
176
     1
 90
       50
176
     1
 62
   256
176
     0
 40
1.0
176
     0
 90
        2
176
     1
  1
strokes_ogs.tif
176
     1
290
     0
176
     1
 40
1.0
176
     1
 40
1.0
176
     1
  0
VISUALSTYLE
  5
2B4
102
{ACAD_REACTORS
330
246
102
}
330
246
100
AcDbVisualStyle
  2
Wireframe
 70
     5
177
     3
291
     0
 70
    58
 90
        0
176
     1
 90
        2
176
     1
 90
        0
176
     1
 90
        0
176
     1
 40
0.6
176
     1
 40
30.0
176
     1
 62
     7
420
 16777215
176
     1
 90
        1
176
     1
 90
        4
176
     1
 62
     7
176
     1
 62
   257
176
     1
 90
        1
176
     1
 90
        1
176
     1
 40
1.0
176
     1
 90
        0
176
     1
 62
   257
176
     1
 40
1.0
176
     1
 90
        1
176
     1
 90
        6
176
     1
 90
        2
176
     1
 62
     7
176
     1
 90
        3
176
     1
 90
        0
176
     1
 90
        0
176
     1
290
     0
176
     1
 90
        1
176
     1
 40
0.0
176
     1
 90
        0
176
     1
290
     0
176
     1
290
     1
176
     1
290
     1
176
     1
290
     0
176
     1
290
     0
176
     1
290
     0
176
     1
290
     0
176
     1
290
     0
176
     1
290
     0
176
     1
 90
       50
176
     1
 40
0.0
176
     1
 40
1.0
176
     1
 90
        0
176
     1
 62
    18
420
        0
176
     1
 90
       50
176
     1
 90
        3
176
     1
 62
     5
420
      255
176
     1
290
     0
176
     1
 90
       50
176
     1
 90
       50
176
     1
 90
       50
176
     1
290
     0
176
     1
 90
       50
176
     1
 62
   256
176
     0
 40
1.0
176
     0
 90
        2
176
     1
  1
strokes_ogs.tif
176
     1
290
     0
176
     1
 40
1.0
176
     1
 40
1.0
176
     1
  0
VISUALSTYLE
  5
2BB
102
{ACAD_REACTORS
330
246
102
}
330
246
100
AcDbVisualStyle
  2
X-Ray
 70
    25
177
     3
291
     0
 70
    58
 90
        2
176
     1
 90
        2
176
     1
 90
        1
176
     1
 90
        1
176
     1
 40
0.5
176
     1
 40
30.0
176
     1
 62
     7
420
 16777215
176
     1
 90
        1
176
     1
 90
        0
176
     1
 62
     7
176
     1
 62
   257
176
     1
 90
        1
176
     1
 90
        1
176
     1
 40
1.0
176
     1
 90
        8
176
     1
 62
     7
176
     1
 40
1.0
176
     1
 90
        1
176
     1
 90
        6
176
     1
 90
        2
176
     1
 62
     7
176
     1
 90
        3
176
     1
 90
        0
176
     1
 90
        0
176
     1
290
     0
176
     1
 90
       13
176
     1
 40
0.0
176
     1
 90
        0
176
     1
290
     0
176
     1
290
     1
176
     1
290
     1
176
     1
290
     0
176
     1
290
     0
176
     1
290
     0
176
     1
290
     0
176
     1
290
     0
176
     1
290
     0
176
     1
 90
       50
176
     1
 40
0.0
176
     1
 40
1.0
176
     1
 90
        0
176
     1
 62
    18
420
        0
176
     1
 90
       50
176
     1
 90
        3
176
     1
 62
     5
420
      255
176
     1
290
     0
176
     1
 90
       50
176
     1
 90
       50
176
     1
 90
       50
176
     1
290
     0
176
     1
 90
       50
176
     1
 62
   256
176
     0
 40
1.0
176
     0
 90
        2
176
     1
  1
strokes_ogs.tif
176
     1
290
     0
176
     1
 40
1.0
176
     1
 40
1.0
176
     1
  0
DICTIONARYVAR
  5
2EF
102
{ACAD_REACTORS
330
26D
102
}
330
26D
100
DictionaryVariables
280
     0
  1
1:1
  0
DICTIONARYVAR
  5
2F1
102
{ACAD_REACTORS
330
26D
102
}
330
26D
100
DictionaryVariables
280
     0
  1
Standard
  0
DICTIONARYVAR
  5
2F0
102
{ACAD_REACTORS
330
26D
102
}
330
26D
100
DictionaryVariables
280
     0
  1
Standard
  0
DICTIONARYVAR
  5
271
102
{ACAD_REACTORS
330
26D
102
}
330
26D
100
DictionaryVariables
280
     0
  1
2
  0
DICTIONARYVAR
  5
272
102
{ACAD_REACTORS
330
26D
102
}
330
26D
100
DictionaryVariables
280
     0
  1
1
  0
DICTIONARYVAR
  5
270
102
{ACAD_REACTORS
330
26D
102
}
330
26D
100
DictionaryVariables
280
     0
  1
0
  0
DICTIONARY
  5
382
330
2BF
100
AcDbDictionary
280
     1
281
     1
  3
ACAD_ROUNDTRIP_2008_TABLESTYLE_CELLSTYLEMAP
360
383
  0
CELLSTYLEMAP
  5
383
102
{ACAD_REACTORS
330
382
102
}
330
382
100
AcDbCellStyleMap
 90
        3
300
CELLSTYLE
  1
TABLEFORMAT_BEGIN
 90
        5
170
     1
 91
        0
 92
    32768
 62
   257
 93
        1
300
CONTENTFORMAT
  1
CONTENTFORMAT_BEGIN
 90
        0
 91
        0
 92
        4
 93
        0
300

 40
0.0
140
1.0
 94
        5
 62
     0
340
11
144
6.0
309
CONTENTFORMAT_END
171
     1
301
MARGIN
  1
CELLMARGIN_BEGIN
 40
1.5
 40
1.5
 40
1.5
 40
1.5
 40
1.5
 40
1.5
309
CELLMARGIN_END
 94
        6
 95
        1
302
GRIDFORMAT
  1
GRIDFORMAT_BEGIN
 90
        0
 91
        1
 62
     0
 92
       -2
340
14
 93
        0
 40
0.045
309
GRIDFORMAT_END
 95
        2
302
GRIDFORMAT
  1
GRIDFORMAT_BEGIN
 90
        0
 91
        1
 62
     0
 92
       -2
340
14
 93
        0
 40
0.045
309
GRIDFORMAT_END
 95
        4
302
GRIDFORMAT
  1
GRIDFORMAT_BEGIN
 90
        0
 91
        1
 62
     0
 92
       -2
340
14
 93
        0
 40
0.045
309
GRIDFORMAT_END
 95
        8
302
GRIDFORMAT
  1
GRIDFORMAT_BEGIN
 90
        0
 91
        1
 62
     0
 92
       -2
340
14
 93
        0
 40
0.045
309
GRIDFORMAT_END
 95
       16
302
GRIDFORMAT
  1
GRIDFORMAT_BEGIN
 90
        0
 91
        1
 62
     0
 92
       -2
340
14
 93
        0
 40
0.045
309
GRIDFORMAT_END
 95
       32
302
GRIDFORMAT
  1
GRIDFORMAT_BEGIN
 90
        0
 91
        1
 62
     0
 92
       -2
340
14
 93
        0
 40
0.045
309
GRIDFORMAT_END
309
TABLEFORMAT_END
  1
CELLSTYLE_BEGIN
 90
        1
 91
        1
300
_TITLE
309
CELLSTYLE_END
300
CELLSTYLE
  1
TABLEFORMAT_BEGIN
 90
        5
170
     1
 91
        0
 92
        0
 62
   257
 93
        1
300
CONTENTFORMAT
  1
CONTENTFORMAT_BEGIN
 90
        0
 91
        0
 92
        4
 93
        0
300

 40
0.0
140
1.0
 94
        5
 62
     0
340
11
144
4.5
309
CONTENTFORMAT_END
171
     1
301
MARGIN
  1
CELLMARGIN_BEGIN
 40
1.5
 40
1.5
 40
1.5
 40
1.5
 40
1.5
 40
1.5
309
CELLMARGIN_END
 94
        6
 95
        1
302
GRIDFORMAT
  1
GRIDFORMAT_BEGIN
 90
        0
 91
        1
 62
     0
 92
       -2
340
14
 93
        0
 40
0.045
309
GRIDFORMAT_END
 95
        2
302
GRIDFORMAT
  1
GRIDFORMAT_BEGIN
 90
        0
 91
        1
 62
     0
 92
       -2
340
14
 93
        0
 40
0.045
309
GRIDFORMAT_END
 95
        4
302
GRIDFORMAT
  1
GRIDFORMAT_BEGIN
 90
        0
 91
        1
 62
     0
 92
       -2
340
14
 93
        0
 40
0.045
309
GRIDFORMAT_END
 95
        8
302
GRIDFORMAT
  1
GRIDFORMAT_BEGIN
 90
        0
 91
        1
 62
     0
 92
       -2
340
14
 93
        0
 40
0.045
309
GRIDFORMAT_END
 95
       16
302
GRIDFORMAT
  1
GRIDFORMAT_BEGIN
 90
        0
 91
        1
 62
     0
 92
       -2
340
14
 93
        0
 40
0.045
309
GRIDFORMAT_END
 95
       32
302
GRIDFORMAT
  1
GRIDFORMAT_BEGIN
 90
        0
 91
        1
 62
     0
 92
       -2
340
14
 93
        0
 40
0.045
309
GRIDFORMAT_END
309
TABLEFORMAT_END
  1
CELLSTYLE_BEGIN
 90
        2
 91
        1
300
_HEADER
309
CELLSTYLE_END
300
CELLSTYLE
  1
TABLEFORMAT_BEGIN
 90
        5
170
     1
 91
        0
 92
        0
 62
   257
 93
        1
300
CONTENTFORMAT
  1
CONTENTFORMAT_BEGIN
 90
        0
 91
        0
 92
        4
 93
        0
300

 40
0.0
140
1.0
 94
        2
 62
     0
340
11
144
4.5
309
CONTENTFORMAT_END
171
     1
301
MARGIN
  1
CELLMARGIN_BEGIN
 40
1.5
 40
1.5
 40
1.5
 40
1.5
 40
1.5
 40
1.5
309
CELLMARGIN_END
 94
        6
 95
        1
302
GRIDFORMAT
  1
GRIDFORMAT_BEGIN
 90
        0
 91
        1
 62
     0
 92
       -2
340
14
 93
        0
 40
0.045
309
GRIDFORMAT_END
 95
        2
302
GRIDFORMAT
  1
GRIDFORMAT_BEGIN
 90
        0
 91
        1
 62
     0
 92
       -2
340
14
 93
        0
 40
0.045
309
GRIDFORMAT_END
 95
        4
302
GRIDFORMAT
  1
GRIDFORMAT_BEGIN
 90
        0
 91
        1
 62
     0
 92
       -2
340
14
 93
        0
 40
0.045
309
GRIDFORMAT_END
 95
        8
302
GRIDFORMAT
  1
GRIDFORMAT_BEGIN
 90
        0
 91
        1
 62
     0
 92
       -2
340
14
 93
        0
 40
0.045
309
GRIDFORMAT_END
 95
       16
302
GRIDFORMAT
  1
GRIDFORMAT_BEGIN
 90
        0
 91
        1
 62
     0
 92
       -2
340
14
 93
        0
 40
0.045
309
GRIDFORMAT_END
 95
       32
302
GRIDFORMAT
  1
GRIDFORMAT_BEGIN
 90
        0
 91
        1
 62
     0
 92
       -2
340
14
 93
        0
 40
0.045
309
GRIDFORMAT_END
309
TABLEFORMAT_END
  1
CELLSTYLE_BEGIN
 90
        3
 91
        2
300
_DATA
309
CELLSTYLE_END
  0
ENDSEC
  0
EOF
