  0
SECTION
  2
HEADER
  9
$ACADVER
  1
AC1027
  9
$ACADMAINTVER
 70
   105
  9
$DWGCODEPAGE
  3
ANSI_1252
  9
$REQUIREDVERSIONS
160
                 0
  9
$LASTSAVEDBY
  1
matthias.ochs
  9
$INSBASE
 10
0.0
 20
0.0
 30
0.0
  9
$EXTMIN
 10
-105.3943029453221
 20
-96.90694006084962
 30
0.0
  9
$EXTMAX
 10
139.0559638229704
 20
104.3125721342722
 30
0.0
  9
$LIMMIN
 10
0.0
 20
0.0
  9
$LIMMAX
 10
420.0
 20
297.0
  9
$ORTHOMODE
 70
     0
  9
$REGENMODE
 70
     1
  9
$FILLMODE
 70
     1
  9
$QTEXTMODE
 70
     0
  9
$MIRRTEXT
 70
     1
  9
$LTSCALE
 40
1.0
  9
$ATTMODE
 70
     1
  9
$TEXTSIZE
 40
3.5
  9
$TRACEWID
 40
1.0
  9
$TEXTSTYLE
  7
STANDARD
  9
$CLAYER
  8
SK3
  9
$CELTYPE
  6
BYLAYER
  9
$CECOLOR
 62
   256
  9
$CELTSCALE
 40
1.0
  9
$DISPSILH
 70
     0
  9
$DIMSCALE
 40
1.0
  9
$DIMASZ
 40
3.5
  9
$DIMEXO
 40
0.0
  9
$DIMDLI
 40
3.75
  9
$DIMRND
 40
0.0
  9
$DIMDLE
 40
0.0
  9
$DIMEXE
 40
1.0
  9
$DIMTP
 40
0.0
  9
$DIMTM
 40
0.0
  9
$DIMTXT
 40
3.5
  9
$DIMCEN
 40
2.5
  9
$DIMTSZ
 40
0.0
  9
$DIMTOL
 70
     0
  9
$DIMLIM
 70
     0
  9
$DIMTIH
 70
     1
  9
$DIMTOH
 70
     1
  9
$DIMSE1
 70
     0
  9
$DIMSE2
 70
     0
  9
$DIMTAD
 70
     1
  9
$DIMZIN
 70
     0
  9
$DIMBLK
  1

  9
$DIMASO
 70
     1
  9
$DIMSHO
 70
     1
  9
$DIMPOST
  1

  9
$DIMAPOST
  1

  9
$DIMALT
 70
     0
  9
$DIMALTD
 70
     3
  9
$DIMALTF
 40
0.0393700787
  9
$DIMLFAC
 40
1.0
  9
$DIMTOFL
 70
     1
  9
$DIMTVP
 40
0.0
  9
$DIMTIX
 70
     0
  9
$DIMSOXD
 70
     0
  9
$DIMSAH
 70
     0
  9
$DIMBLK1
  1

  9
$DIMBLK2
  1

  9
$DIMSTYLE
  2
ISO-25
  9
$DIMCLRD
 70
     0
  9
$DIMCLRE
 70
     0
  9
$DIMCLRT
 70
     0
  9
$DIMTFAC
 40
1.0
  9
$DIMGAP
 40
1.5
  9
$DIMJUST
 70
     0
  9
$DIMSD1
 70
     0
  9
$DIMSD2
 70
     0
  9
$DIMTOLJ
 70
     0
  9
$DIMTZIN
 70
     0
  9
$DIMALTZ
 70
     0
  9
$DIMALTTZ
 70
     0
  9
$DIMUPT
 70
     0
  9
$DIMDEC
 70
     2
  9
$DIMTDEC
 70
     3
  9
$DIMALTU
 70
     2
  9
$DIMALTTD
 70
     3
  9
$DIMTXSTY
  7
STANDARD
  9
$DIMAUNIT
 70
     0
  9
$DIMADEC
 70
     0
  9
$DIMALTRND
 40
0.0
  9
$DIMAZIN
 70
     0
  9
$DIMDSEP
 70
    46
  9
$DIMATFIT
 70
     3
  9
$DIMFRAC
 70
     0
  9
$DIMLDRBLK
  1

  9
$DIMLUNIT
 70
     2
  9
$DIMLWD
 70
    -2
  9
$DIMLWE
 70
    -2
  9
$DIMTMOVE
 70
     2
  9
$DIMFXL
 40
1.0
  9
$DIMFXLON
 70
     0
  9
$DIMJOGANG
 40
0.7853981633974483
  9
$DIMTFILL
 70
     0
  9
$DIMTFILLCLR
 70
     0
  9
$DIMARCSYM
 70
     0
  9
$DIMLTYPE
  6

  9
$DIMLTEX1
  6

  9
$DIMLTEX2
  6

  9
$DIMTXTDIRECTION
 70
     0
  9
$LUNITS
 70
     2
  9
$LUPREC
 70
     2
  9
$SKETCHINC
 40
1.0
  9
$FILLETRAD
 40
10.0
  9
$AUNITS
 70
     0
  9
$AUPREC
 70
     2
  9
$MENU
  1
.
  9
$ELEVATION
 40
0.0
  9
$PELEVATION
 40
0.0
  9
$THICKNESS
 40
0.0
  9
$LIMCHECK
 70
     0
  9
$CHAMFERA
 40
0.0
  9
$CHAMFERB
 40
0.0
  9
$CHAMFERC
 40
0.0
  9
$CHAMFERD
 40
0.0
  9
$SKPOLY
 70
     0
  9
$TDCREATE
 40
2456814.629313495
  9
$TDUCREATE
 40
2456814.587646828
  9
$TDUPDATE
 40
2458507.603079016
  9
$TDUUPDATE
 40
2458507.561412349
  9
$TDINDWG
 40
0.0026930093
  9
$TDUSRTIMER
 40
0.0054034144
  9
$USRTIMER
 70
     1
  9
$ANGBASE
 50
0.0
  9
$ANGDIR
 70
     0
  9
$PDMODE
 70
     0
  9
$PDSIZE
 40
-1.0
  9
$PLINEWID
 40
0.0
  9
$SPLFRAME
 70
     0
  9
$SPLINETYPE
 70
     6
  9
$SPLINESEGS
 70
     8
  9
$HANDSEED
  5
357
  9
$SURFTAB1
 70
     6
  9
$SURFTAB2
 70
     6
  9
$SURFTYPE
 70
     6
  9
$SURFU
 70
     6
  9
$SURFV
 70
     6
  9
$UCSBASE
  2

  9
$UCSNAME
  2

  9
$UCSORG
 10
0.0
 20
0.0
 30
0.0
  9
$UCSXDIR
 10
1.0
 20
0.0
 30
0.0
  9
$UCSYDIR
 10
0.0
 20
1.0
 30
0.0
  9
$UCSORTHOREF
  2

  9
$UCSORTHOVIEW
 70
     0
  9
$UCSORGTOP
 10
0.0
 20
0.0
 30
0.0
  9
$UCSORGBOTTOM
 10
0.0
 20
0.0
 30
0.0
  9
$UCSORGLEFT
 10
0.0
 20
0.0
 30
0.0
  9
$UCSORGRIGHT
 10
0.0
 20
0.0
 30
0.0
  9
$UCSORGFRONT
 10
0.0
 20
0.0
 30
0.0
  9
$UCSORGBACK
 10
0.0
 20
0.0
 30
0.0
  9
$PUCSBASE
  2

  9
$PUCSNAME
  2

  9
$PUCSORG
 10
0.0
 20
0.0
 30
0.0
  9
$PUCSXDIR
 10
1.0
 20
0.0
 30
0.0
  9
$PUCSYDIR
 10
0.0
 20
1.0
 30
0.0
  9
$PUCSORTHOREF
  2

  9
$PUCSORTHOVIEW
 70
     0
  9
$PUCSORGTOP
 10
0.0
 20
0.0
 30
0.0
  9
$PUCSORGBOTTOM
 10
0.0
 20
0.0
 30
0.0
  9
$PUCSORGLEFT
 10
0.0
 20
0.0
 30
0.0
  9
$PUCSORGRIGHT
 10
0.0
 20
0.0
 30
0.0
  9
$PUCSORGFRONT
 10
0.0
 20
0.0
 30
0.0
  9
$PUCSORGBACK
 10
0.0
 20
0.0
 30
0.0
  9
$USERI1
 70
     0
  9
$USERI2
 70
     0
  9
$USERI3
 70
     0
  9
$USERI4
 70
     0
  9
$USERI5
 70
     0
  9
$USERR1
 40
0.0
  9
$USERR2
 40
0.0
  9
$USERR3
 40
0.0
  9
$USERR4
 40
0.0
  9
$USERR5
 40
0.0
  9
$WORLDVIEW
 70
     1
  9
$SHADEDGE
 70
     3
  9
$SHADEDIF
 70
    70
  9
$TILEMODE
 70
     1
  9
$MAXACTVP
 70
    64
  9
$PINSBASE
 10
0.0
 20
0.0
 30
0.0
  9
$PLIMCHECK
 70
     0
  9
$PEXTMIN
 10
1.000000000000000E+20
 20
1.000000000000000E+20
 30
1.000000000000000E+20
  9
$PEXTMAX
 10
-1.000000000000000E+20
 20
-1.000000000000000E+20
 30
-1.000000000000000E+20
  9
$PLIMMIN
 10
0.0
 20
0.0
  9
$PLIMMAX
 10
0.0
 20
0.0
  9
$UNITMODE
 70
     0
  9
$VISRETAIN
 70
     1
  9
$PLINEGEN
 70
     0
  9
$PSLTSCALE
 70
     1
  9
$TREEDEPTH
 70
  3020
  9
$CMLSTYLE
  2
STANDARD
  9
$CMLJUST
 70
     0
  9
$CMLSCALE
 40
20.0
  9
$PROXYGRAPHICS
 70
     1
  9
$MEASUREMENT
 70
     1
  9
$CELWEIGHT
370
    -1
  9
$ENDCAPS
280
     0
  9
$JOINSTYLE
280
     0
  9
$LWDISPLAY
290
     0
  9
$INSUNITS
 70
     0
  9
$HYPERLINKBASE
  1

  9
$STYLESHEET
  1

  9
$XEDIT
290
     1
  9
$CEPSNTYPE
380
     0
  9
$PSTYLEMODE
290
     1
  9
$FINGERPRINTGUID
  2
{5FA51780-344A-4DCB-9849-F7E1E0E328BC}
  9
$VERSIONGUID
  2
{FAEB1C32-E019-11D5-929B-00C0DF256EC4}
  9
$EXTNAMES
290
     1
  9
$PSVPSCALE
 40
0.0
  9
$OLESTARTUP
290
     0
  9
$SORTENTS
280
   127
  9
$INDEXCTL
280
     0
  9
$HIDETEXT
280
     1
  9
$XCLIPFRAME
280
     2
  9
$HALOGAP
280
     0
  9
$OBSCOLOR
 70
   257
  9
$OBSLTYPE
280
     0
  9
$INTERSECTIONDISPLAY
280
     0
  9
$INTERSECTIONCOLOR
 70
   257
  9
$DIMASSOC
280
     2
  9
$PROJECTNAME
  1

  9
$CAMERADISPLAY
290
     0
  9
$LENSLENGTH
 40
50.0
  9
$CAMERAHEIGHT
 40
0.0
  9
$STEPSPERSEC
 40
2.0
  9
$STEPSIZE
 40
6.0
  9
$3DDWFPREC
 40
2.0
  9
$PSOLWIDTH
 40
0.25
  9
$PSOLHEIGHT
 40
4.0
  9
$LOFTANG1
 40
1.570796326794897
  9
$LOFTANG2
 40
1.570796326794897
  9
$LOFTMAG1
 40
0.0
  9
$LOFTMAG2
 40
0.0
  9
$LOFTPARAM
 70
     7
  9
$LOFTNORMALS
280
     1
  9
$LATITUDE
 40
37.795
  9
$LONGITUDE
 40
-122.394
  9
$NORTHDIRECTION
 40
0.0
  9
$TIMEZONE
 70
 -8000
  9
$LIGHTGLYPHDISPLAY
280
     1
  9
$TILEMODELIGHTSYNCH
280
     1
  9
$SOLIDHIST
280
     0
  9
$SHOWHIST
280
     1
  9
$DWFFRAME
280
     2
  9
$DGNFRAME
280
     2
  9
$REALWORLDSCALE
290
     1
  9
$INTERFERECOLOR
 62
   256
  9
$CSHADOW
280
     0
  9
$SHADOWPLANELOCATION
 40
0.0
  0
ENDSEC
  0
SECTION
  2
CLASSES
  0
CLASS
  1
ACDBDICTIONARYWDFLT
  2
AcDbDictionaryWithDefault
  3
ObjectDBX Classes
 90
        0
 91
        5
280
     0
281
     0
  0
CLASS
  1
VISUALSTYLE
  2
AcDbVisualStyle
  3
ObjectDBX Classes
 90
     4095
 91
        5
280
     0
281
     0
  0
CLASS
  1
MATERIAL
  2
AcDbMaterial
  3
ObjectDBX Classes
 90
     1153
 91
        5
280
     0
281
     0
  0
CLASS
  1
SCALE
  2
AcDbScale
  3
ObjectDBX Classes
 90
     1153
 91
        5
280
     0
281
     0
  0
CLASS
  1
SUN
  2
AcDbSun
  3
SCENEOE
 90
     1153
 91
        5
280
     0
281
     0
  0
CLASS
  1
XRECORD
  2
AcDbXrecord
  3
ObjectDBX Classes
 90
        0
 91
        1
280
     0
281
     0
  0
CLASS
  1
LWPOLYLINE
  2
AcDbPolyline
  3
ObjectDBX Classes
 90
        0
 91
        1
280
     0
281
     1
  0
CLASS
  1
HATCH
  2
AcDbHatch
  3
ObjectDBX Classes
 90
        0
 91
        1
280
     0
281
     1
  0
CLASS
  1
DICTIONARYVAR
  2
AcDbDictionaryVar
  3
ObjectDBX Classes
 90
        0
 91
        5
280
     0
281
     0
  0
CLASS
  1
ACDBPLACEHOLDER
  2
AcDbPlaceHolder
  3
ObjectDBX Classes
 90
        0
 91
        1
280
     0
281
     0
  0
CLASS
  1
LAYOUT
  2
AcDbLayout
  3
ObjectDBX Classes
 90
        0
 91
        1
280
     0
281
     0
  0
CLASS
  1
TABLESTYLE
  2
AcDbTableStyle
  3
ObjectDBX Classes
 90
     4095
 91
        5
280
     0
281
     0
  0
CLASS
  1
MLEADERSTYLE
  2
AcDbMLeaderStyle
  3
ACDB_MLEADERSTYLE_CLASS
 90
     4095
 91
        5
280
     0
281
     0
  0
CLASS
  1
CELLSTYLEMAP
  2
AcDbCellStyleMap
  3
ObjectDBX Classes
 90
     1152
 91
        5
280
     0
281
     0
  0
ENDSEC
  0
SECTION
  2
TABLES
  0
TABLE
  2
VPORT
  5
8
330
0
100
AcDbSymbolTable
 70
     1
  0
VPORT
  5
29
330
8
100
AcDbSymbolTableRecord
100
AcDbViewportTableRecord
  2
*ACTIVE
 70
     0
 10
0.0
 20
0.0
 11
1.0
 21
1.0
 12
51.40476005152058
 22
-19.28637441746999
 13
0.0
 23
0.0
 14
10.0
 24
10.0
 15
10.0
 25
10.0
 16
0.0
 26
0.0
 36
1.0
 17
0.0
 27
0.0
 37
0.0
 40
256.9769138811679
 41
1.941903584672435
 42
50.0
 43
0.0
 44
0.0
 50
0.0
 51
0.0
 71
    16
 72
  2000
 73
     1
 74
     3
 75
     0
 76
     0
 77
     0
 78
     0
281
     0
 65
     1
110
0.0
120
0.0
130
0.0
111
1.0
121
0.0
131
0.0
112
0.0
122
1.0
132
0.0
 79
     0
146
0.0
348
245
 60
     3
 61
     5
292
     1
282
     1
141
0.0
142
0.0
 63
   256
361
307
  0
ENDTAB
  0
TABLE
  2
LTYPE
  5
5
330
0
100
AcDbSymbolTable
 70
     9
  0
LTYPE
  5
14
330
5
100
AcDbSymbolTableRecord
100
AcDbLinetypeTableRecord
  2
BYBLOCK
 70
     0
  3

 72
    65
 73
     0
 40
0.0
  0
LTYPE
  5
15
330
5
100
AcDbSymbolTableRecord
100
AcDbLinetypeTableRecord
  2
BYLAYER
 70
     0
  3

 72
    65
 73
     0
 40
0.0
  0
LTYPE
  5
16
330
5
100
AcDbSymbolTableRecord
100
AcDbLinetypeTableRecord
  2
CONTINUOUS
 70
     0
  3
Solid line
 72
    65
 73
     0
 40
0.0
  0
LTYPE
  5
6A
330
5
100
AcDbSymbolTableRecord
100
AcDbLinetypeTableRecord
  2
HIDDEN
 70
     0
  3
Hidden __ __ __ __ __ __ __ __ __ __ __ __ __ __
 72
    65
 73
     2
 40
1.905
 49
1.27
 74
     0
 49
-0.635
 74
     0
  0
LTYPE
  5
6B
330
5
100
AcDbSymbolTableRecord
100
AcDbLinetypeTableRecord
  2
PHANTOM
 70
     0
  3
Phantom ______  __  __  ______  __  __  ______
 72
    65
 73
     6
 40
12.7
 49
6.35
 74
     0
 49
-1.27
 74
     0
 49
1.27
 74
     0
 49
-1.27
 74
     0
 49
1.27
 74
     0
 49
-1.27
 74
     0
  0
LTYPE
  5
6C
330
5
100
AcDbSymbolTableRecord
100
AcDbLinetypeTableRecord
  2
CENTER
 70
     0
  3
Center ____ _ ____ _ ____ _ ____ _ ____ _ ____
 72
    65
 73
     4
 40
10.16
 49
6.35
 74
     0
 49
-1.27
 74
     0
 49
1.27
 74
     0
 49
-1.27
 74
     0
  0
LTYPE
  5
6D
330
5
100
AcDbSymbolTableRecord
100
AcDbLinetypeTableRecord
  2
CENTERX2
 70
     0
  3
Center (2x) ________  __  ________  __  _____
 72
    65
 73
     4
 40
20.32
 49
12.7
 74
     0
 49
-2.54
 74
     0
 49
2.54
 74
     0
 49
-2.54
 74
     0
  0
LTYPE
  5
6E
330
5
100
AcDbSymbolTableRecord
100
AcDbLinetypeTableRecord
  2
DOT2
 70
     0
  3
Dot (.5x) ........................................
 72
    65
 73
     2
 40
0.635
 49
0.0
 74
     0
 49
-0.635
 74
     0
  0
LTYPE
  5
29E
330
5
100
AcDbSymbolTableRecord
100
AcDbLinetypeTableRecord
  2
DASH
 70
     0
  3
DASH _ _ _ _ _
 72
    65
 73
     2
 40
0.75
 49
0.4
 74
     0
 49
-0.35
 74
     0
  0
LTYPE
  5
29F
330
5
100
AcDbSymbolTableRecord
100
AcDbLinetypeTableRecord
  2
LONGDASH_DASH
 70
     0
  3
LONGDASH_DASH __ . __ . __
 72
    65
 73
     4
 40
0.85
 49
0.4
 74
     0
 49
-0.2
 74
     0
 49
0.05
 74
     0
 49
-0.2
 74
     0
  0
LTYPE
  5
2A0
330
5
100
AcDbSymbolTableRecord
100
AcDbLinetypeTableRecord
  2
LONGDASH_DASH_DASH
 70
     0
  3
LONGDASH_DASH_DASH __ . . __ . . __
 72
    65
 73
     6
 40
1.1
 49
0.4
 74
     0
 49
-0.2
 74
     0
 49
0.05
 74
     0
 49
-0.2
 74
     0
 49
0.05
 74
     0
 49
-0.2
 74
     0
  0
ENDTAB
  0
TABLE
  2
LAYER
  5
2
102
{ACAD_XDICTIONARY
360
2C0
102
}
330
0
100
AcDbSymbolTable
 70
    16
  0
LAYER
  5
256
330
2
100
AcDbSymbolTableRecord
100
AcDbLayerTableRecord
  2
200
 70
     0
 62
    -2
  6
CONTINUOUS
370
    50
390
2B1
347
254
348
0
  0
LAYER
  5
259
330
2
100
AcDbSymbolTableRecord
100
AcDbLayerTableRecord
  2
Defpoints
 70
     0
 62
     7
  6
CONTINUOUS
290
     0
370
    -3
390
2B1
347
254
348
0
  0
LAYER
  5
2A1
330
2
100
AcDbSymbolTableRecord
100
AcDbLayerTableRecord
  2
0
 70
     0
 62
    -1
  6
CONTINUOUS
370
    -3
390
2B1
347
254
348
0
  0
LAYER
  5
2A2
330
2
100
AcDbSymbolTableRecord
100
AcDbLayerTableRecord
  2
1
 70
     0
 62
     4
  6
CONTINUOUS
370
    50
390
2B1
347
254
348
0
  0
LAYER
  5
2A3
330
2
100
AcDbSymbolTableRecord
100
AcDbLayerTableRecord
  2
2
 70
     0
 62
     7
  6
CONTINUOUS
370
    25
390
2B1
347
254
348
0
  0
LAYER
  5
2A4
330
2
100
AcDbSymbolTableRecord
100
AcDbLayerTableRecord
  2
3
 70
     0
 62
     1
  6
DASH
370
    35
390
2B1
347
254
348
0
  0
LAYER
  5
2A5
330
2
100
AcDbSymbolTableRecord
100
AcDbLayerTableRecord
  2
4
 70
     0
 62
     2
  6
LONGDASH_DASH
370
    25
390
2B1
347
254
348
0
  0
LAYER
  5
2A6
330
2
100
AcDbSymbolTableRecord
100
AcDbLayerTableRecord
  2
6
 70
     0
 62
    -5
  6
CONTINUOUS
370
    -3
390
2B1
347
254
348
0
  0
LAYER
  5
2A7
330
2
100
AcDbSymbolTableRecord
100
AcDbLayerTableRecord
  2
CUT
 70
     0
 62
     1
  6
CONTINUOUS
370
    25
390
2B1
347
254
348
0
  0
LAYER
  5
2A8
330
2
100
AcDbSymbolTableRecord
100
AcDbLayerTableRecord
  2
NOCUT
 70
     0
 62
     7
  6
CONTINUOUS
370
    25
390
2B1
347
254
348
0
  0
LAYER
  5
2A9
330
2
100
AcDbSymbolTableRecord
100
AcDbLayerTableRecord
  2
SK1
 70
     0
 62
     4
  6
CONTINUOUS
370
    50
390
2B1
347
254
348
0
  0
LAYER
  5
2AA
330
2
100
AcDbSymbolTableRecord
100
AcDbLayerTableRecord
  2
SK2
 70
     0
 62
     7
  6
CONTINUOUS
370
    25
390
2B1
347
254
348
0
  0
LAYER
  5
2AB
330
2
100
AcDbSymbolTableRecord
100
AcDbLayerTableRecord
  2
SK3
 70
     0
 62
     1
  6
DASH
370
    35
390
2B1
347
254
348
0
  0
LAYER
  5
2AC
330
2
100
AcDbSymbolTableRecord
100
AcDbLayerTableRecord
  2
SK4
 70
     0
 62
     2
  6
LONGDASH_DASH
370
    25
390
2B1
347
254
348
0
  0
LAYER
  5
2AD
330
2
100
AcDbSymbolTableRecord
100
AcDbLayerTableRecord
  2
SK6
 70
     0
 62
     5
  6
CONTINUOUS
370
    -3
390
2B1
347
254
348
0
  0
LAYER
  5
2AE
330
2
100
AcDbSymbolTableRecord
100
AcDbLayerTableRecord
  2
INFTOTAL
 70
     0
 62
     9
  6
CONTINUOUS
370
    18
390
2B1
347
254
348
0
  0
ENDTAB
  0
TABLE
  2
STYLE
  5
3
330
0
100
AcDbSymbolTable
 70
     3
  0
STYLE
  5
11
330
3
100
AcDbSymbolTableRecord
100
AcDbTextStyleTableRecord
  2
STANDARD
 70
     0
 40
0.0
 41
1.0
 50
0.0
 71
     0
 42
3.5
  3
txt
  4

  0
STYLE
  5
1D7
330
3
100
AcDbSymbolTableRecord
100
AcDbTextStyleTableRecord
  2
SLDTEXTSTYLE0
 70
     0
 40
0.0
 41
0.605
 50
0.0
 71
     0
 42
3.5
  3
TXT
  4

  0
STYLE
  5
255
330
3
100
AcDbSymbolTableRecord
100
AcDbTextStyleTableRecord
  2
BMG_Text
 70
     0
 40
3.5
 41
1.0
 50
0.0
 71
     0
 42
3.5
  3
monos.ttf
  4

1001
ACAD
1000
Monospac821 BT
1071
       49
  0
ENDTAB
  0
TABLE
  2
VIEW
  5
6
330
0
100
AcDbSymbolTable
 70
     0
  0
ENDTAB
  0
TABLE
  2
UCS
  5
7
330
0
100
AcDbSymbolTable
 70
     0
  0
ENDTAB
  0
TABLE
  2
APPID
  5
9
330
0
100
AcDbSymbolTable
 70
     4
  0
APPID
  5
12
330
9
100
AcDbSymbolTableRecord
100
AcDbRegAppTableRecord
  2
ACAD
 70
     0
  0
APPID
  5
271
330
9
100
AcDbSymbolTableRecord
100
AcDbRegAppTableRecord
  2
ACAD_DSTYLE_DIM_LINETYPE
 70
     0
  0
APPID
  5
272
330
9
100
AcDbSymbolTableRecord
100
AcDbRegAppTableRecord
  2
ACAD_DSTYLE_DIM_EXT1_LINETYPE
 70
     0
  0
APPID
  5
273
330
9
100
AcDbSymbolTableRecord
100
AcDbRegAppTableRecord
  2
ACAD_DSTYLE_DIM_EXT2_LINETYPE
 70
     0
  0
ENDTAB
  0
TABLE
  2
DIMSTYLE
  5
A
330
0
100
AcDbSymbolTable
 70
     3
100
AcDbDimStyleTable
  0
DIMSTYLE
105
27
330
A
100
AcDbSymbolTableRecord
100
AcDbDimStyleTableRecord
  2
ISO-25
 70
     0
 41
2.5
 42
0.625
 43
3.75
 44
1.25
 73
     0
 74
     0
 77
     1
 78
     8
140
2.5
141
2.5
143
0.0393700787
147
0.625
171
     3
172
     1
178
     0
271
     2
272
     2
274
     3
283
     0
284
     8
340
11
  0
DIMSTYLE
105
1D8
102
{ACAD_REACTORS
330
1D6
102
}
330
A
100
AcDbSymbolTableRecord
100
AcDbDimStyleTableRecord
  2
SLDDIMSTYLE0
 70
     0
 41
3.5
 44
0.0
 45
0.000000001
 73
     0
 74
     0
 77
     1
 78
    12
140
3.5
147
0.875
173
     1
178
     0
271
     0
272
     3
284
    12
340
1D7
  0
DIMSTYLE
105
1E5
102
{ACAD_REACTORS
330
1E4
330
1EF
330
1F9
330
204
330
20F
102
}
330
A
100
AcDbSymbolTableRecord
100
AcDbDimStyleTableRecord
  2
SLDDIMSTYLE1
 70
     0
 41
3.5
 44
0.0
 45
0.000000001
 73
     0
 74
     0
 77
     1
 78
    12
140
3.5
147
0.875
173
     1
178
     0
271
     2
272
     3
284
    12
340
1D7
  0
ENDTAB
  0
TABLE
  2
BLOCK_RECORD
  5
1
330
0
100
AcDbSymbolTable
 70
     6
  0
BLOCK_RECORD
  5
1F
330
1
100
AcDbSymbolTableRecord
100
AcDbBlockTableRecord
  2
*MODEL_SPACE
340
23E
 70
     0
280
     1
281
     0
  0
BLOCK_RECORD
  5
1B
330
1
100
AcDbSymbolTableRecord
100
AcDbBlockTableRecord
  2
*PAPER_SPACE
340
23F
 70
     0
280
     1
281
     0
  0
BLOCK_RECORD
  5
1D9
330
1
100
AcDbSymbolTableRecord
100
AcDbBlockTableRecord
  2
_D
340
0
 70
     0
280
     1
281
     0
  0
BLOCK_RECORD
  5
1E6
330
1
100
AcDbSymbolTableRecord
100
AcDbBlockTableRecord
  2
_D_1
340
0
 70
     0
280
     1
281
     0
  0
BLOCK_RECORD
  5
1F0
330
1
100
AcDbSymbolTableRecord
100
AcDbBlockTableRecord
  2
_D_2
340
0
 70
     0
280
     1
281
     0
  0
BLOCK_RECORD
  5
1FA
330
1
100
AcDbSymbolTableRecord
100
AcDbBlockTableRecord
  2
_D_3
340
0
 70
     0
280
     1
281
     0
  0
BLOCK_RECORD
  5
205
330
1
100
AcDbSymbolTableRecord
100
AcDbBlockTableRecord
  2
_D_4
340
0
 70
     0
280
     1
281
     0
  0
BLOCK_RECORD
  5
210
330
1
100
AcDbSymbolTableRecord
100
AcDbBlockTableRecord
  2
_D_5
340
0
 70
     0
280
     1
281
     0
  0
ENDTAB
  0
ENDSEC
  0
SECTION
  2
BLOCKS
  0
BLOCK
  5
20
330
1F
100
AcDbEntity
  8
0
100
AcDbBlockBegin
  2
*MODEL_SPACE
 70
     0
 10
0.0
 20
0.0
 30
0.0
  3
*MODEL_SPACE
  1

  0
ENDBLK
  5
21
330
1F
100
AcDbEntity
  8
0
100
AcDbBlockEnd
  0
BLOCK
  5
1C
330
1B
100
AcDbEntity
 67
     1
  8
0
100
AcDbBlockBegin
  2
*PAPER_SPACE
 70
     0
 10
0.0
 20
0.0
 30
0.0
  3
*PAPER_SPACE
  1

  0
ENDBLK
  5
1D
330
1B
100
AcDbEntity
 67
     1
  8
0
100
AcDbBlockEnd
  0
BLOCK
  5
1DA
330
1D9
100
AcDbEntity
  8
0
100
AcDbBlockBegin
  2
_D
 70
     0
 10
0.0
 20
0.0
 30
0.0
  3
_D
  1
_D
  0
LINE
  5
1DC
330
1D9
100
AcDbEntity
  8
2
  6
Continuous
370
    -2
100
AcDbLine
 10
70.1235799726
 20
73.98813203722734
 30
0.0
 11
83.02642552865522
 21
73.98813216673824
 31
0.0
  0
LINE
  5
1DD
330
1D9
100
AcDbEntity
  8
2
  6
Continuous
370
    -2
100
AcDbLine
 10
70.1235814579
 20
-73.98756337677266
 30
0.0
 11
83.02642701394477
 21
-73.98756324726178
 31
0.0
  0
LINE
  5
1DE
330
1D9
100
AcDbEntity
  8
2
  6
Continuous
370
    -2
100
AcDbLine
 10
83.02642556378608
 20
70.48813216673824
 30
0.0
 11
83.02642697881392
 21
-70.48756324726178
 31
0.0
  0
SOLID
  5
1DF
330
1D9
100
AcDbEntity
  8
2
100
AcDbTrace
 10
83.6097588971194
 20
70.48813217259338
 30
0.0
 11
82.44309223045275
 21
70.4881321608831
 31
0.0
 12
83.02642552865522
 22
73.98813216673824
 32
0.0
 13
83.02642552865522
 23
73.98813216673824
 33
0.0
  0
SOLID
  5
1E0
330
1D9
100
AcDbEntity
  8
2
100
AcDbTrace
 10
82.44309364548059
 20
-70.48756325311692
 30
0.0
 11
83.60976031214724
 21
-70.48756324140663
 31
0.0
 12
83.02642701394477
 22
-73.98756324726178
 32
0.0
 13
83.02642701394477
 23
-73.98756324726178
 33
0.0
  0
MTEXT
  5
1E1
330
1D9
100
AcDbEntity
  8
2
370
    25
100
AcDbMText
 10
80.2894262713
 20
0.0002844322276677
 30
0.0
 40
3.5
 41
0.0
 46
0.0
 71
     5
 72
     1
  1
\A1;%%c148 - 203
  7
BMG_Text
 11
-1.003738850852375E-8
 21
1.0
 31
0.0
 73
     1
 44
1.0
  0
POINT
  5
1E2
330
1D9
100
AcDbEntity
  8
Defpoints
 62
     0
100
AcDbPoint
 10
70.0610799726
 20
73.9881320366
 30
0.0
  0
POINT
  5
1E3
330
1D9
100
AcDbEntity
  8
Defpoints
 62
     0
100
AcDbPoint
 10
70.0610814579
 20
-73.9875633774
 30
0.0
  0
POINT
  5
25A
330
1D9
100
AcDbEntity
  8
Defpoints
 62
     0
100
AcDbPoint
 10
83.02642701394477
 20
-73.98756324726179
 30
0.0
  0
ENDBLK
  5
1DB
330
1D9
100
AcDbEntity
  8
0
100
AcDbBlockEnd
  0
BLOCK
  5
1E7
330
1E6
100
AcDbEntity
  8
0
100
AcDbBlockBegin
  2
_D_1
 70
     0
 10
0.0
 20
0.0
 30
0.0
  3
_D_1
  1
_D_1
  0
LINE
  5
1E9
330
1E6
100
AcDbEntity
  8
2
  6
Continuous
370
    -2
100
AcDbLine
 10
70.9999985057
 20
73.2627838117
 30
0.0
 11
70.9999985057
 21
80.4269501681
 31
0.0
  0
LINE
  5
1EA
330
1E6
100
AcDbEntity
  8
2
  6
Continuous
370
    -2
100
AcDbLine
 10
0.0
 20
31.302786938
 30
0.0
 11
0.0
 21
80.4269501681
 31
0.0
  0
LINE
  5
1EB
330
1E6
100
AcDbEntity
  8
2
  6
Continuous
370
    -2
100
AcDbLine
 10
67.4999985057
 20
80.4269501681
 30
0.0
 11
3.5
 21
80.4269501681
 31
0.0
  0
SOLID
  5
1EC
330
1E6
100
AcDbEntity
  8
2
100
AcDbTrace
 10
67.4999985057
 20
79.84361683476668
 30
0.0
 11
67.4999985057
 21
81.01028350143334
 31
0.0
 12
70.9999985057
 22
80.4269501681
 32
0.0
 13
70.9999985057
 23
80.4269501681
 33
0.0
  0
SOLID
  5
1ED
330
1E6
100
AcDbEntity
  8
2
100
AcDbTrace
 10
3.5
 20
81.01028350143334
 30
0.0
 11
3.5
 21
79.84361683476668
 31
0.0
 12
0.0
 22
80.4269501681
 32
0.0
 13
0.0
 23
80.4269501681
 33
0.0
  0
MTEXT
  5
1EE
330
1E6
100
AcDbEntity
  8
2
370
    25
100
AcDbMText
 10
35.4999992528
 20
83.0624501681
 30
0.0
 40
3.5
 41
0.0
 46
0.0
 71
     5
 72
     1
  1
\A1;71
  7
BMG_Text
 73
     1
 44
1.0
  0
POINT
  5
25B
330
1E6
100
AcDbEntity
  8
Defpoints
 62
     0
100
AcDbPoint
 10
70.9999985057
 20
73.2002838117
 30
0.0
  0
POINT
  5
25C
330
1E6
100
AcDbEntity
  8
Defpoints
 62
     0
100
AcDbPoint
 10
0.0
 20
31.240286938
 30
0.0
  0
POINT
  5
25D
330
1E6
100
AcDbEntity
  8
Defpoints
 62
     0
100
AcDbPoint
 10
0.0
 20
80.4269501681
 30
0.0
  0
ENDBLK
  5
1E8
330
1E6
100
AcDbEntity
  8
0
100
AcDbBlockEnd
  0
BLOCK
  5
1F1
330
1F0
100
AcDbEntity
  8
0
100
AcDbBlockBegin
  2
_D_2
 70
     0
 10
0.0
 20
0.0
 30
0.0
  3
_D_2
  1
_D_2
  0
LINE
  5
1F3
330
1F0
100
AcDbEntity
  8
2
  6
Continuous
370
    -2
100
AcDbLine
 10
0.0
 20
-31.302786938
 30
0.0
 11
0.0
 21
-82.9797776246
 31
0.0
  0
LINE
  5
1F4
330
1F0
100
AcDbEntity
  8
2
  6
Continuous
370
    -2
100
AcDbLine
 10
37.0
 20
-69.5625
 30
0.0
 11
37.0
 21
-82.9797776246
 31
0.0
  0
LINE
  5
1F5
330
1F0
100
AcDbEntity
  8
2
  6
Continuous
370
    -2
100
AcDbLine
 10
3.5
 20
-82.9797776246
 30
0.0
 11
33.5
 21
-82.9797776246
 31
0.0
  0
SOLID
  5
1F6
330
1F0
100
AcDbEntity
  8
2
100
AcDbTrace
 10
3.5
 20
-82.39644429126668
 30
0.0
 11
3.5
 21
-83.56311095793333
 31
0.0
 12
0.0
 22
-82.9797776246
 32
0.0
 13
0.0
 23
-82.9797776246
 33
0.0
  0
SOLID
  5
1F7
330
1F0
100
AcDbEntity
  8
2
100
AcDbTrace
 10
33.5
 20
-83.56311095793333
 30
0.0
 11
33.5
 21
-82.39644429126668
 31
0.0
 12
37.0
 22
-82.9797776246
 32
0.0
 13
37.0
 23
-82.9797776246
 33
0.0
  0
MTEXT
  5
1F8
330
1F0
100
AcDbEntity
  8
2
370
    25
100
AcDbMText
 10
18.5
 20
-80.2935276246
 30
0.0
 40
3.5
 41
0.0
 46
0.0
 71
     5
 72
     1
  1
\A1;37
  7
BMG_Text
 73
     1
 44
1.0
  0
POINT
  5
25E
330
1F0
100
AcDbEntity
  8
Defpoints
 62
     0
100
AcDbPoint
 10
0.0
 20
-31.240286938
 30
0.0
  0
POINT
  5
25F
330
1F0
100
AcDbEntity
  8
Defpoints
 62
     0
100
AcDbPoint
 10
37.0
 20
-69.5
 30
0.0
  0
POINT
  5
260
330
1F0
100
AcDbEntity
  8
Defpoints
 62
     0
100
AcDbPoint
 10
37.0
 20
-82.9797776246
 30
0.0
  0
ENDBLK
  5
1F2
330
1F0
100
AcDbEntity
  8
0
100
AcDbBlockEnd
  0
BLOCK
  5
1FB
330
1FA
100
AcDbEntity
  8
0
100
AcDbBlockBegin
  2
_D_3
 70
     0
 10
0.0
 20
0.0
 30
0.0
  3
_D_3
  1
_D_3
  0
LINE
  5
1FD
330
1FA
100
AcDbEntity
  8
SK2
  6
ByBlock
370
    -2
100
AcDbLine
 10
-35.0625000094
 20
18.0
 30
0.0
 11
-46.2676860844
 21
18.0
 31
0.0
  0
LINE
  5
1FE
330
1FA
100
AcDbEntity
  8
SK2
  6
ByBlock
370
    -2
100
AcDbLine
 10
-35.0625
 20
-17.999999225
 30
0.0
 11
-46.2676860844
 21
-17.999999225
 31
0.0
  0
LINE
  5
1FF
330
1FA
100
AcDbEntity
  8
SK2
  6
ByBlock
370
    -2
100
AcDbLine
 10
-46.2676860844
 20
14.5
 30
0.0
 11
-46.2676860844
 21
-14.499999225
 31
0.0
  0
SOLID
  5
200
330
1FA
100
AcDbEntity
  8
SK2
100
AcDbTrace
 10
-45.68435275106666
 20
14.5
 30
0.0
 11
-46.85101941773333
 21
14.5
 31
0.0
 12
-46.2676860844
 22
18.0
 32
0.0
 13
-46.2676860844
 23
18.0
 33
0.0
  0
SOLID
  5
201
330
1FA
100
AcDbEntity
  8
SK2
100
AcDbTrace
 10
-46.85101941773333
 20
-14.499999225
 30
0.0
 11
-45.68435275106666
 21
-14.499999225
 31
0.0
 12
-46.2676860844
 22
-17.999999225
 32
0.0
 13
-46.2676860844
 23
-17.999999225
 33
0.0
  0
MTEXT
  5
202
330
1FA
100
AcDbEntity
  8
SK2
100
AcDbMText
 10
-49.0046860844
 20
0.0000003875
 30
0.0
 40
3.5
 41
0.0
 46
0.0
 71
     5
 72
     1
  1
\A1;%%c36
  7
BMG_Text
 11
0.0
 21
1.0
 31
0.0
 73
     1
 44
1.0
  0
POINT
  5
203
330
1FA
100
AcDbEntity
  8
Defpoints
 62
     0
100
AcDbPoint
 10
-35.0000000094
 20
18.0
 30
0.0
  0
POINT
  5
261
330
1FA
100
AcDbEntity
  8
Defpoints
 62
     0
100
AcDbPoint
 10
-35.0
 20
-17.999999225
 30
0.0
  0
POINT
  5
262
330
1FA
100
AcDbEntity
  8
Defpoints
 62
     0
100
AcDbPoint
 10
-46.2676860844
 20
-17.999999225
 30
0.0
  0
ENDBLK
  5
1FC
330
1FA
100
AcDbEntity
  8
0
100
AcDbBlockEnd
  0
BLOCK
  5
206
330
205
100
AcDbEntity
  8
0
100
AcDbBlockBegin
  2
_D_4
 70
     0
 10
0.0
 20
0.0
 30
0.0
  3
_D_4
  1
_D_4
  0
LINE
  5
208
330
205
100
AcDbEntity
  8
2
  6
Continuous
370
    -2
100
AcDbLine
 10
0.4375
 20
31.75
 30
0.0
 11
-56.1326797519
 21
31.75
 31
0.0
  0
LINE
  5
209
330
205
100
AcDbEntity
  8
2
  6
Continuous
370
    -2
100
AcDbLine
 10
0.4375
 20
-31.75
 30
0.0
 11
-56.1326797519
 21
-31.75
 31
0.0
  0
LINE
  5
20A
330
205
100
AcDbEntity
  8
2
  6
Continuous
370
    -2
100
AcDbLine
 10
-56.1326797519
 20
28.25
 30
0.0
 11
-56.1326797519
 21
-28.25
 31
0.0
  0
SOLID
  5
20B
330
205
100
AcDbEntity
  8
2
100
AcDbTrace
 10
-55.54934641856666
 20
28.25
 30
0.0
 11
-56.71601308523334
 21
28.25
 31
0.0
 12
-56.1326797519
 22
31.75
 32
0.0
 13
-56.1326797519
 23
31.75
 33
0.0
  0
SOLID
  5
20C
330
205
100
AcDbEntity
  8
2
100
AcDbTrace
 10
-56.71601308523334
 20
-28.25
 30
0.0
 11
-55.54934641856666
 21
-28.25
 31
0.0
 12
-56.1326797519
 22
-31.75
 32
0.0
 13
-56.1326797519
 23
-31.75
 33
0.0
  0
MTEXT
  5
20D
330
205
100
AcDbEntity
  8
2
370
    25
100
AcDbMText
 10
-58.8696797519
 20
0.0000000000000003
 30
0.0
 40
3.5
 41
0.0
 46
0.0
 71
     5
 72
     1
  1
\A1;%%c63.5
  7
BMG_Text
 11
1.118964938204882E-16
 21
1.0
 31
0.0
 73
     1
 44
1.0
  0
POINT
  5
20E
330
205
100
AcDbEntity
  8
Defpoints
 62
     0
100
AcDbPoint
 10
0.5
 20
31.75
 30
0.0
  0
POINT
  5
263
330
205
100
AcDbEntity
  8
Defpoints
 62
     0
100
AcDbPoint
 10
0.5
 20
-31.75
 30
0.0
  0
POINT
  5
264
330
205
100
AcDbEntity
  8
Defpoints
 62
     0
100
AcDbPoint
 10
-56.1326797519
 20
-31.75
 30
0.0
  0
ENDBLK
  5
207
330
205
100
AcDbEntity
  8
0
100
AcDbBlockEnd
  0
BLOCK
  5
211
330
210
100
AcDbEntity
  8
0
100
AcDbBlockBegin
  2
_D_5
 70
     0
 10
0.0
 20
0.0
 30
0.0
  3
_D_5
  1
_D_5
  0
LINE
  5
213
330
210
100
AcDbEntity
  8
2
  6
Continuous
370
    -2
100
AcDbLine
 10
11.984505384
 20
70.0
 30
0.0
 11
-66.56270891399998
 21
70.0
 31
0.0
  0
LINE
  5
214
330
210
100
AcDbEntity
  8
2
  6
Continuous
370
    -2
100
AcDbLine
 10
11.984505384
 20
-70.0
 30
0.0
 11
-66.56270891400001
 21
-70.0
 31
0.0
  0
LINE
  5
215
330
210
100
AcDbEntity
  8
2
  6
Continuous
370
    -2
100
AcDbLine
 10
-66.56270891399998
 20
66.5
 30
0.0
 11
-66.56270891400001
 21
-66.5
 31
0.0
  0
SOLID
  5
216
330
210
100
AcDbEntity
  8
2
100
AcDbTrace
 10
-65.97937558066666
 20
66.5
 30
0.0
 11
-67.14604224733331
 21
66.5
 31
0.0
 12
-66.56270891399998
 22
70.0
 32
0.0
 13
-66.56270891399998
 23
70.0
 33
0.0
  0
SOLID
  5
217
330
210
100
AcDbEntity
  8
2
100
AcDbTrace
 10
-67.14604224733334
 20
-66.5
 30
0.0
 11
-65.97937558066668
 21
-66.5
 31
0.0
 12
-66.56270891400001
 22
-70.0
 32
0.0
 13
-66.56270891400001
 23
-70.0
 33
0.0
  0
MTEXT
  5
218
330
210
100
AcDbEntity
  8
2
370
    25
100
AcDbMText
 10
-69.29970891399999
 20
0.0000000000000003
 30
0.0
 40
3.5
 41
0.0
 46
0.0
 71
     5
 72
     1
  1
\A1;%%c140
  7
BMG_Text
 11
1.015061051085857E-16
 21
1.0
 31
0.0
 73
     1
 44
1.0
  0
POINT
  5
219
330
210
100
AcDbEntity
  8
Defpoints
 62
     0
100
AcDbPoint
 10
12.047005384
 20
70.0
 30
0.0
  0
POINT
  5
265
330
210
100
AcDbEntity
  8
Defpoints
 62
     0
100
AcDbPoint
 10
12.047005384
 20
-70.0
 30
0.0
  0
POINT
  5
266
330
210
100
AcDbEntity
  8
Defpoints
 62
     0
100
AcDbPoint
 10
-66.56270891400001
 20
-70.0
 30
0.0
  0
ENDBLK
  5
212
330
210
100
AcDbEntity
  8
0
100
AcDbBlockEnd
  0
ENDSEC
  0
SECTION
  2
ENTITIES
  0
LINE
  5
75
330
1F
100
AcDbEntity
  8
3
100
AcDbLine
 10
12.5
 20
-62.735556107
 30
0.0
 11
7.854027093
 21
-62.735556107
 31
0.0
  0
LINE
  5
76
330
1F
100
AcDbEntity
  8
3
100
AcDbLine
 10
12.5
 20
-62.735556107
 30
0.0
 11
12.5
 21
-57.5
 31
0.0
  0
LINE
  5
77
330
1F
100
AcDbEntity
  8
3
100
AcDbLine
 10
32.5000000002
 20
-37.4999999997
 30
0.0
 11
37.0
 21
-37.4999999997
 31
0.0
  0
LINE
  5
78
330
1F
100
AcDbEntity
  8
4
100
AcDbLine
 10
0.0
 20
-0.0000000502
 30
0.0
 11
57.31328576800001
 21
-0.0000000502
 31
0.0
  0
LINE
  5
79
330
1F
100
AcDbEntity
  8
3
100
AcDbLine
 10
20.585786438
 20
-28.600505063
 30
0.0
 11
29.6842355465
 21
-37.6989541715
 31
0.0
  0
LINE
  5
7A
330
1F
100
AcDbEntity
  8
3
100
AcDbLine
 10
18.68665517
 20
-29.486084517
 30
0.0
 11
20.585786438
 21
-28.600505063
 31
0.0
  0
LINE
  5
7B
330
1F
100
AcDbEntity
  8
3
100
AcDbLine
 10
13.933793036
 20
-33.154287694
 30
0.0
 11
18.68665517
 21
-29.486084517
 31
0.0
  0
LINE
  5
7C
330
1F
100
AcDbEntity
  8
3
100
AcDbLine
 10
12.100505063
 20
-37.085786438
 30
0.0
 11
13.933793036
 21
-33.154287694
 31
0.0
  0
LINE
  5
7D
330
1F
100
AcDbEntity
  8
3
100
AcDbLine
 10
20.585786438
 20
-28.600505063
 30
0.0
 11
12.107424369
 21
-37.078867132
 31
0.0
  0
LINE
  5
7E
330
1F
100
AcDbEntity
  8
3
100
AcDbLine
 10
18.3651877145
 20
-43.3504690895
 30
0.0
 11
12.100505063
 21
-37.085786438
 31
0.0
  0
LINE
  5
7F
330
1F
100
AcDbEntity
  8
3
100
AcDbLine
 10
13.933793036
 20
-33.154287694
 30
0.0
 11
-0.0000000000000053
 21
-13.71071031951877
 31
0.0
  0
LINE
  5
80
330
1F
100
AcDbEntity
  8
3
100
AcDbLine
 10
2.756164391
 20
-7.256263156
 30
0.0
 11
18.68665517
 21
-29.486084517
 31
0.0
  0
LINE
  5
81
330
1F
100
AcDbEntity
  8
SK3
100
AcDbLine
 10
-16.999980383
 20
-9.000000408
 30
0.0
 11
-13.267955003
 21
-8.000007221
 31
0.0
  0
LINE
  5
82
330
1F
100
AcDbEntity
  8
SK3
100
AcDbLine
 10
-37.000005811
 20
-9.250000408
 30
0.0
 11
-36.278326123
 21
-8.000000408
 31
0.0
  0
LINE
  5
83
330
1F
100
AcDbEntity
  8
SK3
100
AcDbLine
 10
-36.278326123
 20
8.000007221
 30
0.0
 11
-37.000005811
 21
9.25002248
 31
0.0
  0
LINE
  5
84
330
1F
100
AcDbEntity
  8
SK3
100
AcDbLine
 10
-37.000005811
 20
9.25002248
 30
0.0
 11
-39.567022412
 21
9.25002248
 31
0.0
  0
LINE
  5
85
330
1F
100
AcDbEntity
  8
SK3
100
AcDbLine
 10
-39.567022412
 20
-9.250000408
 30
0.0
 11
-37.000005811
 21
-9.250000408
 31
0.0
  0
LINE
  5
86
330
1F
100
AcDbEntity
  8
SK3
100
AcDbLine
 10
-37.000005811
 20
-9.250000408
 30
0.0
 11
-37.000005811
 21
9.25002248
 31
0.0
  0
LINE
  5
87
330
1F
100
AcDbEntity
  8
3
100
AcDbLine
 10
0.0
 20
-8.000000408
 30
0.0
 11
2.485466168999999
 21
-8.000000408
 31
0.0
  0
LINE
  5
88
330
1F
100
AcDbEntity
  8
3
100
AcDbLine
 10
2.485466169
 20
8.00002248
 30
0.0
 11
0.0000000000000004
 21
8.00002248
 31
0.0
  0
LINE
  5
89
330
1F
100
AcDbEntity
  8
SK3
100
AcDbLine
 10
-36.278326123
 20
8.00002248
 30
0.0
 11
-36.278326123
 21
-8.000000408
 31
0.0
  0
LINE
  5
8A
330
1F
100
AcDbEntity
  8
3
100
AcDbLine
 10
2.485466169
 20
8.000000408
 30
0.0
 11
2.485466169
 21
-8.00002248
 31
0.0
  0
LINE
  5
8B
330
1F
100
AcDbEntity
  8
SK3
100
AcDbLine
 10
-17.000005811
 20
-9.000000408
 30
0.0
 11
-16.99988374
 21
9.000007221
 31
0.0
  0
LINE
  5
8C
330
1F
100
AcDbEntity
  8
SK3
100
AcDbLine
 10
-16.99988374
 20
9.000007221
 30
0.0
 11
-36.855596631
 21
9.000007221
 31
0.0
  0
LINE
  5
8D
330
1F
100
AcDbEntity
  8
SK3
100
AcDbLine
 10
-36.855596631
 20
-9.000000408
 30
0.0
 11
-16.999980383
 21
-9.000000408
 31
0.0
  0
LINE
  5
8E
330
1F
100
AcDbEntity
  8
SK3
100
AcDbLine
 10
-17.000005811
 20
9.000007221
 30
0.0
 11
-13.267955003
 21
8.000007221
 31
0.0
  0
LINE
  5
90
330
1F
100
AcDbEntity
  8
SK1
  6
Continuous
370
    50
100
AcDbLine
 10
-35.0
 20
-17.999999225
 30
0.0
 11
-1.485441462
 21
-17.999999225
 31
0.0
  0
LINE
  5
91
330
1F
100
AcDbEntity
  8
SK1
  6
Continuous
370
    50
100
AcDbLine
 10
-1.485441462
 20
18.0
 30
0.0
 11
-35.0000000094
 21
18.0
 31
0.0
  0
LINE
  5
92
330
1F
100
AcDbEntity
  8
SK1
  6
Continuous
370
    50
100
AcDbLine
 10
-1.485441462
 20
-17.999999225
 30
0.0
 11
-0.4294095226
 21
-17.7170370869
 31
0.0
  0
LINE
  5
93
330
1F
100
AcDbEntity
  8
SK1
  6
Continuous
370
    50
100
AcDbLine
 10
-0.4294095095
 20
17.7170379107
 30
0.0
 11
-1.485441462
 21
18.0
 31
0.0
  0
LINE
  5
94
330
1F
100
AcDbEntity
  8
SK1
  6
Continuous
370
    50
100
AcDbLine
 10
-35.0000000094
 20
18.0
 30
0.0
 11
-37.187489337
 21
17.692570075
 31
0.0
  0
LINE
  5
95
330
1F
100
AcDbEntity
  8
SK1
  6
Continuous
370
    50
100
AcDbLine
 10
-37.1874844412
 20
-17.6925692117
 30
0.0
 11
-35.0
 21
-17.999999225
 31
0.0
  0
LINE
  5
96
330
1F
100
AcDbEntity
  8
SK1
  6
Continuous
370
    50
100
AcDbLine
 10
-38.8448563643
 20
-17.984807753
 30
0.0
 11
-37.1874844412
 21
-17.6925692117
 31
0.0
  0
LINE
  5
97
330
1F
100
AcDbEntity
  8
SK1
  6
Continuous
370
    50
100
AcDbLine
 10
-37.187489337
 20
17.692570075
 30
0.0
 11
-38.844857365
 21
17.984807491
 31
0.0
  0
LINE
  5
98
330
1F
100
AcDbEntity
  8
SK1
  6
Continuous
370
    50
100
AcDbLine
 10
-39.6999999996
 20
-17.7318223427
 30
0.0
 11
-39.700001478
 21
17.731823027
 31
0.0
  0
LINE
  5
99
330
1F
100
AcDbEntity
  8
SK1
  6
Continuous
370
    50
100
AcDbLine
 10
-1.485441462
 20
0.0
 30
0.0
 11
-1.485441462
 21
-17.999999225
 31
0.0
  0
LINE
  5
9A
330
1F
100
AcDbEntity
  8
SK1
  6
Continuous
370
    50
100
AcDbLine
 10
-1.485441462
 20
18.0
 30
0.0
 11
-1.485441462
 21
0.0
 31
0.0
  0
LINE
  5
9B
330
1F
100
AcDbEntity
  8
SK1
  6
Continuous
370
    50
100
AcDbLine
 10
-35.0
 20
-0.300000014
 30
0.0
 11
-23.521754742
 21
-0.300000014
 31
0.0
  0
LINE
  5
9C
330
1F
100
AcDbEntity
  8
SK1
  6
Continuous
370
    50
100
AcDbLine
 10
-15.1000002774
 20
-5.8292639437
 30
0.0
 11
-16.5999995921
 21
-5.8292639437
 31
0.0
  0
LINE
  5
9D
330
1F
100
AcDbEntity
  8
SK1
  6
Continuous
370
    50
100
AcDbLine
 10
-9.2039444385
 20
-0.2999987945
 30
0.0
 11
-2.2999992025
 21
-0.2999987945
 31
0.0
  0
LINE
  5
9E
330
1F
100
AcDbEntity
  8
SK1
  6
Continuous
370
    50
100
AcDbLine
 10
-2.2999995801
 20
0.3000018292
 30
0.0
 11
-9.2039448151
 21
0.3000015099
 31
0.0
  0
LINE
  5
9F
330
1F
100
AcDbEntity
  8
SK1
  6
Continuous
370
    50
100
AcDbLine
 10
-15.0999997143
 20
5.8292648642
 30
0.0
 11
-16.5999990294
 21
5.8292647948
 31
0.0
  0
LINE
  5
A0
330
1F
100
AcDbEntity
  8
SK1
  6
Continuous
370
    50
100
AcDbLine
 10
-23.5217539235
 20
0.3000005449
 30
0.0
 11
-34.9999991908
 21
0.300000014
 31
0.0
  0
LINE
  5
A1
330
1F
100
AcDbEntity
  8
SK1
  6
Continuous
370
    50
100
AcDbLine
 10
-34.9999991908
 20
0.300000014
 30
0.0
 11
-35.0000000094
 21
18.0
 31
0.0
  0
LINE
  5
A2
330
1F
100
AcDbEntity
  8
SK1
  6
Continuous
370
    50
100
AcDbLine
 10
-35.0
 20
-17.999999225
 30
0.0
 11
-35.0
 21
-0.300000014
 31
0.0
  0
LINE
  5
A3
330
1F
100
AcDbEntity
  8
SK1
  6
Continuous
370
    50
100
AcDbLine
 10
-23.521754742
 20
-0.300000014
 30
0.0
 11
-23.440966234
 21
-0.300000014
 31
0.0
  0
LINE
  5
A4
330
1F
100
AcDbEntity
  8
SK1
  6
Continuous
370
    50
100
AcDbLine
 10
-23.5217539235
 20
0.3000005449
 30
0.0
 11
-23.4409654152
 21
0.3000005486
 31
0.0
  0
LINE
  5
A5
330
1F
100
AcDbEntity
  8
SK1
  6
Continuous
370
    50
100
AcDbLine
 10
-9.2039448151
 20
0.3000015099
 30
0.0
 11
-10.6489206611
 21
0.3000014431
 31
0.0
  0
LINE
  5
A6
330
1F
100
AcDbEntity
  8
SK1
  6
Continuous
370
    50
100
AcDbLine
 10
-18.8882087102
 20
4.3346664675
 30
0.0
 11
-18.14497146
 21
3.348671483
 31
0.0
  0
LINE
  5
A7
330
1F
100
AcDbEntity
  8
SK1
  6
Continuous
370
    50
100
AcDbLine
 10
-18.1449718732
 20
-3.3486689835
 30
0.0
 11
-18.8882082662
 21
-4.3346639185
 31
0.0
  0
LINE
  5
A8
330
1F
100
AcDbEntity
  8
SK1
  6
Continuous
370
    50
100
AcDbLine
 10
-10.6489204074
 20
-0.2999987945
 30
0.0
 11
-9.2039444385
 21
-0.2999987945
 31
0.0
  0
LINE
  5
A9
330
1F
100
AcDbEntity
  8
SK1
  6
Continuous
370
    50
100
AcDbLine
 10
-37.1874844412
 20
-0.0000000502
 30
0.0
 11
-37.187489337
 21
17.692570075
 31
0.0
  0
LINE
  5
AA
330
1F
100
AcDbEntity
  8
SK1
  6
Continuous
370
    50
100
AcDbLine
 10
-37.1874844412
 20
-17.6925692117
 30
0.0
 11
-37.1874844412
 21
-0.0000000502
 31
0.0
  0
LINE
  5
AB
330
1F
100
AcDbEntity
  8
SK1
  6
Continuous
370
    50
100
AcDbLine
 10
-35.700000673
 20
0.300000014
 30
0.0
 11
-34.9999991908
 21
0.300000014
 31
0.0
  0
LINE
  5
AC
330
1F
100
AcDbEntity
  8
SK1
  6
Continuous
370
    50
100
AcDbLine
 10
-35.0
 20
-0.300000014
 30
0.0
 11
-35.7000006735
 21
-0.300000014
 31
0.0
  0
LINE
  5
AD
330
1F
100
AcDbEntity
  8
SK1
  6
Continuous
370
    50
100
AcDbLine
 10
-15.0999997096
 20
5.7325544659
 30
0.0
 11
-16.5999990241
 21
5.7325543965
 31
0.0
  0
LINE
  5
AE
330
1F
100
AcDbEntity
  8
SK1
  6
Continuous
370
    50
100
AcDbLine
 10
-21.7112982284
 20
0.3000006286
 30
0.0
 11
-23.4409654152
 21
0.3000005486
 31
0.0
  0
LINE
  5
AF
330
1F
100
AcDbEntity
  8
SK1
  6
Continuous
370
    50
100
AcDbLine
 10
-15.1000002776
 20
-5.7325535456
 30
0.0
 11
-16.5999995915
 21
-5.7325535456
 31
0.0
  0
LINE
  5
B0
330
1F
100
AcDbEntity
  8
SK1
  6
Continuous
370
    50
100
AcDbLine
 10
-23.440966234
 20
-0.300000014
 30
0.0
 11
-21.711299047
 21
-0.300000014
 31
0.0
  0
LINE
  5
B1
330
1F
100
AcDbEntity
  8
SK1
  6
Continuous
370
    50
100
AcDbLine
 10
-20.432261601
 20
-2.8900620532
 30
0.0
 11
-19.2139966786
 21
-1.9088379338
 31
0.0
  0
LINE
  5
B2
330
1F
100
AcDbEntity
  8
SK1
  6
Continuous
370
    50
100
AcDbLine
 10
-21.711299047
 20
-0.300000014
 30
0.0
 11
-19.6288990229
 21
-0.300000014
 31
0.0
  0
LINE
  5
B3
330
1F
100
AcDbEntity
  8
SK1
  6
Continuous
370
    50
100
AcDbLine
 10
-19.2139959347
 20
1.9088386638
 30
0.0
 11
-19.6044641143
 21
2.2248646848
 31
0.0
  0
LINE
  5
B4
330
1F
100
AcDbEntity
  8
SK1
  6
Continuous
370
    50
100
AcDbLine
 10
-19.6044641143
 20
2.2248646848
 30
0.0
 11
-20.4322609021
 21
2.8900627265
 31
0.0
  0
LINE
  5
B5
330
1F
100
AcDbEntity
  8
SK1
  6
Continuous
370
    50
100
AcDbLine
 10
-19.6288982047
 20
0.3000007249
 30
0.0
 11
-21.7112982284
 21
0.3000006286
 31
0.0
  0
LINE
  5
B6
330
1F
100
AcDbEntity
  8
3
100
AcDbLine
 10
2.485466169
 20
8.000000408
 30
0.0
 11
5.397228192
 21
0.0
 31
0.0
  0
LINE
  5
B7
330
1F
100
AcDbEntity
  8
1
100
AcDbLine
 10
36.5
 20
-70.0
 30
0.0
 11
37.0
 21
-69.5
 31
0.0
  0
LINE
  5
B8
330
1F
100
AcDbEntity
  8
3
100
AcDbLine
 10
2.756164391
 20
7.256263156
 30
0.0
 11
18.68665517
 21
29.486084517
 31
0.0
  0
LINE
  5
B9
330
1F
100
AcDbEntity
  8
3
100
AcDbLine
 10
13.933793036
 20
33.154287694
 30
0.0
 11
0.0
 21
13.71071031951877
 31
0.0
  0
LINE
  5
BA
330
1F
100
AcDbEntity
  8
1
100
AcDbLine
 10
12.047005384
 20
-70.0
 30
0.0
 11
36.5
 21
-70.0
 31
0.0
  0
LINE
  5
BB
330
1F
100
AcDbEntity
  8
1
100
AcDbLine
 10
36.5
 20
70.0
 30
0.0
 11
12.047005384
 21
70.0
 31
0.0
  0
LINE
  5
BC
330
1F
100
AcDbEntity
  8
1
  6
Continuous
370
    50
100
AcDbLine
 10
12.047005384
 20
70.0
 30
0.0
 11
0.5000000002
 21
49.9999999999
 31
0.0
  0
LINE
  5
BD
330
1F
100
AcDbEntity
  8
1
  6
Continuous
370
    50
100
AcDbLine
 10
0.0
 20
-31.25
 30
0.0
 11
0.5
 21
-31.75
 31
0.0
  0
LINE
  5
BE
330
1F
100
AcDbEntity
  8
1
  6
Continuous
370
    50
100
AcDbLine
 10
0.5
 20
31.75
 30
0.0
 11
0.0
 21
31.25
 31
0.0
  0
LINE
  5
BF
330
1F
100
AcDbEntity
  8
1
100
AcDbLine
 10
37.0
 20
69.5
 30
0.0
 11
36.5
 21
70.0
 31
0.0
  0
LINE
  5
C0
330
1F
100
AcDbEntity
  8
3
100
AcDbLine
 10
18.3651877145
 20
43.3504690895
 30
0.0
 11
12.100505063
 21
37.085786438
 31
0.0
  0
LINE
  5
C1
330
1F
100
AcDbEntity
  8
3
100
AcDbLine
 10
20.585786438
 20
28.600505063
 30
0.0
 11
29.6842355465
 21
37.6989541715
 31
0.0
  0
LINE
  5
C2
330
1F
100
AcDbEntity
  8
3
100
AcDbLine
 10
18.68665517
 20
29.486084517
 30
0.0
 11
20.585786438
 21
28.600505063
 31
0.0
  0
LINE
  5
C3
330
1F
100
AcDbEntity
  8
3
100
AcDbLine
 10
12.100505063
 20
37.085786438
 30
0.0
 11
13.933793036
 21
33.154287694
 31
0.0
  0
LINE
  5
C4
330
1F
100
AcDbEntity
  8
1
100
AcDbLine
 10
37.0
 20
-28.635642127
 30
0.0
 11
0.5
 21
-28.635642127
 31
0.0
  0
LINE
  5
C5
330
1F
100
AcDbEntity
  8
1
100
AcDbLine
 10
37.0
 20
28.635642127
 30
0.0
 11
0.5
 21
28.635642127
 31
0.0
  0
LINE
  5
C6
330
1F
100
AcDbEntity
  8
1
100
AcDbLine
 10
37.0
 20
-60.033324079
 30
0.0
 11
12.047005384
 21
-60.033324079
 31
0.0
  0
LINE
  5
C7
330
1F
100
AcDbEntity
  8
1
  6
Continuous
370
    50
100
AcDbLine
 10
12.5
 20
62.735556107
 30
0.0
 11
7.854027093
 21
62.735556107
 31
0.0
  0
LINE
  5
C8
330
1F
100
AcDbEntity
  8
1
  6
Continuous
370
    50
100
AcDbLine
 10
12.5
 20
62.735556107
 30
0.0
 11
12.5
 21
57.5
 31
0.0
  0
LINE
  5
C9
330
1F
100
AcDbEntity
  8
1
  6
Continuous
370
    50
100
AcDbLine
 10
12.047005384
 20
-60.033324079
 30
0.0
 11
12.047005384
 21
-69.998214263
 31
0.0
  0
LINE
  5
CA
330
1F
100
AcDbEntity
  8
1
  6
Continuous
370
    50
100
AcDbLine
 10
0.5
 20
-49.99980104
 30
0.0
 11
0.5
 21
28.284271247
 31
0.0
  0
LINE
  5
CB
330
1F
100
AcDbEntity
  8
1
  6
Continuous
370
    50
100
AcDbLine
 10
0.5
 20
28.284271247
 30
0.0
 11
0.5
 21
42.7742428
 31
0.0
  0
LINE
  5
CC
330
1F
100
AcDbEntity
  8
1
  6
Continuous
370
    50
100
AcDbLine
 10
0.0
 20
-31.240286938
 30
0.0
 11
0.0
 21
31.240286938
 31
0.0
  0
LINE
  5
CD
330
1F
100
AcDbEntity
  8
1
100
AcDbLine
 10
36.8
 20
69.699144674
 30
0.0
 11
36.8
 21
69.699999856
 31
0.0
  0
LINE
  5
CE
330
1F
100
AcDbEntity
  8
3
100
AcDbLine
 10
20.585786438
 20
28.600505063
 30
0.0
 11
12.107424369
 21
37.078867132
 31
0.0
  0
LINE
  5
CF
330
1F
100
AcDbEntity
  8
1
100
AcDbLine
 10
37.0
 20
65.308720628
 30
0.0
 11
37.0
 21
-69.5
 31
0.0
  0
LINE
  5
D0
330
1F
100
AcDbEntity
  8
3
100
AcDbLine
 10
2.485466169
 20
-8.000000408
 30
0.0
 11
5.397228192
 21
0.0
 31
0.0
  0
LINE
  5
D1
330
1F
100
AcDbEntity
  8
1
  6
Continuous
370
    50
100
AcDbLine
 10
0.5
 20
42.7742428
 30
0.0
 11
0.5
 21
49.99980104
 31
0.0
  0
LINE
  5
D2
330
1F
100
AcDbEntity
  8
1
100
AcDbLine
 10
37.0
 20
65.308720628
 30
0.0
 11
37.0
 21
69.5
 31
0.0
  0
LINE
  5
D3
330
1F
100
AcDbEntity
  8
3
100
AcDbLine
 10
13.933793036
 20
33.154287694
 30
0.0
 11
18.68665517
 21
29.486084517
 31
0.0
  0
LINE
  5
D4
330
1F
100
AcDbEntity
  8
1
100
AcDbLine
 10
32.5000000002
 20
37.4999999997
 30
0.0
 11
37.0
 21
37.4999999997
 31
0.0
  0
LINE
  5
D5
330
1F
100
AcDbEntity
  8
1
  6
Continuous
370
    50
100
AcDbLine
 10
0.5
 20
-49.99980104
 30
0.0
 11
12.047005384
 21
-70.0
 31
0.0
  0
LINE
  5
D6
330
1F
100
AcDbEntity
  8
1
100
AcDbLine
 10
33.7000014019
 20
37.500284557
 30
0.0
 11
53.3000016339
 21
37.500284557
 31
0.0
  0
LINE
  5
D7
330
1F
100
AcDbEntity
  8
1
100
AcDbLine
 10
54.2999999349
 20
36.500282531
 30
0.0
 11
53.7938037639
 21
37.006478702
 31
0.0
  0
LINE
  5
D8
330
1F
100
AcDbEntity
  8
1
100
AcDbLine
 10
53.7938037639
 20
37.006478702
 30
0.0
 11
53.3000016339
 21
37.500284557
 31
0.0
  0
LINE
  5
D9
330
1F
100
AcDbEntity
  8
1
100
AcDbLine
 10
54.2999999349
 20
28.635924627
 30
0.0
 11
54.2999999349
 21
36.500282531
 31
0.0
  0
LINE
  5
DA
330
1F
100
AcDbEntity
  8
1
100
AcDbLine
 10
54.2999999349
 20
28.635924627
 30
0.0
 11
37.1980787939
 21
28.635924627
 31
0.0
  0
LINE
  5
DB
330
1F
100
AcDbEntity
  8
1
100
AcDbLine
 10
37.1980787939
 20
28.635924627
 30
0.0
 11
37.1980787939
 21
-60.0330420391
 31
0.0
  0
LINE
  5
DC
330
1F
100
AcDbEntity
  8
1
100
AcDbLine
 10
69.269642234
 20
-73.0548504
 30
0.0
 11
69.269642234
 21
-73.055178225
 31
0.0
  0
LINE
  5
DD
330
1F
100
AcDbEntity
  8
1
100
AcDbLine
 10
58.534707874
 20
-71.158804298
 30
0.0
 11
69.269642234
 21
-73.055178225
 31
0.0
  0
LINE
  5
DE
330
1F
100
AcDbEntity
  8
1
100
AcDbLine
 10
58.534707874
 20
-71.274437308
 30
0.0
 11
58.534707874
 21
-71.158804298
 31
0.0
  0
LINE
  5
DF
330
1F
100
AcDbEntity
  8
1
100
AcDbLine
 10
58.3638048464
 20
-71.2642887004
 30
0.0
 11
57.4204670014
 21
-71.0979551631
 31
0.0
  0
LINE
  5
E0
330
1F
100
AcDbEntity
  8
1
100
AcDbLine
 10
57.4204670014
 20
-71.0979551631
 30
0.0
 11
51.1904703204
 21
-69.9994341091
 31
0.0
  0
LINE
  5
E1
330
1F
100
AcDbEntity
  8
1
100
AcDbLine
 10
51.1904703204
 20
-60.0330420391
 30
0.0
 11
51.1904703204
 21
-69.9994341091
 31
0.0
  0
LINE
  5
E2
330
1F
100
AcDbEntity
  8
1
100
AcDbLine
 10
51.1904703204
 20
-60.0330420391
 30
0.0
 11
53.7944370634
 21
-60.5677925601
 31
0.0
  0
LINE
  5
E3
330
1F
100
AcDbEntity
  8
1
100
AcDbLine
 10
53.7944370634
 20
-60.5677925601
 30
0.0
 11
65.0974744684
 21
-62.8751367881
 31
0.0
  0
LINE
  5
E4
330
1F
100
AcDbEntity
  8
1
100
AcDbLine
 10
54.2999999349
 20
-1.568181612
 30
0.0
 11
54.2999999349
 21
28.635924627
 31
0.0
  0
LINE
  5
E5
330
1F
100
AcDbEntity
  8
1
100
AcDbLine
 10
37.1980787939
 20
-60.0330420391
 30
0.0
 11
51.1904703204
 21
-60.0330420391
 31
0.0
  0
LINE
  5
E6
330
1F
100
AcDbEntity
  8
1
100
AcDbLine
 10
65.097473562
 20
-22.949451879
 30
0.0
 11
55.6397459622
 21
-6.568181846
 31
0.0
  0
LINE
  5
E7
330
1F
100
AcDbEntity
  8
1
100
AcDbLine
 10
67.097477615
 20
-26.413554624
 30
0.0
 11
67.097477615
 21
-63.343368769
 31
0.0
  0
LINE
  5
E8
330
1F
100
AcDbEntity
  8
1
100
AcDbLine
 10
67.097477615
 20
-63.343368769
 30
0.0
 11
67.081078887
 21
-63.507207036
 31
0.0
  0
LINE
  5
E9
330
1F
100
AcDbEntity
  8
1
100
AcDbLine
 10
67.081078887
 20
-63.507207036
 30
0.0
 11
67.027077079
 21
-63.655205369
 31
0.0
  0
LINE
  5
EA
330
1F
100
AcDbEntity
  8
1
100
AcDbLine
 10
67.027077079
 20
-63.655205369
 30
0.0
 11
66.947117448
 21
-63.758150041
 31
0.0
  0
LINE
  5
EB
330
1F
100
AcDbEntity
  8
1
100
AcDbLine
 10
66.947117448
 20
-63.758150041
 30
0.0
 11
66.820055246
 21
-63.835241199
 31
0.0
  0
LINE
  5
EC
330
1F
100
AcDbEntity
  8
1
100
AcDbLine
 10
66.820055246
 20
-63.835241199
 30
0.0
 11
66.612146795
 21
-63.85964185
 31
0.0
  0
LINE
  5
ED
330
1F
100
AcDbEntity
  8
1
100
AcDbLine
 10
66.612146795
 20
-63.85964185
 30
0.0
 11
66.265255213
 21
-63.746176958
 31
0.0
  0
LINE
  5
EE
330
1F
100
AcDbEntity
  8
1
100
AcDbLine
 10
66.265255213
 20
-63.746176958
 30
0.0
 11
66.087961197
 21
-63.631393313
 31
0.0
  0
LINE
  5
EF
330
1F
100
AcDbEntity
  8
1
100
AcDbLine
 10
67.097477615
 20
-26.413554624
 30
0.0
 11
65.097473562
 21
-22.949451879
 31
0.0
  0
LINE
  5
F0
330
1F
100
AcDbEntity
  8
1
100
AcDbLine
 10
51.1904703204
 20
-69.9994341091
 30
0.0
 11
37.1563331904
 21
-69.9994341091
 31
0.0
  0
LINE
  5
F1
330
1F
100
AcDbEntity
  8
1
100
AcDbLine
 10
37.1563331904
 20
-69.9994341091
 30
0.0
 11
37.0642998934
 21
-69.9988902171
 31
0.0
  0
LINE
  5
F2
330
1F
100
AcDbEntity
  8
1
100
AcDbLine
 10
37.0642998934
 20
-69.9988902171
 30
0.0
 11
36.9480782874
 21
-69.9983761271
 31
0.0
  0
LINE
  5
F3
330
1F
100
AcDbEntity
  8
1
100
AcDbLine
 10
36.948077381
 20
-69.777995646
 30
0.0
 11
37.077326327
 21
-69.769367874
 31
0.0
  0
LINE
  5
F4
330
1F
100
AcDbEntity
  8
1
100
AcDbLine
 10
37.077326327
 20
-69.769367874
 30
0.0
 11
37.163730711
 21
-69.757528901
 31
0.0
  0
LINE
  5
F5
330
1F
100
AcDbEntity
  8
1
100
AcDbLine
 10
37.163730711
 20
-69.757528901
 30
0.0
 11
37.197764963
 21
-69.743618667
 31
0.0
  0
LINE
  5
F6
330
1F
100
AcDbEntity
  8
1
100
AcDbLine
 10
37.197764963
 20
-69.743618667
 30
0.0
 11
37.175305188
 21
-69.729104936
 31
0.0
  0
LINE
  5
F7
330
1F
100
AcDbEntity
  8
1
100
AcDbLine
 10
37.175305188
 20
-69.729104936
 30
0.0
 11
37.098597735
 21
-69.715701342
 31
0.0
  0
LINE
  5
F8
330
1F
100
AcDbEntity
  8
1
100
AcDbLine
 10
37.098597735
 20
-69.715701342
 30
0.0
 11
36.976415664
 21
-69.705121517
 31
0.0
  0
LINE
  5
F9
330
1F
100
AcDbEntity
  8
1
100
AcDbLine
 10
36.976415664
 20
-69.705121517
 30
0.0
 11
36.948077381
 21
-69.70348984
 31
0.0
  0
LINE
  5
FA
330
1F
100
AcDbEntity
  8
1
100
AcDbLine
 10
36.948077381
 20
-69.037422836
 30
0.0
 11
37.077412009
 21
-69.019362629
 31
0.0
  0
LINE
  5
FB
330
1F
100
AcDbEntity
  8
1
100
AcDbLine
 10
37.077412009
 20
-69.019362629
 30
0.0
 11
37.163581699
 21
-68.994984329
 31
0.0
  0
LINE
  5
FC
330
1F
100
AcDbEntity
  8
1
100
AcDbLine
 10
37.163581699
 20
-68.994984329
 30
0.0
 11
37.197761238
 21
-68.966560364
 31
0.0
  0
LINE
  5
FD
330
1F
100
AcDbEntity
  8
1
100
AcDbLine
 10
37.197761238
 20
-68.966560364
 30
0.0
 11
37.174850702
 21
-68.937093318
 31
0.0
  0
LINE
  5
FE
330
1F
100
AcDbEntity
  8
1
100
AcDbLine
 10
37.174850702
 20
-68.937093318
 30
0.0
 11
37.09635511
 21
-68.910196722
 31
0.0
  0
LINE
  5
FF
330
1F
100
AcDbEntity
  8
1
100
AcDbLine
 10
37.09635511
 20
-68.910196722
 30
0.0
 11
36.971781403
 21
-68.889357448
 31
0.0
  0
LINE
  5
100
330
1F
100
AcDbEntity
  8
1
100
AcDbLine
 10
36.971781403
 20
-68.889357448
 30
0.0
 11
36.948077381
 21
-68.886727393
 31
0.0
  0
LINE
  5
101
330
1F
100
AcDbEntity
  8
1
100
AcDbLine
 10
36.948077381
 20
-67.759596109
 30
0.0
 11
37.077575922
 21
-67.731641531
 31
0.0
  0
LINE
  5
102
330
1F
100
AcDbEntity
  8
1
100
AcDbLine
 10
37.077575922
 20
-67.731641531
 30
0.0
 11
37.163350731
 21
-67.694306672
 31
0.0
  0
LINE
  5
103
330
1F
100
AcDbEntity
  8
1
100
AcDbLine
 10
37.163350731
 20
-67.694306672
 30
0.0
 11
37.197761238
 21
-67.650564313
 31
0.0
  0
LINE
  5
104
330
1F
100
AcDbEntity
  8
1
100
AcDbLine
 10
37.197761238
 20
-67.650564313
 30
0.0
 11
37.173978984
 21
-67.604862452
 31
0.0
  0
LINE
  5
105
330
1F
100
AcDbEntity
  8
1
100
AcDbLine
 10
37.173978984
 20
-67.604862452
 30
0.0
 11
37.092246115
 21
-67.563250959
 31
0.0
  0
LINE
  5
106
330
1F
100
AcDbEntity
  8
1
100
AcDbLine
 10
37.092246115
 20
-67.563250959
 30
0.0
 11
36.948077381
 21
-67.529149652
 31
0.0
  0
LINE
  5
107
330
1F
100
AcDbEntity
  8
1
100
AcDbLine
 10
36.948077381
 20
-65.913275182
 30
0.0
 11
37.077829242
 21
-65.874643922
 31
0.0
  0
LINE
  5
108
330
1F
100
AcDbEntity
  8
1
100
AcDbLine
 10
37.077829242
 20
-65.874643922
 30
0.0
 11
37.163026631
 21
-65.8236745
 31
0.0
  0
LINE
  5
109
330
1F
100
AcDbEntity
  8
1
100
AcDbLine
 10
37.163026631
 20
-65.8236745
 30
0.0
 11
37.197772413
 21
-65.763205588
 31
0.0
  0
LINE
  5
10A
330
1F
100
AcDbEntity
  8
1
100
AcDbLine
 10
37.197772413
 20
-65.763205588
 30
0.0
 11
37.172563374
 21
-65.699078441
 31
0.0
  0
LINE
  5
10B
330
1F
100
AcDbEntity
  8
1
100
AcDbLine
 10
37.172563374
 20
-65.699078441
 30
0.0
 11
37.085723132
 21
-65.640725494
 31
0.0
  0
LINE
  5
10C
330
1F
100
AcDbEntity
  8
1
100
AcDbLine
 10
37.085723132
 20
-65.640725494
 30
0.0
 11
36.948077381
 21
-65.597184301
 31
0.0
  0
LINE
  5
10D
330
1F
100
AcDbEntity
  8
1
100
AcDbLine
 10
36.948077381
 20
-63.448854089
 30
0.0
 11
37.07818687
 21
-63.398331702
 31
0.0
  0
LINE
  5
10E
330
1F
100
AcDbEntity
  8
1
100
AcDbLine
 10
37.07818687
 20
-63.398331702
 30
0.0
 11
37.162613124
 21
-63.332669735
 31
0.0
  0
LINE
  5
10F
330
1F
100
AcDbEntity
  8
1
100
AcDbLine
 10
37.162613124
 20
-63.332669735
 30
0.0
 11
37.197794765
 21
-63.253201842
 31
0.0
  0
LINE
  5
110
330
1F
100
AcDbEntity
  8
1
100
AcDbLine
 10
37.197794765
 20
-63.253201842
 30
0.0
 11
37.170350552
 21
-63.167125285
 31
0.0
  0
LINE
  5
111
330
1F
100
AcDbEntity
  8
1
100
AcDbLine
 10
37.170350552
 20
-63.167125285
 30
0.0
 11
37.075784057
 21
-63.088827133
 31
0.0
  0
LINE
  5
112
330
1F
100
AcDbEntity
  8
1
100
AcDbLine
 10
37.075784057
 20
-63.088827133
 30
0.0
 11
36.948077381
 21
-63.038051426
 31
0.0
  0
LINE
  5
113
330
1F
100
AcDbEntity
  8
1
100
AcDbLine
 10
33.7000000001
 20
-61.358243094
 30
0.0
 11
33.649999648
 21
-61.31705299
 31
0.0
  0
LINE
  5
114
330
1F
100
AcDbEntity
  8
1
100
AcDbLine
 10
67.825324833
 20
-27.6742208
 30
0.0
 11
67.825324833
 21
-44.499717951
 31
0.0
  0
LINE
  5
115
330
1F
100
AcDbEntity
  8
1
100
AcDbLine
 10
70.153382489
 20
-44.499717176
 30
0.0
 11
70.153385401
 21
-31.706538349
 31
0.0
  0
LINE
  5
116
330
1F
100
AcDbEntity
  8
1
100
AcDbLine
 10
70.153385401
 20
-31.706538349
 30
0.0
 11
70.6499964
 21
-32.566704154
 31
0.0
  0
LINE
  5
117
330
1F
100
AcDbEntity
  8
1
100
AcDbLine
 10
70.6499964
 20
-32.566704154
 30
0.0
 11
70.6499964
 21
-61.26469031
 31
0.0
  0
LINE
  5
118
330
1F
100
AcDbEntity
  8
1
100
AcDbLine
 10
70.6499964
 20
-61.26469031
 30
0.0
 11
70.492342114
 21
-61.410315633
 31
0.0
  0
LINE
  5
119
330
1F
100
AcDbEntity
  8
1
100
AcDbLine
 10
70.208564401
 20
-61.360024214
 30
0.0
 11
70.492342114
 21
-61.410315633
 31
0.0
  0
LINE
  5
11A
330
1F
100
AcDbEntity
  8
1
100
AcDbLine
 10
70.208564401
 20
-72.265893519
 30
0.0
 11
70.208564401
 21
-61.360024214
 31
0.0
  0
LINE
  5
11B
330
1F
100
AcDbEntity
  8
1
100
AcDbLine
 10
70.208564401
 20
-72.265893519
 30
0.0
 11
70.2085420485
 21
-72.2716900703
 31
0.0
  0
LINE
  5
11C
330
1F
100
AcDbEntity
  8
1
100
AcDbLine
 10
67.097477615
 20
-26.413554624
 30
0.0
 11
67.825324833
 21
-27.6742208
 31
0.0
  0
LINE
  5
11D
330
1F
100
AcDbEntity
  8
1
100
AcDbLine
 10
33.649999648
 20
-62.026411593
 30
0.0
 11
33.6999999989
 21
-62.0978199899
 31
0.0
  0
LINE
  5
11E
330
1F
100
AcDbEntity
  8
1
100
AcDbLine
 10
33.649999648
 20
-61.31705299
 30
0.0
 11
33.56988728
 21
-61.257209927
 31
0.0
  0
LINE
  5
11F
330
1F
100
AcDbEntity
  8
1
100
AcDbLine
 10
33.56988728
 20
-61.257209927
 30
0.0
 11
33.492982387
 21
-61.216168404
 31
0.0
  0
LINE
  5
120
330
1F
100
AcDbEntity
  8
1
100
AcDbLine
 10
33.492982387
 20
-61.216168404
 30
0.0
 11
33.434625715
 21
-61.208475679
 31
0.0
  0
LINE
  5
121
330
1F
100
AcDbEntity
  8
1
100
AcDbLine
 10
33.434625715
 20
-61.208475679
 30
0.0
 11
33.406928182
 21
-61.231367588
 31
0.0
  0
LINE
  5
122
330
1F
100
AcDbEntity
  8
1
100
AcDbLine
 10
33.406928182
 20
-61.231367588
 30
0.0
 11
33.399999142
 21
-61.268538535
 31
0.0
  0
LINE
  5
123
330
1F
100
AcDbEntity
  8
1
100
AcDbLine
 10
33.700000495
 20
32.744355202
 30
0.0
 11
33.6499996486
 21
32.645508349
 31
0.0
  0
LINE
  5
124
330
1F
100
AcDbEntity
  8
1
100
AcDbLine
 10
33.6999999991
 20
-64.289445892
 30
0.0
 11
33.649999648
 21
-64.24743712
 31
0.0
  0
LINE
  5
125
330
1F
100
AcDbEntity
  8
1
100
AcDbLine
 10
33.4462905059
 20
37.246569936
 30
0.0
 11
33.4080764779
 21
37.113208269
 31
0.0
  0
LINE
  5
126
330
1F
100
AcDbEntity
  8
1
100
AcDbLine
 10
33.4080764779
 20
37.113208269
 30
0.0
 11
33.4000000489
 21
37.038750891
 31
0.0
  0
LINE
  5
127
330
1F
100
AcDbEntity
  8
1
100
AcDbLine
 10
33.4462905059
 20
37.246569936
 30
0.0
 11
33.7000014019
 21
37.500284557
 31
0.0
  0
LINE
  5
128
330
1F
100
AcDbEntity
  8
1
100
AcDbLine
 10
33.649999648
 20
-64.802162647
 30
0.0
 11
33.6999999991
 21
-64.8678438452
 31
0.0
  0
LINE
  5
129
330
1F
100
AcDbEntity
  8
1
100
AcDbLine
 10
33.649999648
 20
-64.24743712
 30
0.0
 11
33.561185002
 21
-64.178854525
 31
0.0
  0
LINE
  5
12A
330
1F
100
AcDbEntity
  8
1
100
AcDbLine
 10
33.561185002
 20
-64.178854525
 30
0.0
 11
33.482760191
 21
-64.133085609
 31
0.0
  0
LINE
  5
12B
330
1F
100
AcDbEntity
  8
1
100
AcDbLine
 10
33.482760191
 20
-64.133085609
 30
0.0
 11
33.425923437
 21
-64.121179581
 31
0.0
  0
LINE
  5
12C
330
1F
100
AcDbEntity
  8
1
100
AcDbLine
 10
33.425923437
 20
-64.121179581
 30
0.0
 11
33.402640373
 21
-64.141728282
 31
0.0
  0
LINE
  5
12D
330
1F
100
AcDbEntity
  8
1
100
AcDbLine
 10
33.402640373
 20
-64.141728282
 30
0.0
 11
33.399999142
 21
-64.160660207
 31
0.0
  0
LINE
  5
12E
330
1F
100
AcDbEntity
  8
1
100
AcDbLine
 10
33.4000000489
 20
37.038750891
 30
0.0
 11
33.4000000489
 21
-69.644644912
 31
0.0
  0
LINE
  5
12F
330
1F
100
AcDbEntity
  8
1
100
AcDbLine
 10
33.7000000005
 20
-66.5539787512
 30
0.0
 11
33.649999648
 21
-66.510796845
 31
0.0
  0
LINE
  5
130
330
1F
100
AcDbEntity
  8
1
100
AcDbLine
 10
33.649999648
 20
-66.928059161
 30
0.0
 11
33.6999999994
 21
-66.989069629
 31
0.0
  0
LINE
  5
131
330
1F
100
AcDbEntity
  8
1
100
AcDbLine
 10
33.649999648
 20
-66.510796845
 30
0.0
 11
33.552899957
 21
-66.432476342
 31
0.0
  0
LINE
  5
132
330
1F
100
AcDbEntity
  8
1
100
AcDbLine
 10
33.552899957
 20
-66.432476342
 30
0.0
 11
33.473603427
 21
-66.381149292
 31
0.0
  0
LINE
  5
133
330
1F
100
AcDbEntity
  8
1
100
AcDbLine
 10
33.473603427
 20
-66.381149292
 30
0.0
 11
33.418852836
 21
-66.364012957
 31
0.0
  0
LINE
  5
134
330
1F
100
AcDbEntity
  8
1
100
AcDbLine
 10
33.418852836
 20
-66.364012957
 30
0.0
 11
33.400464803
 21
-66.381447315
 31
0.0
  0
LINE
  5
135
330
1F
100
AcDbEntity
  8
1
100
AcDbLine
 10
33.400464803
 20
-66.381447315
 30
0.0
 11
33.399999142
 21
-66.387854815
 31
0.0
  0
LINE
  5
136
330
1F
100
AcDbEntity
  8
1
100
AcDbLine
 10
33.7000000003
 20
-68.218264868
 30
0.0
 11
33.649999648
 21
-68.173595071
 31
0.0
  0
LINE
  5
137
330
1F
100
AcDbEntity
  8
1
100
AcDbLine
 10
33.649999648
 20
-68.464659453
 30
0.0
 11
33.6999999984
 21
-68.5217780512
 31
0.0
  0
LINE
  5
138
330
1F
100
AcDbEntity
  8
1
100
AcDbLine
 10
33.649999648
 20
-68.173595071
 30
0.0
 11
33.544909209
 21
-68.084352017
 31
0.0
  0
LINE
  5
139
330
1F
100
AcDbEntity
  8
1
100
AcDbLine
 10
33.544909209
 20
-68.084352017
 30
0.0
 11
33.465299755
 21
-68.02664727
 31
0.0
  0
LINE
  5
13A
330
1F
100
AcDbEntity
  8
1
100
AcDbLine
 10
33.465299755
 20
-68.02664727
 30
0.0
 11
33.419001847
 21
-68.004235923
 31
0.0
  0
LINE
  5
13B
330
1F
100
AcDbEntity
  8
1
100
AcDbLine
 10
33.419001847
 20
-68.004235923
 30
0.0
 11
33.400259912
 21
-68.012133539
 31
0.0
  0
LINE
  5
13C
330
1F
100
AcDbEntity
  8
1
100
AcDbLine
 10
33.400259912
 20
-68.012133539
 30
0.0
 11
33.399999142
 21
-68.015463948
 31
0.0
  0
LINE
  5
13D
330
1F
100
AcDbEntity
  8
1
100
AcDbLine
 10
33.6999999998
 20
-69.3255476058
 30
0.0
 11
33.649999648
 21
-69.279089868
 31
0.0
  0
LINE
  5
13E
330
1F
100
AcDbEntity
  8
1
100
AcDbLine
 10
33.649999648
 20
-69.451101422
 30
0.0
 11
33.699999999
 21
-69.5049134647
 31
0.0
  0
LINE
  5
13F
330
1F
100
AcDbEntity
  8
1
100
AcDbLine
 10
33.7000000016
 20
-69.9023013926
 30
0.0
 11
33.649999648
 21
-69.85375315
 31
0.0
  0
LINE
  5
140
330
1F
100
AcDbEntity
  8
1
100
AcDbLine
 10
67.825324833
 20
-27.6742208
 30
0.0
 11
70.153385401
 21
-31.706538349
 31
0.0
  0
LINE
  5
141
330
1F
100
AcDbEntity
  8
1
100
AcDbLine
 10
33.6500005549
 20
-69.910660441
 30
0.0
 11
33.7000009072
 21
-69.9616479791
 31
0.0
  0
LINE
  5
142
330
1F
100
AcDbEntity
  8
1
100
AcDbLine
 10
51.190469414
 20
70.0
 30
0.0
 11
37.356331944
 21
70.0
 31
0.0
  0
LINE
  5
143
330
1F
100
AcDbEntity
  8
1
100
AcDbLine
 10
58.301046491
 20
71.253791153
 30
0.0
 11
57.420466095
 21
71.098521054
 31
0.0
  0
LINE
  5
144
330
1F
100
AcDbEntity
  8
1
100
AcDbLine
 10
57.420466095
 20
71.098521054
 30
0.0
 11
51.190469414
 21
70.0
 31
0.0
  0
LINE
  5
145
330
1F
100
AcDbEntity
  8
1
100
AcDbLine
 10
57.313285768
 20
61.887375712
 30
0.0
 11
58.299999684
 21
63.063293397
 31
0.0
  0
LINE
  5
146
330
1F
100
AcDbEntity
  8
1
100
AcDbLine
 10
62.283430248
 20
59.720802754
 30
0.0
 11
61.2967155521
 21
58.5448796468
 31
0.0
  0
LINE
  5
147
330
1F
100
AcDbEntity
  8
1
100
AcDbLine
 10
70.6499964
 20
61.265255958
 30
0.0
 11
70.645272732
 21
61.264417767
 31
0.0
  0
LINE
  5
148
330
1F
100
AcDbEntity
  8
1
100
AcDbLine
 10
70.6499964
 20
32.567269802
 30
0.0
 11
70.6499964
 21
61.265255958
 31
0.0
  0
LINE
  5
149
330
1F
100
AcDbEntity
  8
1
100
AcDbLine
 10
55.63974753
 20
6.568747274
 30
0.0
 11
70.6499964
 21
32.567269802
 31
0.0
  0
LINE
  5
14A
330
1F
100
AcDbEntity
  8
1
100
AcDbLine
 10
70.6499964
 20
61.265255958
 30
0.0
 11
70.648528635
 21
61.266611963
 31
0.0
  0
LINE
  5
14B
330
1F
100
AcDbEntity
  8
1
100
AcDbLine
 10
37.356331944
 20
70.0
 30
0.0
 11
37.264298648
 21
69.999456108
 31
0.0
  0
LINE
  5
14C
330
1F
100
AcDbEntity
  8
1
100
AcDbLine
 10
37.264298648
 20
69.999456108
 30
0.0
 11
37.148077041
 21
69.998942017
 31
0.0
  0
LINE
  5
14D
330
1F
100
AcDbEntity
  8
1
100
AcDbLine
 10
33.8499993085
 20
69.9112263315
 30
0.0
 11
33.9000001555
 21
69.9622106545
 31
0.0
  0
LINE
  5
14E
330
1F
100
AcDbEntity
  8
1
100
AcDbLine
 10
33.599998802
 20
37.400282621
 30
0.0
 11
33.599998802
 21
69.645210802
 31
0.0
  0
LINE
  5
150
330
1F
100
AcDbEntity
  8
CUT
100
AcDbLine
 10
70.0610799726
 20
73.9881320366
 30
0.0
 11
58.9610812724
 21
72.030899695
 31
0.0
  0
LINE
  5
151
330
1F
100
AcDbEntity
  8
CUT
100
AcDbLine
 10
71.0000008297
 20
61.9290477987
 30
0.0
 11
70.9999985057
 21
73.2002838117
 31
0.0
  0
LINE
  5
153
330
1F
100
AcDbEntity
  8
CUT
100
AcDbLine
 10
71.0
 20
-61.928481783
 30
0.0
 11
71.0
 21
-73.199717175
 31
0.0
  0
LINE
  5
154
330
1F
100
AcDbEntity
  8
CUT
100
AcDbLine
 10
70.41554549
 20
-73.199717175
 30
0.0
 11
70.41554549
 21
-61.928481783
 31
0.0
  0
LINE
  5
155
330
1F
100
AcDbEntity
  8
1
100
AcDbLine
 10
70.2374290815
 20
-61.7162109133
 30
0.0
 11
70.208564401
 21
-61.711121649
 31
0.0
  0
LINE
  5
156
330
1F
100
AcDbEntity
  8
CUT
100
AcDbLine
 10
59.062570333
 20
-71.45475626
 30
0.0
 11
70.1625709185
 21
-73.4119880447
 31
0.0
  0
LINE
  5
157
330
1F
100
AcDbEntity
  8
CUT
100
AcDbLine
 10
58.8844542968
 20
-71.2205834474
 30
0.0
 11
58.8844557788
 21
-71.2424866244
 31
0.0
  0
LINE
  5
158
330
1F
100
AcDbEntity
  8
CUT
100
AcDbLine
 10
70.0610814579
 20
-73.9875633774
 30
0.0
 11
58.96108225
 21
-72.030335963
 31
0.0
  0
LINE
  5
159
330
1F
100
AcDbEntity
  8
1
100
AcDbLine
 10
69.269642234
 20
-73.0548504
 30
0.0
 11
69.10482794
 21
-72.91280508
 31
0.0
  0
LINE
  5
15A
330
1F
100
AcDbEntity
  8
1
100
AcDbLine
 10
69.10482794
 20
-72.91280508
 30
0.0
 11
68.776257336
 21
-72.525538802
 31
0.0
  0
LINE
  5
15B
330
1F
100
AcDbEntity
  8
1
100
AcDbLine
 10
68.776257336
 20
-72.525538802
 30
0.0
 11
68.449124694
 21
-72.000257969
 31
0.0
  0
LINE
  5
15C
330
1F
100
AcDbEntity
  8
1
100
AcDbLine
 10
68.449124694
 20
-72.000257969
 30
0.0
 11
68.043418229
 21
-71.150131822
 31
0.0
  0
LINE
  5
15D
330
1F
100
AcDbEntity
  8
1
100
AcDbLine
 10
68.043418229
 20
-71.150131822
 30
0.0
 11
67.642778158
 21
-70.088021755
 31
0.0
  0
LINE
  5
15E
330
1F
100
AcDbEntity
  8
1
100
AcDbLine
 10
67.642778158
 20
-70.088021755
 30
0.0
 11
67.248977721
 21
-68.818509877
 31
0.0
  0
LINE
  5
15F
330
1F
100
AcDbEntity
  8
1
100
AcDbLine
 10
67.248977721
 20
-68.818509877
 30
0.0
 11
66.852293909
 21
-67.299664319
 31
0.0
  0
LINE
  5
160
330
1F
100
AcDbEntity
  8
1
100
AcDbLine
 10
66.852293909
 20
-67.299664319
 30
0.0
 11
66.464677453
 21
-65.567978025
 31
0.0
  0
LINE
  5
161
330
1F
100
AcDbEntity
  8
1
100
AcDbLine
 10
66.464677453
 20
-65.567978025
 30
0.0
 11
66.087961197
 21
-63.631393313
 31
0.0
  0
LINE
  5
162
330
1F
100
AcDbEntity
  8
CUT
100
AcDbLine
 10
70.41554549
 20
-73.199717175
 30
0.0
 11
71.0
 21
-73.199717175
 31
0.0
  0
LINE
  5
163
330
1F
100
AcDbEntity
  8
CUT
100
AcDbLine
 10
70.1625709185
 20
-73.4119880447
 30
0.0
 11
70.0610814579
 21
-73.9875633774
 31
0.0
  0
LINE
  5
164
330
1F
100
AcDbEntity
  8
CUT
100
AcDbLine
 10
70.2374290815
 20
-61.7162109133
 30
0.0
 11
70.297457278
 21
-61.375778467
 31
0.0
  0
LINE
  5
165
330
1F
100
AcDbEntity
  8
CUT
100
AcDbLine
 10
70.41554549
 20
-61.928481783
 30
0.0
 11
71.0
 21
-61.928481783
 31
0.0
  0
LINE
  5
166
330
1F
100
AcDbEntity
  8
CUT
100
AcDbLine
 10
59.062570333
 20
-71.45475626
 30
0.0
 11
58.96108225
 21
-72.030335963
 31
0.0
  0
LINE
  5
167
330
1F
100
AcDbEntity
  8
CUT
100
AcDbLine
 10
58.8844557788
 20
-71.2424866244
 30
0.0
 11
58.5347091428
 21
-71.2424881544
 31
0.0
  0
ARC
  5
168
330
1F
100
AcDbEntity
  8
3
100
AcDbCircle
 10
32.497886061
 20
-57.49507587
 30
0.0
 40
19.99507598199999
100
AcDbArc
 50
89.993942519
 51
180.014108084
  0
ARC
  5
169
330
1F
100
AcDbEntity
  8
SK1
  6
Continuous
370
    50
100
AcDbCircle
 10
-0.3
 20
-18.2
 30
0.0
 40
0.499999999999996
100
AcDbArc
 50
53.130102354
 51
105.0
  0
ARC
  5
16A
330
1F
100
AcDbEntity
  8
SK1
  6
Continuous
370
    50
100
AcDbCircle
 10
-0.3000000092
 20
18.2000008298
 30
0.0
 40
0.4999999999999885
100
AcDbArc
 50
255.0000026499
 51
306.8699002958
  0
ARC
  5
16B
330
1F
100
AcDbEntity
  8
SK1
  6
Continuous
370
    50
100
AcDbCircle
 10
-39.018504542
 20
-17.0
 30
0.0
 40
1.000000000000013
100
AcDbArc
 50
227.039385809
 51
280.0
  0
ARC
  5
16C
330
1F
100
AcDbEntity
  8
SK1
  6
Continuous
370
    50
100
AcDbCircle
 10
-17.1516525294
 20
0.5772525239
 30
0.0
 40
6.430223496427081
100
AcDbArc
 50
187.8411124333
 51
274.921490825
  0
ARC
  5
16D
330
1F
100
AcDbEntity
  8
SK1
  6
Continuous
370
    50
100
AcDbCircle
 10
-15.0473330016
 20
-0.6583179349
 30
0.0
 40
5.171214216100957
100
AcDbArc
 50
269.4164494706
 51
306.0773387036
  0
ARC
  5
16E
330
1F
100
AcDbEntity
  8
SK1
  6
Continuous
370
    50
100
AcDbCircle
 10
-14.8834491827
 20
0.0705544776
 30
0.0
 40
5.691580085284357
100
AcDbArc
 50
300.4139163041
 51
356.2670882635999
  0
ARC
  5
16F
330
1F
100
AcDbEntity
  8
SK1
  6
Continuous
370
    50
100
AcDbCircle
 10
-14.8605273824
 20
-0.0564182727
 30
0.0
 40
5.667800402396272
100
AcDbArc
 50
3.6054256149
 51
59.7135704292
  0
ARC
  5
170
330
1F
100
AcDbEntity
  8
SK1
  6
Continuous
370
    50
100
AcDbCircle
 10
-15.0473321999
 20
0.6583188577
 30
0.0
 40
5.171214216090735
100
AcDbArc
 50
53.92266394689999
 51
90.5835531733
  0
ARC
  5
171
330
1F
100
AcDbEntity
  8
SK1
  6
Continuous
370
    50
100
AcDbCircle
 10
-17.1515564412
 20
-0.57737091
 30
0.0
 40
6.430334099652707
100
AcDbArc
 50
85.079448339
 51
172.1579537048
  0
ARC
  5
172
330
1F
100
AcDbEntity
  8
SK1
  6
Continuous
370
    50
100
AcDbCircle
 10
-16.6380617231
 20
1.243051802
 30
0.0
 40
6.975709189112761
100
AcDbArc
 50
192.779734618
 51
270.312629191
  0
ARC
  5
173
330
1F
100
AcDbEntity
  8
SK1
  6
Continuous
370
    50
100
AcDbCircle
 10
-16.638060833
 20
-1.2430509527
 30
0.0
 40
6.975709189000036
100
AcDbArc
 50
89.6873734588
 51
167.2202680318
  0
ARC
  5
174
330
1F
100
AcDbEntity
  8
SK1
  6
Continuous
370
    50
100
AcDbCircle
 10
-15.1389095731
 20
0.0000012256
 30
0.0
 40
4.500000062264505
100
AcDbArc
 50
3.8225564518
 51
131.9139490468
  0
ARC
  5
175
330
1F
100
AcDbEntity
  8
SK1
  6
Continuous
370
    50
100
AcDbCircle
 10
-15.13891012
 20
-0.281083258
 30
0.0
 40
5.943171302000012
100
AcDbArc
 50
73.357788598
 51
129.149079114
  0
ARC
  5
176
330
1F
100
AcDbEntity
  8
SK1
  6
Continuous
370
    50
100
AcDbCircle
 10
-15.1720535698
 20
-0.926069963
 30
0.0
 40
6.578053726024011
100
AcDbArc
 50
61.1907816642
 51
74.7220059288
  0
ARC
  5
177
330
1F
100
AcDbEntity
  8
SK1
  6
Continuous
370
    50
100
AcDbCircle
 10
-15.172054445
 20
0.9260708798
 30
0.0
 40
6.578053725904926
100
AcDbArc
 50
285.277996721
 51
298.8092209894
  0
ARC
  5
178
330
1F
100
AcDbEntity
  8
SK1
  6
Continuous
370
    50
100
AcDbCircle
 10
-15.13891012
 20
0.281083258
 30
0.0
 40
5.945272702000031
100
AcDbArc
 50
230.850920886
 51
286.642211402
  0
ARC
  5
179
330
1F
100
AcDbEntity
  8
SK1
  6
Continuous
370
    50
100
AcDbCircle
 10
-15.1389095731
 20
0.0000012256
 30
0.0
 40
4.500000302304244
100
AcDbArc
 50
228.0860466261
 51
356.177446271
  0
ARC
  5
17A
330
1F
100
AcDbEntity
  8
SK1
  6
Continuous
370
    50
100
AcDbCircle
 10
-35.700000963
 20
0.0
 30
0.0
 40
0.300000014000075
100
AcDbArc
 50
89.99994461409999
 51
270.000055298
  0
ARC
  5
17B
330
1F
100
AcDbEntity
  8
SK1
  6
Continuous
370
    50
100
AcDbCircle
 10
-15.0992897407
 20
1.1717611336
 30
0.0
 40
4.56079338747413
100
AcDbArc
 50
68.6479920413
 51
90.0089191112
  0
ARC
  5
17C
330
1F
100
AcDbEntity
  8
SK1
  6
Continuous
370
    50
100
AcDbCircle
 10
-16.05
 20
-0.255039452
 30
0.0
 40
5.393683214999998
100
AcDbArc
 50
121.789368174
 51
144.394036889
  0
ARC
  5
17D
330
1F
100
AcDbEntity
  8
SK1
  6
Continuous
370
    50
100
AcDbCircle
 10
-17.43781368
 20
-0.203528891
 30
0.0
 40
4.305312844999956
100
AcDbArc
 50
134.131013314
 51
173.29489975
  0
ARC
  5
17E
330
1F
100
AcDbEntity
  8
SK1
  6
Continuous
370
    50
100
AcDbCircle
 10
-17.43781368
 20
0.203528891
 30
0.0
 40
4.307727477999963
100
AcDbArc
 50
186.70510025
 51
225.868986686
  0
ARC
  5
17F
330
1F
100
AcDbEntity
  8
SK1
  6
Continuous
370
    50
100
AcDbCircle
 10
-16.05
 20
0.255039452
 30
0.0
 40
5.395994917999974
100
AcDbArc
 50
215.605963111
 51
238.210631826
  0
ARC
  5
180
330
1F
100
AcDbEntity
  8
SK1
  6
Continuous
370
    50
100
AcDbCircle
 10
-15.0992905191
 20
-1.171760213
 30
0.0
 40
4.560793387860713
100
AcDbArc
 50
269.991083532
 51
291.3520106085
  0
ARC
  5
181
330
1F
100
AcDbEntity
  8
SK1
  6
Continuous
370
    50
100
AcDbCircle
 10
-15.153871873
 20
-0.0038561042
 30
0.0
 40
4.484815404000013
100
AcDbArc
 50
183.786142722
 51
205.135637384
  0
ARC
  5
182
330
1F
100
AcDbEntity
  8
SK1
  6
Continuous
370
    50
100
AcDbCircle
 10
-15.1430564445
 20
0.0010680521
 30
0.0
 40
4.495791036039495
100
AcDbArc
 50
154.8907302964
 51
176.1874948978
  0
ARC
  5
183
330
1F
100
AcDbEntity
  8
SK1
  6
Continuous
370
    50
100
AcDbCircle
 10
-15.1388930824
 20
0.0000131681
 30
0.0
 40
4.500020205348002
100
AcDbArc
 50
205.0992285058
 51
228.0859919563
  0
ARC
  5
184
330
1F
100
AcDbEntity
  8
SK1
  6
Continuous
370
    50
100
AcDbCircle
 10
-15.1388982635
 20
-0.0000032333
 30
0.0
 40
4.500010935319962
100
AcDbArc
 50
131.914018278
 51
154.9008456257
  0
ARC
  5
185
330
1F
100
AcDbEntity
  8
SK1
  6
Continuous
370
    50
100
AcDbCircle
 10
-2.2999993913
 20
0.0000015173
 30
0.0
 40
0.3000003118811584
100
AcDbArc
 50
270.0000360612
 51
90.0000360612
  0
ARC
  5
186
330
1F
100
AcDbEntity
  8
SK1
  6
Continuous
370
    50
100
AcDbCircle
 10
-39.0185066282
 20
16.9999993828
 30
0.0
 40
1.000000538258045
100
AcDbArc
 50
79.9999422839
 51
132.9605378869
  0
ARC
  5
187
330
1F
100
AcDbEntity
  8
1
100
AcDbCircle
 10
32.497886061
 20
57.49507587
 30
0.0
 40
19.99507598200002
100
AcDbArc
 50
179.985891916
 51
270.006057481
  0
ARC
  5
188
330
1F
100
AcDbEntity
  8
1
  6
Continuous
370
    50
100
AcDbCircle
 10
357.109479742
 20
112.886721947
 30
0.0
 40
385.9656118460275
100
AcDbArc
 50
202.490785004
 51
206.6166756001
  0
ARC
  5
189
330
1F
100
AcDbEntity
  8
1
100
AcDbCircle
 10
74.7792124681
 20
-38.8468302398
 30
0.0
 40
82.52335813700003
100
AcDbArc
 50
117.285807823
 51
119.847317639
  0
ARC
  5
18A
330
1F
100
AcDbEntity
  8
1
100
AcDbCircle
 10
36.7829823127
 20
34.8667951051
 30
0.0
 40
0.4075139191554278
100
AcDbArc
 50
293.8989710326
 51
66.100856385
  0
ARC
  5
18B
330
1F
100
AcDbEntity
  8
1
100
AcDbCircle
 10
0.616940201
 20
-38.846830646
 30
0.0
 40
82.5149470665401
100
AcDbArc
 50
63.8771260088
 51
66.586486918
  0
ARC
  5
18C
330
1F
100
AcDbEntity
  8
1
100
AcDbCircle
 10
36.569099763
 20
28.668934923
 30
0.0
 40
0.6298446641232422
100
AcDbArc
 50
356.9957392818
 51
53.008138822
  0
ARC
  5
18D
330
1F
100
AcDbEntity
  8
1
100
AcDbCircle
 10
-9.7753637479
 20
-38.8468304189
 30
0.0
 40
82.52055512255538
100
AcDbArc
 50
55.514081148
 51
58.46205983799999
  0
ARC
  5
18E
330
1F
100
AcDbEntity
  8
1
100
AcDbCircle
 10
36.8871693224
 20
-59.98135486
 30
0.0
 40
0.3151765599999871
100
AcDbArc
 50
281.142714342
 51
350.5611800550001
  0
ARC
  5
18F
330
1F
100
AcDbEntity
  8
1
100
AcDbCircle
 10
58.5041966034
 20
-70.1585259731
 30
0.0
 40
1.114639427999999
100
AcDbArc
 50
262.7642282670001
 51
270.0
  0
ARC
  5
190
330
1F
100
AcDbEntity
  8
1
100
AcDbCircle
 10
58.5041966034
 20
-70.1585259731
 30
0.0
 40
1.116410353999954
100
AcDbArc
 50
270.0
 51
271.566217348
  0
ARC
  5
191
330
1F
100
AcDbEntity
  8
1
100
AcDbCircle
 10
114.7030638939
 20
1.0691258576
 30
0.0
 40
80.92949541145565
100
AcDbArc
 50
232.1970155387
 51
233.079293609
  0
ARC
  5
192
330
1F
100
AcDbEntity
  8
1
100
AcDbCircle
 10
64.3000004209
 20
-1.568181603
 30
0.0
 40
10.00000048600003
100
AcDbArc
 50
180.0000000516
 51
210.0
  0
ARC
  5
193
330
1F
100
AcDbEntity
  8
1
100
AcDbCircle
 10
37.6980771179
 20
136.855799149
 30
0.0
 40
206.856087776
100
AcDbArc
 50
268.89252881
 51
269.792261162
  0
ARC
  5
194
330
1F
100
AcDbEntity
  8
1
100
AcDbCircle
 10
27.305771366
 20
136.855798906
 30
0.0
 40
206.856951053
100
AcDbArc
 50
271.7713723480001
 51
272.671696999
  0
ARC
  5
195
330
1F
100
AcDbEntity
  8
1
100
AcDbCircle
 10
48.090381057
 20
136.855798906
 30
0.0
 40
206.861854089
100
AcDbArc
 50
266.010987308
 51
266.912320398
  0
ARC
  5
196
330
1F
100
AcDbEntity
  8
1
100
AcDbCircle
 10
16.91346652
 20
136.855798906
 30
0.0
 40
206.863567009
100
AcDbArc
 50
274.654547167
 51
275.557716197
  0
ARC
  5
197
330
1F
100
AcDbEntity
  8
1
100
AcDbCircle
 10
58.482685902
 20
136.855798906
 30
0.0
 40
206.8674228520001
100
AcDbArc
 50
263.119448591
 51
264.024735981
  0
ARC
  5
198
330
1F
100
AcDbEntity
  8
1
100
AcDbCircle
 10
6.521161675
 20
136.855798906
 30
0.0
 40
206.867254261
100
AcDbArc
 50
277.5495173030001
 51
278.458072162
  0
ARC
  5
199
330
1F
100
AcDbEntity
  8
1
100
AcDbCircle
 10
68.874990747
 20
136.855798906
 30
0.0
 40
206.857463975
100
AcDbArc
 50
260.209588912
 51
261.121593957
  0
ARC
  5
19A
330
1F
100
AcDbEntity
  8
1
100
AcDbCircle
 10
1.538438135
 20
106.179432947
 30
0.0
 40
175.702013587
100
AcDbArc
 50
280.54723489
 51
281.626858282
  0
ARC
  5
19B
330
1F
100
AcDbEntity
  8
1
100
AcDbCircle
 10
73.857714288
 20
106.179432947
 30
0.0
 40
175.698073168
100
AcDbArc
 50
256.787637759
 51
257.873240652
  0
ARC
  5
19C
330
1F
100
AcDbEntity
  8
1
100
AcDbCircle
 10
-8.853866711
 20
106.179432947
 30
0.0
 40
175.6999437240001
100
AcDbArc
 50
284.016200883
 51
285.110300725
  0
ARC
  5
19D
330
1F
100
AcDbEntity
  8
1
100
AcDbCircle
 10
84.250019133
 20
106.179432947
 30
0.0
 40
175.7058288460001
100
AcDbArc
 50
253.279878155
 51
254.382545966
  0
ARC
  5
19E
330
1F
100
AcDbEntity
  8
1
100
AcDbCircle
 10
-12.958382764
 20
85.266833262
 30
0.0
 40
153.869807625
100
AcDbArc
 50
287.65188044
 51
288.9250165479999
  0
ARC
  5
19F
330
1F
100
AcDbEntity
  8
1
100
AcDbCircle
 10
69.4064872486
 20
-72.2645234394
 30
0.0
 40
0.8020868174390202
100
AcDbArc
 50
260.1766411336
 51
359.4880564526
  0
ARC
  5
1A0
330
1F
100
AcDbEntity
  8
1
100
AcDbCircle
 10
156.031164669
 20
-44.4997295557
 30
0.0
 40
88.20583983600005
100
AcDbArc
 50
179.999992462
 51
185.3447141896
  0
ARC
  5
1A1
330
1F
100
AcDbEntity
  8
1
100
AcDbCircle
 10
82.5909074513
 20
-51.370308668
 30
0.0
 40
14.44490005409445
100
AcDbArc
 50
185.3450241526
 51
192.606993773
  0
ARC
  5
1A2
330
1F
100
AcDbEntity
  8
1
100
AcDbCircle
 10
72.4683662176
 20
-53.634262081
 30
0.0
 40
4.072276177583044
100
AcDbArc
 50
192.606993769
 51
207.00288411
  0
ARC
  5
1A3
330
1F
100
AcDbEntity
  8
1
100
AcDbCircle
 10
68.9893530832
 20
-55.4071292612
 30
0.0
 40
0.1675879149999991
100
AcDbArc
 50
207.0026237783
 51
270.0
  0
ARC
  5
1A4
330
1F
100
AcDbEntity
  8
1
100
AcDbCircle
 10
68.9893530832
 20
-55.4071292612
 30
0.0
 40
0.1675879150000096
100
AcDbArc
 50
270.0
 51
332.997376199
  0
ARC
  5
1A5
330
1F
100
AcDbEntity
  8
1
100
AcDbCircle
 10
65.5103399488
 20
-53.634262081
 30
0.0
 40
4.072276177567285
100
AcDbArc
 50
332.9971158891
 51
347.393006227
  0
ARC
  5
1A6
330
1F
100
AcDbEntity
  8
1
100
AcDbCircle
 10
55.3877987148
 20
-51.370308668
 30
0.0
 40
14.44490005441695
100
AcDbArc
 50
347.3930062259001
 51
354.654975849
  0
ARC
  5
1A7
330
1F
100
AcDbEntity
  8
1
100
AcDbCircle
 10
-18.0524579249
 20
-44.499717176
 30
0.0
 40
88.20584041390566
100
AcDbArc
 50
354.6552777693
 51
0.0
  0
ARC
  5
1A8
330
1F
100
AcDbEntity
  8
1
100
AcDbCircle
 10
34.4818310889
 20
-61.302707246
 30
0.0
 40
1.102584023074342
100
AcDbArc
 50
191.133868353
 51
221.0237000144
  0
ARC
  5
1A9
330
1F
100
AcDbEntity
  8
1
100
AcDbCircle
 10
35.080257495
 20
31.758621408
 30
0.0
 40
1.682915908000007
100
AcDbArc
 50
148.197410176
 51
176.779637838
  0
ARC
  5
1AA
330
1F
100
AcDbEntity
  8
1
100
AcDbCircle
 10
34.5702643621
 20
-63.9951554579
 30
0.0
 40
1.223988458829641
100
AcDbArc
 50
197.038505649
 51
221.2484759203
  0
ARC
  5
1AB
330
1F
100
AcDbEntity
  8
1
100
AcDbCircle
 10
34.4857604058
 20
-66.1224503382
 30
0.0
 40
1.160819374270148
100
AcDbArc
 50
200.716790373
 51
223.9475957447
  0
ARC
  5
1AC
330
1F
100
AcDbEntity
  8
1
100
AcDbCircle
 10
34.4280329416
 20
-67.6417871355
 30
0.0
 40
1.132455145632751
100
AcDbArc
 50
204.798006843
 51
226.6043515195
  0
ARC
  5
1AD
330
1F
100
AcDbEntity
  8
1
100
AcDbCircle
 10
33.1600795242
 20
-69.6547146029
 30
0.0
 40
0.6173456642366567
100
AcDbArc
 50
37.4776015796
 51
67.130661558
  0
ARC
  5
1AE
330
1F
100
AcDbEntity
  8
1
100
AcDbCircle
 10
34.5892128139
 20
-68.4271117151
 30
0.0
 40
1.38948778008285
100
AcDbArc
 50
211.14459483
 51
227.4726543539
  0
ARC
  5
1AF
330
1F
100
AcDbEntity
  8
1
100
AcDbCircle
 10
35.8439276359
 20
-67.59833251
 30
0.0
 40
3.187503176022473
100
AcDbArc
 50
219.9396012656
 51
226.5050875974
  0
ARC
  5
1B0
330
1F
100
AcDbEntity
  8
1
100
AcDbCircle
 10
32.2470543729
 20
-71.1349751791
 30
0.0
 40
1.89994350782218
100
AcDbArc
 50
42.4034951845
 51
52.63927966199999
  0
ARC
  5
1B1
330
1F
100
AcDbEntity
  8
1
100
AcDbCircle
 10
59.3050002655
 20
60.2161272092
 30
0.0
 40
2.599999653399416
100
AcDbArc
 50
139.9999729476
 51
320.0
  0
ARC
  5
1B2
330
1F
100
AcDbEntity
  8
1
100
AcDbCircle
 10
64.3000006356
 20
1.5687471271
 30
0.0
 40
9.999999266103472
100
AcDbArc
 50
149.9999966001
 51
180.0
  0
ARC
  5
1B3
330
1F
100
AcDbEntity
  8
1
100
AcDbCircle
 10
37.8980762137
 20
-136.855234014
 30
0.0
 40
206.8555356770028
100
AcDbArc
 50
90.2077386097
 51
91.10747119
  0
ARC
  5
1B4
330
1F
100
AcDbEntity
  8
1
100
AcDbCircle
 10
36.0439263893
 20
67.5988984008
 30
0.0
 40
3.1875031757015
100
AcDbArc
 50
133.4949124026
 51
140.0603987481
  0
ARC
  5
1B5
330
1F
100
AcDbEntity
  8
CUT
100
AcDbCircle
 10
59.099999842
 20
71.243053337
 30
0.0
 40
0.8000001580007557
100
AcDbArc
 50
100.0
 51
179.9998904219
  0
ARC
  5
1B6
330
1F
100
AcDbEntity
  8
CUT
100
AcDbCircle
 10
70.1999969867
 20
73.2002840224
 30
0.0
 40
0.8000015189636231
100
AcDbArc
 50
359.9999849154
 51
99.9998696947
  0
ARC
  5
1B7
330
1F
100
AcDbEntity
  8
CUT
100
AcDbCircle
 10
70.1999996677
 20
61.9290484197
 30
0.0
 40
0.8000011620001425
100
AcDbArc
 50
280.0
 51
359.9999555243
  0
ARC
  5
1B8
330
1F
100
AcDbEntity
  8
CUT
100
AcDbCircle
 10
59.099999842
 20
59.971817945
 30
0.0
 40
0.8000001580006187
100
AcDbArc
 50
180.0001006257
 51
280.0
  0
ARC
  5
1B9
330
1F
100
AcDbEntity
  8
CUT
100
AcDbCircle
 10
70.2
 20
-73.199717175
 30
0.0
 40
0.8000000000000256
100
AcDbArc
 50
260.0
 51
0.0
  0
ARC
  5
1BA
330
1F
100
AcDbEntity
  8
CUT
100
AcDbCircle
 10
70.2
 20
-73.199717175
 30
0.0
 40
0.2155454900000251
100
AcDbArc
 50
260.0
 51
0.0
  0
ARC
  5
1BB
330
1F
100
AcDbEntity
  8
CUT
100
AcDbCircle
 10
70.2
 20
-61.928481783
 30
0.0
 40
0.8000000000000256
100
AcDbArc
 50
0.0
 51
55.898251634
  0
ARC
  5
1BC
330
1F
100
AcDbEntity
  8
CUT
100
AcDbCircle
 10
70.2
 20
-61.928481783
 30
0.0
 40
0.2155454900000251
100
AcDbArc
 50
0.0
 51
80.0
  0
ARC
  5
1BD
330
1F
100
AcDbEntity
  8
CUT
100
AcDbCircle
 10
59.1000001877
 20
-71.2424866244
 30
0.0
 40
0.2155444089545497
100
AcDbArc
 50
180.0
 51
259.9997406328
  0
ARC
  5
1BE
330
1F
100
AcDbEntity
  8
CUT
100
AcDbCircle
 10
59.1000001877
 20
-71.2424866244
 30
0.0
 40
0.8000029836118936
100
AcDbArc
 50
180.0
 51
260.0000816334
  0
ARC
  5
1BF
330
1F
100
AcDbEntity
  8
1
100
AcDbCircle
 10
64.4569999999
 20
64.6860503836
 30
0.0
 40
0.3000000001105576
100
AcDbArc
 50
270.0
 51
356.615838194
  0
ARC
  5
1C0
330
1F
100
AcDbEntity
  8
1
100
AcDbCircle
 10
65.4552561839
 20
64.6270199546
 30
0.0
 40
0.7000000001105887
100
AcDbArc
 50
63.384161806
 51
176.615838215
  0
ARC
  5
1C1
330
1F
100
AcDbEntity
  8
1
100
AcDbCircle
 10
65.903262424
 20
65.5210503839
 30
0.0
 40
0.2999999997642147
100
AcDbArc
 50
243.3841618809
 51
330.0
  0
ARC
  5
1C2
330
1F
100
AcDbEntity
  8
1
100
AcDbCircle
 10
63.010737576
 20
65.521050384
 30
0.0
 40
0.3000000002179859
100
AcDbArc
 50
210.0
 51
296.615838194
  0
ARC
  5
1C3
330
1F
100
AcDbEntity
  8
1
100
AcDbCircle
 10
63.4587438162
 20
64.6270199546
 30
0.0
 40
0.69999999976423
100
AcDbArc
 50
3.384161806
 51
116.6158381619
  0
ARC
  5
1C4
330
1F
100
AcDbEntity
  8
1
100
AcDbCircle
 10
64.4569999999
 20
64.6860503836
 30
0.0
 40
0.3000000001105434
100
AcDbArc
 50
183.3841617571
 51
270.0
  0
ARC
  5
1C5
330
1F
100
AcDbEntity
  8
1
100
AcDbCircle
 10
63.0107375759
 20
67.1910503838
 30
0.0
 40
0.3000000000000007
100
AcDbArc
 50
150.0
 51
236.615838194
  0
ARC
  5
1C6
330
1F
100
AcDbEntity
  8
1
100
AcDbCircle
 10
62.460487632
 20
66.356050384
 30
0.0
 40
0.7000000002179887
100
AcDbArc
 50
303.384161806
 51
56.61583813930002
  0
ARC
  5
1C7
330
1F
100
AcDbEntity
  8
1
100
AcDbCircle
 10
63.010737576
 20
65.521050384
 30
0.0
 40
0.3000000002180184
100
AcDbArc
 50
123.3841619335
 51
210.0
  0
ARC
  5
1C8
330
1F
100
AcDbEntity
  8
1
100
AcDbCircle
 10
65.903262424
 20
65.5210503839
 30
0.0
 40
0.2999999997642107
100
AcDbArc
 50
330.0
 51
56.615838194
  0
ARC
  5
1C9
330
1F
100
AcDbEntity
  8
1
100
AcDbCircle
 10
66.4535123666
 20
66.356050384
 30
0.0
 40
0.6999999999428952
100
AcDbArc
 50
123.3841617748
 51
236.6158382425
  0
ARC
  5
1CA
330
1F
100
AcDbEntity
  8
1
100
AcDbCircle
 10
65.903262424
 20
67.191050384
 30
0.0
 40
0.299999999764209
100
AcDbArc
 50
303.3841617741
 51
30.0
  0
ARC
  5
1CB
330
1F
100
AcDbEntity
  8
1
100
AcDbCircle
 10
65.4552561839
 20
68.0850808132
 30
0.0
 40
0.7000000000000322
100
AcDbArc
 50
183.384161806
 51
296.615838194
  0
ARC
  5
1CC
330
1F
100
AcDbEntity
  8
1
100
AcDbCircle
 10
64.457
 20
68.0260503842
 30
0.0
 40
0.3000000001105434
100
AcDbArc
 50
3.3841617571
 51
90.0
  0
ARC
  5
1CD
330
1F
100
AcDbEntity
  8
1
100
AcDbCircle
 10
65.903262424
 20
67.191050384
 30
0.0
 40
0.2999999997642082
100
AcDbArc
 50
30.0
 51
116.6158381191
  0
ARC
  5
1CE
330
1F
100
AcDbEntity
  8
1
100
AcDbCircle
 10
63.4587438161
 20
68.0850808132
 30
0.0
 40
0.7000000000000073
100
AcDbArc
 50
243.384161806
 51
356.615838194
  0
ARC
  5
1CF
330
1F
100
AcDbEntity
  8
1
100
AcDbCircle
 10
64.457
 20
68.0260503842
 30
0.0
 40
0.3000000001105434
100
AcDbArc
 50
90.0
 51
176.6158382429
  0
ARC
  5
1D0
330
1F
100
AcDbEntity
  8
1
100
AcDbCircle
 10
63.0107375759
 20
67.1910503838
 30
0.0
 40
0.3000000000000246
100
AcDbArc
 50
63.3841618808
 51
150.0
  0
ARC
  5
1D1
330
1F
100
AcDbEntity
  8
1
100
AcDbCircle
 10
189.9926689471
 20
-39.9369876622
 30
0.0
 40
125.1043033994733
100
AcDbArc
 50
190.7832960557
 51
192.474884001
  0
ARC
  5
1D2
330
1F
100
AcDbEntity
  8
1
100
AcDbCircle
 10
87.0885307668
 20
-62.702813174
 30
0.0
 40
19.671525299
100
AcDbArc
 50
192.475314839
 51
202.812008309
  0
ARC
  5
1D3
330
1F
100
AcDbEntity
  8
1
100
AcDbCircle
 10
75.6425485261
 20
-67.5170841129
 30
0.0
 40
7.254290738651094
100
AcDbArc
 50
202.8120083126
 51
219.574065791
  0
ARC
  5
1D4
330
1F
100
AcDbEntity
  8
1
100
AcDbCircle
 10
70.80346311
 20
-71.516630784
 30
0.0
 40
0.9763037014998771
100
AcDbArc
 50
219.5742891672
 51
231.765037451
  0
CIRCLE
  5
1D5
330
1F
100
AcDbEntity
  8
1
100
AcDbCircle
 10
64.457
 20
66.356050384
 30
0.0
 40
3.640250390999995
  0
DIMENSION
  5
1D6
330
1F
100
AcDbEntity
  8
2
  6
Continuous
370
    25
100
AcDbDimension
280
     0
  2
_D
 10
83.02642701394477
 20
-73.98756324726178
 30
0.0
 11
83.0264262713
 21
0.0002844597
 31
0.0
 70
   160
  1
%%c<> - 203
 71
     5
 42
147.975695414
 73
     0
 74
     0
 75
     0
  3
SLDDIMSTYLE0
100
AcDbAlignedDimension
 13
70.0610799726
 23
73.9881320366
 33
0.0
 14
70.0610814579
 24
-73.9875633774
 34
0.0
 50
-89.9999994249
100
AcDbRotatedDimension
1001
ACAD
1000
DSTYLE
1002
{
1070
   140
1040
3.5
1070
   340
1005
255
1070
   177
1070
   256
1070
   176
1070
   256
1070
   178
1070
   256
1070
   347
1005
14
1070
   346
1005
14
1070
   345
1005
14
1002
}
  0
DIMENSION
  5
1E4
330
1F
100
AcDbEntity
  8
2
  6
Continuous
370
    25
100
AcDbDimension
280
     0
  2
_D_1
 10
0.0
 20
80.4269501681
 30
0.0
 11
35.4999992528
 21
80.4269501681
 31
0.0
 70
   160
  1
<>
 71
     5
 42
70.9999985057
 73
     0
 74
     0
 75
     0
  3
SLDDIMSTYLE1
100
AcDbAlignedDimension
 13
70.9999985057
 23
73.2002838117
 33
0.0
 14
0.0
 24
31.240286938
 34
0.0
100
AcDbRotatedDimension
1001
ACAD
1000
DSTYLE
1002
{
1070
   140
1040
3.5
1070
   340
1005
255
1070
   177
1070
   256
1070
   176
1070
   256
1070
   178
1070
   256
1070
   347
1005
14
1070
   346
1005
14
1070
   345
1005
14
1002
}
  0
DIMENSION
  5
1EF
330
1F
100
AcDbEntity
  8
2
  6
Continuous
370
    25
100
AcDbDimension
280
     0
  2
_D_2
 10
37.0
 20
-82.9797776246
 30
0.0
 11
18.5
 21
-82.9797776246
 31
0.0
 70
   160
  1
<>
 71
     5
 42
37.0
 73
     0
 74
     0
 75
     0
  3
SLDDIMSTYLE1
100
AcDbAlignedDimension
 13
0.0
 23
-31.240286938
 33
0.0
 14
37.0
 24
-69.5
 34
0.0
100
AcDbRotatedDimension
1001
ACAD
1000
DSTYLE
1002
{
1070
   140
1040
3.5
1070
   340
1005
255
1070
   177
1070
   256
1070
   176
1070
   256
1070
   178
1070
   256
1070
   347
1005
14
1070
   346
1005
14
1070
   345
1005
14
1002
}
  0
DIMENSION
  5
1F9
330
1F
100
AcDbEntity
  8
SK2
100
AcDbDimension
280
     0
  2
_D_3
 10
-46.2676860844
 20
-17.999999225
 30
0.0
 11
-46.2676860844
 21
0.0000003875
 31
0.0
 70
   160
  1
%%c<>
 71
     5
 42
35.999999225
 73
     0
 74
     0
 75
     0
  3
SLDDIMSTYLE1
100
AcDbAlignedDimension
 13
-35.0000000094
 23
18.0
 33
0.0
 14
-35.0
 24
-17.999999225
 34
0.0
 50
90.0
100
AcDbRotatedDimension
1001
ACAD
1000
DSTYLE
1002
{
1070
   140
1040
3.5
1070
   340
1005
255
1070
   177
1070
   256
1070
   176
1070
   256
1070
   178
1070
   256
1070
   347
1005
14
1070
   346
1005
14
1070
   345
1005
14
1002
}
  0
DIMENSION
  5
204
330
1F
100
AcDbEntity
  8
2
  6
Continuous
370
    25
100
AcDbDimension
280
     0
  2
_D_4
 10
-56.1326797519
 20
-31.75
 30
0.0
 11
-56.1326797519
 21
0.0
 31
0.0
 70
   160
  1
%%c<>
 71
     5
 42
63.50000000000001
 73
     0
 74
     0
 75
     0
  3
SLDDIMSTYLE1
100
AcDbAlignedDimension
 13
0.5
 23
31.75
 33
0.0
 14
0.5
 24
-31.75
 34
0.0
 50
90.0
100
AcDbRotatedDimension
1001
ACAD
1000
DSTYLE
1002
{
1070
   140
1040
3.5
1070
   340
1005
255
1070
   177
1070
   256
1070
   176
1070
   256
1070
   178
1070
   256
1070
   347
1005
14
1070
   346
1005
14
1070
   345
1005
14
1002
}
  0
DIMENSION
  5
20F
330
1F
100
AcDbEntity
  8
2
  6
Continuous
370
    25
100
AcDbDimension
280
     0
  2
_D_5
 10
-66.56270891400001
 20
-70.0
 30
0.0
 11
-66.562708914
 21
0.0
 31
0.0
 70
   160
  1
%%c<>
 71
     5
 42
140.0
 73
     0
 74
     0
 75
     0
  3
SLDDIMSTYLE1
100
AcDbAlignedDimension
 13
12.047005384
 23
70.0
 33
0.0
 14
12.047005384
 24
-70.0
 34
0.0
 50
90.0
100
AcDbRotatedDimension
1001
ACAD
1000
DSTYLE
1002
{
1070
   140
1040
3.5
1070
   340
1005
255
1070
   177
1070
   256
1070
   176
1070
   256
1070
   178
1070
   256
1070
   347
1005
14
1070
   346
1005
14
1070
   345
1005
14
1002
}
  0
MTEXT
  5
21A
330
1F
100
AcDbEntity
  8
SK6
100
AcDbMText
 10
-26.92506161608986
 20
-20.13301057842992
 30
0.0
 40
3.5
 41
0.0
 46
0.0
 71
     1
 72
     1
  1
319.607N
  7
BMG_Text
 73
     1
 44
1.0
  0
LINE
  5
2DD
330
1F
100
AcDbEntity
  8
1
100
AcDbLine
 10
62.283430248
 20
59.720802754
 30
0.0
 11
70.33891841161275
 21
61.14120107294349
 31
0.0
  0
LINE
  5
2DE
330
1F
100
AcDbEntity
  8
1
100
AcDbLine
 10
70.33891841161275
 20
61.14120107294349
 30
0.0
 11
70.6499964
 21
61.14120107294349
 31
0.0
  0
LINE
  5
2DF
330
1F
100
AcDbEntity
  8
1
100
AcDbLine
 10
58.299999684
 20
63.063293397
 30
0.0
 11
58.29999968400071
 21
71.24305486699922
 31
0.0
  0
LINE
  5
2E1
330
1F
100
AcDbEntity
  8
CUT
100
AcDbLine
 10
59.23891841157007
 20
59.18397158699
 30
0.0
 11
70.33891841161275
 21
61.14120107294349
 31
0.0
  0
LINE
  5
2E2
330
1F
100
AcDbEntity
  8
CUT
100
AcDbLine
 10
58.29999968400062
 20
59.9718165399999
 30
0.0
 11
58.29999968400071
 21
71.24305486699922
 31
0.0
  0
CIRCLE
  5
2E8
330
1F
100
AcDbEntity
  8
CUT
100
AcDbCircle
 10
64.457
 20
66.356050384
 30
0.0
 40
3.640250390999995
  0
LINE
  5
2EA
330
1F
100
AcDbEntity
  8
1
100
AcDbLine
 10
58.29999968400071
 20
71.24305486699922
 30
0.0
 11
59.11651624201594
 21
71.24305486699922
 31
0.0
  0
LINE
  5
2EB
330
1F
100
AcDbEntity
  8
1
100
AcDbLine
 10
59.11651624201594
 20
71.24305486699922
 30
0.0
 11
70.1999969867
 21
73.2002840224
 31
0.0
  0
LINE
  5
2EC
330
1F
100
AcDbEntity
  8
1
100
AcDbLine
 10
70.1999969867
 20
73.2002840224
 30
0.0
 11
70.1999969867
 21
61.96453462333834
 31
0.0
  0
LINE
  5
2ED
330
1F
100
AcDbEntity
  8
1
100
AcDbLine
 10
70.1999969867
 20
61.96453462333834
 30
0.0
 11
70.6499964
 21
61.265255958
 31
0.0
  0
LINE
  5
2EF
330
1F
100
AcDbEntity
  8
NOCUT
100
AcDbLine
 10
0.0
 20
0.0
 30
0.0
 11
0.0
 21
31.25
 31
0.0
  0
LINE
  5
2F0
330
1F
100
AcDbEntity
  8
NOCUT
100
AcDbLine
 10
0.0
 20
31.25
 30
0.0
 11
0.5
 21
31.75
 31
0.0
  0
LINE
  5
2F1
330
1F
100
AcDbEntity
  8
NOCUT
100
AcDbLine
 10
0.5
 20
31.75
 30
0.0
 11
0.5000000002
 21
49.9999999999
 31
0.0
  0
LINE
  5
2F2
330
1F
100
AcDbEntity
  8
NOCUT
100
AcDbLine
 10
0.5000000002
 20
49.9999999999
 30
0.0
 11
12.047005384
 21
70.0
 31
0.0
  0
LINE
  5
2F3
330
1F
100
AcDbEntity
  8
NOCUT
100
AcDbLine
 10
12.047005384
 20
70.0
 30
0.0
 11
51.190469414
 21
70.0
 31
0.0
  0
LINE
  5
2F4
330
1F
100
AcDbEntity
  8
NOCUT
100
AcDbLine
 10
51.190469414
 20
70.0
 30
0.0
 11
58.301046491
 21
71.253791153
 31
0.0
  0
ARC
  5
2F8
330
1F
100
AcDbEntity
  8
NOCUT
100
AcDbCircle
 10
64.30000063560009
 20
1.568747127099987
 30
0.0
 40
9.999999266103552
100
AcDbArc
 50
149.9999966001002
 51
179.9999999999999
  0
LINE
  5
2F9
330
1F
100
AcDbEntity
  8
NOCUT
100
AcDbLine
 10
55.63974753002589
 20
6.568747274046395
 30
0.0
 11
70.6499964
 21
32.567269802
 31
0.0
  0
LINE
  5
2FA
330
1F
100
AcDbEntity
  8
NOCUT
100
AcDbLine
 10
70.6499964
 20
32.567269802
 30
0.0
 11
70.6499964
 21
61.265255958
 31
0.0
  0
LINE
  5
2FE
330
1F
100
AcDbEntity
  8
NOCUT
100
AcDbLine
 10
0.0
 20
0.0
 30
0.0
 11
54.2999999349
 21
0.0
 31
0.0
  0
LINE
  5
2FF
330
1F
100
AcDbEntity
  8
NOCUT
100
AcDbLine
 10
54.2999999349
 20
0.0
 30
0.0
 11
54.2999999349
 21
2.639704021589289
 31
0.0
  0
LWPOLYLINE
  5
306
330
1F
100
AcDbEntity
  8
INFTOTAL
100
AcDbPolyline
 90
        4
 70
     1
 43
0.0
 10
139.0559638229704
 20
104.3125721342722
 10
139.0559638229704
 20
-96.90694006084962
 10
-105.3943029453222
 20
-96.90694006084962
 10
-105.3943029453222
 20
104.3125721342722
  0
LINE
  5
309
330
1F
100
AcDbEntity
  8
SK4
100
AcDbLine
 10
-40.7506019389
 20
-0.0000000502
 30
0.0
 11
-0.0000029436701183
 21
-0.0000000502
 31
0.0
  0
LINE
  5
312
330
1F
100
AcDbEntity
  8
NOCUT
100
AcDbLine
 10
70.6499964
 20
61.265255958
 30
0.0
 11
70.1999969867
 21
61.96453462333834
 31
0.0
  0
LINE
  5
313
330
1F
100
AcDbEntity
  8
NOCUT
100
AcDbLine
 10
70.1999969867
 20
61.96453462333834
 30
0.0
 11
70.1999969867
 21
73.2002840224
 31
0.0
  0
LINE
  5
314
330
1F
100
AcDbEntity
  8
NOCUT
100
AcDbLine
 10
70.1999969867
 20
73.2002840224
 30
0.0
 11
59.11651624201594
 21
71.24305486699922
 31
0.0
  0
LINE
  5
315
330
1F
100
AcDbEntity
  8
NOCUT
100
AcDbLine
 10
59.11651624201594
 20
71.24305486699922
 30
0.0
 11
58.29999968400071
 21
71.24305486699922
 31
0.0
  0
LINE
  5
329
330
1F
100
AcDbEntity
  8
SK3
100
AcDbLine
 10
0.0000000000000004
 20
8.00002248
 30
0.0
 11
-36.278326123
 21
8.00002248
 31
0.0
  0
LINE
  5
32A
330
1F
100
AcDbEntity
  8
SK3
100
AcDbLine
 10
-36.278326123
 20
-8.000000408
 30
0.0
 11
0.0
 21
-8.000000408
 31
0.0
  0
LINE
  5
334
330
1F
100
AcDbEntity
  8
SK3
100
AcDbLine
 10
-4.092433245
 20
8.00002248
 30
0.0
 11
0.0
 21
13.71071031951878
 31
0.0
  0
LINE
  5
335
330
1F
100
AcDbEntity
  8
SK3
100
AcDbLine
 10
0.0000000000000018
 20
-13.71071031951878
 30
0.0
 11
-4.092433245
 21
-8.00002248
 31
0.0
  0
ENDSEC
  0
SECTION
  2
OBJECTS
  0
DICTIONARY
  5
C
330
0
100
AcDbDictionary
281
     1
  3
ACAD_DETAILVIEWSTYLE
350
2E6
  3
ACAD_GROUP
350
D
  3
ACAD_LAYOUT
350
23D
  3
ACAD_MATERIAL
350
251
  3
ACAD_MLEADERSTYLE
350
26D
  3
ACAD_MLINESTYLE
350
17
  3
ACAD_PLOTSETTINGS
350
2AF
  3
ACAD_PLOTSTYLENAME
350
2B0
  3
ACAD_SCALELIST
350
21B
  3
ACAD_SECTIONVIEWSTYLE
350
2E7
  3
ACAD_TABLESTYLE
350
2BC
  3
ACAD_VISUALSTYLE
350
240
  3
ACDB_RECOMPOSE_DATA
350
356
  3
AcDbVariableDictionary
350
26B
  3
APPDATA
350
2BF
  0
SUN
  5
307
330
29
100
AcDbSun
 90
        1
290
     0
 63
     7
421
 16777215
 40
1.0
291
     1
 91
  2455826
 92
 54000000
292
     0
 70
     2
 71
   256
280
     1
  0
DICTIONARY
  5
2C0
330
2
100
AcDbDictionary
280
     1
281
     1
  3
ACAD_LAYERSTATES
360
2C1
  0
DICTIONARY
  5
2E6
102
{ACAD_REACTORS
330
C
102
}
330
C
100
AcDbDictionary
281
     1
  0
DICTIONARY
  5
D
102
{ACAD_REACTORS
330
C
102
}
330
C
100
AcDbDictionary
281
     1
  0
DICTIONARY
  5
23D
102
{ACAD_REACTORS
330
C
102
}
330
C
100
AcDbDictionary
281
     1
  3
Layout1
350
23F
  3
Model
350
23E
  0
DICTIONARY
  5
251
102
{ACAD_REACTORS
330
C
102
}
330
C
100
AcDbDictionary
281
     1
  3
ByBlock
350
253
  3
ByLayer
350
252
  3
Global
350
254
  0
DICTIONARY
  5
26D
102
{ACAD_REACTORS
330
C
102
}
330
C
100
AcDbDictionary
281
     1
  3
Standard
350
2BE
  0
DICTIONARY
  5
17
102
{ACAD_REACTORS
330
C
102
}
330
C
100
AcDbDictionary
281
     1
  3
STANDARD
350
18
  0
DICTIONARY
  5
2AF
102
{ACAD_REACTORS
330
C
102
}
330
C
100
AcDbDictionary
281
     1
  0
ACDBDICTIONARYWDFLT
  5
2B0
102
{ACAD_REACTORS
330
C
102
}
330
C
100
AcDbDictionary
281
     1
  3
Normal
350
2B1
100
AcDbDictionaryWithDefault
340
2B1
  0
DICTIONARY
  5
21B
102
{ACAD_REACTORS
330
C
102
}
330
C
100
AcDbDictionary
281
     1
  3
A0
350
21C
  3
A1
350
21D
  3
A2
350
21E
  3
A3
350
21F
  3
A4
350
220
  3
A5
350
221
  3
A6
350
222
  3
A7
350
223
  3
A8
350
224
  3
A9
350
225
  3
B0
350
226
  3
B1
350
227
  3
B2
350
228
  3
B3
350
229
  3
B4
350
22A
  3
B5
350
22B
  3
B6
350
22C
  3
B7
350
22D
  3
B8
350
22E
  3
B9
350
22F
  3
C0
350
230
  3
C1
350
231
  3
C2
350
232
  3
C3
350
233
  3
C4
350
234
  3
C5
350
235
  3
C6
350
236
  3
C7
350
237
  3
C8
350
238
  3
C9
350
239
  3
D0
350
23A
  3
D1
350
23B
  3
D2
350
23C
  0
DICTIONARY
  5
2E7
102
{ACAD_REACTORS
330
C
102
}
330
C
100
AcDbDictionary
281
     1
  0
DICTIONARY
  5
2BC
102
{ACAD_REACTORS
330
C
102
}
330
C
100
AcDbDictionary
281
     1
  3
Standard
350
2BD
  0
DICTIONARY
  5
240
102
{ACAD_REACTORS
330
C
102
}
330
C
100
AcDbDictionary
281
     1
  3
2dWireframe
350
245
  3
3D Hidden
350
247
  3
3dWireframe
350
246
  3
Basic
350
248
  3
Brighten
350
24C
  3
ColorChange
350
250
  3
Conceptual
350
24A
  3
Dim
350
24B
  3
EdgeColorOff
350
2B6
  3
Facepattern
350
24F
  3
Flat
350
241
  3
FlatWithEdges
350
242
  3
Gouraud
350
243
  3
GouraudWithEdges
350
244
  3
Hidden
350
2B3
  3
JitterOff
350
2B4
  3
Linepattern
350
24E
  3
OverhangOff
350
2B5
  3
Realistic
350
249
  3
Shaded
350
2BB
  3
Shaded with edges
350
2BA
  3
Shades of Gray
350
2B7
  3
Sketchy
350
2B8
  3
Thicken
350
24D
  3
Wireframe
350
2B2
  3
X-Ray
350
2B9
  0
XRECORD
  5
356
102
{ACAD_REACTORS
330
C
102
}
330
C
100
AcDbXrecord
280
     1
 90
        1
330
2BD
  0
DICTIONARY
  5
26B
102
{ACAD_REACTORS
330
C
102
}
330
C
100
AcDbDictionary
281
     1
  3
CANNOSCALE
350
2E3
  3
CMLEADERSTYLE
350
2E5
  3
CTABLESTYLE
350
2E4
  3
DIMASSOC
350
26F
  3
HIDETEXT
350
270
  3
MSLTSCALE
350
26E
  0
DICTIONARY
  5
2BF
102
{ACAD_REACTORS
330
C
102
}
330
C
100
AcDbDictionary
281
     1
  0
DICTIONARY
  5
2C1
102
{ACAD_REACTORS
330
2C0
102
}
330
2C0
100
AcDbDictionary
281
     1
  0
LAYOUT
  5
23F
102
{ACAD_REACTORS
330
23D
102
}
330
23D
100
AcDbPlotSettings
  1

  2
none_device
  4

  6

 40
0.0
 41
0.0
 42
0.0
 43
0.0
 44
0.0
 45
0.0
 46
0.0
 47
0.0
 48
0.0
 49
0.0
140
0.0
141
0.0
142
1.0
143
1.0
 70
   688
 72
     0
 73
     0
 74
     5
  7

 75
    16
 76
     0
 77
     2
 78
   300
147
1.0
148
0.0
149
0.0
100
AcDbLayout
  1
Layout1
 70
     1
 71
     1
 10
0.0
 20
0.0
 11
420.0
 21
297.0
 12
0.0
 22
0.0
 32
0.0
 14
1.000000000000000E+20
 24
1.000000000000000E+20
 34
1.000000000000000E+20
 15
-1.000000000000000E+20
 25
-1.000000000000000E+20
 35
-1.000000000000000E+20
146
0.0
 13
0.0
 23
0.0
 33
0.0
 16
1.0
 26
0.0
 36
0.0
 17
0.0
 27
1.0
 37
0.0
 76
     0
330
1B
  0
LAYOUT
  5
23E
102
{ACAD_REACTORS
330
23D
102
}
330
23D
100
AcDbPlotSettings
  1

  2
none_device
  4

  6

 40
0.0
 41
0.0
 42
0.0
 43
0.0
 44
0.0
 45
0.0
 46
0.0
 47
0.0
 48
0.0
 49
0.0
140
0.0
141
0.0
142
1.0
143
1.0
 70
  1712
 72
     0
 73
     0
 74
     0
  7

 75
     0
 76
     0
 77
     2
 78
   300
147
1.0
148
-0.0000001562100806
149
0.0
100
AcDbLayout
  1
Model
 70
     1
 71
     0
 10
0.0
 20
0.0
 11
420.0
 21
297.0
 12
0.0
 22
0.0
 32
0.0
 14
-105.3943029453221
 24
-96.90694006084962
 34
0.0
 15
139.0559638229704
 25
104.3125721342722
 35
0.0
146
0.0
 13
0.0
 23
0.0
 33
0.0
 16
1.0
 26
0.0
 36
0.0
 17
0.0
 27
1.0
 37
0.0
 76
     0
330
1F
331
29
  0
MATERIAL
  5
253
102
{ACAD_REACTORS
330
251
102
}
330
251
100
AcDbMaterial
  1
ByBlock
 72
     1
 94
      127
  0
MATERIAL
  5
252
102
{ACAD_REACTORS
330
251
102
}
330
251
100
AcDbMaterial
  1
ByLayer
 72
     1
 94
      127
  0
MATERIAL
  5
254
102
{ACAD_REACTORS
330
251
102
}
330
251
100
AcDbMaterial
  1
Global
 72
     1
 94
      127
  0
MLEADERSTYLE
  5
2BE
102
{ACAD_REACTORS
330
26D
102
}
330
26D
100
AcDbMLeaderStyle
179
     2
170
     2
171
     1
172
     0
 90
        2
 40
0.0
 41
0.0
173
     1
 91
-1056964608
340
14
 92
       -2
290
     1
 42
2.0
291
     1
 43
8.0
  3
Standard
341
0
 44
4.0
300

342
11
174
     1
178
     1
175
     1
176
     0
 93
-1056964608
 45
4.0
292
     0
297
     0
 46
4.0
343
0
 94
-1056964608
 47
1.0
 49
1.0
140
1.0
293
     1
141
0.0
294
     1
177
     0
142
1.0
295
     0
296
     0
143
3.75
271
     0
272
     9
273
     9
298
     0
  0
MLINESTYLE
  5
18
102
{ACAD_REACTORS
330
17
102
}
330
17
100
AcDbMlineStyle
  2
Standard
 70
     0
  3

 62
   256
 51
90.0
 52
90.0
 71
     2
 49
0.5
 62
   256
  6
BYLAYER
 49
-0.5
 62
   256
  6
BYLAYER
  0
ACDBPLACEHOLDER
  5
2B1
102
{ACAD_REACTORS
330
2B0
102
}
330
2B0
  0
SCALE
  5
21C
102
{ACAD_REACTORS
330
21B
102
}
330
21B
100
AcDbScale
 70
     0
300
1:1
140
1.0
141
1.0
290
     1
  0
SCALE
  5
21D
102
{ACAD_REACTORS
330
21B
102
}
330
21B
100
AcDbScale
 70
     0
300
1:2
140
1.0
141
2.0
290
     0
  0
SCALE
  5
21E
102
{ACAD_REACTORS
330
21B
102
}
330
21B
100
AcDbScale
 70
     0
300
1:4
140
1.0
141
4.0
290
     0
  0
SCALE
  5
21F
102
{ACAD_REACTORS
330
21B
102
}
330
21B
100
AcDbScale
 70
     0
300
1:5
140
1.0
141
5.0
290
     0
  0
SCALE
  5
220
102
{ACAD_REACTORS
330
21B
102
}
330
21B
100
AcDbScale
 70
     0
300
1:8
140
1.0
141
8.0
290
     0
  0
SCALE
  5
221
102
{ACAD_REACTORS
330
21B
102
}
330
21B
100
AcDbScale
 70
     0
300
1:10
140
1.0
141
10.0
290
     0
  0
SCALE
  5
222
102
{ACAD_REACTORS
330
21B
102
}
330
21B
100
AcDbScale
 70
     0
300
1:16
140
1.0
141
16.0
290
     0
  0
SCALE
  5
223
102
{ACAD_REACTORS
330
21B
102
}
330
21B
100
AcDbScale
 70
     0
300
1:20
140
1.0
141
20.0
290
     0
  0
SCALE
  5
224
102
{ACAD_REACTORS
330
21B
102
}
330
21B
100
AcDbScale
 70
     0
300
1:30
140
1.0
141
30.0
290
     0
  0
SCALE
  5
225
102
{ACAD_REACTORS
330
21B
102
}
330
21B
100
AcDbScale
 70
     0
300
1:40
140
1.0
141
40.0
290
     0
  0
SCALE
  5
226
102
{ACAD_REACTORS
330
21B
102
}
330
21B
100
AcDbScale
 70
     0
300
1:50
140
1.0
141
50.0
290
     0
  0
SCALE
  5
227
102
{ACAD_REACTORS
330
21B
102
}
330
21B
100
AcDbScale
 70
     0
300
1:100
140
1.0
141
100.0
290
     0
  0
SCALE
  5
228
102
{ACAD_REACTORS
330
21B
102
}
330
21B
100
AcDbScale
 70
     0
300
2:1
140
2.0
141
1.0
290
     0
  0
SCALE
  5
229
102
{ACAD_REACTORS
330
21B
102
}
330
21B
100
AcDbScale
 70
     0
300
4:1
140
4.0
141
1.0
290
     0
  0
SCALE
  5
22A
102
{ACAD_REACTORS
330
21B
102
}
330
21B
100
AcDbScale
 70
     0
300
8:1
140
8.0
141
1.0
290
     0
  0
SCALE
  5
22B
102
{ACAD_REACTORS
330
21B
102
}
330
21B
100
AcDbScale
 70
     0
300
10:1
140
10.0
141
1.0
290
     0
  0
SCALE
  5
22C
102
{ACAD_REACTORS
330
21B
102
}
330
21B
100
AcDbScale
 70
     0
300
100:1
140
100.0
141
1.0
290
     0
  0
SCALE
  5
22D
102
{ACAD_REACTORS
330
21B
102
}
330
21B
100
AcDbScale
 70
     0
300
1/128" = 1'-0"
140
0.0078125
141
12.0
290
     0
  0
SCALE
  5
22E
102
{ACAD_REACTORS
330
21B
102
}
330
21B
100
AcDbScale
 70
     0
300
1/64" = 1'-0"
140
0.015625
141
12.0
290
     0
  0
SCALE
  5
22F
102
{ACAD_REACTORS
330
21B
102
}
330
21B
100
AcDbScale
 70
     0
300
1/32" = 1'-0"
140
0.03125
141
12.0
290
     0
  0
SCALE
  5
230
102
{ACAD_REACTORS
330
21B
102
}
330
21B
100
AcDbScale
 70
     0
300
1/16" = 1'-0"
140
0.0625
141
12.0
290
     0
  0
SCALE
  5
231
102
{ACAD_REACTORS
330
21B
102
}
330
21B
100
AcDbScale
 70
     0
300
3/32" = 1'-0"
140
0.09375
141
12.0
290
     0
  0
SCALE
  5
232
102
{ACAD_REACTORS
330
21B
102
}
330
21B
100
AcDbScale
 70
     0
300
1/8" = 1'-0"
140
0.125
141
12.0
290
     0
  0
SCALE
  5
233
102
{ACAD_REACTORS
330
21B
102
}
330
21B
100
AcDbScale
 70
     0
300
3/16" = 1'-0"
140
0.1875
141
12.0
290
     0
  0
SCALE
  5
234
102
{ACAD_REACTORS
330
21B
102
}
330
21B
100
AcDbScale
 70
     0
300
1/4" = 1'-0"
140
0.25
141
12.0
290
     0
  0
SCALE
  5
235
102
{ACAD_REACTORS
330
21B
102
}
330
21B
100
AcDbScale
 70
     0
300
3/8" = 1'-0"
140
0.375
141
12.0
290
     0
  0
SCALE
  5
236
102
{ACAD_REACTORS
330
21B
102
}
330
21B
100
AcDbScale
 70
     0
300
1/2" = 1'-0"
140
0.5
141
12.0
290
     0
  0
SCALE
  5
237
102
{ACAD_REACTORS
330
21B
102
}
330
21B
100
AcDbScale
 70
     0
300
3/4" = 1'-0"
140
0.75
141
12.0
290
     0
  0
SCALE
  5
238
102
{ACAD_REACTORS
330
21B
102
}
330
21B
100
AcDbScale
 70
     0
300
1" = 1'-0"
140
1.0
141
12.0
290
     0
  0
SCALE
  5
239
102
{ACAD_REACTORS
330
21B
102
}
330
21B
100
AcDbScale
 70
     0
300
1-1/2" = 1'-0"
140
1.5
141
12.0
290
     0
  0
SCALE
  5
23A
102
{ACAD_REACTORS
330
21B
102
}
330
21B
100
AcDbScale
 70
     0
300
3" = 1'-0"
140
3.0
141
12.0
290
     0
  0
SCALE
  5
23B
102
{ACAD_REACTORS
330
21B
102
}
330
21B
100
AcDbScale
 70
     0
300
6" = 1'-0"
140
6.0
141
12.0
290
     0
  0
SCALE
  5
23C
102
{ACAD_REACTORS
330
21B
102
}
330
21B
100
AcDbScale
 70
     0
300
1'-0" = 1'-0"
140
12.0
141
12.0
290
     0
  0
TABLESTYLE
  5
2BD
102
{ACAD_REACTORS
330
2BC
102
}
102
{ACAD_XDICTIONARY
360
354
102
}
330
2BC
100
AcDbTableStyle
  3
Standard
 70
     0
 71
     0
 40
1.5
 41
1.5
280
     0
281
     0
  7
STANDARD
140
4.5
170
     2
 62
     0
 63
   257
283
     0
 90
        4
 91
        0
  1

274
    -2
284
     1
 64
     0
275
    -2
285
     1
 65
     0
276
    -2
286
     1
 66
     0
277
    -2
287
     1
 67
     0
278
    -2
288
     1
 68
     0
279
    -2
289
     1
 69
     0
  7
STANDARD
140
6.0
170
     5
 62
     0
 63
   257
283
     0
 90
        4
 91
        0
  1

274
    -2
284
     1
 64
     0
275
    -2
285
     1
 65
     0
276
    -2
286
     1
 66
     0
277
    -2
287
     1
 67
     0
278
    -2
288
     1
 68
     0
279
    -2
289
     1
 69
     0
  7
STANDARD
140
4.5
170
     5
 62
     0
 63
   257
283
     0
 90
        4
 91
        0
  1

274
    -2
284
     1
 64
     0
275
    -2
285
     1
 65
     0
276
    -2
286
     1
 66
     0
277
    -2
287
     1
 67
     0
278
    -2
288
     1
 68
     0
279
    -2
289
     1
 69
     0
  0
VISUALSTYLE
  5
245
102
{ACAD_REACTORS
330
240
102
}
330
240
100
AcDbVisualStyle
  2
2dWireframe
 70
     4
177
     3
291
     0
 70
    58
 90
        0
176
     1
 90
        2
176
     1
 90
        0
176
     1
 90
        0
176
     1
 40
-0.6
176
     1
 40
-30.0
176
     1
 62
     7
176
     1
 90
        1
176
     1
 90
        4
176
     1
 62
     7
176
     1
 62
   257
176
     1
 90
        1
176
     1
 90
        1
176
     1
 40
1.0
176
     1
 90
        0
176
     1
 62
   257
176
     1
 40
1.0
176
     1
 90
        1
176
     1
 90
        6
176
     1
 90
        2
176
     1
 62
     7
176
     1
 90
        5
176
     1
 90
        0
176
     1
 90
        0
176
     1
290
     0
176
     1
 90
        1
176
     1
 40
0.0
176
     1
 90
        0
176
     1
290
     1
176
     1
290
     1
176
     1
290
     0
176
     1
290
     0
176
     1
290
     0
176
     1
290
     0
176
     1
290
     0
176
     1
290
     0
176
     1
290
     0
176
     1
 90
       50
176
     1
 40
0.0
176
     1
 40
1.0
176
     1
 90
        0
176
     1
 62
    18
420
        0
176
     1
 90
       50
176
     1
 90
        3
176
     1
 62
     5
420
      255
176
     1
290
     0
176
     1
 90
       50
176
     1
 90
       50
176
     1
 90
       50
176
     1
290
     0
176
     1
 90
       50
176
     1
 62
   256
176
     0
 40
1.0
176
     0
 90
        2
176
     1
  1
strokes_ogs.tif
176
     1
290
     0
176
     1
 40
1.0
176
     1
 40
1.0
176
     1
  0
VISUALSTYLE
  5
247
102
{ACAD_REACTORS
330
240
102
}
330
240
100
AcDbVisualStyle
  2
3D Hidden
 70
     6
177
     3
291
     0
 70
    58
 90
        1
176
     1
 90
        2
176
     1
 90
        2
176
     1
 90
        0
176
     1
 40
-0.6
176
     1
 40
-30.0
176
     1
 62
     7
176
     1
 90
        2
176
     1
 90
        2
176
     1
 62
     7
176
     1
 62
   257
176
     1
 90
        2
176
     1
 90
        1
176
     1
 40
40.0
176
     1
 90
        0
176
     1
 62
   257
176
     1
 40
1.0
176
     1
 90
        1
176
     1
 90
        6
176
     1
 90
        2
176
     1
 62
     7
176
     1
 90
        3
176
     1
 90
        0
176
     1
 90
        0
176
     1
290
     0
176
     1
 90
        1
176
     1
 40
0.0
176
     1
 90
        0
176
     1
290
     0
176
     1
290
     1
176
     1
290
     1
176
     1
290
     0
176
     1
290
     0
176
     1
290
     0
176
     1
290
     0
176
     1
290
     0
176
     1
290
     0
176
     1
 90
       50
176
     1
 40
0.0
176
     1
 40
1.0
176
     1
 90
        0
176
     1
 62
    18
420
        0
176
     1
 90
       50
176
     1
 90
        3
176
     1
 62
     5
420
      255
176
     1
290
     0
176
     1
 90
       50
176
     1
 90
       50
176
     1
 90
       50
176
     1
290
     0
176
     1
 90
       50
176
     1
 62
   256
176
     0
 40
1.0
176
     0
 90
        2
176
     1
  1
strokes_ogs.tif
176
     1
290
     0
176
     1
 40
1.0
176
     1
 40
1.0
176
     1
  0
VISUALSTYLE
  5
246
102
{ACAD_REACTORS
330
240
102
}
330
240
100
AcDbVisualStyle
  2
3dWireframe
 70
     5
177
     3
291
     0
 70
    58
 90
        0
176
     1
 90
        2
176
     1
 90
        0
176
     1
 90
        0
176
     1
 40
-0.6
176
     1
 40
-30.0
176
     1
 62
     7
176
     1
 90
        1
176
     1
 90
        4
176
     1
 62
     7
176
     1
 62
   257
176
     1
 90
        1
176
     1
 90
        1
176
     1
 40
1.0
176
     1
 90
        0
176
     1
 62
   257
176
     1
 40
1.0
176
     1
 90
        1
176
     1
 90
        6
176
     1
 90
        2
176
     1
 62
     7
176
     1
 90
        5
176
     1
 90
        0
176
     1
 90
        0
176
     1
290
     0
176
     1
 90
        1
176
     1
 40
0.0
176
     1
 90
        0
176
     1
290
     0
176
     1
290
     1
176
     1
290
     1
176
     1
290
     0
176
     1
290
     0
176
     1
290
     0
176
     1
290
     0
176
     1
290
     0
176
     1
290
     0
176
     1
 90
       50
176
     1
 40
0.0
176
     1
 40
1.0
176
     1
 90
        0
176
     1
 62
    18
420
        0
176
     1
 90
       50
176
     1
 90
        3
176
     1
 62
     5
420
      255
176
     1
290
     0
176
     1
 90
       50
176
     1
 90
       50
176
     1
 90
       50
176
     1
290
     0
176
     1
 90
       50
176
     1
 62
   256
176
     0
 40
1.0
176
     0
 90
        2
176
     1
  1
strokes_ogs.tif
176
     1
290
     0
176
     1
 40
1.0
176
     1
 40
1.0
176
     1
  0
VISUALSTYLE
  5
248
102
{ACAD_REACTORS
330
240
102
}
330
240
100
AcDbVisualStyle
  2
Basic
 70
     7
177
     3
291
     1
 70
    58
 90
        1
176
     1
 90
        0
176
     1
 90
        1
176
     1
 90
        0
176
     1
 40
-0.6
176
     1
 40
-30.0
176
     1
 62
     7
176
     1
 90
        0
176
     1
 90
        4
176
     1
 62
     7
176
     1
 62
   257
176
     1
 90
        1
176
     1
 90
        1
176
     1
 40
1.0
176
     1
 90
        8
176
     1
 62
     7
176
     1
 40
1.0
176
     1
 90
        1
176
     1
 90
        6
176
     1
 90
        2
176
     1
 62
     7
176
     1
 90
        5
176
     1
 90
        0
176
     1
 90
        0
176
     1
290
     0
176
     1
 90
        1
176
     1
 40
0.0
176
     1
 90
        0
176
     1
290
     0
176
     1
290
     1
176
     1
290
     1
176
     1
290
     0
176
     1
290
     0
176
     1
290
     0
176
     1
290
     0
176
     1
290
     0
176
     1
290
     0
176
     1
 90
       50
176
     1
 40
0.0
176
     1
 40
1.0
176
     1
 90
        0
176
     1
 62
    18
420
        0
176
     1
 90
       50
176
     1
 90
        3
176
     1
 62
     5
420
      255
176
     1
290
     0
176
     1
 90
       50
176
     1
 90
       50
176
     1
 90
       50
176
     1
290
     0
176
     1
 90
       50
176
     1
 62
   256
176
     0
 40
1.0
176
     0
 90
        2
176
     1
  1
strokes_ogs.tif
176
     1
290
     0
176
     1
 40
1.0
176
     1
 40
1.0
176
     1
  0
VISUALSTYLE
  5
24C
102
{ACAD_REACTORS
330
240
102
}
330
240
100
AcDbVisualStyle
  2
Brighten
 70
    12
177
     3
291
     1
 70
    58
 90
        2
176
     1
 90
        2
176
     1
 90
        0
176
     1
 90
        0
176
     1
 40
-0.6
176
     1
 40
-30.0
176
     1
 62
     7
176
     1
 90
        1
176
     1
 90
        4
176
     1
 62
     7
176
     1
 62
   257
176
     1
 90
        1
176
     1
 90
        1
176
     1
 40
1.0
176
     1
 90
        8
176
     1
 62
     7
176
     1
 40
1.0
176
     1
 90
        1
176
     1
 90
        6
176
     1
 90
        2
176
     1
 62
     7
176
     1
 90
        5
176
     1
 90
        0
176
     1
 90
        0
176
     1
290
     0
176
     1
 90
        1
176
     1
 40
50.0
176
     1
 90
        0
176
     1
290
     0
176
     1
290
     1
176
     1
290
     1
176
     1
290
     0
176
     1
290
     0
176
     1
290
     0
176
     1
290
     0
176
     1
290
     0
176
     1
290
     0
176
     1
 90
       50
176
     1
 40
0.0
176
     1
 40
1.0
176
     1
 90
        0
176
     1
 62
    18
420
        0
176
     1
 90
       50
176
     1
 90
        3
176
     1
 62
     5
420
      255
176
     1
290
     0
176
     1
 90
       50
176
     1
 90
       50
176
     1
 90
       50
176
     1
290
     0
176
     1
 90
       50
176
     1
 62
   256
176
     0
 40
1.0
176
     0
 90
        2
176
     1
  1
strokes_ogs.tif
176
     1
290
     0
176
     1
 40
1.0
176
     1
 40
1.0
176
     1
  0
VISUALSTYLE
  5
250
102
{ACAD_REACTORS
330
240
102
}
330
240
100
AcDbVisualStyle
  2
ColorChange
 70
    16
177
     3
291
     1
 70
    58
 90
        2
176
     1
 90
        2
176
     1
 90
        3
176
     1
 90
        0
176
     1
 40
-0.6
176
     1
 40
-30.0
176
     1
 62
     8
176
     1
 90
        1
176
     1
 90
        4
176
     1
 62
     7
176
     1
 62
   257
176
     1
 90
        1
176
     1
 90
        1
176
     1
 40
1.0
176
     1
 90
        8
176
     1
 62
     8
176
     1
 40
1.0
176
     1
 90
        1
176
     1
 90
        6
176
     1
 90
        2
176
     1
 62
     7
176
     1
 90
        5
176
     1
 90
        0
176
     1
 90
        0
176
     1
290
     0
176
     1
 90
        1
176
     1
 40
0.0
176
     1
 90
        0
176
     1
290
     0
176
     1
290
     1
176
     1
290
     1
176
     1
290
     0
176
     1
290
     0
176
     1
290
     0
176
     1
290
     0
176
     1
290
     0
176
     1
290
     0
176
     1
 90
       50
176
     1
 40
0.0
176
     1
 40
1.0
176
     1
 90
        0
176
     1
 62
    18
420
        0
176
     1
 90
       50
176
     1
 90
        3
176
     1
 62
     5
420
      255
176
     1
290
     0
176
     1
 90
       50
176
     1
 90
       50
176
     1
 90
       50
176
     1
290
     0
176
     1
 90
       50
176
     1
 62
   256
176
     0
 40
1.0
176
     0
 90
        2
176
     1
  1
strokes_ogs.tif
176
     1
290
     0
176
     1
 40
1.0
176
     1
 40
1.0
176
     1
  0
VISUALSTYLE
  5
24A
102
{ACAD_REACTORS
330
240
102
}
330
240
100
AcDbVisualStyle
  2
Conceptual
 70
     9
177
     3
291
     0
 70
    58
 90
        3
176
     1
 90
        2
176
     1
 90
        0
176
     1
 90
        0
176
     1
 40
-0.6
176
     1
 40
-30.0
176
     1
 62
     7
176
     1
 90
        2
176
     1
 90
        2
176
     1
 62
     7
176
     1
 62
   257
176
     1
 90
        1
176
     1
 90
        1
176
     1
 40
40.0
176
     1
 90
        8
176
     1
 62
     7
176
     1
 40
1.0
176
     1
 90
        1
176
     1
 90
        6
176
     1
 90
        2
176
     1
 62
     7
176
     1
 90
        3
176
     1
 90
        0
176
     1
 90
        0
176
     1
290
     0
176
     1
 90
        1
176
     1
 40
0.0
176
     1
 90
        0
176
     1
290
     0
176
     1
290
     1
176
     1
290
     1
176
     1
290
     0
176
     1
290
     0
176
     1
290
     0
176
     1
290
     0
176
     1
290
     0
176
     1
290
     0
176
     1
 90
       50
176
     1
 40
0.0
176
     1
 40
1.0
176
     1
 90
        0
176
     1
 62
    18
420
        0
176
     1
 90
       50
176
     1
 90
        3
176
     1
 62
     5
420
      255
176
     1
290
     0
176
     1
 90
       50
176
     1
 90
       50
176
     1
 90
       50
176
     1
290
     0
176
     1
 90
       50
176
     1
 62
   256
176
     0
 40
1.0
176
     0
 90
        2
176
     1
  1
strokes_ogs.tif
176
     1
290
     0
176
     1
 40
1.0
176
     1
 40
1.0
176
     1
  0
VISUALSTYLE
  5
24B
102
{ACAD_REACTORS
330
240
102
}
330
240
100
AcDbVisualStyle
  2
Dim
 70
    11
177
     3
291
     1
 70
    58
 90
        2
176
     1
 90
        2
176
     1
 90
        0
176
     1
 90
        0
176
     1
 40
-0.6
176
     1
 40
-30.0
176
     1
 62
     7
176
     1
 90
        1
176
     1
 90
        4
176
     1
 62
     7
176
     1
 62
   257
176
     1
 90
        1
176
     1
 90
        1
176
     1
 40
1.0
176
     1
 90
        8
176
     1
 62
     7
176
     1
 40
1.0
176
     1
 90
        1
176
     1
 90
        6
176
     1
 90
        2
176
     1
 62
     7
176
     1
 90
        5
176
     1
 90
        0
176
     1
 90
        0
176
     1
290
     0
176
     1
 90
        1
176
     1
 40
-50.0
176
     1
 90
        0
176
     1
290
     0
176
     1
290
     1
176
     1
290
     1
176
     1
290
     0
176
     1
290
     0
176
     1
290
     0
176
     1
290
     0
176
     1
290
     0
176
     1
290
     0
176
     1
 90
       50
176
     1
 40
0.0
176
     1
 40
1.0
176
     1
 90
        0
176
     1
 62
    18
420
        0
176
     1
 90
       50
176
     1
 90
        3
176
     1
 62
     5
420
      255
176
     1
290
     0
176
     1
 90
       50
176
     1
 90
       50
176
     1
 90
       50
176
     1
290
     0
176
     1
 90
       50
176
     1
 62
   256
176
     0
 40
1.0
176
     0
 90
        2
176
     1
  1
strokes_ogs.tif
176
     1
290
     0
176
     1
 40
1.0
176
     1
 40
1.0
176
     1
  0
VISUALSTYLE
  5
2B6
102
{ACAD_REACTORS
330
240
102
}
330
240
100
AcDbVisualStyle
  2
EdgeColorOff
 70
    22
177
     3
291
     1
 70
    58
 90
        2
176
     0
 90
        2
176
     0
 90
        0
176
     0
 90
        0
176
     0
 40
0.6
176
     0
 40
30.0
176
     0
 62
     7
420
 16777215
176
     0
 90
        1
176
     0
 90
        4
176
     0
 62
     7
176
     0
 62
   257
176
     0
 90
        1
176
     0
 90
        1
176
     0
 40
1.0
176
     0
 90
        8
176
     2
 62
     7
176
     0
 40
1.0
176
     0
 90
        1
176
     0
 90
        6
176
     0
 90
        2
176
     0
 62
     7
176
     0
 90
        5
176
     0
 90
        0
176
     0
 90
        0
176
     0
290
     0
176
     0
 90
        1
176
     0
 40
0.0
176
     0
 90
        0
176
     0
290
     0
176
     0
290
     1
176
     0
290
     1
176
     0
290
     0
176
     0
290
     0
176
     0
290
     0
176
     0
290
     0
176
     0
290
     0
176
     0
290
     0
176
     0
 90
       50
176
     0
 40
0.0
176
     0
 40
1.0
176
     0
 90
        0
176
     0
 62
    18
420
        0
176
     0
 90
       50
176
     0
 90
        3
176
     0
 62
     5
420
      255
176
     0
290
     0
176
     0
 90
       50
176
     0
 90
       50
176
     0
 90
       50
176
     0
290
     0
176
     0
 90
       50
176
     0
 62
   256
176
     0
 40
1.0
176
     0
 90
        2
176
     0
  1
strokes_ogs.tif
176
     0
290
     0
176
     0
 40
1.0
176
     0
 40
1.0
176
     0
  0
VISUALSTYLE
  5
24F
102
{ACAD_REACTORS
330
240
102
}
330
240
100
AcDbVisualStyle
  2
Facepattern
 70
    15
177
     3
291
     1
 70
    58
 90
        2
176
     1
 90
        2
176
     1
 90
        0
176
     1
 90
        0
176
     1
 40
-0.6
176
     1
 40
-30.0
176
     1
 62
     7
176
     1
 90
        1
176
     1
 90
        4
176
     1
 62
     7
176
     1
 62
   257
176
     1
 90
        1
176
     1
 90
        1
176
     1
 40
1.0
176
     1
 90
        8
176
     1
 62
     7
176
     1
 40
1.0
176
     1
 90
        1
176
     1
 90
        6
176
     1
 90
        2
176
     1
 62
     7
176
     1
 90
        5
176
     1
 90
        0
176
     1
 90
        0
176
     1
290
     0
176
     1
 90
        1
176
     1
 40
0.0
176
     1
 90
        0
176
     1
290
     0
176
     1
290
     1
176
     1
290
     1
176
     1
290
     0
176
     1
290
     0
176
     1
290
     0
176
     1
290
     0
176
     1
290
     0
176
     1
290
     0
176
     1
 90
       50
176
     1
 40
0.0
176
     1
 40
1.0
176
     1
 90
        0
176
     1
 62
    18
420
        0
176
     1
 90
       50
176
     1
 90
        3
176
     1
 62
     5
420
      255
176
     1
290
     0
176
     1
 90
       50
176
     1
 90
       50
176
     1
 90
       50
176
     1
290
     0
176
     1
 90
       50
176
     1
 62
   256
176
     0
 40
1.0
176
     0
 90
        2
176
     1
  1
strokes_ogs.tif
176
     1
290
     0
176
     1
 40
1.0
176
     1
 40
1.0
176
     1
  0
VISUALSTYLE
  5
241
102
{ACAD_REACTORS
330
240
102
}
330
240
100
AcDbVisualStyle
  2
Flat
 70
     0
177
     3
291
     1
 70
    58
 90
        2
176
     1
 90
        1
176
     1
 90
        1
176
     1
 90
        2
176
     1
 40
-0.6
176
     1
 40
30.0
176
     1
 62
     7
176
     1
 90
        0
176
     1
 90
        4
176
     1
 62
     7
176
     1
 62
   257
176
     1
 90
        1
176
     1
 90
        1
176
     1
 40
1.0
176
     1
 90
        8
176
     1
 62
     7
176
     1
 40
1.0
176
     1
 90
        1
176
     1
 90
        6
176
     1
 90
        2
176
     1
 62
     7
176
     1
 90
        5
176
     1
 90
        0
176
     1
 90
        0
176
     1
290
     0
176
     1
 90
       13
176
     1
 40
0.0
176
     1
 90
        0
176
     1
290
     0
176
     1
290
     1
176
     1
290
     1
176
     1
290
     0
176
     1
290
     0
176
     1
290
     0
176
     1
290
     0
176
     1
290
     0
176
     1
290
     0
176
     1
 90
       50
176
     1
 40
0.0
176
     1
 40
1.0
176
     1
 90
        0
176
     1
 62
    18
420
        0
176
     1
 90
       50
176
     1
 90
        3
176
     1
 62
     5
420
      255
176
     1
290
     0
176
     1
 90
       50
176
     1
 90
       50
176
     1
 90
       50
176
     1
290
     0
176
     1
 90
       50
176
     1
 62
   256
176
     0
 40
1.0
176
     0
 90
        2
176
     1
  1
strokes_ogs.tif
176
     1
290
     0
176
     1
 40
1.0
176
     1
 40
1.0
176
     1
  0
VISUALSTYLE
  5
242
102
{ACAD_REACTORS
330
240
102
}
330
240
100
AcDbVisualStyle
  2
FlatWithEdges
 70
     1
177
     3
291
     1
 70
    58
 90
        2
176
     1
 90
        1
176
     1
 90
        1
176
     1
 90
        2
176
     1
 40
-0.6
176
     1
 40
30.0
176
     1
 62
     7
176
     1
 90
        1
176
     1
 90
        4
176
     1
 62
     7
176
     1
 62
   257
176
     1
 90
        1
176
     1
 90
        1
176
     1
 40
1.0
176
     1
 90
        0
176
     1
 62
   257
176
     1
 40
1.0
176
     1
 90
        1
176
     1
 90
        6
176
     1
 90
        2
176
     1
 62
     7
176
     1
 90
        5
176
     1
 90
        0
176
     1
 90
        0
176
     1
290
     0
176
     1
 90
       13
176
     1
 40
0.0
176
     1
 90
        0
176
     1
290
     0
176
     1
290
     1
176
     1
290
     1
176
     1
290
     0
176
     1
290
     0
176
     1
290
     0
176
     1
290
     0
176
     1
290
     0
176
     1
290
     0
176
     1
 90
       50
176
     1
 40
0.0
176
     1
 40
1.0
176
     1
 90
        0
176
     1
 62
    18
420
        0
176
     1
 90
       50
176
     1
 90
        3
176
     1
 62
     5
420
      255
176
     1
290
     0
176
     1
 90
       50
176
     1
 90
       50
176
     1
 90
       50
176
     1
290
     0
176
     1
 90
       50
176
     1
 62
   256
176
     0
 40
1.0
176
     0
 90
        2
176
     1
  1
strokes_ogs.tif
176
     1
290
     0
176
     1
 40
1.0
176
     1
 40
1.0
176
     1
  0
VISUALSTYLE
  5
243
102
{ACAD_REACTORS
330
240
102
}
330
240
100
AcDbVisualStyle
  2
Gouraud
 70
     2
177
     3
291
     1
 70
    58
 90
        2
176
     1
 90
        2
176
     1
 90
        1
176
     1
 90
        2
176
     1
 40
-0.6
176
     1
 40
30.0
176
     1
 62
     7
176
     1
 90
        0
176
     1
 90
        4
176
     1
 62
     7
176
     1
 62
   257
176
     1
 90
        1
176
     1
 90
        1
176
     1
 40
1.0
176
     1
 90
        0
176
     1
 62
     7
176
     1
 40
1.0
176
     1
 90
        1
176
     1
 90
        6
176
     1
 90
        2
176
     1
 62
     7
176
     1
 90
        5
176
     1
 90
        0
176
     1
 90
        0
176
     1
290
     0
176
     1
 90
       13
176
     1
 40
0.0
176
     1
 90
        0
176
     1
290
     0
176
     1
290
     1
176
     1
290
     1
176
     1
290
     0
176
     1
290
     0
176
     1
290
     0
176
     1
290
     0
176
     1
290
     0
176
     1
290
     0
176
     1
 90
       50
176
     1
 40
0.0
176
     1
 40
1.0
176
     1
 90
        0
176
     1
 62
    18
420
        0
176
     1
 90
       50
176
     1
 90
        3
176
     1
 62
     5
420
      255
176
     1
290
     0
176
     1
 90
       50
176
     1
 90
       50
176
     1
 90
       50
176
     1
290
     0
176
     1
 90
       50
176
     1
 62
   256
176
     0
 40
1.0
176
     0
 90
        2
176
     1
  1
strokes_ogs.tif
176
     1
290
     0
176
     1
 40
1.0
176
     1
 40
1.0
176
     1
  0
VISUALSTYLE
  5
244
102
{ACAD_REACTORS
330
240
102
}
330
240
100
AcDbVisualStyle
  2
GouraudWithEdges
 70
     3
177
     3
291
     1
 70
    58
 90
        2
176
     1
 90
        2
176
     1
 90
        1
176
     1
 90
        2
176
     1
 40
-0.6
176
     1
 40
30.0
176
     1
 62
     7
176
     1
 90
        1
176
     1
 90
        4
176
     1
 62
     7
176
     1
 62
   257
176
     1
 90
        1
176
     1
 90
        1
176
     1
 40
1.0
176
     1
 90
        0
176
     1
 62
   257
176
     1
 40
1.0
176
     1
 90
        1
176
     1
 90
        6
176
     1
 90
        2
176
     1
 62
     7
176
     1
 90
        5
176
     1
 90
        0
176
     1
 90
        0
176
     1
290
     0
176
     1
 90
       13
176
     1
 40
0.0
176
     1
 90
        0
176
     1
290
     0
176
     1
290
     1
176
     1
290
     1
176
     1
290
     0
176
     1
290
     0
176
     1
290
     0
176
     1
290
     0
176
     1
290
     0
176
     1
290
     0
176
     1
 90
       50
176
     1
 40
0.0
176
     1
 40
1.0
176
     1
 90
        0
176
     1
 62
    18
420
        0
176
     1
 90
       50
176
     1
 90
        3
176
     1
 62
     5
420
      255
176
     1
290
     0
176
     1
 90
       50
176
     1
 90
       50
176
     1
 90
       50
176
     1
290
     0
176
     1
 90
       50
176
     1
 62
   256
176
     0
 40
1.0
176
     0
 90
        2
176
     1
  1
strokes_ogs.tif
176
     1
290
     0
176
     1
 40
1.0
176
     1
 40
1.0
176
     1
  0
VISUALSTYLE
  5
2B3
102
{ACAD_REACTORS
330
240
102
}
330
240
100
AcDbVisualStyle
  2
Hidden
 70
     6
177
     3
291
     0
 70
    58
 90
        1
176
     1
 90
        2
176
     1
 90
        2
176
     1
 90
        0
176
     1
 40
0.6
176
     1
 40
30.0
176
     1
 62
     7
420
 16777215
176
     1
 90
        2
176
     1
 90
        2
176
     1
 62
     7
176
     1
 62
   257
176
     1
 90
        2
176
     1
 90
        1
176
     1
 40
40.0
176
     1
 90
        0
176
     1
 62
   257
176
     1
 40
1.0
176
     1
 90
        1
176
     1
 90
        6
176
     1
 90
        2
176
     1
 62
     7
176
     1
 90
        3
176
     1
 90
        0
176
     1
 90
        0
176
     1
290
     0
176
     1
 90
        1
176
     1
 40
0.0
176
     1
 90
        0
176
     1
290
     0
176
     1
290
     1
176
     1
290
     1
176
     1
290
     0
176
     1
290
     0
176
     1
290
     0
176
     1
290
     0
176
     1
290
     0
176
     1
290
     0
176
     1
 90
       50
176
     1
 40
0.0
176
     1
 40
1.0
176
     1
 90
        0
176
     1
 62
    18
420
        0
176
     1
 90
       50
176
     1
 90
        3
176
     1
 62
     5
420
      255
176
     1
290
     0
176
     1
 90
       50
176
     1
 90
       50
176
     1
 90
       50
176
     1
290
     0
176
     1
 90
       50
176
     1
 62
   256
176
     0
 40
1.0
176
     0
 90
        2
176
     1
  1
strokes_ogs.tif
176
     1
290
     0
176
     1
 40
1.0
176
     1
 40
1.0
176
     1
  0
VISUALSTYLE
  5
2B4
102
{ACAD_REACTORS
330
240
102
}
330
240
100
AcDbVisualStyle
  2
JitterOff
 70
    20
177
     3
291
     1
 70
    58
 90
        2
176
     0
 90
        2
176
     0
 90
        0
176
     0
 90
        0
176
     0
 40
0.6
176
     0
 40
30.0
176
     0
 62
     7
420
 16777215
176
     0
 90
        1
176
     0
 90
        4
176
     0
 62
     7
176
     0
 62
   257
176
     0
 90
        1
176
     0
 90
        1
176
     0
 40
1.0
176
     0
 90
       10
176
     2
 62
     7
176
     0
 40
1.0
176
     0
 90
        1
176
     0
 90
        6
176
     0
 90
        2
176
     0
 62
     7
176
     0
 90
        5
176
     0
 90
        0
176
     0
 90
        0
176
     0
290
     0
176
     0
 90
        1
176
     0
 40
0.0
176
     0
 90
        0
176
     0
290
     0
176
     0
290
     1
176
     0
290
     1
176
     0
290
     0
176
     0
290
     0
176
     0
290
     0
176
     0
290
     0
176
     0
290
     0
176
     0
290
     0
176
     0
 90
       50
176
     0
 40
0.0
176
     0
 40
1.0
176
     0
 90
        0
176
     0
 62
    18
420
        0
176
     0
 90
       50
176
     0
 90
        3
176
     0
 62
     5
420
      255
176
     0
290
     0
176
     0
 90
       50
176
     0
 90
       50
176
     0
 90
       50
176
     0
290
     0
176
     0
 90
       50
176
     0
 62
   256
176
     0
 40
1.0
176
     0
 90
        2
176
     0
  1
strokes_ogs.tif
176
     0
290
     0
176
     0
 40
1.0
176
     0
 40
1.0
176
     0
  0
VISUALSTYLE
  5
24E
102
{ACAD_REACTORS
330
240
102
}
330
240
100
AcDbVisualStyle
  2
Linepattern
 70
    14
177
     3
291
     1
 70
    58
 90
        2
176
     1
 90
        2
176
     1
 90
        0
176
     1
 90
        0
176
     1
 40
-0.6
176
     1
 40
-30.0
176
     1
 62
     7
176
     1
 90
        1
176
     1
 90
        4
176
     1
 62
     7
176
     1
 62
   257
176
     1
 90
        7
176
     1
 90
        7
176
     1
 40
1.0
176
     1
 90
        8
176
     1
 62
     7
176
     1
 40
1.0
176
     1
 90
        1
176
     1
 90
        6
176
     1
 90
        2
176
     1
 62
     7
176
     1
 90
        5
176
     1
 90
        0
176
     1
 90
        0
176
     1
290
     0
176
     1
 90
        1
176
     1
 40
0.0
176
     1
 90
        0
176
     1
290
     0
176
     1
290
     1
176
     1
290
     1
176
     1
290
     0
176
     1
290
     0
176
     1
290
     0
176
     1
290
     0
176
     1
290
     0
176
     1
290
     0
176
     1
 90
       50
176
     1
 40
0.0
176
     1
 40
1.0
176
     1
 90
        0
176
     1
 62
    18
420
        0
176
     1
 90
       50
176
     1
 90
        3
176
     1
 62
     5
420
      255
176
     1
290
     0
176
     1
 90
       50
176
     1
 90
       50
176
     1
 90
       50
176
     1
290
     0
176
     1
 90
       50
176
     1
 62
   256
176
     0
 40
1.0
176
     0
 90
        2
176
     1
  1
strokes_ogs.tif
176
     1
290
     0
176
     1
 40
1.0
176
     1
 40
1.0
176
     1
  0
VISUALSTYLE
  5
2B5
102
{ACAD_REACTORS
330
240
102
}
330
240
100
AcDbVisualStyle
  2
OverhangOff
 70
    21
177
     3
291
     1
 70
    58
 90
        2
176
     0
 90
        2
176
     0
 90
        0
176
     0
 90
        0
176
     0
 40
0.6
176
     0
 40
30.0
176
     0
 62
     7
420
 16777215
176
     0
 90
        1
176
     0
 90
        4
176
     0
 62
     7
176
     0
 62
   257
176
     0
 90
        1
176
     0
 90
        1
176
     0
 40
1.0
176
     0
 90
        9
176
     2
 62
     7
176
     0
 40
1.0
176
     0
 90
        1
176
     0
 90
        6
176
     0
 90
        2
176
     0
 62
     7
176
     0
 90
        5
176
     0
 90
        0
176
     0
 90
        0
176
     0
290
     0
176
     0
 90
        1
176
     0
 40
0.0
176
     0
 90
        0
176
     0
290
     0
176
     0
290
     1
176
     0
290
     1
176
     0
290
     0
176
     0
290
     0
176
     0
290
     0
176
     0
290
     0
176
     0
290
     0
176
     0
290
     0
176
     0
 90
       50
176
     0
 40
0.0
176
     0
 40
1.0
176
     0
 90
        0
176
     0
 62
    18
420
        0
176
     0
 90
       50
176
     0
 90
        3
176
     0
 62
     5
420
      255
176
     0
290
     0
176
     0
 90
       50
176
     0
 90
       50
176
     0
 90
       50
176
     0
290
     0
176
     0
 90
       50
176
     0
 62
   256
176
     0
 40
1.0
176
     0
 90
        2
176
     0
  1
strokes_ogs.tif
176
     0
290
     0
176
     0
 40
1.0
176
     0
 40
1.0
176
     0
  0
VISUALSTYLE
  5
249
102
{ACAD_REACTORS
330
240
102
}
330
240
100
AcDbVisualStyle
  2
Realistic
 70
     8
177
     3
291
     0
 70
    58
 90
        2
176
     1
 90
        2
176
     1
 90
        0
176
     1
 90
        0
176
     1
 40
-0.6
176
     1
 40
-30.0
176
     1
 62
     7
176
     1
 90
        1
176
     1
 90
        0
176
     1
 62
     7
176
     1
 62
   257
176
     1
 90
        1
176
     1
 90
        1
176
     1
 40
1.0
176
     1
 90
        8
176
     1
 62
     8
176
     1
 40
1.0
176
     1
 90
        1
176
     1
 90
        6
176
     1
 90
        2
176
     1
 62
     7
176
     1
 90
        5
176
     1
 90
        0
176
     1
 90
        0
176
     1
290
     0
176
     1
 90
       13
176
     1
 40
0.0
176
     1
 90
        0
176
     1
290
     0
176
     1
290
     1
176
     1
290
     1
176
     1
290
     0
176
     1
290
     0
176
     1
290
     0
176
     1
290
     0
176
     1
290
     0
176
     1
290
     0
176
     1
 90
       50
176
     1
 40
0.0
176
     1
 40
1.0
176
     1
 90
        0
176
     1
 62
    18
420
        0
176
     1
 90
       50
176
     1
 90
        3
176
     1
 62
     5
420
      255
176
     1
290
     0
176
     1
 90
       50
176
     1
 90
       50
176
     1
 90
       50
176
     1
290
     0
176
     1
 90
       50
176
     1
 62
   256
176
     0
 40
1.0
176
     0
 90
        2
176
     1
  1
strokes_ogs.tif
176
     1
290
     0
176
     1
 40
1.0
176
     1
 40
1.0
176
     1
  0
VISUALSTYLE
  5
2BB
102
{ACAD_REACTORS
330
240
102
}
330
240
100
AcDbVisualStyle
  2
Shaded
 70
    27
177
     3
291
     0
 70
    58
 90
        2
176
     1
 90
        2
176
     1
 90
        1
176
     1
 90
        2
176
     1
 40
0.6
176
     1
 40
30.0
176
     1
 62
     7
420
 16777215
176
     1
 90
        0
176
     1
 90
        4
176
     1
 62
     7
176
     1
 62
   257
176
     1
 90
        1
176
     1
 90
        1
176
     1
 40
1.0
176
     1
 90
        8
176
     1
 62
   257
176
     1
 40
1.0
176
     1
 90
        1
176
     1
 90
        6
176
     1
 90
        2
176
     1
 62
     8
420
  7895160
176
     1
 90
        3
176
     1
 90
        0
176
     1
 90
        0
176
     1
290
     0
176
     1
 90
        5
176
     1
 40
0.0
176
     1
 90
        0
176
     1
290
     0
176
     1
290
     1
176
     1
290
     1
176
     1
290
     0
176
     1
290
     0
176
     1
290
     0
176
     1
290
     0
176
     1
290
     0
176
     1
290
     0
176
     1
 90
       50
176
     1
 40
0.0
176
     1
 40
1.0
176
     1
 90
        0
176
     1
 62
    18
420
        0
176
     1
 90
       50
176
     1
 90
        3
176
     1
 62
     5
420
      255
176
     1
290
     0
176
     1
 90
       50
176
     1
 90
       50
176
     1
 90
       50
176
     1
290
     0
176
     1
 90
       50
176
     1
 62
   256
176
     0
 40
1.0
176
     0
 90
        2
176
     1
  1
strokes_ogs.tif
176
     1
290
     0
176
     1
 40
1.0
176
     1
 40
1.0
176
     1
  0
VISUALSTYLE
  5
2BA
102
{ACAD_REACTORS
330
240
102
}
330
240
100
AcDbVisualStyle
  2
Shaded with edges
 70
    26
177
     3
291
     0
 70
    58
 90
        2
176
     1
 90
        2
176
     1
 90
        1
176
     1
 90
        2
176
     1
 40
0.6
176
     1
 40
30.0
176
     1
 62
     7
420
 16777215
176
     1
 90
        1
176
     1
 90
       10
176
     1
 62
     7
176
     1
 62
   257
176
     1
 90
        2
176
     1
 90
        1
176
     1
 40
1.0
176
     1
 90
        8
176
     1
 62
   257
176
     1
 40
1.0
176
     1
 90
        1
176
     1
 90
        6
176
     1
 90
        2
176
     1
 62
     7
176
     1
 90
        3
176
     1
 90
        0
176
     1
 90
        0
176
     1
290
     0
176
     1
 90
        5
176
     1
 40
0.0
176
     1
 90
        0
176
     1
290
     0
176
     1
290
     1
176
     1
290
     1
176
     1
290
     0
176
     1
290
     0
176
     1
290
     0
176
     1
290
     0
176
     1
290
     0
176
     1
290
     0
176
     1
 90
       50
176
     1
 40
0.0
176
     1
 40
1.0
176
     1
 90
        0
176
     1
 62
    18
420
        0
176
     1
 90
       50
176
     1
 90
        3
176
     1
 62
     5
420
      255
176
     1
290
     0
176
     1
 90
       50
176
     1
 90
       50
176
     1
 90
       50
176
     1
290
     0
176
     1
 90
       50
176
     1
 62
   256
176
     0
 40
1.0
176
     0
 90
        2
176
     1
  1
strokes_ogs.tif
176
     1
290
     0
176
     1
 40
1.0
176
     1
 40
1.0
176
     1
  0
VISUALSTYLE
  5
2B7
102
{ACAD_REACTORS
330
240
102
}
330
240
100
AcDbVisualStyle
  2
Shades of Gray
 70
    23
177
     3
291
     0
 70
    58
 90
        2
176
     1
 90
        2
176
     1
 90
        3
176
     1
 90
        0
176
     1
 40
0.6
176
     1
 40
30.0
176
     1
 62
     7
420
 16777215
176
     1
 90
        2
176
     1
 90
        2
176
     1
 62
     7
176
     1
 62
     7
176
     1
 90
        1
176
     1
 90
        1
176
     1
 40
40.0
176
     1
 90
        8
176
     1
 62
     7
176
     1
 40
1.0
176
     1
 90
        1
176
     1
 90
        6
176
     1
 90
        2
176
     1
 62
     7
176
     1
 90
        3
176
     1
 90
        0
176
     1
 90
        0
176
     1
290
     0
176
     1
 90
        1
176
     1
 40
0.0
176
     1
 90
        0
176
     1
290
     0
176
     1
290
     1
176
     1
290
     1
176
     1
290
     0
176
     1
290
     0
176
     1
290
     0
176
     1
290
     0
176
     1
290
     0
176
     1
290
     0
176
     1
 90
       50
176
     1
 40
0.0
176
     1
 40
1.0
176
     1
 90
        0
176
     1
 62
    18
420
        0
176
     1
 90
       50
176
     1
 90
        3
176
     1
 62
     5
420
      255
176
     1
290
     0
176
     1
 90
       50
176
     1
 90
       50
176
     1
 90
       50
176
     1
290
     0
176
     1
 90
       50
176
     1
 62
   256
176
     0
 40
1.0
176
     0
 90
        2
176
     1
  1
strokes_ogs.tif
176
     1
290
     0
176
     1
 40
1.0
176
     1
 40
1.0
176
     1
  0
VISUALSTYLE
  5
2B8
102
{ACAD_REACTORS
330
240
102
}
330
240
100
AcDbVisualStyle
  2
Sketchy
 70
    24
177
     3
291
     0
 70
    58
 90
        1
176
     1
 90
        2
176
     1
 90
        2
176
     1
 90
        0
176
     1
 40
0.6
176
     1
 40
30.0
176
     1
 62
     7
420
 16777215
176
     1
 90
        2
176
     1
 90
        2
176
     1
 62
     7
176
     1
 62
     7
176
     1
 90
        1
176
     1
 90
        1
176
     1
 40
40.0
176
     1
 90
       11
176
     1
 62
     7
176
     1
 40
1.0
176
     1
 90
        1
176
     1
 90
        6
176
     1
 90
        2
176
     1
 62
     7
176
     1
 90
        6
176
     1
 90
        0
176
     1
 90
        0
176
     1
290
     0
176
     1
 90
        1
176
     1
 40
0.0
176
     1
 90
        0
176
     1
290
     0
176
     1
290
     1
176
     1
290
     1
176
     1
290
     0
176
     1
290
     0
176
     1
290
     0
176
     1
290
     0
176
     1
290
     0
176
     1
290
     0
176
     1
 90
       50
176
     1
 40
0.0
176
     1
 40
1.0
176
     1
 90
        0
176
     1
 62
    18
420
        0
176
     1
 90
       50
176
     1
 90
        3
176
     1
 62
     5
420
      255
176
     1
290
     0
176
     1
 90
       50
176
     1
 90
       50
176
     1
 90
       50
176
     1
290
     0
176
     1
 90
       50
176
     1
 62
   256
176
     0
 40
1.0
176
     0
 90
        2
176
     1
  1
strokes_ogs.tif
176
     1
290
     0
176
     1
 40
1.0
176
     1
 40
1.0
176
     1
  0
VISUALSTYLE
  5
24D
102
{ACAD_REACTORS
330
240
102
}
330
240
100
AcDbVisualStyle
  2
Thicken
 70
    13
177
     3
291
     1
 70
    58
 90
        2
176
     1
 90
        2
176
     1
 90
        0
176
     1
 90
        0
176
     1
 40
-0.6
176
     1
 40
-30.0
176
     1
 62
     7
176
     1
 90
        1
176
     1
 90
        4
176
     1
 62
     7
176
     1
 62
   257
176
     1
 90
        1
176
     1
 90
        1
176
     1
 40
1.0
176
     1
 90
       12
176
     1
 62
     7
176
     1
 40
1.0
176
     1
 90
        1
176
     1
 90
        6
176
     1
 90
        2
176
     1
 62
     7
176
     1
 90
        5
176
     1
 90
        0
176
     1
 90
        0
176
     1
290
     0
176
     1
 90
        1
176
     1
 40
0.0
176
     1
 90
        0
176
     1
290
     0
176
     1
290
     1
176
     1
290
     1
176
     1
290
     0
176
     1
290
     0
176
     1
290
     0
176
     1
290
     0
176
     1
290
     0
176
     1
290
     0
176
     1
 90
       50
176
     1
 40
0.0
176
     1
 40
1.0
176
     1
 90
        0
176
     1
 62
    18
420
        0
176
     1
 90
       50
176
     1
 90
        3
176
     1
 62
     5
420
      255
176
     1
290
     0
176
     1
 90
       50
176
     1
 90
       50
176
     1
 90
       50
176
     1
290
     0
176
     1
 90
       50
176
     1
 62
   256
176
     0
 40
1.0
176
     0
 90
        2
176
     1
  1
strokes_ogs.tif
176
     1
290
     0
176
     1
 40
1.0
176
     1
 40
1.0
176
     1
  0
VISUALSTYLE
  5
2B2
102
{ACAD_REACTORS
330
240
102
}
330
240
100
AcDbVisualStyle
  2
Wireframe
 70
     5
177
     3
291
     0
 70
    58
 90
        0
176
     1
 90
        2
176
     1
 90
        0
176
     1
 90
        0
176
     1
 40
0.6
176
     1
 40
30.0
176
     1
 62
     7
420
 16777215
176
     1
 90
        1
176
     1
 90
        4
176
     1
 62
     7
176
     1
 62
   257
176
     1
 90
        1
176
     1
 90
        1
176
     1
 40
1.0
176
     1
 90
        0
176
     1
 62
   257
176
     1
 40
1.0
176
     1
 90
        1
176
     1
 90
        6
176
     1
 90
        2
176
     1
 62
     7
176
     1
 90
        3
176
     1
 90
        0
176
     1
 90
        0
176
     1
290
     0
176
     1
 90
        1
176
     1
 40
0.0
176
     1
 90
        0
176
     1
290
     0
176
     1
290
     1
176
     1
290
     1
176
     1
290
     0
176
     1
290
     0
176
     1
290
     0
176
     1
290
     0
176
     1
290
     0
176
     1
290
     0
176
     1
 90
       50
176
     1
 40
0.0
176
     1
 40
1.0
176
     1
 90
        0
176
     1
 62
    18
420
        0
176
     1
 90
       50
176
     1
 90
        3
176
     1
 62
     5
420
      255
176
     1
290
     0
176
     1
 90
       50
176
     1
 90
       50
176
     1
 90
       50
176
     1
290
     0
176
     1
 90
       50
176
     1
 62
   256
176
     0
 40
1.0
176
     0
 90
        2
176
     1
  1
strokes_ogs.tif
176
     1
290
     0
176
     1
 40
1.0
176
     1
 40
1.0
176
     1
  0
VISUALSTYLE
  5
2B9
102
{ACAD_REACTORS
330
240
102
}
330
240
100
AcDbVisualStyle
  2
X-Ray
 70
    25
177
     3
291
     0
 70
    58
 90
        2
176
     1
 90
        2
176
     1
 90
        1
176
     1
 90
        1
176
     1
 40
0.5
176
     1
 40
30.0
176
     1
 62
     7
420
 16777215
176
     1
 90
        1
176
     1
 90
        0
176
     1
 62
     7
176
     1
 62
   257
176
     1
 90
        1
176
     1
 90
        1
176
     1
 40
1.0
176
     1
 90
        8
176
     1
 62
     7
176
     1
 40
1.0
176
     1
 90
        1
176
     1
 90
        6
176
     1
 90
        2
176
     1
 62
     7
176
     1
 90
        3
176
     1
 90
        0
176
     1
 90
        0
176
     1
290
     0
176
     1
 90
       13
176
     1
 40
0.0
176
     1
 90
        0
176
     1
290
     0
176
     1
290
     1
176
     1
290
     1
176
     1
290
     0
176
     1
290
     0
176
     1
290
     0
176
     1
290
     0
176
     1
290
     0
176
     1
290
     0
176
     1
 90
       50
176
     1
 40
0.0
176
     1
 40
1.0
176
     1
 90
        0
176
     1
 62
    18
420
        0
176
     1
 90
       50
176
     1
 90
        3
176
     1
 62
     5
420
      255
176
     1
290
     0
176
     1
 90
       50
176
     1
 90
       50
176
     1
 90
       50
176
     1
290
     0
176
     1
 90
       50
176
     1
 62
   256
176
     0
 40
1.0
176
     0
 90
        2
176
     1
  1
strokes_ogs.tif
176
     1
290
     0
176
     1
 40
1.0
176
     1
 40
1.0
176
     1
  0
DICTIONARYVAR
  5
2E3
102
{ACAD_REACTORS
330
26B
102
}
330
26B
100
DictionaryVariables
280
     0
  1
1:1
  0
DICTIONARYVAR
  5
2E5
102
{ACAD_REACTORS
330
26B
102
}
330
26B
100
DictionaryVariables
280
     0
  1
Standard
  0
DICTIONARYVAR
  5
2E4
102
{ACAD_REACTORS
330
26B
102
}
330
26B
100
DictionaryVariables
280
     0
  1
Standard
  0
DICTIONARYVAR
  5
26F
102
{ACAD_REACTORS
330
26B
102
}
330
26B
100
DictionaryVariables
280
     0
  1
2
  0
DICTIONARYVAR
  5
270
102
{ACAD_REACTORS
330
26B
102
}
330
26B
100
DictionaryVariables
280
     0
  1
1
  0
DICTIONARYVAR
  5
26E
102
{ACAD_REACTORS
330
26B
102
}
330
26B
100
DictionaryVariables
280
     0
  1
0
  0
DICTIONARY
  5
354
330
2BD
100
AcDbDictionary
280
     1
281
     1
  3
ACAD_ROUNDTRIP_2008_TABLESTYLE_CELLSTYLEMAP
360
355
  0
CELLSTYLEMAP
  5
355
102
{ACAD_REACTORS
330
354
102
}
330
354
100
AcDbCellStyleMap
 90
        3
300
CELLSTYLE
  1
TABLEFORMAT_BEGIN
 90
        5
170
     1
 91
        0
 92
    32768
 62
   257
 93
        1
300
CONTENTFORMAT
  1
CONTENTFORMAT_BEGIN
 90
        0
 91
        0
 92
        4
 93
        0
300

 40
0.0
140
1.0
 94
        5
 62
     0
340
11
144
6.0
309
CONTENTFORMAT_END
171
     1
301
MARGIN
  1
CELLMARGIN_BEGIN
 40
1.5
 40
1.5
 40
1.5
 40
1.5
 40
1.5
 40
1.5
309
CELLMARGIN_END
 94
        6
 95
        1
302
GRIDFORMAT
  1
GRIDFORMAT_BEGIN
 90
        0
 91
        1
 62
     0
 92
       -2
340
14
 93
        0
 40
0.045
309
GRIDFORMAT_END
 95
        2
302
GRIDFORMAT
  1
GRIDFORMAT_BEGIN
 90
        0
 91
        1
 62
     0
 92
       -2
340
14
 93
        0
 40
0.045
309
GRIDFORMAT_END
 95
        4
302
GRIDFORMAT
  1
GRIDFORMAT_BEGIN
 90
        0
 91
        1
 62
     0
 92
       -2
340
14
 93
        0
 40
0.045
309
GRIDFORMAT_END
 95
        8
302
GRIDFORMAT
  1
GRIDFORMAT_BEGIN
 90
        0
 91
        1
 62
     0
 92
       -2
340
14
 93
        0
 40
0.045
309
GRIDFORMAT_END
 95
       16
302
GRIDFORMAT
  1
GRIDFORMAT_BEGIN
 90
        0
 91
        1
 62
     0
 92
       -2
340
14
 93
        0
 40
0.045
309
GRIDFORMAT_END
 95
       32
302
GRIDFORMAT
  1
GRIDFORMAT_BEGIN
 90
        0
 91
        1
 62
     0
 92
       -2
340
14
 93
        0
 40
0.045
309
GRIDFORMAT_END
309
TABLEFORMAT_END
  1
CELLSTYLE_BEGIN
 90
        1
 91
        1
300
_TITLE
309
CELLSTYLE_END
300
CELLSTYLE
  1
TABLEFORMAT_BEGIN
 90
        5
170
     1
 91
        0
 92
        0
 62
   257
 93
        1
300
CONTENTFORMAT
  1
CONTENTFORMAT_BEGIN
 90
        0
 91
        0
 92
        4
 93
        0
300

 40
0.0
140
1.0
 94
        5
 62
     0
340
11
144
4.5
309
CONTENTFORMAT_END
171
     1
301
MARGIN
  1
CELLMARGIN_BEGIN
 40
1.5
 40
1.5
 40
1.5
 40
1.5
 40
1.5
 40
1.5
309
CELLMARGIN_END
 94
        6
 95
        1
302
GRIDFORMAT
  1
GRIDFORMAT_BEGIN
 90
        0
 91
        1
 62
     0
 92
       -2
340
14
 93
        0
 40
0.045
309
GRIDFORMAT_END
 95
        2
302
GRIDFORMAT
  1
GRIDFORMAT_BEGIN
 90
        0
 91
        1
 62
     0
 92
       -2
340
14
 93
        0
 40
0.045
309
GRIDFORMAT_END
 95
        4
302
GRIDFORMAT
  1
GRIDFORMAT_BEGIN
 90
        0
 91
        1
 62
     0
 92
       -2
340
14
 93
        0
 40
0.045
309
GRIDFORMAT_END
 95
        8
302
GRIDFORMAT
  1
GRIDFORMAT_BEGIN
 90
        0
 91
        1
 62
     0
 92
       -2
340
14
 93
        0
 40
0.045
309
GRIDFORMAT_END
 95
       16
302
GRIDFORMAT
  1
GRIDFORMAT_BEGIN
 90
        0
 91
        1
 62
     0
 92
       -2
340
14
 93
        0
 40
0.045
309
GRIDFORMAT_END
 95
       32
302
GRIDFORMAT
  1
GRIDFORMAT_BEGIN
 90
        0
 91
        1
 62
     0
 92
       -2
340
14
 93
        0
 40
0.045
309
GRIDFORMAT_END
309
TABLEFORMAT_END
  1
CELLSTYLE_BEGIN
 90
        2
 91
        1
300
_HEADER
309
CELLSTYLE_END
300
CELLSTYLE
  1
TABLEFORMAT_BEGIN
 90
        5
170
     1
 91
        0
 92
        0
 62
   257
 93
        1
300
CONTENTFORMAT
  1
CONTENTFORMAT_BEGIN
 90
        0
 91
        0
 92
        4
 93
        0
300

 40
0.0
140
1.0
 94
        2
 62
     0
340
11
144
4.5
309
CONTENTFORMAT_END
171
     1
301
MARGIN
  1
CELLMARGIN_BEGIN
 40
1.5
 40
1.5
 40
1.5
 40
1.5
 40
1.5
 40
1.5
309
CELLMARGIN_END
 94
        6
 95
        1
302
GRIDFORMAT
  1
GRIDFORMAT_BEGIN
 90
        0
 91
        1
 62
     0
 92
       -2
340
14
 93
        0
 40
0.045
309
GRIDFORMAT_END
 95
        2
302
GRIDFORMAT
  1
GRIDFORMAT_BEGIN
 90
        0
 91
        1
 62
     0
 92
       -2
340
14
 93
        0
 40
0.045
309
GRIDFORMAT_END
 95
        4
302
GRIDFORMAT
  1
GRIDFORMAT_BEGIN
 90
        0
 91
        1
 62
     0
 92
       -2
340
14
 93
        0
 40
0.045
309
GRIDFORMAT_END
 95
        8
302
GRIDFORMAT
  1
GRIDFORMAT_BEGIN
 90
        0
 91
        1
 62
     0
 92
       -2
340
14
 93
        0
 40
0.045
309
GRIDFORMAT_END
 95
       16
302
GRIDFORMAT
  1
GRIDFORMAT_BEGIN
 90
        0
 91
        1
 62
     0
 92
       -2
340
14
 93
        0
 40
0.045
309
GRIDFORMAT_END
 95
       32
302
GRIDFORMAT
  1
GRIDFORMAT_BEGIN
 90
        0
 91
        1
 62
     0
 92
       -2
340
14
 93
        0
 40
0.045
309
GRIDFORMAT_END
309
TABLEFORMAT_END
  1
CELLSTYLE_BEGIN
 90
        3
 91
        2
300
_DATA
309
CELLSTYLE_END
  0
ENDSEC
  0
EOF
