  0
SECTION
  2
HEADER
  9
$ACADVER
  1
AC1027
  9
$ACADMAINTVER
 70
   105
  9
$DWGCODEPAGE
  3
ANSI_1252
  9
$REQUIREDVERSIONS
160
                 0
  9
$LASTSAVEDBY
  1
matthias.ochs
  9
$INSBASE
 10
0.0
 20
0.0
 30
0.0
  9
$EXTMIN
 10
-93.52505124340456
 20
-71.5183546704356
 30
0.0
  9
$EXTMAX
 10
110.9139731468393
 20
64.10359654907657
 30
0.0
  9
$LIMMIN
 10
0.0
 20
0.0
  9
$LIMMAX
 10
210.0
 20
297.0
  9
$ORTHOMODE
 70
     0
  9
$REGENMODE
 70
     1
  9
$FILLMODE
 70
     1
  9
$QTEXTMODE
 70
     0
  9
$MIRRTEXT
 70
     1
  9
$LTSCALE
 40
1.0
  9
$ATTMODE
 70
     1
  9
$TEXTSIZE
 40
3.5
  9
$TRACEWID
 40
1.0
  9
$TEXTSTYLE
  7
STANDARD
  9
$CLAYER
  8
0
  9
$CELTYPE
  6
BYLAYER
  9
$CECOLOR
 62
   256
  9
$CELTSCALE
 40
1.0
  9
$DISPSILH
 70
     0
  9
$DIMSCALE
 40
1.0
  9
$DIMASZ
 40
3.5
  9
$DIMEXO
 40
0.0
  9
$DIMDLI
 40
3.75
  9
$DIMRND
 40
0.0
  9
$DIMDLE
 40
0.0
  9
$DIMEXE
 40
1.0
  9
$DIMTP
 40
0.0
  9
$DIMTM
 40
0.0
  9
$DIMTXT
 40
3.5
  9
$DIMCEN
 40
2.5
  9
$DIMTSZ
 40
0.0
  9
$DIMTOL
 70
     0
  9
$DIMLIM
 70
     0
  9
$DIMTIH
 70
     1
  9
$DIMTOH
 70
     1
  9
$DIMSE1
 70
     0
  9
$DIMSE2
 70
     0
  9
$DIMTAD
 70
     1
  9
$DIMZIN
 70
     0
  9
$DIMBLK
  1

  9
$DIMASO
 70
     1
  9
$DIMSHO
 70
     1
  9
$DIMPOST
  1

  9
$DIMAPOST
  1

  9
$DIMALT
 70
     0
  9
$DIMALTD
 70
     3
  9
$DIMALTF
 40
0.0393700787
  9
$DIMLFAC
 40
1.0
  9
$DIMTOFL
 70
     1
  9
$DIMTVP
 40
0.0
  9
$DIMTIX
 70
     0
  9
$DIMSOXD
 70
     0
  9
$DIMSAH
 70
     0
  9
$DIMBLK1
  1

  9
$DIMBLK2
  1

  9
$DIMSTYLE
  2
ISO-25
  9
$DIMCLRD
 70
     0
  9
$DIMCLRE
 70
     0
  9
$DIMCLRT
 70
     0
  9
$DIMTFAC
 40
1.0
  9
$DIMGAP
 40
1.5
  9
$DIMJUST
 70
     0
  9
$DIMSD1
 70
     0
  9
$DIMSD2
 70
     0
  9
$DIMTOLJ
 70
     0
  9
$DIMTZIN
 70
     0
  9
$DIMALTZ
 70
     0
  9
$DIMALTTZ
 70
     0
  9
$DIMUPT
 70
     0
  9
$DIMDEC
 70
     2
  9
$DIMTDEC
 70
     3
  9
$DIMALTU
 70
     2
  9
$DIMALTTD
 70
     3
  9
$DIMTXSTY
  7
STANDARD
  9
$DIMAUNIT
 70
     0
  9
$DIMADEC
 70
     0
  9
$DIMALTRND
 40
0.0
  9
$DIMAZIN
 70
     0
  9
$DIMDSEP
 70
    46
  9
$DIMATFIT
 70
     3
  9
$DIMFRAC
 70
     0
  9
$DIMLDRBLK
  1

  9
$DIMLUNIT
 70
     2
  9
$DIMLWD
 70
    -2
  9
$DIMLWE
 70
    -2
  9
$DIMTMOVE
 70
     2
  9
$DIMFXL
 40
1.0
  9
$DIMFXLON
 70
     0
  9
$DIMJOGANG
 40
0.7853981633974483
  9
$DIMTFILL
 70
     0
  9
$DIMTFILLCLR
 70
     0
  9
$DIMARCSYM
 70
     0
  9
$DIMLTYPE
  6

  9
$DIMLTEX1
  6

  9
$DIMLTEX2
  6

  9
$DIMTXTDIRECTION
 70
     0
  9
$LUNITS
 70
     2
  9
$LUPREC
 70
     2
  9
$SKETCHINC
 40
1.0
  9
$FILLETRAD
 40
10.0
  9
$AUNITS
 70
     0
  9
$AUPREC
 70
     2
  9
$MENU
  1
.
  9
$ELEVATION
 40
0.0
  9
$PELEVATION
 40
0.0
  9
$THICKNESS
 40
0.0
  9
$LIMCHECK
 70
     0
  9
$CHAMFERA
 40
0.0
  9
$CHAMFERB
 40
0.0
  9
$CHAMFERC
 40
0.0
  9
$CHAMFERD
 40
0.0
  9
$SKPOLY
 70
     0
  9
$TDCREATE
 40
2456800.416405533
  9
$TDUCREATE
 40
2456800.374738866
  9
$TDUPDATE
 40
2458506.703458345
  9
$TDUUPDATE
 40
2458506.661791678
  9
$TDINDWG
 40
0.0037223727
  9
$TDUSRTIMER
 40
0.0055637616
  9
$USRTIMER
 70
     1
  9
$ANGBASE
 50
0.0
  9
$ANGDIR
 70
     0
  9
$PDMODE
 70
     0
  9
$PDSIZE
 40
-1.0
  9
$PLINEWID
 40
0.0
  9
$SPLFRAME
 70
     0
  9
$SPLINETYPE
 70
     6
  9
$SPLINESEGS
 70
     8
  9
$HANDSEED
  5
352
  9
$SURFTAB1
 70
     6
  9
$SURFTAB2
 70
     6
  9
$SURFTYPE
 70
     6
  9
$SURFU
 70
     6
  9
$SURFV
 70
     6
  9
$UCSBASE
  2

  9
$UCSNAME
  2

  9
$UCSORG
 10
0.0
 20
0.0
 30
0.0
  9
$UCSXDIR
 10
1.0
 20
0.0
 30
0.0
  9
$UCSYDIR
 10
0.0
 20
1.0
 30
0.0
  9
$UCSORTHOREF
  2

  9
$UCSORTHOVIEW
 70
     0
  9
$UCSORGTOP
 10
0.0
 20
0.0
 30
0.0
  9
$UCSORGBOTTOM
 10
0.0
 20
0.0
 30
0.0
  9
$UCSORGLEFT
 10
0.0
 20
0.0
 30
0.0
  9
$UCSORGRIGHT
 10
0.0
 20
0.0
 30
0.0
  9
$UCSORGFRONT
 10
0.0
 20
0.0
 30
0.0
  9
$UCSORGBACK
 10
0.0
 20
0.0
 30
0.0
  9
$PUCSBASE
  2

  9
$PUCSNAME
  2

  9
$PUCSORG
 10
0.0
 20
0.0
 30
0.0
  9
$PUCSXDIR
 10
1.0
 20
0.0
 30
0.0
  9
$PUCSYDIR
 10
0.0
 20
1.0
 30
0.0
  9
$PUCSORTHOREF
  2

  9
$PUCSORTHOVIEW
 70
     0
  9
$PUCSORGTOP
 10
0.0
 20
0.0
 30
0.0
  9
$PUCSORGBOTTOM
 10
0.0
 20
0.0
 30
0.0
  9
$PUCSORGLEFT
 10
0.0
 20
0.0
 30
0.0
  9
$PUCSORGRIGHT
 10
0.0
 20
0.0
 30
0.0
  9
$PUCSORGFRONT
 10
0.0
 20
0.0
 30
0.0
  9
$PUCSORGBACK
 10
0.0
 20
0.0
 30
0.0
  9
$USERI1
 70
     0
  9
$USERI2
 70
     0
  9
$USERI3
 70
     0
  9
$USERI4
 70
     0
  9
$USERI5
 70
     0
  9
$USERR1
 40
0.0
  9
$USERR2
 40
0.0
  9
$USERR3
 40
0.0
  9
$USERR4
 40
0.0
  9
$USERR5
 40
0.0
  9
$WORLDVIEW
 70
     1
  9
$SHADEDGE
 70
     3
  9
$SHADEDIF
 70
    70
  9
$TILEMODE
 70
     1
  9
$MAXACTVP
 70
    64
  9
$PINSBASE
 10
0.0
 20
0.0
 30
0.0
  9
$PLIMCHECK
 70
     0
  9
$PEXTMIN
 10
1.000000000000000E+20
 20
1.000000000000000E+20
 30
1.000000000000000E+20
  9
$PEXTMAX
 10
-1.000000000000000E+20
 20
-1.000000000000000E+20
 30
-1.000000000000000E+20
  9
$PLIMMIN
 10
0.0
 20
0.0
  9
$PLIMMAX
 10
0.0
 20
0.0
  9
$UNITMODE
 70
     0
  9
$VISRETAIN
 70
     1
  9
$PLINEGEN
 70
     0
  9
$PSLTSCALE
 70
     1
  9
$TREEDEPTH
 70
  3020
  9
$CMLSTYLE
  2
STANDARD
  9
$CMLJUST
 70
     0
  9
$CMLSCALE
 40
20.0
  9
$PROXYGRAPHICS
 70
     1
  9
$MEASUREMENT
 70
     1
  9
$CELWEIGHT
370
    -1
  9
$ENDCAPS
280
     0
  9
$JOINSTYLE
280
     0
  9
$LWDISPLAY
290
     0
  9
$INSUNITS
 70
     0
  9
$HYPERLINKBASE
  1

  9
$STYLESHEET
  1

  9
$XEDIT
290
     1
  9
$CEPSNTYPE
380
     0
  9
$PSTYLEMODE
290
     1
  9
$FINGERPRINTGUID
  2
{5B6E3732-4A4A-4EF6-9B60-01C8773F34B2}
  9
$VERSIONGUID
  2
{FAEB1C32-E019-11D5-929B-00C0DF256EC4}
  9
$EXTNAMES
290
     1
  9
$PSVPSCALE
 40
0.0
  9
$OLESTARTUP
290
     0
  9
$SORTENTS
280
   127
  9
$INDEXCTL
280
     0
  9
$HIDETEXT
280
     1
  9
$XCLIPFRAME
280
     2
  9
$HALOGAP
280
     0
  9
$OBSCOLOR
 70
   257
  9
$OBSLTYPE
280
     0
  9
$INTERSECTIONDISPLAY
280
     0
  9
$INTERSECTIONCOLOR
 70
   257
  9
$DIMASSOC
280
     2
  9
$PROJECTNAME
  1

  9
$CAMERADISPLAY
290
     0
  9
$LENSLENGTH
 40
50.0
  9
$CAMERAHEIGHT
 40
0.0
  9
$STEPSPERSEC
 40
2.0
  9
$STEPSIZE
 40
6.0
  9
$3DDWFPREC
 40
2.0
  9
$PSOLWIDTH
 40
0.25
  9
$PSOLHEIGHT
 40
4.0
  9
$LOFTANG1
 40
1.570796326794897
  9
$LOFTANG2
 40
1.570796326794897
  9
$LOFTMAG1
 40
0.0
  9
$LOFTMAG2
 40
0.0
  9
$LOFTPARAM
 70
     7
  9
$LOFTNORMALS
280
     1
  9
$LATITUDE
 40
37.795
  9
$LONGITUDE
 40
-122.394
  9
$NORTHDIRECTION
 40
0.0
  9
$TIMEZONE
 70
 -8000
  9
$LIGHTGLYPHDISPLAY
280
     1
  9
$TILEMODELIGHTSYNCH
280
     1
  9
$SOLIDHIST
280
     0
  9
$SHOWHIST
280
     1
  9
$DWFFRAME
280
     2
  9
$DGNFRAME
280
     2
  9
$REALWORLDSCALE
290
     1
  9
$INTERFERECOLOR
 62
   256
  9
$CSHADOW
280
     0
  9
$SHADOWPLANELOCATION
 40
0.0
  0
ENDSEC
  0
SECTION
  2
CLASSES
  0
CLASS
  1
ACDBDICTIONARYWDFLT
  2
AcDbDictionaryWithDefault
  3
ObjectDBX Classes
 90
        0
 91
        5
280
     0
281
     0
  0
CLASS
  1
VISUALSTYLE
  2
AcDbVisualStyle
  3
ObjectDBX Classes
 90
     4095
 91
        5
280
     0
281
     0
  0
CLASS
  1
MATERIAL
  2
AcDbMaterial
  3
ObjectDBX Classes
 90
     1153
 91
        5
280
     0
281
     0
  0
CLASS
  1
SCALE
  2
AcDbScale
  3
ObjectDBX Classes
 90
     1153
 91
        5
280
     0
281
     0
  0
CLASS
  1
SUN
  2
AcDbSun
  3
SCENEOE
 90
     1153
 91
        5
280
     0
281
     0
  0
CLASS
  1
XRECORD
  2
AcDbXrecord
  3
ObjectDBX Classes
 90
        0
 91
        1
280
     0
281
     0
  0
CLASS
  1
LWPOLYLINE
  2
AcDbPolyline
  3
ObjectDBX Classes
 90
        0
 91
        1
280
     0
281
     1
  0
CLASS
  1
HATCH
  2
AcDbHatch
  3
ObjectDBX Classes
 90
        0
 91
        1
280
     0
281
     1
  0
CLASS
  1
DICTIONARYVAR
  2
AcDbDictionaryVar
  3
ObjectDBX Classes
 90
        0
 91
        5
280
     0
281
     0
  0
CLASS
  1
ACDBPLACEHOLDER
  2
AcDbPlaceHolder
  3
ObjectDBX Classes
 90
        0
 91
        1
280
     0
281
     0
  0
CLASS
  1
LAYOUT
  2
AcDbLayout
  3
ObjectDBX Classes
 90
        0
 91
        1
280
     0
281
     0
  0
CLASS
  1
TABLESTYLE
  2
AcDbTableStyle
  3
ObjectDBX Classes
 90
     4095
 91
        5
280
     0
281
     0
  0
CLASS
  1
MLEADERSTYLE
  2
AcDbMLeaderStyle
  3
ACDB_MLEADERSTYLE_CLASS
 90
     4095
 91
        5
280
     0
281
     0
  0
CLASS
  1
CELLSTYLEMAP
  2
AcDbCellStyleMap
  3
ObjectDBX Classes
 90
     1152
 91
        5
280
     0
281
     0
  0
ENDSEC
  0
SECTION
  2
TABLES
  0
TABLE
  2
VPORT
  5
8
330
0
100
AcDbSymbolTable
 70
     1
  0
VPORT
  5
29
330
8
100
AcDbSymbolTableRecord
100
AcDbViewportTableRecord
  2
*ACTIVE
 70
     0
 10
0.0
 20
0.0
 11
1.0
 21
1.0
 12
48.87258479075005
 22
-24.1446721715326
 13
0.0
 23
0.0
 14
10.0
 24
10.0
 15
10.0
 25
10.0
 16
0.0
 26
0.0
 36
1.0
 17
0.0
 27
0.0
 37
0.0
 40
164.4652248839475
 41
1.941903584672435
 42
50.0
 43
0.0
 44
0.0
 50
0.0
 51
0.0
 71
    16
 72
  2000
 73
     1
 74
     3
 75
     0
 76
     0
 77
     0
 78
     0
281
     0
 65
     1
110
0.0
120
0.0
130
0.0
111
1.0
121
0.0
131
0.0
112
0.0
122
1.0
132
0.0
 79
     0
146
0.0
348
241
 60
     3
 61
     5
292
     1
282
     1
141
0.0
142
0.0
 63
   256
361
2F9
  0
ENDTAB
  0
TABLE
  2
LTYPE
  5
5
330
0
100
AcDbSymbolTable
 70
     9
  0
LTYPE
  5
14
330
5
100
AcDbSymbolTableRecord
100
AcDbLinetypeTableRecord
  2
BYBLOCK
 70
     0
  3

 72
    65
 73
     0
 40
0.0
  0
LTYPE
  5
15
330
5
100
AcDbSymbolTableRecord
100
AcDbLinetypeTableRecord
  2
BYLAYER
 70
     0
  3

 72
    65
 73
     0
 40
0.0
  0
LTYPE
  5
16
330
5
100
AcDbSymbolTableRecord
100
AcDbLinetypeTableRecord
  2
CONTINUOUS
 70
     0
  3
Solid line
 72
    65
 73
     0
 40
0.0
  0
LTYPE
  5
6A
330
5
100
AcDbSymbolTableRecord
100
AcDbLinetypeTableRecord
  2
HIDDEN
 70
     0
  3
Hidden __ __ __ __ __ __ __ __ __ __ __ __ __ __
 72
    65
 73
     2
 40
1.905
 49
1.27
 74
     0
 49
-0.635
 74
     0
  0
LTYPE
  5
6B
330
5
100
AcDbSymbolTableRecord
100
AcDbLinetypeTableRecord
  2
PHANTOM
 70
     0
  3
Phantom ______  __  __  ______  __  __  ______
 72
    65
 73
     6
 40
12.7
 49
6.35
 74
     0
 49
-1.27
 74
     0
 49
1.27
 74
     0
 49
-1.27
 74
     0
 49
1.27
 74
     0
 49
-1.27
 74
     0
  0
LTYPE
  5
6C
330
5
100
AcDbSymbolTableRecord
100
AcDbLinetypeTableRecord
  2
CENTER
 70
     0
  3
Center ____ _ ____ _ ____ _ ____ _ ____ _ ____
 72
    65
 73
     4
 40
10.16
 49
6.35
 74
     0
 49
-1.27
 74
     0
 49
1.27
 74
     0
 49
-1.27
 74
     0
  0
LTYPE
  5
6D
330
5
100
AcDbSymbolTableRecord
100
AcDbLinetypeTableRecord
  2
CENTERX2
 70
     0
  3
Center (2x) ________  __  ________  __  _____
 72
    65
 73
     4
 40
20.32
 49
12.7
 74
     0
 49
-2.54
 74
     0
 49
2.54
 74
     0
 49
-2.54
 74
     0
  0
LTYPE
  5
6E
330
5
100
AcDbSymbolTableRecord
100
AcDbLinetypeTableRecord
  2
DOT2
 70
     0
  3
Dot (.5x) ........................................
 72
    65
 73
     2
 40
0.635
 49
0.0
 74
     0
 49
-0.635
 74
     0
  0
LTYPE
  5
29B
330
5
100
AcDbSymbolTableRecord
100
AcDbLinetypeTableRecord
  2
DASH
 70
     0
  3
DASH _ _ _ _ _
 72
    65
 73
     2
 40
0.75
 49
0.4
 74
     0
 49
-0.35
 74
     0
  0
LTYPE
  5
29C
330
5
100
AcDbSymbolTableRecord
100
AcDbLinetypeTableRecord
  2
LONGDASH_DASH
 70
     0
  3
LONGDASH_DASH __ . __ . __
 72
    65
 73
     4
 40
0.85
 49
0.4
 74
     0
 49
-0.2
 74
     0
 49
0.05
 74
     0
 49
-0.2
 74
     0
  0
LTYPE
  5
29D
330
5
100
AcDbSymbolTableRecord
100
AcDbLinetypeTableRecord
  2
LONGDASH_DASH_DASH
 70
     0
  3
LONGDASH_DASH_DASH __ . . __ . . __
 72
    65
 73
     6
 40
1.1
 49
0.4
 74
     0
 49
-0.2
 74
     0
 49
0.05
 74
     0
 49
-0.2
 74
     0
 49
0.05
 74
     0
 49
-0.2
 74
     0
  0
ENDTAB
  0
TABLE
  2
LAYER
  5
2
102
{ACAD_XDICTIONARY
360
2BD
102
}
330
0
100
AcDbSymbolTable
 70
    16
  0
LAYER
  5
252
330
2
100
AcDbSymbolTableRecord
100
AcDbLayerTableRecord
  2
200
 70
     0
 62
    -2
  6
CONTINUOUS
370
    50
390
2AE
347
250
348
0
  0
LAYER
  5
255
330
2
100
AcDbSymbolTableRecord
100
AcDbLayerTableRecord
  2
Defpoints
 70
     0
 62
     7
  6
CONTINUOUS
290
     0
370
    -3
390
2AE
347
250
348
0
  0
LAYER
  5
29E
330
2
100
AcDbSymbolTableRecord
100
AcDbLayerTableRecord
  2
0
 70
     0
 62
    -1
  6
CONTINUOUS
370
    -3
390
2AE
347
250
348
0
  0
LAYER
  5
29F
330
2
100
AcDbSymbolTableRecord
100
AcDbLayerTableRecord
  2
1
 70
     0
 62
     4
  6
CONTINUOUS
370
    50
390
2AE
347
250
348
0
  0
LAYER
  5
2A0
330
2
100
AcDbSymbolTableRecord
100
AcDbLayerTableRecord
  2
2
 70
     0
 62
     7
  6
CONTINUOUS
370
    25
390
2AE
347
250
348
0
  0
LAYER
  5
2A1
330
2
100
AcDbSymbolTableRecord
100
AcDbLayerTableRecord
  2
3
 70
     0
 62
     1
  6
DASH
370
    35
390
2AE
347
250
348
0
  0
LAYER
  5
2A2
330
2
100
AcDbSymbolTableRecord
100
AcDbLayerTableRecord
  2
4
 70
     0
 62
     2
  6
LONGDASH_DASH
370
    25
390
2AE
347
250
348
0
  0
LAYER
  5
2A3
330
2
100
AcDbSymbolTableRecord
100
AcDbLayerTableRecord
  2
6
 70
     0
 62
    -5
  6
CONTINUOUS
370
    -3
390
2AE
347
250
348
0
  0
LAYER
  5
2A4
330
2
100
AcDbSymbolTableRecord
100
AcDbLayerTableRecord
  2
CUT
 70
     0
 62
     1
  6
CONTINUOUS
370
    25
390
2AE
347
250
348
0
  0
LAYER
  5
2A5
330
2
100
AcDbSymbolTableRecord
100
AcDbLayerTableRecord
  2
NOCUT
 70
     0
 62
     7
  6
CONTINUOUS
370
    25
390
2AE
347
250
348
0
  0
LAYER
  5
2A6
330
2
100
AcDbSymbolTableRecord
100
AcDbLayerTableRecord
  2
SK1
 70
     0
 62
     4
  6
CONTINUOUS
370
    50
390
2AE
347
250
348
0
  0
LAYER
  5
2A7
330
2
100
AcDbSymbolTableRecord
100
AcDbLayerTableRecord
  2
SK2
 70
     0
 62
     7
  6
CONTINUOUS
370
    25
390
2AE
347
250
348
0
  0
LAYER
  5
2A8
330
2
100
AcDbSymbolTableRecord
100
AcDbLayerTableRecord
  2
SK3
 70
     0
 62
     1
  6
DASH
370
    35
390
2AE
347
250
348
0
  0
LAYER
  5
2A9
330
2
100
AcDbSymbolTableRecord
100
AcDbLayerTableRecord
  2
SK4
 70
     0
 62
     2
  6
LONGDASH_DASH
370
    25
390
2AE
347
250
348
0
  0
LAYER
  5
2AA
330
2
100
AcDbSymbolTableRecord
100
AcDbLayerTableRecord
  2
SK6
 70
     0
 62
     5
  6
CONTINUOUS
370
    -3
390
2AE
347
250
348
0
  0
LAYER
  5
2AB
330
2
100
AcDbSymbolTableRecord
100
AcDbLayerTableRecord
  2
INFTOTAL
 70
     0
 62
     9
  6
CONTINUOUS
370
    18
390
2AE
347
250
348
0
  0
ENDTAB
  0
TABLE
  2
STYLE
  5
3
330
0
100
AcDbSymbolTable
 70
     3
  0
STYLE
  5
11
330
3
100
AcDbSymbolTableRecord
100
AcDbTextStyleTableRecord
  2
STANDARD
 70
     0
 40
0.0
 41
1.0
 50
0.0
 71
     0
 42
3.5
  3
txt
  4

  0
STYLE
  5
1D4
330
3
100
AcDbSymbolTableRecord
100
AcDbTextStyleTableRecord
  2
SLDTEXTSTYLE0
 70
     0
 40
0.0
 41
0.605
 50
0.0
 71
     0
 42
3.5
  3
TXT
  4

  0
STYLE
  5
251
330
3
100
AcDbSymbolTableRecord
100
AcDbTextStyleTableRecord
  2
BMG_Text
 70
     0
 40
3.5
 41
1.0
 50
0.0
 71
     0
 42
3.5
  3
monos.ttf
  4

1001
ACAD
1000
Monospac821 BT
1071
       49
  0
ENDTAB
  0
TABLE
  2
VIEW
  5
6
330
0
100
AcDbSymbolTable
 70
     0
  0
ENDTAB
  0
TABLE
  2
UCS
  5
7
330
0
100
AcDbSymbolTable
 70
     0
  0
ENDTAB
  0
TABLE
  2
APPID
  5
9
330
0
100
AcDbSymbolTable
 70
     4
  0
APPID
  5
12
330
9
100
AcDbSymbolTableRecord
100
AcDbRegAppTableRecord
  2
ACAD
 70
     0
  0
APPID
  5
26E
330
9
100
AcDbSymbolTableRecord
100
AcDbRegAppTableRecord
  2
ACAD_DSTYLE_DIM_LINETYPE
 70
     0
  0
APPID
  5
26F
330
9
100
AcDbSymbolTableRecord
100
AcDbRegAppTableRecord
  2
ACAD_DSTYLE_DIM_EXT1_LINETYPE
 70
     0
  0
APPID
  5
270
330
9
100
AcDbSymbolTableRecord
100
AcDbRegAppTableRecord
  2
ACAD_DSTYLE_DIM_EXT2_LINETYPE
 70
     0
  0
ENDTAB
  0
TABLE
  2
DIMSTYLE
  5
A
330
0
100
AcDbSymbolTable
 70
     3
100
AcDbDimStyleTable
  0
DIMSTYLE
105
27
330
A
100
AcDbSymbolTableRecord
100
AcDbDimStyleTableRecord
  2
ISO-25
 70
     0
 41
2.5
 42
0.625
 43
3.75
 44
1.25
 73
     0
 74
     0
 77
     1
 78
     8
140
2.5
141
2.5
143
0.0393700787
147
0.625
171
     3
172
     1
178
     0
271
     2
272
     2
274
     3
283
     0
284
     8
340
11
  0
DIMSTYLE
105
1D5
102
{ACAD_REACTORS
330
1D3
330
1E0
330
1EB
330
1F6
330
201
102
}
330
A
100
AcDbSymbolTableRecord
100
AcDbDimStyleTableRecord
  2
SLDDIMSTYLE0
 70
     0
 41
3.5
 44
0.0
 45
0.000000001
 73
     0
 74
     0
 77
     1
 78
    12
140
3.5
147
0.875
173
     1
178
     0
271
     2
272
     3
284
    12
340
1D4
  0
DIMSTYLE
105
20C
102
{ACAD_REACTORS
330
20B
102
}
330
A
100
AcDbSymbolTableRecord
100
AcDbDimStyleTableRecord
  2
SLDDIMSTYLE1
 70
     0
 41
3.5
 44
0.0
 45
0.000000001
 73
     0
 74
     0
 77
     1
 78
    12
140
3.5
147
0.875
173
     1
178
     0
271
     0
272
     3
284
    12
340
1D4
  0
ENDTAB
  0
TABLE
  2
BLOCK_RECORD
  5
1
330
0
100
AcDbSymbolTable
 70
     6
  0
BLOCK_RECORD
  5
1F
330
1
100
AcDbSymbolTableRecord
100
AcDbBlockTableRecord
  2
*MODEL_SPACE
340
23A
 70
     0
280
     1
281
     0
  0
BLOCK_RECORD
  5
1B
330
1
100
AcDbSymbolTableRecord
100
AcDbBlockTableRecord
  2
*PAPER_SPACE
340
23B
 70
     0
280
     1
281
     0
  0
BLOCK_RECORD
  5
1D6
330
1
100
AcDbSymbolTableRecord
100
AcDbBlockTableRecord
  2
_D
340
0
 70
     0
280
     1
281
     0
  0
BLOCK_RECORD
  5
1E1
330
1
100
AcDbSymbolTableRecord
100
AcDbBlockTableRecord
  2
_D_1
340
0
 70
     0
280
     1
281
     0
  0
BLOCK_RECORD
  5
1EC
330
1
100
AcDbSymbolTableRecord
100
AcDbBlockTableRecord
  2
_D_2
340
0
 70
     0
280
     1
281
     0
  0
BLOCK_RECORD
  5
1F7
330
1
100
AcDbSymbolTableRecord
100
AcDbBlockTableRecord
  2
_D_3
340
0
 70
     0
280
     1
281
     0
  0
BLOCK_RECORD
  5
202
330
1
100
AcDbSymbolTableRecord
100
AcDbBlockTableRecord
  2
_D_4
340
0
 70
     0
280
     1
281
     0
  0
BLOCK_RECORD
  5
20D
330
1
100
AcDbSymbolTableRecord
100
AcDbBlockTableRecord
  2
_D_5
340
0
 70
     0
280
     1
281
     0
  0
ENDTAB
  0
ENDSEC
  0
SECTION
  2
BLOCKS
  0
BLOCK
  5
20
330
1F
100
AcDbEntity
  8
0
100
AcDbBlockBegin
  2
*MODEL_SPACE
 70
     0
 10
0.0
 20
0.0
 30
0.0
  3
*MODEL_SPACE
  1

  0
ENDBLK
  5
21
330
1F
100
AcDbEntity
  8
0
100
AcDbBlockEnd
  0
BLOCK
  5
1C
330
1B
100
AcDbEntity
 67
     1
  8
0
100
AcDbBlockBegin
  2
*PAPER_SPACE
 70
     0
 10
0.0
 20
0.0
 30
0.0
  3
*PAPER_SPACE
  1

  0
ENDBLK
  5
1D
330
1B
100
AcDbEntity
 67
     1
  8
0
100
AcDbBlockEnd
  0
BLOCK
  5
1D7
330
1D6
100
AcDbEntity
  8
0
100
AcDbBlockBegin
  2
_D
 70
     0
 10
0.0
 20
0.0
 30
0.0
  3
_D
  1
_D
  0
LINE
  5
1D9
330
1D6
100
AcDbEntity
  8
SK2
  6
ByBlock
370
    -2
100
AcDbLine
 10
-35.0625
 20
17.99999922355476
 30
0.0
 11
-47.6877650041296
 21
17.99999893160983
 31
0.0
  0
LINE
  5
1DA
330
1D6
100
AcDbEntity
  8
SK2
  6
ByBlock
370
    -2
100
AcDbLine
 10
-35.0625
 20
-18.00000000144524
 30
0.0
 11
-47.6877641716704
 21
-18.00000029339016
 31
0.0
  0
LINE
  5
1DB
330
1D6
100
AcDbEntity
  8
SK2
  6
ByBlock
370
    -2
100
AcDbLine
 10
-47.68776492319607
 20
14.49999893160983
 30
0.0
 11
-47.68776425260393
 21
-14.50000029339016
 31
0.0
  0
SOLID
  5
1DC
330
1D6
100
AcDbEntity
  8
SK2
100
AcDbTrace
 10
-47.10443158986273
 20
14.49999894509875
 30
0.0
 11
-48.27109825652941
 21
14.49999891812091
 31
0.0
 12
-47.6877650041296
 22
17.99999893160983
 32
0.0
 13
-47.6877650041296
 23
17.99999893160983
 33
0.0
  0
SOLID
  5
1DD
330
1D6
100
AcDbEntity
  8
SK2
100
AcDbTrace
 10
-48.27109758593727
 20
-14.50000030687908
 30
0.0
 11
-47.1044309192706
 21
-14.50000027990124
 31
0.0
 12
-47.6877641716704
 22
-18.00000029339016
 32
0.0
 13
-47.6877641716704
 23
-18.00000029339016
 33
0.0
  0
MTEXT
  5
1DE
330
1D6
100
AcDbEntity
  8
SK2
100
AcDbMText
 10
-50.4247645879
 20
-0.0000007441900244
 30
0.0
 40
3.5
 41
0.0
 46
0.0
 71
     5
 72
     1
  1
\A1;%%c36
  7
BMG_Text
 11
-2.312386717112644E-8
 21
0.9999999999999998
 31
0.0
 73
     1
 44
1.0
  0
POINT
  5
1DF
330
1D6
100
AcDbEntity
  8
Defpoints
 62
     0
100
AcDbPoint
 10
-35.0
 20
17.999999225
 30
0.0
  0
POINT
  5
256
330
1D6
100
AcDbEntity
  8
Defpoints
 62
     0
100
AcDbPoint
 10
-35.0
 20
-18.0
 30
0.0
  0
POINT
  5
257
330
1D6
100
AcDbEntity
  8
Defpoints
 62
     0
100
AcDbPoint
 10
-47.6877641716704
 20
-18.00000029339017
 30
0.0
  0
ENDBLK
  5
1D8
330
1D6
100
AcDbEntity
  8
0
100
AcDbBlockEnd
  0
BLOCK
  5
1E2
330
1E1
100
AcDbEntity
  8
0
100
AcDbBlockBegin
  2
_D_1
 70
     0
 10
0.0
 20
0.0
 30
0.0
  3
_D_1
  1
_D_1
  0
LINE
  5
1E4
330
1E1
100
AcDbEntity
  8
2
  6
Continuous
370
    -2
100
AcDbLine
 10
0.437500024
 20
31.750001013
 30
0.0
 11
-56.7089409173
 21
31.750001013
 31
0.0
  0
LINE
  5
1E5
330
1E1
100
AcDbEntity
  8
2
  6
Continuous
370
    -2
100
AcDbLine
 10
0.437500024
 20
-31.750001013
 30
0.0
 11
-56.7089409173
 21
-31.75000101299999
 31
0.0
  0
LINE
  5
1E6
330
1E1
100
AcDbEntity
  8
2
  6
Continuous
370
    -2
100
AcDbLine
 10
-56.7089409173
 20
28.250001013
 30
0.0
 11
-56.7089409173
 21
-28.25000101299999
 31
0.0
  0
SOLID
  5
1E7
330
1E1
100
AcDbEntity
  8
2
100
AcDbTrace
 10
-56.12560758396666
 20
28.250001013
 30
0.0
 11
-57.29227425063333
 21
28.250001013
 31
0.0
 12
-56.7089409173
 22
31.750001013
 32
0.0
 13
-56.7089409173
 23
31.750001013
 33
0.0
  0
SOLID
  5
1E8
330
1E1
100
AcDbEntity
  8
2
100
AcDbTrace
 10
-57.29227425063333
 20
-28.25000101299999
 30
0.0
 11
-56.12560758396666
 21
-28.25000101299999
 31
0.0
 12
-56.7089409173
 22
-31.75000101299999
 32
0.0
 13
-56.7089409173
 23
-31.75000101299999
 33
0.0
  0
MTEXT
  5
1E9
330
1E1
100
AcDbEntity
  8
2
370
    25
100
AcDbMText
 10
-59.4459409173
 20
0.0000000000000003
 30
0.0
 40
3.5
 41
0.0
 46
0.0
 71
     5
 72
     1
  1
\A1;%%c63.5
  7
BMG_Text
 11
1.118964902503734E-16
 21
1.0
 31
0.0
 73
     1
 44
1.0
  0
POINT
  5
1EA
330
1E1
100
AcDbEntity
  8
Defpoints
 62
     0
100
AcDbPoint
 10
0.500000024
 20
31.750001013
 30
0.0
  0
POINT
  5
258
330
1E1
100
AcDbEntity
  8
Defpoints
 62
     0
100
AcDbPoint
 10
0.500000024
 20
-31.750001013
 30
0.0
  0
POINT
  5
259
330
1E1
100
AcDbEntity
  8
Defpoints
 62
     0
100
AcDbPoint
 10
-56.7089409173
 20
-31.75000101299999
 30
0.0
  0
ENDBLK
  5
1E3
330
1E1
100
AcDbEntity
  8
0
100
AcDbBlockEnd
  0
BLOCK
  5
1ED
330
1EC
100
AcDbEntity
  8
0
100
AcDbBlockBegin
  2
_D_2
 70
     0
 10
0.0
 20
0.0
 30
0.0
  3
_D_2
  1
_D_2
  0
LINE
  5
1EF
330
1EC
100
AcDbEntity
  8
2
  6
Continuous
370
    -2
100
AcDbLine
 10
1.437500013
 20
-45.000001788
 30
0.0
 11
-65.5381773457
 21
-45.00000178799999
 31
0.0
  0
LINE
  5
1F0
330
1EC
100
AcDbEntity
  8
2
  6
Continuous
370
    -2
100
AcDbLine
 10
1.437500013
 20
45.000001788
 30
0.0
 11
-65.5381773457
 21
45.00000178800001
 31
0.0
  0
LINE
  5
1F1
330
1EC
100
AcDbEntity
  8
2
  6
Continuous
370
    -2
100
AcDbLine
 10
-65.5381773457
 20
-41.50000178799999
 30
0.0
 11
-65.5381773457
 21
41.50000178800001
 31
0.0
  0
SOLID
  5
1F2
330
1EC
100
AcDbEntity
  8
2
100
AcDbTrace
 10
-66.12151067903334
 20
-41.50000178799999
 30
0.0
 11
-64.95484401236668
 21
-41.50000178799999
 31
0.0
 12
-65.5381773457
 22
-45.00000178799999
 32
0.0
 13
-65.5381773457
 23
-45.00000178799999
 33
0.0
  0
SOLID
  5
1F3
330
1EC
100
AcDbEntity
  8
2
100
AcDbTrace
 10
-64.95484401236668
 20
41.50000178800001
 30
0.0
 11
-66.12151067903334
 21
41.50000178800001
 31
0.0
 12
-65.5381773457
 22
45.00000178800001
 32
0.0
 13
-65.5381773457
 23
45.00000178800001
 33
0.0
  0
MTEXT
  5
1F4
330
1EC
100
AcDbEntity
  8
2
370
    25
100
AcDbMText
 10
-68.2751773457
 20
0.0
 30
0.0
 40
3.5
 41
0.0
 46
0.0
 71
     5
 72
     1
  1
\A1;%%c90
  7
BMG_Text
 11
0.0
 21
1.0
 31
0.0
 73
     1
 44
1.0
  0
POINT
  5
1F5
330
1EC
100
AcDbEntity
  8
Defpoints
 62
     0
100
AcDbPoint
 10
1.500000013
 20
-45.000001788
 30
0.0
  0
POINT
  5
25A
330
1EC
100
AcDbEntity
  8
Defpoints
 62
     0
100
AcDbPoint
 10
1.500000013
 20
45.000001788
 30
0.0
  0
POINT
  5
25B
330
1EC
100
AcDbEntity
  8
Defpoints
 62
     0
100
AcDbPoint
 10
-65.5381773457
 20
45.00000178800001
 30
0.0
  0
ENDBLK
  5
1EE
330
1EC
100
AcDbEntity
  8
0
100
AcDbBlockEnd
  0
BLOCK
  5
1F8
330
1F7
100
AcDbEntity
  8
0
100
AcDbBlockBegin
  2
_D_3
 70
     0
 10
0.0
 20
0.0
 30
0.0
  3
_D_3
  1
_D_3
  0
LINE
  5
1FA
330
1F7
100
AcDbEntity
  8
2
  6
Continuous
370
    -2
100
AcDbLine
 10
70.1235799726
 20
48.98784697854749
 30
0.0
 11
83.85830614854768
 21
48.98784718676497
 31
0.0
  0
LINE
  5
1FB
330
1F7
100
AcDbEntity
  8
2
  6
Continuous
370
    -2
100
AcDbLine
 10
70.1235814579
 20
-48.9878462004525
 30
0.0
 11
83.85830763385232
 21
-48.98784599223502
 31
0.0
  0
LINE
  5
1FC
330
1F7
100
AcDbEntity
  8
2
  6
Continuous
370
    -2
100
AcDbLine
 10
83.85830620160743
 20
45.48784718676497
 30
0.0
 11
83.85830758079257
 21
-45.48784599223502
 31
0.0
  0
SOLID
  5
1FD
330
1F7
100
AcDbEntity
  8
2
100
AcDbTrace
 10
84.44163953494076
 20
45.48784719560826
 30
0.0
 11
83.2749728682741
 21
45.48784717792167
 31
0.0
 12
83.85830614854768
 22
48.98784718676497
 32
0.0
 13
83.85830614854768
 23
48.98784718676497
 33
0.0
  0
SOLID
  5
1FE
330
1F7
100
AcDbEntity
  8
2
100
AcDbTrace
 10
83.27497424745924
 20
-45.48784600107832
 30
0.0
 11
84.4416409141259
 21
-45.48784598339173
 31
0.0
 12
83.85830763385232
 22
-48.98784599223502
 32
0.0
 13
83.85830763385232
 23
-48.98784599223502
 33
0.0
  0
MTEXT
  5
1FF
330
1F7
100
AcDbEntity
  8
2
370
    25
100
AcDbMText
 10
81.1213068912
 20
0.000000555807272
 30
0.0
 40
3.5
 41
0.0
 46
0.0
 71
     5
 72
     1
  1
\A1;%%c98 - 153
  7
BMG_Text
 11
-1.515992986039277E-8
 21
1.0
 31
0.0
 73
     1
 44
1.0
  0
POINT
  5
200
330
1F7
100
AcDbEntity
  8
Defpoints
 62
     0
100
AcDbPoint
 10
70.0610799726
 20
48.9878469776
 30
0.0
  0
POINT
  5
25C
330
1F7
100
AcDbEntity
  8
Defpoints
 62
     0
100
AcDbPoint
 10
70.0610814579
 20
-48.9878462014
 30
0.0
  0
POINT
  5
25D
330
1F7
100
AcDbEntity
  8
Defpoints
 62
     0
100
AcDbPoint
 10
83.85830763385232
 20
-48.98784599223502
 30
0.0
  0
ENDBLK
  5
1F9
330
1F7
100
AcDbEntity
  8
0
100
AcDbBlockEnd
  0
BLOCK
  5
203
330
202
100
AcDbEntity
  8
0
100
AcDbBlockBegin
  2
_D_4
 70
     0
 10
0.0
 20
0.0
 30
0.0
  3
_D_4
  1
_D_4
  0
LINE
  5
205
330
202
100
AcDbEntity
  8
2
  6
Continuous
370
    -2
100
AcDbLine
 10
70.999998661
 20
48.2625011741
 30
0.0
 11
70.999998661
 21
55.6754325483
 31
0.0
  0
LINE
  5
206
330
202
100
AcDbEntity
  8
2
  6
Continuous
370
    -2
100
AcDbLine
 10
0.0
 20
31.3125
 30
0.0
 11
0.0
 21
55.6754325483
 31
0.0
  0
LINE
  5
207
330
202
100
AcDbEntity
  8
2
  6
Continuous
370
    -2
100
AcDbLine
 10
67.499998661
 20
55.6754325483
 30
0.0
 11
3.5
 21
55.6754325483
 31
0.0
  0
SOLID
  5
208
330
202
100
AcDbEntity
  8
2
100
AcDbTrace
 10
67.499998661
 20
55.09209921496667
 30
0.0
 11
67.499998661
 21
56.25876588163334
 31
0.0
 12
70.999998661
 22
55.6754325483
 32
0.0
 13
70.999998661
 23
55.6754325483
 33
0.0
  0
SOLID
  5
209
330
202
100
AcDbEntity
  8
2
100
AcDbTrace
 10
3.5
 20
56.25876588163334
 30
0.0
 11
3.5
 21
55.09209921496667
 31
0.0
 12
0.0
 22
55.6754325483
 32
0.0
 13
0.0
 23
55.6754325483
 33
0.0
  0
MTEXT
  5
20A
330
202
100
AcDbEntity
  8
2
370
    25
100
AcDbMText
 10
35.4999993305
 20
58.3109325483
 30
0.0
 40
3.5
 41
0.0
 46
0.0
 71
     5
 72
     1
  1
\A1;71
  7
BMG_Text
 73
     1
 44
1.0
  0
POINT
  5
25E
330
202
100
AcDbEntity
  8
Defpoints
 62
     0
100
AcDbPoint
 10
70.999998661
 20
48.2000011741
 30
0.0
  0
POINT
  5
25F
330
202
100
AcDbEntity
  8
Defpoints
 62
     0
100
AcDbPoint
 10
0.0
 20
31.25
 30
0.0
  0
POINT
  5
260
330
202
100
AcDbEntity
  8
Defpoints
 62
     0
100
AcDbPoint
 10
0.0
 20
55.6754325483
 30
0.0
  0
ENDBLK
  5
204
330
202
100
AcDbEntity
  8
0
100
AcDbBlockEnd
  0
BLOCK
  5
20E
330
20D
100
AcDbEntity
  8
0
100
AcDbBlockBegin
  2
_D_5
 70
     0
 10
0.0
 20
0.0
 30
0.0
  3
_D_5
  1
_D_5
  0
LINE
  5
210
330
20D
100
AcDbEntity
  8
2
  6
Continuous
370
    -2
100
AcDbLine
 10
37.000000817
 20
-44.761908114
 30
0.0
 11
37.000000817
 21
-55.929541091
 31
0.0
  0
LINE
  5
211
330
20D
100
AcDbEntity
  8
2
  6
Continuous
370
    -2
100
AcDbLine
 10
0.0
 20
-31.3125
 30
0.0
 11
0.0
 21
-55.929541091
 31
0.0
  0
LINE
  5
212
330
20D
100
AcDbEntity
  8
2
  6
Continuous
370
    -2
100
AcDbLine
 10
33.500000817
 20
-55.929541091
 30
0.0
 11
3.5
 21
-55.929541091
 31
0.0
  0
SOLID
  5
213
330
20D
100
AcDbEntity
  8
2
100
AcDbTrace
 10
33.500000817
 20
-56.51287442433333
 30
0.0
 11
33.500000817
 21
-55.34620775766666
 31
0.0
 12
37.000000817
 22
-55.929541091
 32
0.0
 13
37.000000817
 23
-55.929541091
 33
0.0
  0
SOLID
  5
214
330
20D
100
AcDbEntity
  8
2
100
AcDbTrace
 10
3.5
 20
-55.34620775766666
 30
0.0
 11
3.5
 21
-56.51287442433333
 31
0.0
 12
0.0
 22
-55.929541091
 32
0.0
 13
0.0
 23
-55.929541091
 33
0.0
  0
MTEXT
  5
215
330
20D
100
AcDbEntity
  8
2
370
    25
100
AcDbMText
 10
18.5000004085
 20
-53.243291091
 30
0.0
 40
3.5
 41
0.0
 46
0.0
 71
     5
 72
     1
  1
\A1;37
  7
BMG_Text
 73
     1
 44
1.0
  0
POINT
  5
261
330
20D
100
AcDbEntity
  8
Defpoints
 62
     0
100
AcDbPoint
 10
37.000000817
 20
-44.699408114
 30
0.0
  0
POINT
  5
262
330
20D
100
AcDbEntity
  8
Defpoints
 62
     0
100
AcDbPoint
 10
0.0
 20
-31.25
 30
0.0
  0
POINT
  5
263
330
20D
100
AcDbEntity
  8
Defpoints
 62
     0
100
AcDbPoint
 10
0.0
 20
-55.929541091
 30
0.0
  0
ENDBLK
  5
20F
330
20D
100
AcDbEntity
  8
0
100
AcDbBlockEnd
  0
ENDSEC
  0
SECTION
  2
ENTITIES
  0
LINE
  5
75
330
1F
100
AcDbEntity
  8
4
100
AcDbLine
 10
0.0000000000000071
 20
0.0
 30
0.0
 11
72.50546498379998
 21
0.0
 31
0.0
  0
LINE
  5
76
330
1F
100
AcDbEntity
  8
1
100
AcDbLine
 10
26.48120001
 20
-37.000000477
 30
0.0
 11
37.000000817
 21
-36.999999894
 31
0.0
  0
LINE
  5
77
330
1F
100
AcDbEntity
  8
3
100
AcDbLine
 10
13.753248379
 20
-26.946542785
 30
0.0
 11
32.661051576
 21
-37.000000128
 31
0.0
  0
LINE
  5
78
330
1F
100
AcDbEntity
  8
3
100
AcDbLine
 10
9.008219466
 20
-31.218985096
 30
0.0
 11
13.753248379
 21
-26.946542785
 31
0.0
  0
LINE
  5
79
330
1F
100
AcDbEntity
  8
3
100
AcDbLine
 10
8.119589649
 20
-37.541914731
 30
0.0
 11
9.008219466
 21
-31.218985096
 31
0.0
  0
LINE
  5
7A
330
1F
100
AcDbEntity
  8
3
100
AcDbLine
 10
8.119589649
 20
-37.541914731
 30
0.0
 11
13.753248379
 21
-26.946542785
 31
0.0
  0
LINE
  5
7B
330
1F
100
AcDbEntity
  8
3
100
AcDbLine
 10
15.696571725
 20
-41.570665587
 30
0.0
 11
8.119589649
 21
-37.541914731
 31
0.0
  0
LINE
  5
7C
330
1F
100
AcDbEntity
  8
3
100
AcDbLine
 10
1.376465741
 20
-7.015668757
 30
0.0
 11
13.35077462
 21
-27.308931707
 31
0.0
  0
LINE
  5
7D
330
1F
100
AcDbEntity
  8
3
100
AcDbLine
 10
9.559509173
 20
-30.72260172
 30
0.0
 11
0.0
 21
-14.52178000877557
 31
0.0
  0
LINE
  5
7E
330
1F
100
AcDbEntity
  8
SK3
100
AcDbLine
 10
-16.999980383
 20
-9.000000408
 30
0.0
 11
-13.267955003
 21
-8.000007221
 31
0.0
  0
LINE
  5
7F
330
1F
100
AcDbEntity
  8
SK3
100
AcDbLine
 10
-37.000005811
 20
-9.250000408
 30
0.0
 11
-36.278326123
 21
-8.000000408
 31
0.0
  0
LINE
  5
80
330
1F
100
AcDbEntity
  8
SK3
100
AcDbLine
 10
-36.278326123
 20
8.000007221
 30
0.0
 11
-37.000005811
 21
9.25002248
 31
0.0
  0
LINE
  5
81
330
1F
100
AcDbEntity
  8
SK3
100
AcDbLine
 10
-37.000005811
 20
9.25002248
 30
0.0
 11
-39.567022412
 21
9.25002248
 31
0.0
  0
LINE
  5
82
330
1F
100
AcDbEntity
  8
SK3
100
AcDbLine
 10
-39.567022412
 20
-9.250000408
 30
0.0
 11
-37.000005811
 21
-9.250000408
 31
0.0
  0
LINE
  5
83
330
1F
100
AcDbEntity
  8
SK3
100
AcDbLine
 10
-37.000005811
 20
-9.250000408
 30
0.0
 11
-37.000005811
 21
9.25002248
 31
0.0
  0
LINE
  5
84
330
1F
100
AcDbEntity
  8
SK3
100
AcDbLine
 10
-36.278326123
 20
-8.000000408
 30
0.0
 11
-0.0000000000000071
 21
-8.000000408
 31
0.0
  0
LINE
  5
85
330
1F
100
AcDbEntity
  8
SK3
100
AcDbLine
 10
0.0
 20
8.00002248
 30
0.0
 11
-36.278326123
 21
8.00002248
 31
0.0
  0
LINE
  5
86
330
1F
100
AcDbEntity
  8
SK3
100
AcDbLine
 10
-36.278326123
 20
8.00002248
 30
0.0
 11
-36.278326123
 21
-8.000000408
 31
0.0
  0
LINE
  5
87
330
1F
100
AcDbEntity
  8
SK3
100
AcDbLine
 10
-17.000005811
 20
-9.000000408
 30
0.0
 11
-16.99988374
 21
9.000007221
 31
0.0
  0
LINE
  5
88
330
1F
100
AcDbEntity
  8
SK3
100
AcDbLine
 10
-16.99988374
 20
9.000007221
 30
0.0
 11
-36.855596631
 21
9.000007221
 31
0.0
  0
LINE
  5
89
330
1F
100
AcDbEntity
  8
SK3
100
AcDbLine
 10
-36.855596631
 20
-9.000000408
 30
0.0
 11
-16.999980383
 21
-9.000000408
 31
0.0
  0
LINE
  5
8A
330
1F
100
AcDbEntity
  8
SK3
100
AcDbLine
 10
-17.000005811
 20
9.000007221
 30
0.0
 11
-13.267955003
 21
8.000007221
 31
0.0
  0
LINE
  5
8C
330
1F
100
AcDbEntity
  8
SK1
  6
Continuous
370
    50
100
AcDbLine
 10
-35.0
 20
-18.0
 30
0.0
 11
-1.485441462
 21
-17.999999225
 31
0.0
  0
LINE
  5
8D
330
1F
100
AcDbEntity
  8
SK1
  6
Continuous
370
    50
100
AcDbLine
 10
-1.485441462
 20
18.0
 30
0.0
 11
-35.0
 21
17.999999225
 31
0.0
  0
LINE
  5
8E
330
1F
100
AcDbEntity
  8
SK1
  6
Continuous
370
    50
100
AcDbLine
 10
-1.485441462
 20
-17.999999225
 30
0.0
 11
-0.4294095226
 21
-17.7170370869
 31
0.0
  0
LINE
  5
8F
330
1F
100
AcDbEntity
  8
SK1
  6
Continuous
370
    50
100
AcDbLine
 10
-0.4294095095
 20
17.7170379107
 30
0.0
 11
-1.485441462
 21
18.0
 31
0.0
  0
LINE
  5
90
330
1F
100
AcDbEntity
  8
SK1
  6
Continuous
370
    50
100
AcDbLine
 10
-35.0
 20
17.999999225
 30
0.0
 11
-37.187486887
 21
17.692569643
 31
0.0
  0
LINE
  5
91
330
1F
100
AcDbEntity
  8
SK1
  6
Continuous
370
    50
100
AcDbLine
 10
-37.187486887
 20
-17.692569643
 30
0.0
 11
-35.0
 21
-18.0
 31
0.0
  0
LINE
  5
92
330
1F
100
AcDbEntity
  8
SK1
  6
Continuous
370
    50
100
AcDbLine
 10
-38.8448563643
 20
-17.984807753
 30
0.0
 11
-37.187486887
 21
-17.692569643
 31
0.0
  0
LINE
  5
93
330
1F
100
AcDbEntity
  8
SK1
  6
Continuous
370
    50
100
AcDbLine
 10
-37.187486887
 20
17.692569643
 30
0.0
 11
-38.8448563643
 21
17.984807753
 31
0.0
  0
LINE
  5
94
330
1F
100
AcDbEntity
  8
SK1
  6
Continuous
370
    50
100
AcDbLine
 10
-39.6999999996
 20
-17.7318223427
 30
0.0
 11
-39.6999999996
 21
17.7318223427
 31
0.0
  0
LINE
  5
95
330
1F
100
AcDbEntity
  8
SK1
  6
Continuous
370
    50
100
AcDbLine
 10
-1.485441462
 20
0.0
 30
0.0
 11
-1.485441462
 21
-17.999999225
 31
0.0
  0
LINE
  5
96
330
1F
100
AcDbEntity
  8
SK1
  6
Continuous
370
    50
100
AcDbLine
 10
-1.485441462
 20
18.0
 30
0.0
 11
-1.485441462
 21
0.0
 31
0.0
  0
LINE
  5
97
330
1F
100
AcDbEntity
  8
SK1
  6
Continuous
370
    50
100
AcDbLine
 10
-35.0
 20
-0.300000014
 30
0.0
 11
-23.521754742
 21
-0.300000014
 31
0.0
  0
LINE
  5
98
330
1F
100
AcDbEntity
  8
SK1
  6
Continuous
370
    50
100
AcDbLine
 10
-15.1000002774
 20
-5.8292639437
 30
0.0
 11
-16.5999995921
 21
-5.8292639437
 31
0.0
  0
LINE
  5
99
330
1F
100
AcDbEntity
  8
SK1
  6
Continuous
370
    50
100
AcDbLine
 10
-9.2039444385
 20
-0.2999987945
 30
0.0
 11
-2.2999992025
 21
-0.2999987945
 31
0.0
  0
LINE
  5
9A
330
1F
100
AcDbEntity
  8
SK1
  6
Continuous
370
    50
100
AcDbLine
 10
-2.2999995801
 20
0.3000018292
 30
0.0
 11
-9.2039448161
 21
0.3000015099
 31
0.0
  0
LINE
  5
9B
330
1F
100
AcDbEntity
  8
SK1
  6
Continuous
370
    50
100
AcDbLine
 10
-15.0999997143
 20
5.8292648642
 30
0.0
 11
-16.5999990294
 21
5.8292647948
 31
0.0
  0
LINE
  5
9C
330
1F
100
AcDbEntity
  8
SK1
  6
Continuous
370
    50
100
AcDbLine
 10
-23.5217539235
 20
0.3000005449
 30
0.0
 11
-34.9999991814
 21
0.300000014
 31
0.0
  0
LINE
  5
9D
330
1F
100
AcDbEntity
  8
SK1
  6
Continuous
370
    50
100
AcDbLine
 10
-34.9999991814
 20
0.300000014
 30
0.0
 11
-35.0
 21
17.999999225
 31
0.0
  0
LINE
  5
9E
330
1F
100
AcDbEntity
  8
SK1
  6
Continuous
370
    50
100
AcDbLine
 10
-35.0
 20
-18.0
 30
0.0
 11
-35.0
 21
-0.300000014
 31
0.0
  0
LINE
  5
9F
330
1F
100
AcDbEntity
  8
SK1
  6
Continuous
370
    50
100
AcDbLine
 10
-23.521754742
 20
-0.300000014
 30
0.0
 11
-23.440966234
 21
-0.300000014
 31
0.0
  0
LINE
  5
A0
330
1F
100
AcDbEntity
  8
SK1
  6
Continuous
370
    50
100
AcDbLine
 10
-23.5217539235
 20
0.3000005449
 30
0.0
 11
-23.4409654152
 21
0.3000005486
 31
0.0
  0
LINE
  5
A1
330
1F
100
AcDbEntity
  8
SK1
  6
Continuous
370
    50
100
AcDbLine
 10
-9.2039448161
 20
0.3000015099
 30
0.0
 11
-10.6489206611
 21
0.3000014431
 31
0.0
  0
LINE
  5
A2
330
1F
100
AcDbEntity
  8
SK1
  6
Continuous
370
    50
100
AcDbLine
 10
-18.8882087102
 20
4.3346664675
 30
0.0
 11
-18.14497146
 21
3.348671483
 31
0.0
  0
LINE
  5
A3
330
1F
100
AcDbEntity
  8
SK1
  6
Continuous
370
    50
100
AcDbLine
 10
-18.1449718732
 20
-3.3486689835
 30
0.0
 11
-18.8882082662
 21
-4.3346639185
 31
0.0
  0
LINE
  5
A4
330
1F
100
AcDbEntity
  8
SK1
  6
Continuous
370
    50
100
AcDbLine
 10
-10.6489204074
 20
-0.2999987945
 30
0.0
 11
-9.2039444385
 21
-0.2999987945
 31
0.0
  0
LINE
  5
A5
330
1F
100
AcDbEntity
  8
SK1
  6
Continuous
370
    50
100
AcDbLine
 10
-37.187486887
 20
0.0
 30
0.0
 11
-37.187486887
 21
17.692569643
 31
0.0
  0
LINE
  5
A6
330
1F
100
AcDbEntity
  8
SK1
  6
Continuous
370
    50
100
AcDbLine
 10
-37.187486887
 20
-17.692569643
 30
0.0
 11
-37.187486887
 21
0.0
 31
0.0
  0
LINE
  5
A7
330
1F
100
AcDbEntity
  8
SK1
  6
Continuous
370
    50
100
AcDbLine
 10
-35.700000673
 20
0.300000014
 30
0.0
 11
-34.9999991814
 21
0.300000014
 31
0.0
  0
LINE
  5
A8
330
1F
100
AcDbEntity
  8
SK1
  6
Continuous
370
    50
100
AcDbLine
 10
-35.0
 20
-0.300000014
 30
0.0
 11
-35.7000006735
 21
-0.300000014
 31
0.0
  0
LINE
  5
A9
330
1F
100
AcDbEntity
  8
SK1
  6
Continuous
370
    50
100
AcDbLine
 10
-15.0999997096
 20
5.7325544659
 30
0.0
 11
-16.5999990241
 21
5.7325543965
 31
0.0
  0
LINE
  5
AA
330
1F
100
AcDbEntity
  8
SK1
  6
Continuous
370
    50
100
AcDbLine
 10
-21.7112982284
 20
0.3000006286
 30
0.0
 11
-23.4409654152
 21
0.3000005486
 31
0.0
  0
LINE
  5
AB
330
1F
100
AcDbEntity
  8
SK1
  6
Continuous
370
    50
100
AcDbLine
 10
-15.1000002776
 20
-5.7325535456
 30
0.0
 11
-16.5999995915
 21
-5.7325535456
 31
0.0
  0
LINE
  5
AC
330
1F
100
AcDbEntity
  8
SK1
  6
Continuous
370
    50
100
AcDbLine
 10
-23.440966234
 20
-0.300000014
 30
0.0
 11
-21.711299047
 21
-0.300000014
 31
0.0
  0
LINE
  5
AD
330
1F
100
AcDbEntity
  8
SK1
  6
Continuous
370
    50
100
AcDbLine
 10
-20.432261601
 20
-2.8900620532
 30
0.0
 11
-19.2139966786
 21
-1.9088379338
 31
0.0
  0
LINE
  5
AE
330
1F
100
AcDbEntity
  8
SK1
  6
Continuous
370
    50
100
AcDbLine
 10
-21.711299047
 20
-0.300000014
 30
0.0
 11
-19.6288990229
 21
-0.300000014
 31
0.0
  0
LINE
  5
AF
330
1F
100
AcDbEntity
  8
SK1
  6
Continuous
370
    50
100
AcDbLine
 10
-19.2139959347
 20
1.9088386638
 30
0.0
 11
-19.6044641143
 21
2.2248646848
 31
0.0
  0
LINE
  5
B0
330
1F
100
AcDbEntity
  8
SK1
  6
Continuous
370
    50
100
AcDbLine
 10
-19.6044641143
 20
2.2248646848
 30
0.0
 11
-20.4322609021
 21
2.8900627265
 31
0.0
  0
LINE
  5
B1
330
1F
100
AcDbEntity
  8
SK1
  6
Continuous
370
    50
100
AcDbLine
 10
-19.6288982047
 20
0.3000007249
 30
0.0
 11
-21.7112982284
 21
0.3000006286
 31
0.0
  0
LINE
  5
B2
330
1F
100
AcDbEntity
  8
3
100
AcDbLine
 10
8.119589649
 20
37.541914731
 30
0.0
 11
13.753248379
 21
26.946542785
 31
0.0
  0
LINE
  5
B3
330
1F
100
AcDbEntity
  8
3
100
AcDbLine
 10
8.119589649
 20
37.541914731
 30
0.0
 11
9.008219466
 21
31.218985096
 31
0.0
  0
LINE
  5
B4
330
1F
100
AcDbEntity
  8
1
100
AcDbLine
 10
37.000000817
 20
-44.699408114
 30
0.0
 11
37.000000817
 21
44.700000435
 31
0.0
  0
LINE
  5
B5
330
1F
100
AcDbEntity
  8
1
100
AcDbLine
 10
37.000000817
 20
44.700000435
 30
0.0
 11
36.699999464
 21
45.000001788
 31
0.0
  0
LINE
  5
B6
330
1F
100
AcDbEntity
  8
1
100
AcDbLine
 10
36.699999464
 20
45.000001788
 30
0.0
 11
16.125041991
 21
45.000001788
 31
0.0
  0
LINE
  5
B7
330
1F
100
AcDbEntity
  8
1
100
AcDbLine
 10
26.48120001
 20
37.0000004773
 30
0.0
 11
37.000000817
 21
36.999999894
 31
0.0
  0
LINE
  5
B8
330
1F
100
AcDbEntity
  8
1
  6
Continuous
370
    50
100
AcDbLine
 10
16.125041992
 20
-45.000001788
 30
0.0
 11
1.500000013
 21
-45.000001788
 31
0.0
  0
LINE
  5
B9
330
1F
100
AcDbEntity
  8
1
  6
Continuous
370
    50
100
AcDbLine
 10
1.500000013
 20
-45.000001788
 30
0.0
 11
0.500000024
 21
-43.999999762
 31
0.0
  0
LINE
  5
BA
330
1F
100
AcDbEntity
  8
1
  6
Continuous
370
    50
100
AcDbLine
 10
0.500000024
 20
-43.999999762
 30
0.0
 11
0.500000024
 21
-26.664583012
 31
0.0
  0
LINE
  5
BB
330
1F
100
AcDbEntity
  8
1
  6
Continuous
370
    50
100
AcDbLine
 10
0.500000024
 20
-26.664583012
 30
0.0
 11
1.500000013
 21
-27.0000007
 31
0.0
  0
LINE
  5
BC
330
1F
100
AcDbEntity
  8
1
100
AcDbLine
 10
1.500000013
 20
-27.0000007
 30
0.0
 11
37.000000817
 21
-27.0000007
 31
0.0
  0
LINE
  5
BD
330
1F
100
AcDbEntity
  8
1
100
AcDbLine
 10
16.125041992
 20
-45.000001788
 30
0.0
 11
36.705308715
 21
-44.994682054
 31
0.0
  0
LINE
  5
BE
330
1F
100
AcDbEntity
  8
1
100
AcDbLine
 10
37.000000817
 20
27.0000007
 30
0.0
 11
1.500000013
 21
27.0000007
 31
0.0
  0
LINE
  5
BF
330
1F
100
AcDbEntity
  8
1
  6
Continuous
370
    50
100
AcDbLine
 10
1.500000013
 20
27.0000007
 30
0.0
 11
1.500000013
 21
-27.0000007
 31
0.0
  0
LINE
  5
C0
330
1F
100
AcDbEntity
  8
1
  6
Continuous
370
    50
100
AcDbLine
 10
1.500000013
 20
-27.0000007
 30
0.0
 11
1.500000013
 21
-45.000001788
 31
0.0
  0
LINE
  5
C1
330
1F
100
AcDbEntity
  8
1
100
AcDbLine
 10
36.705308715
 20
-44.994682054
 30
0.0
 11
37.000000817
 21
-44.699408114
 31
0.0
  0
LINE
  5
C2
330
1F
100
AcDbEntity
  8
1
  6
Continuous
370
    50
100
AcDbLine
 10
0.500000024
 20
26.664583012
 30
0.0
 11
0.500000024
 21
43.999999762
 31
0.0
  0
LINE
  5
C3
330
1F
100
AcDbEntity
  8
1
  6
Continuous
370
    50
100
AcDbLine
 10
0.500000024
 20
43.999999762
 30
0.0
 11
1.500000013
 21
45.000001788
 31
0.0
  0
LINE
  5
C4
330
1F
100
AcDbEntity
  8
1
  6
Continuous
370
    50
100
AcDbLine
 10
1.500000013
 20
45.000001788
 30
0.0
 11
16.125041991
 21
45.000001788
 31
0.0
  0
LINE
  5
C5
330
1F
100
AcDbEntity
  8
1
  6
Continuous
370
    50
100
AcDbLine
 10
0.500000024
 20
-26.664583012
 30
0.0
 11
0.500000024
 21
26.664583012
 31
0.0
  0
LINE
  5
C6
330
1F
100
AcDbEntity
  8
1
  6
Continuous
370
    50
100
AcDbLine
 10
0.500000024
 20
26.664583012
 30
0.0
 11
1.500000013
 21
27.0000007
 31
0.0
  0
LINE
  5
C7
330
1F
100
AcDbEntity
  8
1
  6
Continuous
370
    50
100
AcDbLine
 10
1.500000013
 20
27.0000007
 30
0.0
 11
1.500000013
 21
45.000001788
 31
0.0
  0
LINE
  5
C8
330
1F
100
AcDbEntity
  8
1
  6
Continuous
370
    50
100
AcDbLine
 10
0.500000024
 20
31.750001013
 30
0.0
 11
0.0
 21
31.25
 31
0.0
  0
LINE
  5
C9
330
1F
100
AcDbEntity
  8
1
  6
Continuous
370
    50
100
AcDbLine
 10
0.0
 20
31.25
 30
0.0
 11
0.0
 21
0.0
 31
0.0
  0
LINE
  5
CA
330
1F
100
AcDbEntity
  8
1
  6
Continuous
370
    50
100
AcDbLine
 10
0.0
 20
0.0
 30
0.0
 11
0.0
 21
-31.25
 31
0.0
  0
LINE
  5
CB
330
1F
100
AcDbEntity
  8
1
  6
Continuous
370
    50
100
AcDbLine
 10
0.0
 20
-31.25
 30
0.0
 11
0.500000024
 21
-31.750001013
 31
0.0
  0
LINE
  5
CC
330
1F
100
AcDbEntity
  8
3
100
AcDbLine
 10
1.000000048
 20
8.00002248
 30
0.0
 11
1.000000048
 21
-8.049931377
 31
0.0
  0
LINE
  5
CD
330
1F
100
AcDbEntity
  8
3
100
AcDbLine
 10
1.018800656
 20
7.99834542
 30
0.0
 11
3.929960557
 21
0.0
 31
0.0
  0
LINE
  5
CE
330
1F
100
AcDbEntity
  8
3
100
AcDbLine
 10
3.929960557
 20
0.0
 30
0.0
 11
1.018800656
 21
-7.99834542
 31
0.0
  0
LINE
  5
CF
330
1F
100
AcDbEntity
  8
3
100
AcDbLine
 10
13.753248379
 20
26.946542785
 30
0.0
 11
32.661051576
 21
37.000000128
 31
0.0
  0
LINE
  5
D0
330
1F
100
AcDbEntity
  8
3
100
AcDbLine
 10
15.696571725
 20
41.570665587
 30
0.0
 11
8.119589649
 21
37.541914731
 31
0.0
  0
LINE
  5
D1
330
1F
100
AcDbEntity
  8
3
100
AcDbLine
 10
9.559509173
 20
30.72260172
 30
0.0
 11
0.0
 21
14.52178000877557
 31
0.0
  0
LINE
  5
D2
330
1F
100
AcDbEntity
  8
3
100
AcDbLine
 10
1.376465741
 20
7.015668757
 30
0.0
 11
13.35077462
 21
27.308931707
 31
0.0
  0
LINE
  5
D3
330
1F
100
AcDbEntity
  8
3
100
AcDbLine
 10
9.008219466
 20
31.218985096
 30
0.0
 11
13.753248379
 21
26.946542785
 31
0.0
  0
LINE
  5
D4
330
1F
100
AcDbEntity
  8
1
100
AcDbLine
 10
53.3000016339
 20
37.5000014899
 30
0.0
 11
36.1830766515
 21
37.5000000002
 31
0.0
  0
LINE
  5
D5
330
1F
100
AcDbEntity
  8
1
100
AcDbLine
 10
54.2999999349
 20
36.4999994639
 30
0.0
 11
53.7929432219
 21
37.0070561769
 31
0.0
  0
LINE
  5
D6
330
1F
100
AcDbEntity
  8
1
100
AcDbLine
 10
53.7929432219
 20
37.0070561769
 30
0.0
 11
53.3000016339
 21
37.5000014899
 31
0.0
  0
LINE
  5
D7
330
1F
100
AcDbEntity
  8
1
100
AcDbLine
 10
54.2999999349
 20
27.0000006999
 30
0.0
 11
54.2999999349
 21
36.4999994639
 31
0.0
  0
LINE
  5
D8
330
1F
100
AcDbEntity
  8
1
100
AcDbLine
 10
54.2999999349
 20
27.0000006999
 30
0.0
 11
37.1980778873
 21
27.0000006999
 31
0.0
  0
LINE
  5
D9
330
1F
100
AcDbEntity
  8
1
100
AcDbLine
 10
37.1980778873
 20
27.0000006999
 30
0.0
 11
37.1980778873
 21
-27.0000007
 31
0.0
  0
LINE
  5
DA
330
1F
100
AcDbEntity
  8
1
100
AcDbLine
 10
36.948077381
 20
-41.429471224
 30
0.0
 11
37.077985704
 21
-41.383530945
 31
0.0
  0
LINE
  5
DB
330
1F
100
AcDbEntity
  8
1
100
AcDbLine
 10
37.077985704
 20
-41.383530945
 30
0.0
 11
37.16269508
 21
-41.323319077
 31
0.0
  0
LINE
  5
DC
330
1F
100
AcDbEntity
  8
1
100
AcDbLine
 10
37.16269508
 20
-41.323319077
 30
0.0
 11
37.197768688
 21
-41.250806302
 31
0.0
  0
LINE
  5
DD
330
1F
100
AcDbEntity
  8
1
100
AcDbLine
 10
37.197768688
 20
-41.250806302
 30
0.0
 11
37.171434611
 21
-41.172523051
 31
0.0
  0
LINE
  5
DE
330
1F
100
AcDbEntity
  8
1
100
AcDbLine
 10
37.171434611
 20
-41.172523051
 30
0.0
 11
37.080045789
 21
-41.100859642
 31
0.0
  0
LINE
  5
DF
330
1F
100
AcDbEntity
  8
1
100
AcDbLine
 10
37.080045789
 20
-41.100859642
 30
0.0
 11
36.948077381
 21
-41.051480919
 31
0.0
  0
LINE
  5
E0
330
1F
100
AcDbEntity
  8
1
100
AcDbLine
 10
36.948077381
 20
-38.335323334
 30
0.0
 11
37.078712136
 21
-38.26822713
 31
0.0
  0
LINE
  5
E1
330
1F
100
AcDbEntity
  8
1
100
AcDbLine
 10
37.078712136
 20
-38.26822713
 30
0.0
 11
37.161894143
 21
-38.182836026
 31
0.0
  0
LINE
  5
E2
330
1F
100
AcDbEntity
  8
1
100
AcDbLine
 10
37.161894143
 20
-38.182836026
 30
0.0
 11
37.197839469
 21
-38.075447082
 31
0.0
  0
LINE
  5
E3
330
1F
100
AcDbEntity
  8
1
100
AcDbLine
 10
37.197839469
 20
-38.075447082
 30
0.0
 11
37.166278809
 21
-37.95453906
 31
0.0
  0
LINE
  5
E4
330
1F
100
AcDbEntity
  8
1
100
AcDbLine
 10
37.166278809
 20
-37.95453906
 30
0.0
 11
37.05701232
 21
-37.844028324
 31
0.0
  0
LINE
  5
E5
330
1F
100
AcDbEntity
  8
1
100
AcDbLine
 10
37.05701232
 20
-37.844028324
 30
0.0
 11
36.948077381
 21
-37.78925538
 31
0.0
  0
LINE
  5
E6
330
1F
100
AcDbEntity
  8
1
100
AcDbLine
 10
37.1980778873
 20
-27.0000007
 30
0.0
 11
50.906904042
 21
-27.0000007
 31
0.0
  0
LINE
  5
E7
330
1F
100
AcDbEntity
  8
1
100
AcDbLine
 10
50.906904042
 20
-27.0000007
 30
0.0
 11
50.906904042
 21
-44.999554753
 31
0.0
  0
LINE
  5
E8
330
1F
100
AcDbEntity
  8
1
100
AcDbLine
 10
50.906904042
 20
-44.999554753
 30
0.0
 11
37.156332284
 21
-44.999554753
 31
0.0
  0
LINE
  5
E9
330
1F
100
AcDbEntity
  8
1
100
AcDbLine
 10
36.948077381
 20
-44.654324651
 30
0.0
 11
37.077344954
 21
-44.640827924
 31
0.0
  0
LINE
  5
EA
330
1F
100
AcDbEntity
  8
1
100
AcDbLine
 10
37.077344954
 20
-44.640827924
 30
0.0
 11
37.163641304
 21
-44.622357935
 31
0.0
  0
LINE
  5
EB
330
1F
100
AcDbEntity
  8
1
100
AcDbLine
 10
37.163641304
 20
-44.622357935
 30
0.0
 11
37.197757512
 21
-44.600602239
 31
0.0
  0
LINE
  5
EC
330
1F
100
AcDbEntity
  8
1
100
AcDbLine
 10
37.197757512
 20
-44.600602239
 30
0.0
 11
37.175156176
 21
-44.577818364
 31
0.0
  0
LINE
  5
ED
330
1F
100
AcDbEntity
  8
1
100
AcDbLine
 10
37.175156176
 20
-44.577818364
 30
0.0
 11
37.097681314
 21
-44.556744397
 31
0.0
  0
LINE
  5
EE
330
1F
100
AcDbEntity
  8
1
100
AcDbLine
 10
37.097681314
 20
-44.556744397
 30
0.0
 11
36.97437793
 21
-44.540159404
 31
0.0
  0
LINE
  5
EF
330
1F
100
AcDbEntity
  8
1
100
AcDbLine
 10
36.97437793
 20
-44.540159404
 30
0.0
 11
36.948077381
 21
-44.537808746
 31
0.0
  0
LINE
  5
F0
330
1F
100
AcDbEntity
  8
1
100
AcDbLine
 10
36.948077381
 20
-43.487984687
 30
0.0
 11
37.077561021
 21
-43.459262699
 31
0.0
  0
LINE
  5
F1
330
1F
100
AcDbEntity
  8
1
100
AcDbLine
 10
37.077561021
 20
-43.459262699
 30
0.0
 11
37.163279951
 21
-43.420787901
 31
0.0
  0
LINE
  5
F2
330
1F
100
AcDbEntity
  8
1
100
AcDbLine
 10
37.163279951
 20
-43.420787901
 30
0.0
 11
37.197753787
 21
-43.375458568
 31
0.0
  0
LINE
  5
F3
330
1F
100
AcDbEntity
  8
1
100
AcDbLine
 10
37.197753787
 20
-43.375458568
 30
0.0
 11
37.173978984
 21
-43.327774852
 31
0.0
  0
LINE
  5
F4
330
1F
100
AcDbEntity
  8
1
100
AcDbLine
 10
37.173978984
 20
-43.327774852
 30
0.0
 11
37.091914564
 21
-43.284084648
 31
0.0
  0
LINE
  5
F5
330
1F
100
AcDbEntity
  8
1
100
AcDbLine
 10
37.091914564
 20
-43.284084648
 30
0.0
 11
36.948077381
 21
-43.248355389
 31
0.0
  0
LINE
  5
F6
330
1F
100
AcDbEntity
  8
1
100
AcDbLine
 10
58.534707874
 20
-46.13564536
 30
0.0
 11
58.537431061
 21
-46.136129647
 31
0.0
  0
LINE
  5
F7
330
1F
100
AcDbEntity
  8
1
100
AcDbLine
 10
58.537431061
 20
-46.136129647
 30
0.0
 11
69.272793829
 21
-48.037305474
 31
0.0
  0
LINE
  5
F8
330
1F
100
AcDbEntity
  8
1
100
AcDbLine
 10
58.534707874
 20
-46.313796192
 30
0.0
 11
58.534707874
 21
-46.13564536
 31
0.0
  0
LINE
  5
F9
330
1F
100
AcDbEntity
  8
1
100
AcDbLine
 10
58.3638039408
 20
-46.3144205816
 30
0.0
 11
50.906904042
 21
-44.999554753
 31
0.0
  0
LINE
  5
FA
330
1F
100
AcDbEntity
  8
1
100
AcDbLine
 10
50.906904042
 20
-27.0000007
 30
0.0
 11
56.718721986
 21
-28.675431386
 31
0.0
  0
LINE
  5
FB
330
1F
100
AcDbEntity
  8
1
100
AcDbLine
 10
56.718721986
 20
-28.675431386
 30
0.0
 11
65.097473562
 21
-30.991243198
 31
0.0
  0
LINE
  5
FC
330
1F
100
AcDbEntity
  8
1
100
AcDbLine
 10
65.097473562
 20
2.050264971
 30
0.0
 11
65.097473562
 21
-30.991243198
 31
0.0
  0
LINE
  5
FD
330
1F
100
AcDbEntity
  8
1
100
AcDbLine
 10
67.097477615
 20
-1.413836726
 30
0.0
 11
67.097477615
 21
-32.395929098
 31
0.0
  0
LINE
  5
FE
330
1F
100
AcDbEntity
  8
1
100
AcDbLine
 10
67.097477615
 20
-32.395929098
 30
0.0
 11
67.082151771
 21
-32.592870295
 31
0.0
  0
LINE
  5
FF
330
1F
100
AcDbEntity
  8
1
100
AcDbLine
 10
67.082151771
 20
-32.592870295
 30
0.0
 11
67.039206624
 21
-32.741419971
 31
0.0
  0
LINE
  5
100
330
1F
100
AcDbEntity
  8
1
100
AcDbLine
 10
67.039206624
 20
-32.741419971
 30
0.0
 11
66.982224584
 21
-32.833207399
 31
0.0
  0
LINE
  5
101
330
1F
100
AcDbEntity
  8
1
100
AcDbLine
 10
66.982224584
 20
-32.833207399
 30
0.0
 11
66.906422377
 21
-32.892372459
 31
0.0
  0
LINE
  5
102
330
1F
100
AcDbEntity
  8
1
100
AcDbLine
 10
66.906422377
 20
-32.892372459
 30
0.0
 11
66.803239286
 21
-32.916247845
 31
0.0
  0
LINE
  5
103
330
1F
100
AcDbEntity
  8
1
100
AcDbLine
 10
66.803239286
 20
-32.916247845
 30
0.0
 11
66.642917693
 21
-32.879844308
 31
0.0
  0
LINE
  5
104
330
1F
100
AcDbEntity
  8
1
100
AcDbLine
 10
66.642917693
 20
-32.879844308
 30
0.0
 11
66.365174949
 21
-32.684847712
 31
0.0
  0
LINE
  5
105
330
1F
100
AcDbEntity
  8
1
100
AcDbLine
 10
66.365174949
 20
-32.684847712
 30
0.0
 11
66.111251712
 21
-32.395001501
 31
0.0
  0
LINE
  5
106
330
1F
100
AcDbEntity
  8
1
100
AcDbLine
 10
67.097477615
 20
-1.413836726
 30
0.0
 11
65.097473562
 21
2.050264971
 31
0.0
  0
LINE
  5
107
330
1F
100
AcDbEntity
  8
1
100
AcDbLine
 10
54.2999999349
 20
23.431536053
 30
0.0
 11
54.2999999349
 21
27.0000006999
 31
0.0
  0
LINE
  5
108
330
1F
100
AcDbEntity
  8
1
100
AcDbLine
 10
65.097473562
 20
2.050264971
 30
0.0
 11
55.6397459622
 21
18.43153533
 31
0.0
  0
LINE
  5
109
330
1F
100
AcDbEntity
  8
1
100
AcDbLine
 10
67.825324833
 20
-2.674504416
 30
0.0
 11
67.825324833
 21
-19.500000402
 31
0.0
  0
LINE
  5
10A
330
1F
100
AcDbEntity
  8
1
100
AcDbLine
 10
70.153382489
 20
-19.5
 30
0.0
 11
70.153385401
 21
-6.706820335
 31
0.0
  0
LINE
  5
10B
330
1F
100
AcDbEntity
  8
1
100
AcDbLine
 10
70.153385401
 20
-6.706820335
 30
0.0
 11
70.6499964
 21
-7.566987071
 31
0.0
  0
LINE
  5
10C
330
1F
100
AcDbEntity
  8
1
100
AcDbLine
 10
70.6499964
 20
-7.566987071
 30
0.0
 11
70.6499964
 21
-36.264974624
 31
0.0
  0
LINE
  5
10D
330
1F
100
AcDbEntity
  8
1
100
AcDbLine
 10
70.6499964
 20
-36.264974624
 30
0.0
 11
70.492342114
 21
-36.410599947
 31
0.0
  0
LINE
  5
10E
330
1F
100
AcDbEntity
  8
1
100
AcDbLine
 10
70.208564401
 20
-36.360304803
 30
0.0
 11
70.492342114
 21
-36.410599947
 31
0.0
  0
LINE
  5
10F
330
1F
100
AcDbEntity
  8
1
100
AcDbLine
 10
70.208564401
 20
-47.245554626
 30
0.0
 11
70.208564401
 21
-36.360304803
 31
0.0
  0
LINE
  5
110
330
1F
100
AcDbEntity
  8
1
100
AcDbLine
 10
70.208564401
 20
-47.245554626
 30
0.0
 11
70.2085196973
 21
-47.2539961335
 31
0.0
  0
LINE
  5
111
330
1F
100
AcDbEntity
  8
1
100
AcDbLine
 10
67.097477615
 20
-1.413836726
 30
0.0
 11
67.825324833
 21
-2.674504416
 31
0.0
  0
LINE
  5
112
330
1F
100
AcDbEntity
  8
1
100
AcDbLine
 10
33.649999648
 20
-31.22195974
 30
0.0
 11
33.6999999999
 21
-31.3237030527
 31
0.0
  0
LINE
  5
113
330
1F
100
AcDbEntity
  8
1
100
AcDbLine
 10
33.649999648
 20
31.22195974
 30
0.0
 11
33.399999142
 21
30.568514736
 31
0.0
  0
LINE
  5
114
330
1F
100
AcDbEntity
  8
1
100
AcDbLine
 10
33.700000495
 20
31.323704869
 30
0.0
 11
33.649999648
 21
31.22195974
 31
0.0
  0
LINE
  5
115
330
1F
100
AcDbEntity
  8
1
100
AcDbLine
 10
33.7000019125
 20
36.5085404003
 30
0.0
 11
33.6499996489
 21
36.4260412753
 31
0.0
  0
LINE
  5
116
330
1F
100
AcDbEntity
  8
1
100
AcDbLine
 10
33.649999648
 20
-36.426041275
 30
0.0
 11
33.700000001
 21
-36.5085449934
 31
0.0
  0
LINE
  5
117
330
1F
100
AcDbEntity
  8
1
100
AcDbLine
 10
33.7
 20
-39.4267641792
 30
0.0
 11
33.649999648
 21
-39.385579526
 31
0.0
  0
LINE
  5
118
330
1F
100
AcDbEntity
  8
1
100
AcDbLine
 10
33.6500005549
 20
37.4500006439
 30
0.0
 11
33.7000014019
 21
37.5000014899
 31
0.0
  0
LINE
  5
119
330
1F
100
AcDbEntity
  8
1
100
AcDbLine
 10
36.1830766515
 20
37.5000000002
 30
0.0
 11
33.7000014019
 21
37.5000014899
 31
0.0
  0
LINE
  5
11A
330
1F
100
AcDbEntity
  8
1
100
AcDbLine
 10
33.649999648
 20
-39.385579526
 30
0.0
 11
33.569909632
 21
-39.325769991
 31
0.0
  0
LINE
  5
11B
330
1F
100
AcDbEntity
  8
1
100
AcDbLine
 10
33.569909632
 20
-39.325769991
 30
0.0
 11
33.492971212
 21
-39.284735918
 31
0.0
  0
LINE
  5
11C
330
1F
100
AcDbEntity
  8
1
100
AcDbLine
 10
33.492971212
 20
-39.284735918
 30
0.0
 11
33.434603363
 21
-39.277032018
 31
0.0
  0
LINE
  5
11D
330
1F
100
AcDbEntity
  8
1
100
AcDbLine
 10
33.434603363
 20
-39.277032018
 30
0.0
 11
33.406894654
 21
-39.299879223
 31
0.0
  0
LINE
  5
11E
330
1F
100
AcDbEntity
  8
1
100
AcDbLine
 10
33.406894654
 20
-39.299879223
 30
0.0
 11
33.399999142
 21
-39.336808026
 31
0.0
  0
LINE
  5
11F
330
1F
100
AcDbEntity
  8
1
100
AcDbLine
 10
33.649999648
 20
-40.086187422
 30
0.0
 11
33.7000000002
 21
-40.1568592149
 31
0.0
  0
LINE
  5
120
330
1F
100
AcDbEntity
  8
1
100
AcDbLine
 10
33.4000000484
 20
37.2000001374
 30
0.0
 11
33.4075959154
 21
37.2075960044
 31
0.0
  0
LINE
  5
121
330
1F
100
AcDbEntity
  8
1
100
AcDbLine
 10
33.4075959154
 20
37.2075960044
 30
0.0
 11
33.4301562734
 21
37.2301526374
 31
0.0
  0
LINE
  5
122
330
1F
100
AcDbEntity
  8
1
100
AcDbLine
 10
33.4301562734
 20
37.2301526374
 30
0.0
 11
33.4669882184
 21
37.2669883074
 31
0.0
  0
LINE
  5
123
330
1F
100
AcDbEntity
  8
1
100
AcDbLine
 10
33.4669882184
 20
37.2669883074
 30
0.0
 11
33.5169778884
 21
37.3169779784
 31
0.0
  0
LINE
  5
124
330
1F
100
AcDbEntity
  8
1
100
AcDbLine
 10
33.5169778884
 20
37.3169779784
 30
0.0
 11
33.5786053664
 21
37.3786054554
 31
0.0
  0
LINE
  5
125
330
1F
100
AcDbEntity
  8
1
100
AcDbLine
 10
33.5786053664
 20
37.3786054554
 30
0.0
 11
33.6500005549
 21
37.4500006439
 31
0.0
  0
LINE
  5
126
330
1F
100
AcDbEntity
  8
1
100
AcDbLine
 10
33.699999999
 20
-42.1754697565
 30
0.0
 11
33.649999648
 21
-42.132858187
 31
0.0
  0
LINE
  5
127
330
1F
100
AcDbEntity
  8
1
100
AcDbLine
 10
33.649999648
 20
-42.132858187
 30
0.0
 11
33.55653584
 21
-42.059019208
 31
0.0
  0
LINE
  5
128
330
1F
100
AcDbEntity
  8
1
100
AcDbLine
 10
33.55653584
 20
-42.059019208
 30
0.0
 11
33.477492631
 21
-42.010243982
 31
0.0
  0
LINE
  5
129
330
1F
100
AcDbEntity
  8
1
100
AcDbLine
 10
33.477492631
 20
-42.010243982
 30
0.0
 11
33.421751112
 21
-41.995510459
 31
0.0
  0
LINE
  5
12A
330
1F
100
AcDbEntity
  8
1
100
AcDbLine
 10
33.421751112
 20
-41.995510459
 30
0.0
 11
33.401165158
 21
-42.014349252
 31
0.0
  0
LINE
  5
12B
330
1F
100
AcDbEntity
  8
1
100
AcDbLine
 10
33.401165158
 20
-42.014349252
 30
0.0
 11
33.399999142
 21
-42.02549532
 31
0.0
  0
LINE
  5
12C
330
1F
100
AcDbEntity
  8
1
100
AcDbLine
 10
33.649999648
 20
-42.602211237
 30
0.0
 11
33.7000000007
 21
-42.6646554725
 31
0.0
  0
LINE
  5
12D
330
1F
100
AcDbEntity
  8
1
100
AcDbLine
 10
33.6999999997
 20
-43.943950262
 30
0.0
 11
33.649999648
 21
-43.89911145
 31
0.0
  0
LINE
  5
12E
330
1F
100
AcDbEntity
  8
1
100
AcDbLine
 10
33.649999648
 20
-43.89911145
 30
0.0
 11
33.544007689
 21
-43.808568269
 31
0.0
  0
LINE
  5
12F
330
1F
100
AcDbEntity
  8
1
100
AcDbLine
 10
33.544007689
 20
-43.808568269
 30
0.0
 11
33.464316279
 21
-43.750036508
 31
0.0
  0
LINE
  5
130
330
1F
100
AcDbEntity
  8
1
100
AcDbLine
 10
33.464316279
 20
-43.750036508
 30
0.0
 11
33.418286592
 21
-43.726928532
 31
0.0
  0
LINE
  5
131
330
1F
100
AcDbEntity
  8
1
100
AcDbLine
 10
33.418286592
 20
-43.726928532
 30
0.0
 11
33.400159329
 21
-43.7342152
 31
0.0
  0
LINE
  5
132
330
1F
100
AcDbEntity
  8
1
100
AcDbLine
 10
33.400159329
 20
-43.7342152
 30
0.0
 11
33.399999142
 21
-43.73671487
 31
0.0
  0
LINE
  5
133
330
1F
100
AcDbEntity
  8
1
100
AcDbLine
 10
33.649999648
 20
-44.170059264
 30
0.0
 11
33.6999999999
 21
-44.2263757404
 31
0.0
  0
LINE
  5
134
330
1F
100
AcDbEntity
  8
1
100
AcDbLine
 10
33.7000000004
 20
-44.8483141281
 30
0.0
 11
33.649999648
 21
-44.800516218
 31
0.0
  0
LINE
  5
135
330
1F
100
AcDbEntity
  8
1
100
AcDbLine
 10
67.825324833
 20
-2.674504416
 30
0.0
 11
70.153385401
 21
-6.706820335
 31
0.0
  0
LINE
  5
136
330
1F
100
AcDbEntity
  8
1
100
AcDbLine
 10
33.6500005547
 20
-44.8892004781
 30
0.0
 11
33.7000009056
 21
-44.9407587337
 31
0.0
  0
LINE
  5
137
330
1F
100
AcDbEntity
  8
1
100
AcDbLine
 10
33.4000000484
 20
37.2000001374
 30
0.0
 11
33.4000000484
 21
-44.6140803393
 31
0.0
  0
LINE
  5
138
330
1F
100
AcDbEntity
  8
1
100
AcDbLine
 10
50.906904042
 20
44.999554753
 30
0.0
 11
37.356331944
 21
44.999554753
 31
0.0
  0
LINE
  5
139
330
1F
100
AcDbEntity
  8
1
100
AcDbLine
 10
58.2896704884167
 20
46.30134898782133
 30
0.0
 11
50.906904042
 21
44.999554753
 31
0.0
  0
LINE
  5
13A
330
1F
100
AcDbEntity
  8
1
100
AcDbLine
 10
57.313285768
 20
36.887090653
 30
0.0
 11
58.299999684
 21
38.063015789
 31
0.0
  0
LINE
  5
13B
330
1F
100
AcDbEntity
  8
1
100
AcDbLine
 10
62.283430248
 20
34.720517695
 30
0.0
 11
61.2967155521
 21
33.5445968228
 31
0.0
  0
LINE
  5
13C
330
1F
100
AcDbEntity
  8
1
100
AcDbLine
 10
70.6499964
 20
36.264974624
 30
0.0
 11
70.645272732
 21
36.264136434
 31
0.0
  0
LINE
  5
13D
330
1F
100
AcDbEntity
  8
1
100
AcDbLine
 10
70.6499964
 20
7.566987071
 30
0.0
 11
70.6499964
 21
36.264974624
 31
0.0
  0
LINE
  5
13E
330
1F
100
AcDbEntity
  8
1
100
AcDbLine
 10
66.281199455
 20
0.0
 30
0.0
 11
70.6499964
 21
7.566987071
 31
0.0
  0
LINE
  5
13F
330
1F
100
AcDbEntity
  8
1
100
AcDbLine
 10
70.6499964
 20
36.264974624
 30
0.0
 11
70.648528635
 21
36.26633063
 31
0.0
  0
LINE
  5
140
330
1F
100
AcDbEntity
  8
1
100
AcDbLine
 10
33.8499993088
 20
44.8892004792
 30
0.0
 11
33.9000001548
 21
44.9407584972
 31
0.0
  0
LINE
  5
141
330
1F
100
AcDbEntity
  8
1
100
AcDbLine
 10
33.599998802
 20
37.399999797
 30
0.0
 11
33.599998802
 21
44.61408034
 31
0.0
  0
LINE
  5
143
330
1F
100
AcDbEntity
  8
CUT
100
AcDbLine
 10
70.0610799726
 20
48.9878469776
 30
0.0
 11
58.9610812724
 21
47.030616871
 31
0.0
  0
LINE
  5
144
330
1F
100
AcDbEntity
  8
CUT
100
AcDbLine
 10
71.000000986
 20
36.9287666511
 30
0.0
 11
70.999998661
 21
48.2000011741
 31
0.0
  0
LINE
  5
146
330
1F
100
AcDbEntity
  8
CUT
100
AcDbLine
 10
71.0
 20
-36.928764607
 30
0.0
 11
71.0
 21
-48.199999999
 31
0.0
  0
LINE
  5
147
330
1F
100
AcDbEntity
  8
CUT
100
AcDbLine
 10
70.41554549
 20
-48.199999999
 30
0.0
 11
70.41554549
 21
-36.928764607
 31
0.0
  0
LINE
  5
148
330
1F
100
AcDbEntity
  8
1
100
AcDbLine
 10
70.2374290815
 20
-36.7164937373
 30
0.0
 11
70.208564401
 21
-36.711402237
 31
0.0
  0
LINE
  5
149
330
1F
100
AcDbEntity
  8
CUT
100
AcDbLine
 10
59.062570333
 20
-46.455040574
 30
0.0
 11
70.1625709185
 21
-48.4122708687
 31
0.0
  0
LINE
  5
14A
330
1F
100
AcDbEntity
  8
1
100
AcDbLine
 10
58.8844534357
 20
-46.1975965949
 30
0.0
 11
58.8844549177
 21
-46.2427701709
 31
0.0
  0
LINE
  5
14B
330
1F
100
AcDbEntity
  8
CUT
100
AcDbLine
 10
70.0610814579
 20
-48.9878462014
 30
0.0
 11
58.96108225
 21
-47.030616552
 31
0.0
  0
LINE
  5
14C
330
1F
100
AcDbEntity
  8
1
100
AcDbLine
 10
69.269642234
 20
-48.0339564379
 30
0.0
 11
69.109521806
 21
-47.837384045
 31
0.0
  0
LINE
  5
14D
330
1F
100
AcDbEntity
  8
1
100
AcDbLine
 10
69.109521806
 20
-47.837384045
 30
0.0
 11
68.784579635
 21
-47.28018865
 31
0.0
  0
LINE
  5
14E
330
1F
100
AcDbEntity
  8
1
100
AcDbLine
 10
68.784579635
 20
-47.28018865
 30
0.0
 11
68.464107812
 21
-46.516869217
 31
0.0
  0
LINE
  5
14F
330
1F
100
AcDbEntity
  8
1
100
AcDbLine
 10
68.464107812
 20
-46.516869217
 30
0.0
 11
68.142667413
 21
-45.524671674
 31
0.0
  0
LINE
  5
150
330
1F
100
AcDbEntity
  8
1
100
AcDbLine
 10
68.142667413
 20
-45.524671674
 30
0.0
 11
67.827783525
 21
-44.319666922
 31
0.0
  0
LINE
  5
151
330
1F
100
AcDbEntity
  8
1
100
AcDbLine
 10
67.827783525
 20
-44.319666922
 30
0.0
 11
67.52153486
 21
-42.911227792
 31
0.0
  0
LINE
  5
152
330
1F
100
AcDbEntity
  8
1
100
AcDbLine
 10
67.52153486
 20
-42.911227792
 30
0.0
 11
67.226007581
 21
-41.308727115
 31
0.0
  0
LINE
  5
153
330
1F
100
AcDbEntity
  8
1
100
AcDbLine
 10
67.226007581
 20
-41.308727115
 30
0.0
 11
66.943272948
 21
-39.521537721
 31
0.0
  0
LINE
  5
154
330
1F
100
AcDbEntity
  8
1
100
AcDbLine
 10
66.943272948
 20
-39.521537721
 30
0.0
 11
66.648215055
 21
-37.349160761
 31
0.0
  0
LINE
  5
155
330
1F
100
AcDbEntity
  8
1
100
AcDbLine
 10
66.648215055
 20
-37.349160761
 30
0.0
 11
66.370099783
 21
-34.967184067
 31
0.0
  0
LINE
  5
156
330
1F
100
AcDbEntity
  8
1
100
AcDbLine
 10
66.370099783
 20
-34.967184067
 30
0.0
 11
66.111251712
 21
-32.395001501
 31
0.0
  0
LINE
  5
157
330
1F
100
AcDbEntity
  8
1
100
AcDbLine
 10
69.272793829
 20
-48.037305474
 30
0.0
 11
69.269642234
 21
-48.0339564379
 31
0.0
  0
LINE
  5
158
330
1F
100
AcDbEntity
  8
CUT
100
AcDbLine
 10
70.41554549
 20
-48.199999999
 30
0.0
 11
71.0
 21
-48.199999999
 31
0.0
  0
LINE
  5
159
330
1F
100
AcDbEntity
  8
CUT
100
AcDbLine
 10
70.1625709185
 20
-48.4122708687
 30
0.0
 11
70.0610814579
 21
-48.9878462014
 31
0.0
  0
LINE
  5
15A
330
1F
100
AcDbEntity
  8
CUT
100
AcDbLine
 10
70.2374290815
 20
-36.7164937373
 30
0.0
 11
70.297457278
 21
-36.376059055
 31
0.0
  0
LINE
  5
15B
330
1F
100
AcDbEntity
  8
CUT
100
AcDbLine
 10
70.41554549
 20
-36.928764607
 30
0.0
 11
71.0
 21
-36.928764607
 31
0.0
  0
LINE
  5
15C
330
1F
100
AcDbEntity
  8
CUT
100
AcDbLine
 10
59.062570333
 20
-46.455040574
 30
0.0
 11
58.96108225
 21
-47.030616552
 31
0.0
  0
LINE
  5
15D
330
1F
100
AcDbEntity
  8
CUT
100
AcDbLine
 10
58.8844549177
 20
-46.2427701709
 30
0.0
 11
58.5347082817
 21
-46.2427694649
 31
0.0
  0
ARC
  5
15E
330
1F
100
AcDbEntity
  8
1
100
AcDbCircle
 10
26.468662135
 20
-51.9790845749
 30
0.0
 40
14.97908934512975
100
AcDbArc
 50
89.9520419841
 51
151.929253223
  0
ARC
  5
15F
330
1F
100
AcDbEntity
  8
SK1
  6
Continuous
370
    50
100
AcDbCircle
 10
-0.3
 20
-18.2
 30
0.0
 40
0.5000000000000225
100
AcDbArc
 50
53.130102354
 51
105.0
  0
ARC
  5
160
330
1F
100
AcDbEntity
  8
SK1
  6
Continuous
370
    50
100
AcDbCircle
 10
-0.3000000092
 20
18.2000008298
 30
0.0
 40
0.4999999999999968
100
AcDbArc
 50
255.0000026498
 51
306.8699002958
  0
ARC
  5
161
330
1F
100
AcDbEntity
  8
SK1
  6
Continuous
370
    50
100
AcDbCircle
 10
-39.018504542
 20
-17.0
 30
0.0
 40
1.000000000000014
100
AcDbArc
 50
227.039385809
 51
280.0
  0
ARC
  5
162
330
1F
100
AcDbEntity
  8
SK1
  6
Continuous
370
    50
100
AcDbCircle
 10
-39.018504542
 20
17.0
 30
0.0
 40
1.000000000000035
100
AcDbArc
 50
80.0
 51
132.960614191
  0
ARC
  5
163
330
1F
100
AcDbEntity
  8
SK1
  6
Continuous
370
    50
100
AcDbCircle
 10
-17.1516525294
 20
0.5772525239
 30
0.0
 40
6.430223496427081
100
AcDbArc
 50
187.8411124333
 51
274.921490825
  0
ARC
  5
164
330
1F
100
AcDbEntity
  8
SK1
  6
Continuous
370
    50
100
AcDbCircle
 10
-15.0473330016
 20
-0.6583179349
 30
0.0
 40
5.171214216100957
100
AcDbArc
 50
269.4164494706
 51
306.0773387036
  0
ARC
  5
165
330
1F
100
AcDbEntity
  8
SK1
  6
Continuous
370
    50
100
AcDbCircle
 10
-14.8834491827
 20
0.0705544776
 30
0.0
 40
5.691580085284342
100
AcDbArc
 50
300.4139163041
 51
356.2670882635999
  0
ARC
  5
166
330
1F
100
AcDbEntity
  8
SK1
  6
Continuous
370
    50
100
AcDbCircle
 10
-14.8605273829
 20
-0.0564182718
 30
0.0
 40
5.667800401897277
100
AcDbArc
 50
3.6054256061
 51
59.7135704197
  0
ARC
  5
167
330
1F
100
AcDbEntity
  8
SK1
  6
Continuous
370
    50
100
AcDbCircle
 10
-15.0473321999
 20
0.6583188577
 30
0.0
 40
5.171214216090752
100
AcDbArc
 50
53.92266394689999
 51
90.5835531733
  0
ARC
  5
168
330
1F
100
AcDbEntity
  8
SK1
  6
Continuous
370
    50
100
AcDbCircle
 10
-17.1515564412
 20
-0.57737091
 30
0.0
 40
6.430334099652721
100
AcDbArc
 50
85.079448339
 51
172.1579537048
  0
ARC
  5
169
330
1F
100
AcDbEntity
  8
SK1
  6
Continuous
370
    50
100
AcDbCircle
 10
-16.6380617231
 20
1.243051802
 30
0.0
 40
6.975709189112758
100
AcDbArc
 50
192.779734618
 51
270.312629191
  0
ARC
  5
16A
330
1F
100
AcDbEntity
  8
SK1
  6
Continuous
370
    50
100
AcDbCircle
 10
-16.638060833
 20
-1.2430509527
 30
0.0
 40
6.975709189000015
100
AcDbArc
 50
89.6873734588
 51
167.2202680318
  0
ARC
  5
16B
330
1F
100
AcDbEntity
  8
SK1
  6
Continuous
370
    50
100
AcDbCircle
 10
-15.1389095731
 20
0.0000012256
 30
0.0
 40
4.50000006226454
100
AcDbArc
 50
3.8225564518
 51
131.9139490468
  0
ARC
  5
16C
330
1F
100
AcDbEntity
  8
SK1
  6
Continuous
370
    50
100
AcDbCircle
 10
-15.13891012
 20
-0.281083258
 30
0.0
 40
5.943171302000025
100
AcDbArc
 50
73.357788598
 51
129.149079114
  0
ARC
  5
16D
330
1F
100
AcDbEntity
  8
SK1
  6
Continuous
370
    50
100
AcDbCircle
 10
-15.1720535698
 20
-0.926069963
 30
0.0
 40
6.578053726024004
100
AcDbArc
 50
61.1907816642
 51
74.7220059288
  0
ARC
  5
16E
330
1F
100
AcDbEntity
  8
SK1
  6
Continuous
370
    50
100
AcDbCircle
 10
-15.172054445
 20
0.9260708798
 30
0.0
 40
6.578053725904929
100
AcDbArc
 50
285.277996721
 51
298.8092209894
  0
ARC
  5
16F
330
1F
100
AcDbEntity
  8
SK1
  6
Continuous
370
    50
100
AcDbCircle
 10
-15.13891012
 20
0.281083258
 30
0.0
 40
5.945272701999995
100
AcDbArc
 50
230.850920886
 51
286.642211402
  0
ARC
  5
170
330
1F
100
AcDbEntity
  8
SK1
  6
Continuous
370
    50
100
AcDbCircle
 10
-15.1389095731
 20
0.0000012256
 30
0.0
 40
4.500000302304217
100
AcDbArc
 50
228.0860466261
 51
356.177446271
  0
ARC
  5
171
330
1F
100
AcDbEntity
  8
SK1
  6
Continuous
370
    50
100
AcDbCircle
 10
-35.700000963
 20
0.0
 30
0.0
 40
0.300000014000075
100
AcDbArc
 50
89.99994461409999
 51
270.000055298
  0
ARC
  5
172
330
1F
100
AcDbEntity
  8
SK1
  6
Continuous
370
    50
100
AcDbCircle
 10
-15.0992897407
 20
1.1717611336
 30
0.0
 40
4.560793387474118
100
AcDbArc
 50
68.6479920413
 51
90.0089191112
  0
ARC
  5
173
330
1F
100
AcDbEntity
  8
SK1
  6
Continuous
370
    50
100
AcDbCircle
 10
-16.05
 20
-0.255039452
 30
0.0
 40
5.393683214999999
100
AcDbArc
 50
121.789368174
 51
144.394036889
  0
ARC
  5
174
330
1F
100
AcDbEntity
  8
SK1
  6
Continuous
370
    50
100
AcDbCircle
 10
-17.43781368
 20
-0.203528891
 30
0.0
 40
4.305312844999973
100
AcDbArc
 50
134.131013314
 51
173.29489975
  0
ARC
  5
175
330
1F
100
AcDbEntity
  8
SK1
  6
Continuous
370
    50
100
AcDbCircle
 10
-17.43781368
 20
0.203528891
 30
0.0
 40
4.307727477999998
100
AcDbArc
 50
186.70510025
 51
225.868986686
  0
ARC
  5
176
330
1F
100
AcDbEntity
  8
SK1
  6
Continuous
370
    50
100
AcDbCircle
 10
-16.05
 20
0.255039452
 30
0.0
 40
5.395994918000002
100
AcDbArc
 50
215.605963111
 51
238.210631826
  0
ARC
  5
177
330
1F
100
AcDbEntity
  8
SK1
  6
Continuous
370
    50
100
AcDbCircle
 10
-15.0992905191
 20
-1.171760213
 30
0.0
 40
4.560793387860713
100
AcDbArc
 50
269.991083532
 51
291.3520106085
  0
ARC
  5
178
330
1F
100
AcDbEntity
  8
SK1
  6
Continuous
370
    50
100
AcDbCircle
 10
-15.153871873
 20
-0.0038561042
 30
0.0
 40
4.484815404000001
100
AcDbArc
 50
183.786142722
 51
205.135637384
  0
ARC
  5
179
330
1F
100
AcDbEntity
  8
SK1
  6
Continuous
370
    50
100
AcDbCircle
 10
-15.1430564445
 20
0.0010680521
 30
0.0
 40
4.495791036039511
100
AcDbArc
 50
154.8907302964
 51
176.1874948978
  0
ARC
  5
17A
330
1F
100
AcDbEntity
  8
SK1
  6
Continuous
370
    50
100
AcDbCircle
 10
-15.1388930824
 20
0.0000131681
 30
0.0
 40
4.500020205348015
100
AcDbArc
 50
205.0992285058
 51
228.0859919563
  0
ARC
  5
17B
330
1F
100
AcDbEntity
  8
SK1
  6
Continuous
370
    50
100
AcDbCircle
 10
-15.1388982635
 20
-0.0000032333
 30
0.0
 40
4.500010935319982
100
AcDbArc
 50
131.914018278
 51
154.9008456257
  0
ARC
  5
17C
330
1F
100
AcDbEntity
  8
SK1
  6
Continuous
370
    50
100
AcDbCircle
 10
-2.2999993913
 20
0.0000015173
 30
0.0
 40
0.3000003118811584
100
AcDbArc
 50
270.0000360612
 51
90.0000360612
  0
ARC
  5
17D
330
1F
100
AcDbEntity
  8
1
100
AcDbCircle
 10
26.468662135
 20
51.979084575
 30
0.0
 40
14.979089345
100
AcDbArc
 50
208.070746777
 51
270.047958016
  0
ARC
  5
17E
330
1F
100
AcDbEntity
  8
1
100
AcDbCircle
 10
75.1026990665
 20
-38.0026108075
 30
0.0
 40
80.735831416
100
AcDbArc
 50
118.202290013
 51
120.846272818
  0
ARC
  5
17F
330
1F
100
AcDbEntity
  8
1
100
AcDbCircle
 10
36.7632821761
 20
33.5359873815
 30
0.0
 40
0.4291779288772798
100
AcDbArc
 50
295.5041887741
 51
64.49564494099998
  0
ARC
  5
180
330
1F
100
AcDbEntity
  8
1
100
AcDbCircle
 10
0.293453501
 20
-38.002611003
 30
0.0
 40
80.72734555957726
100
AcDbArc
 50
62.99587688449999
 51
65.783307686
  0
ARC
  5
181
330
1F
100
AcDbEntity
  8
1
100
AcDbCircle
 10
72.0795110389
 20
-55.7597473141
 30
0.0
 40
99.92964760700004
100
AcDbArc
 50
111.052120891
 51
112.538187133
  0
ARC
  5
182
330
1F
100
AcDbEntity
  8
1
100
AcDbCircle
 10
64.710394077
 20
-38.002611003
 30
0.0
 40
80.70660509299998
100
AcDbArc
 50
112.538187133
 51
112.596325357
  0
ARC
  5
183
330
1F
100
AcDbEntity
  8
1
100
AcDbCircle
 10
36.5259840875
 20
27.0431147739
 30
0.0
 40
0.6734752401790481
100
AcDbArc
 50
356.3295683022
 51
51.190050096
  0
ARC
  5
184
330
1F
100
AcDbEntity
  8
1
100
AcDbCircle
 10
9.6498525953
 20
-10.3104035414
 30
0.0
 40
46.69003569541977
100
AcDbArc
 50
54.2203776159
 51
54.50520341899999
  0
ARC
  5
185
330
1F
100
AcDbEntity
  8
1
100
AcDbCircle
 10
-10.098851345
 20
-38.002611003
 30
0.0
 40
80.70660509300001
100
AcDbArc
 50
54.505296738
 51
57.403999568
  0
ARC
  5
186
330
1F
100
AcDbEntity
  8
1
100
AcDbCircle
 10
36.481963043
 20
-27.0237360541
 30
0.0
 40
0.716508085999995
100
AcDbArc
 50
310.5820297139999
 51
1.898351868
  0
ARC
  5
187
330
1F
100
AcDbEntity
  8
1
100
AcDbCircle
 10
6.521161675
 20
86.557548812
 30
0.0
 40
131.570814858
100
AcDbArc
 50
281.921534352
 51
283.136063108
  0
ARC
  5
188
330
1F
100
AcDbEntity
  8
1
100
AcDbCircle
 10
13.708947136
 20
55.759747314
 30
0.0
 40
99.93210278200002
100
AcDbArc
 50
283.135797857
 51
283.447627668
  0
ARC
  5
189
330
1F
100
AcDbEntity
  8
1
100
AcDbCircle
 10
61.687205287
 20
55.759747314
 30
0.0
 40
99.91636036100002
100
AcDbArc
 50
253.733448918
 51
255.665407909
  0
ARC
  5
18A
330
1F
100
AcDbEntity
  8
1
100
AcDbCircle
 10
3.31664229
 20
55.759747314
 30
0.0
 40
99.91806841600004
100
AcDbArc
 50
287.7029864759999
 51
289.667891257
  0
ARC
  5
18B
330
1F
100
AcDbEntity
  8
1
100
AcDbCircle
 10
64.710394077
 20
38.002611003
 30
0.0
 40
80.706610068
100
AcDbArc
 50
247.403674643
 51
247.461812867
  0
ARC
  5
18C
330
1F
100
AcDbEntity
  8
1
100
AcDbCircle
 10
72.0795091785
 20
55.7597450164
 30
0.0
 40
99.93210526962682
100
AcDbArc
 50
247.4618128674
 51
249.416812296
  0
ARC
  5
18D
330
1F
100
AcDbEntity
  8
1
100
AcDbCircle
 10
0.293453501
 20
38.002611003
 30
0.0
 40
80.71032531500003
100
AcDbArc
 50
294.216692314
 51
297.004122026
  0
ARC
  5
18E
330
1F
100
AcDbEntity
  8
1
100
AcDbCircle
 10
36.762937572
 20
-33.535987139
 30
0.0
 40
0.4293264209999909
100
AcDbArc
 50
295.5458479050001
 51
64.454152095
  0
ARC
  5
18F
330
1F
100
AcDbEntity
  8
1
100
AcDbCircle
 10
75.102698922
 20
38.002611003
 30
0.0
 40
80.74850647900001
100
AcDbArc
 50
239.153727182
 51
241.797709987
  0
ARC
  5
190
330
1F
100
AcDbEntity
  8
1
100
AcDbCircle
 10
-10.098851345
 20
38.002611003
 30
0.0
 40
80.74606381500001
100
AcDbArc
 50
302.5960004319999
 51
305.494703262
  0
ARC
  5
191
330
1F
100
AcDbEntity
  8
1
100
AcDbCircle
 10
9.649852208
 20
10.310404078
 30
0.0
 40
46.69381902000003
100
AcDbArc
 50
305.4947965810001
 51
305.779621786
  0
ARC
  5
192
330
1F
100
AcDbEntity
  8
1
100
AcDbCircle
 10
36.695820711
 20
-90.2781478077
 30
0.0
 40
45.28093483930586
100
AcDbArc
 50
89.4172862264
 51
89.680807886
  0
ARC
  5
193
330
1F
100
AcDbEntity
  8
1
100
AcDbCircle
 10
37.6980771177
 20
86.5575488129
 30
0.0
 40
131.559072287
100
AcDbArc
 50
268.258514872
 51
269.673359302
  0
ARC
  5
194
330
1F
100
AcDbEntity
  8
1
100
AcDbCircle
 10
27.305771366
 20
86.557548812
 30
0.0
 40
131.561343011
100
AcDbArc
 50
272.785823685
 51
274.202913096
  0
ARC
  5
195
330
1F
100
AcDbEntity
  8
1
100
AcDbCircle
 10
48.090381057
 20
86.557548812
 30
0.0
 40
131.573241916
100
AcDbArc
 50
263.720905437
 51
265.141884429
  0
ARC
  5
196
330
1F
100
AcDbEntity
  8
1
100
AcDbCircle
 10
16.91346652
 20
86.557548812
 30
0.0
 40
131.576703739
100
AcDbArc
 50
277.329762228
 51
278.758042759
  0
ARC
  5
197
330
1F
100
AcDbEntity
  8
1
100
AcDbCircle
 10
58.482685902
 20
86.557548812
 30
0.0
 40
131.577200155
100
AcDbArc
 50
259.143438958
 51
260.580504153
  0
ARC
  5
198
330
1F
100
AcDbEntity
  8
1
100
AcDbCircle
 10
58.44706315
 20
-45.594652591
 30
0.0
 40
0.7245674959999796
100
AcDbArc
 50
263.401632993
 51
270.0
  0
ARC
  5
199
330
1F
100
AcDbEntity
  8
1
100
AcDbCircle
 10
58.44706315
 20
-45.594652591
 30
0.0
 40
0.7255303069999854
100
AcDbArc
 50
270.0
 51
276.948529268
  0
ARC
  5
19A
330
1F
100
AcDbEntity
  8
1
100
AcDbCircle
 10
109.9497087545
 20
0.3212305416
 30
0.0
 40
54.70095075459407
100
AcDbArc
 50
214.9198623271
 51
216.73363829
  0
ARC
  5
19B
330
1F
100
AcDbEntity
  8
1
100
AcDbCircle
 10
64.3000004209
 20
23.431535573
 30
0.0
 40
10.00000048600003
100
AcDbArc
 50
179.9999972498
 51
210.0
  0
ARC
  5
19C
330
1F
100
AcDbEntity
  8
1
100
AcDbCircle
 10
69.405598416
 20
-47.242546561
 30
0.0
 40
0.8030029120000196
100
AcDbArc
 50
260.252314018
 51
359.183023624
  0
ARC
  5
19D
330
1F
100
AcDbEntity
  8
1
100
AcDbCircle
 10
156.031164669
 20
-19.5000123797
 30
0.0
 40
88.20583983600001
100
AcDbArc
 50
179.9999922197
 51
185.3447141896
  0
ARC
  5
19E
330
1F
100
AcDbEntity
  8
1
100
AcDbCircle
 10
82.5909074513
 20
-26.370591492
 30
0.0
 40
14.44490005409443
100
AcDbArc
 50
185.3450241526
 51
192.606993773
  0
ARC
  5
19F
330
1F
100
AcDbEntity
  8
1
100
AcDbCircle
 10
72.4683662176
 20
-28.634544905
 30
0.0
 40
4.072276177583051
100
AcDbArc
 50
192.606993769
 51
207.00288411
  0
ARC
  5
1A0
330
1F
100
AcDbEntity
  8
1
100
AcDbCircle
 10
68.9893530832
 20
-30.4074120852
 30
0.0
 40
0.1675879149999991
100
AcDbArc
 50
207.0026237783
 51
270.0
  0
ARC
  5
1A1
330
1F
100
AcDbEntity
  8
1
100
AcDbCircle
 10
68.9893530832
 20
-30.4074120852
 30
0.0
 40
0.1675879149999879
100
AcDbArc
 50
270.0
 51
332.997376199
  0
ARC
  5
1A2
330
1F
100
AcDbEntity
  8
1
100
AcDbCircle
 10
65.5103399488
 20
-28.634544905
 30
0.0
 40
4.072276177567285
100
AcDbArc
 50
332.9971158891
 51
347.393006227
  0
ARC
  5
1A3
330
1F
100
AcDbEntity
  8
1
100
AcDbCircle
 10
55.3877987148
 20
-26.370591492
 30
0.0
 40
14.44490005441696
100
AcDbArc
 50
347.3930062259001
 51
354.654975849
  0
ARC
  5
1A4
330
1F
100
AcDbEntity
  8
1
100
AcDbCircle
 10
-18.0524579249
 20
-19.5
 30
0.0
 40
88.20584041390563
100
AcDbArc
 50
354.6552777693
 51
0.0
  0
ARC
  5
1A5
330
1F
100
AcDbEntity
  8
1
100
AcDbCircle
 10
35.5134338822
 20
-30.2060155079
 30
0.0
 40
2.122387765730367
100
AcDbArc
 50
185.264570522
 51
208.5992156085
  0
ARC
  5
1A6
330
1F
100
AcDbEntity
  8
1
100
AcDbCircle
 10
34.679605901
 20
35.652571446
 30
0.0
 40
1.28776729700001
100
AcDbArc
 50
143.085071114
 51
173.546312305
  0
ARC
  5
1A7
330
1F
100
AcDbEntity
  8
1
100
AcDbCircle
 10
34.8896987146
 20
-35.5690320043
 30
0.0
 40
1.507089468455216
100
AcDbArc
 50
188.712345395
 51
214.6562711681
  0
ARC
  5
1A8
330
1F
100
AcDbEntity
  8
1
100
AcDbCircle
 10
34.4636132918
 20
-39.3689213102
 30
0.0
 40
1.08463719123652
100
AcDbArc
 50
191.299185385
 51
221.3987794249
  0
ARC
  5
1A9
330
1F
100
AcDbEntity
  8
1
100
AcDbCircle
 10
34.5042889818
 20
-41.8028923962
 30
0.0
 40
1.169923448338385
100
AcDbArc
 50
199.282956072
 51
223.0960315244
  0
ARC
  5
1AA
330
1F
100
AcDbEntity
  8
1
100
AcDbCircle
 10
34.4366167109
 20
-43.3280657771
 30
0.0
 40
1.152267085168962
100
AcDbArc
 50
205.890122921
 51
226.9474351718
  0
ARC
  5
1AB
330
1F
100
AcDbEntity
  8
1
100
AcDbCircle
 10
69.426032942
 20
-47.316875589
 30
0.0
 40
0.7365469740154913
100
AcDbArc
 50
257.9918573449
 51
326.997428468
  0
ARC
  5
1AC
330
1F
100
AcDbEntity
  8
1
100
AcDbCircle
 10
32.8318349401
 20
-45.4891093179
 30
0.0
 40
1.069370818092206
100
AcDbArc
 50
40.0850181031
 51
57.90619383100001
  0
ARC
  5
1AD
330
1F
100
AcDbEntity
  8
1
100
AcDbCircle
 10
35.1654037874
 20
-43.2610127004
 30
0.0
 40
2.224284693393536
100
AcDbArc
 50
217.467827487
 51
227.0547545372
  0
ARC
  5
1AE
330
1F
100
AcDbEntity
  8
1
100
AcDbCircle
 10
59.3050008158
 20
35.2158439235
 30
0.0
 40
2.599998935084129
100
AcDbArc
 50
140.0000106771
 51
320.0
  0
ARC
  5
1AF
330
1F
100
AcDbEntity
  8
1
100
AcDbCircle
 10
36.895820371
 20
90.2781478077
 30
0.0
 40
45.28093483930586
100
AcDbArc
 50
270.319192114
 51
270.5827137736999
  0
ARC
  5
1B0
330
1F
100
AcDbEntity
  8
1
100
AcDbCircle
 10
37.8980762138
 20
-86.5575493114
 30
0.0
 40
131.5576027961655
100
AcDbArc
 50
90.32664033919998
 51
91.74148512800001
  0
ARC
  5
1B1
330
1F
100
AcDbEntity
  8
1
100
AcDbCircle
 10
35.3654025409
 20
43.2610127011
 30
0.0
 40
2.224284693263089
100
AcDbArc
 50
132.945245444
 51
142.5321725101
  0
ARC
  5
1B2
330
1F
100
AcDbEntity
  8
CUT
100
AcDbCircle
 10
59.099999842
 20
46.242770513
 30
0.0
 40
0.8000001580001503
100
AcDbArc
 50
100.0
 51
180.0000504919
  0
ARC
  5
1B3
330
1F
100
AcDbEntity
  8
CUT
100
AcDbCircle
 10
70.1999982426
 20
48.2000003023
 30
0.0
 40
0.8000004184411924
100
AcDbArc
 50
0.0000624352
 51
99.99997492459998
  0
ARC
  5
1B4
330
1F
100
AcDbEntity
  8
CUT
100
AcDbCircle
 10
70.1999998235
 20
36.9287657821
 30
0.0
 40
0.8000011625002403
100
AcDbArc
 50
280.0
 51
0.0000622374
  0
ARC
  5
1B5
330
1F
100
AcDbEntity
  8
CUT
100
AcDbCircle
 10
59.1000000307
 20
34.971535121
 30
0.0
 40
0.8000003466964546
100
AcDbArc
 50
179.9999939123
 51
279.999964971
  0
ARC
  5
1B6
330
1F
100
AcDbEntity
  8
CUT
100
AcDbCircle
 10
70.2
 20
-48.199999999
 30
0.0
 40
0.8000000000000114
100
AcDbArc
 50
260.0
 51
0.0
  0
ARC
  5
1B7
330
1F
100
AcDbEntity
  8
CUT
100
AcDbCircle
 10
70.2
 20
-48.199999999
 30
0.0
 40
0.2155454900000109
100
AcDbArc
 50
260.0
 51
0.0
  0
ARC
  5
1B8
330
1F
100
AcDbEntity
  8
CUT
100
AcDbCircle
 10
70.2
 20
-36.928764607
 30
0.0
 40
0.8000000000000175
100
AcDbArc
 50
0.0
 51
55.898251634
  0
ARC
  5
1B9
330
1F
100
AcDbEntity
  8
CUT
100
AcDbCircle
 10
70.2
 20
-36.928764607
 30
0.0
 40
0.2155454900000211
100
AcDbArc
 50
0.0
 51
80.0
  0
ARC
  5
1BA
330
1F
100
AcDbEntity
  8
CUT
100
AcDbCircle
 10
59.1000000603
 20
-46.2427701709
 30
0.0
 40
0.2155451426357899
100
AcDbArc
 50
180.0
 51
259.9998094113
  0
ARC
  5
1BB
330
1F
100
AcDbEntity
  8
CUT
100
AcDbCircle
 10
59.1000000603
 20
-46.2427701709
 30
0.0
 40
0.8000000488847948
100
AcDbArc
 50
184.429224501
 51
260.0000538381
  0
ARC
  5
1BC
330
1F
100
AcDbEntity
  8
1
100
AcDbCircle
 10
63.010737576
 20
40.52076756
 30
0.0
 40
0.2999999999428889
100
AcDbArc
 50
210.0
 51
296.615838194
  0
ARC
  5
1BD
330
1F
100
AcDbEntity
  8
1
100
AcDbCircle
 10
63.4587438161
 20
39.6267371308
 30
0.0
 40
0.6999999997642117
100
AcDbArc
 50
3.384161806
 51
116.6158381619
  0
ARC
  5
1BE
330
1F
100
AcDbEntity
  8
1
100
AcDbCircle
 10
64.4569999997
 20
39.6857675598
 30
0.0
 40
0.3000000001105292
100
AcDbArc
 50
183.3841617571
 51
270.0
  0
ARC
  5
1BF
330
1F
100
AcDbEntity
  8
1
100
AcDbCircle
 10
64.4569999997
 20
39.6857675598
 30
0.0
 40
0.3000000001105413
100
AcDbArc
 50
270.0
 51
356.615838194
  0
ARC
  5
1C0
330
1F
100
AcDbEntity
  8
1
100
AcDbCircle
 10
65.4552561837
 20
39.6267371308
 30
0.0
 40
0.7000000001105506
100
AcDbArc
 50
63.384161806
 51
176.615838215
  0
ARC
  5
1C1
330
1F
100
AcDbEntity
  8
1
100
AcDbCircle
 10
65.9032624239
 20
40.5207675601
 30
0.0
 40
0.299999999764221
100
AcDbArc
 50
243.3841618809
 51
330.0
  0
ARC
  5
1C2
330
1F
100
AcDbEntity
  8
1
100
AcDbCircle
 10
63.010737576
 20
42.19076756
 30
0.0
 40
0.3000000000000052
100
AcDbArc
 50
150.0
 51
236.615838194
  0
ARC
  5
1C3
330
1F
100
AcDbEntity
  8
1
100
AcDbCircle
 10
62.460487633
 20
41.35576756
 30
0.0
 40
0.6999999999428728
100
AcDbArc
 50
303.384161806
 51
56.6158382077
  0
ARC
  5
1C4
330
1F
100
AcDbEntity
  8
1
100
AcDbCircle
 10
63.010737576
 20
40.52076756
 30
0.0
 40
0.2999999999428889
100
AcDbArc
 50
123.384161774
 51
210.0
  0
ARC
  5
1C5
330
1F
100
AcDbEntity
  8
1
100
AcDbCircle
 10
66.4535123666
 20
41.3557675602
 30
0.0
 40
0.7000000000000046
100
AcDbArc
 50
123.3841617658
 51
236.6158382169
  0
ARC
  5
1C6
330
1F
100
AcDbEntity
  8
1
100
AcDbCircle
 10
65.9032624241
 20
42.1907675604
 30
0.0
 40
0.2999999997642387
100
AcDbArc
 50
303.3841617741
 51
30.0
  0
ARC
  5
1C7
330
1F
100
AcDbEntity
  8
1
100
AcDbCircle
 10
65.9032624239
 20
40.5207675601
 30
0.0
 40
0.2999999997642065
100
AcDbArc
 50
330.0
 51
56.615838226
  0
ARC
  5
1C8
330
1F
100
AcDbEntity
  8
1
100
AcDbCircle
 10
65.455256184
 20
43.0847979896
 30
0.0
 40
0.7000000000000194
100
AcDbArc
 50
183.384161806
 51
296.615838194
  0
ARC
  5
1C9
330
1F
100
AcDbEntity
  8
1
100
AcDbCircle
 10
64.4570000002
 20
43.0257675606
 30
0.0
 40
0.3000000000000114
100
AcDbArc
 50
3.3841617571
 51
90.0
  0
ARC
  5
1CA
330
1F
100
AcDbEntity
  8
1
100
AcDbCircle
 10
65.9032624241
 20
42.1907675604
 30
0.0
 40
0.2999999997642189
100
AcDbArc
 50
30.0
 51
116.6158381191
  0
ARC
  5
1CB
330
1F
100
AcDbEntity
  8
1
100
AcDbCircle
 10
64.4570000002
 20
43.0257675606
 30
0.0
 40
0.3000000000000114
100
AcDbArc
 50
90.0
 51
176.615838194
  0
ARC
  5
1CC
330
1F
100
AcDbEntity
  8
1
100
AcDbCircle
 10
63.4587438163
 20
43.0847979896
 30
0.0
 40
0.700000000110539
100
AcDbArc
 50
243.384161806
 51
356.615838215
  0
ARC
  5
1CD
330
1F
100
AcDbEntity
  8
1
100
AcDbCircle
 10
63.010737576
 20
42.19076756
 30
0.0
 40
0.3000000000000052
100
AcDbArc
 50
63.3841618808
 51
150.0
  0
ARC
  5
1CE
330
1F
100
AcDbEntity
  8
1
100
AcDbCircle
 10
230.6516245876
 20
-16.0148299274
 30
0.0
 40
164.3724411267935
100
AcDbArc
 50
185.7195016175
 51
187.095933649
  0
ARC
  5
1CF
330
1F
100
AcDbEntity
  8
1
100
AcDbCircle
 10
148.9156416556
 20
-26.1896939271
 30
0.0
 40
82.01322166000001
100
AcDbArc
 50
187.095933649
 51
192.474884001
  0
ARC
  5
1D0
330
1F
100
AcDbEntity
  8
1
100
AcDbCircle
 10
81.434118181
 20
-41.118856323
 30
0.0
 40
12.90001090956818
100
AcDbArc
 50
192.4753148371
 51
202.812008309
  0
ARC
  5
1D1
330
1F
100
AcDbEntity
  8
1
100
AcDbCircle
 10
73.928177817
 20
-44.275914391
 30
0.0
 40
4.757151682441365
100
AcDbArc
 50
202.8120082972
 51
218.681923559
  0
CIRCLE
  5
1D2
330
1F
100
AcDbEntity
  8
1
100
AcDbCircle
 10
64.457
 20
41.35576756
 30
0.0
 40
3.221499288000004
  0
DIMENSION
  5
1D3
330
1F
100
AcDbEntity
  8
SK2
100
AcDbDimension
280
     0
  2
_D
 10
-47.6877641716704
 20
-18.00000029339016
 30
0.0
 11
-47.6877645879
 21
-0.0000006809
 31
0.0
 70
   160
  1
%%c<>
 71
     5
 42
35.99999922499999
 73
     0
 74
     0
 75
     0
  3
SLDDIMSTYLE0
100
AcDbAlignedDimension
 13
-35.0
 23
17.999999225
 33
0.0
 14
-35.0
 24
-18.0
 34
0.0
 50
-89.99999867510002
100
AcDbRotatedDimension
1001
ACAD
1000
DSTYLE
1002
{
1070
   140
1040
3.5
1070
   340
1005
251
1070
   177
1070
   256
1070
   176
1070
   256
1070
   178
1070
   256
1070
   347
1005
14
1070
   346
1005
14
1070
   345
1005
14
1002
}
  0
DIMENSION
  5
1E0
330
1F
100
AcDbEntity
  8
2
  6
Continuous
370
    25
100
AcDbDimension
280
     0
  2
_D_1
 10
-56.7089409173
 20
-31.75000101299999
 30
0.0
 11
-56.7089409173
 21
0.0
 31
0.0
 70
   160
  1
%%c<>
 71
     5
 42
63.500002026
 73
     0
 74
     0
 75
     0
  3
SLDDIMSTYLE0
100
AcDbAlignedDimension
 13
0.500000024
 23
31.750001013
 33
0.0
 14
0.500000024
 24
-31.750001013
 34
0.0
 50
90.0
100
AcDbRotatedDimension
1001
ACAD
1000
DSTYLE
1002
{
1070
   140
1040
3.5
1070
   340
1005
251
1070
   177
1070
   256
1070
   176
1070
   256
1070
   178
1070
   256
1070
   347
1005
14
1070
   346
1005
14
1070
   345
1005
14
1002
}
  0
DIMENSION
  5
1EB
330
1F
100
AcDbEntity
  8
2
  6
Continuous
370
    25
100
AcDbDimension
280
     0
  2
_D_2
 10
-65.5381773457
 20
45.00000178800001
 30
0.0
 11
-65.5381773457
 21
0.0
 31
0.0
 70
   160
  1
%%c<>
 71
     5
 42
90.000003576
 73
     0
 74
     0
 75
     0
  3
SLDDIMSTYLE0
100
AcDbAlignedDimension
 13
1.500000013
 23
-45.000001788
 33
0.0
 14
1.500000013
 24
45.000001788
 34
0.0
 50
90.0
100
AcDbRotatedDimension
1001
ACAD
1000
DSTYLE
1002
{
1070
   140
1040
3.5
1070
   340
1005
251
1070
   177
1070
   256
1070
   176
1070
   256
1070
   178
1070
   256
1070
   347
1005
14
1070
   346
1005
14
1070
   345
1005
14
1002
}
  0
DIMENSION
  5
1F6
330
1F
100
AcDbEntity
  8
2
  6
Continuous
370
    25
100
AcDbDimension
280
     0
  2
_D_3
 10
83.85830763385232
 20
-48.98784599223502
 30
0.0
 11
83.8583068912
 21
0.0000005973
 31
0.0
 70
   160
  1
%%c98 - 153
 71
     5
 42
97.97569317900002
 73
     0
 74
     0
 75
     0
  3
SLDDIMSTYLE0
100
AcDbAlignedDimension
 13
70.0610799726
 23
48.9878469776
 33
0.0
 14
70.0610814579
 24
-48.9878462014
 34
0.0
 50
-89.9999991314
100
AcDbRotatedDimension
1001
ACAD
1000
DSTYLE
1002
{
1070
   140
1040
3.5
1070
   340
1005
251
1070
   177
1070
   256
1070
   176
1070
   256
1070
   178
1070
   256
1070
   347
1005
14
1070
   346
1005
14
1070
   345
1005
14
1002
}
  0
DIMENSION
  5
201
330
1F
100
AcDbEntity
  8
2
  6
Continuous
370
    25
100
AcDbDimension
280
     0
  2
_D_4
 10
0.0
 20
55.6754325483
 30
0.0
 11
35.4999993305
 21
55.6754325483
 31
0.0
 70
   160
  1
<>
 71
     5
 42
70.999998661
 73
     0
 74
     0
 75
     0
  3
SLDDIMSTYLE0
100
AcDbAlignedDimension
 13
70.999998661
 23
48.2000011741
 33
0.0
 14
0.0
 24
31.25
 34
0.0
100
AcDbRotatedDimension
1001
ACAD
1000
DSTYLE
1002
{
1070
   140
1040
3.5
1070
   340
1005
251
1070
   177
1070
   256
1070
   176
1070
   256
1070
   178
1070
   256
1070
   347
1005
14
1070
   346
1005
14
1070
   345
1005
14
1002
}
  0
DIMENSION
  5
20B
330
1F
100
AcDbEntity
  8
2
  6
Continuous
370
    25
100
AcDbDimension
280
     0
  2
_D_5
 10
0.0
 20
-55.929541091
 30
0.0
 11
18.5000004085
 21
-55.929541091
 31
0.0
 70
   160
  1
<>
 71
     5
 42
37.000000817
 73
     0
 74
     0
 75
     0
  3
SLDDIMSTYLE1
100
AcDbAlignedDimension
 13
37.000000817
 23
-44.699408114
 33
0.0
 14
0.0
 24
-31.25
 34
0.0
100
AcDbRotatedDimension
1001
ACAD
1000
DSTYLE
1002
{
1070
   140
1040
3.5
1070
   340
1005
251
1070
   177
1070
   256
1070
   176
1070
   256
1070
   178
1070
   256
1070
   347
1005
14
1070
   346
1005
14
1070
   345
1005
14
1002
}
  0
MTEXT
  5
216
330
1F
100
AcDbEntity
  8
SK6
100
AcDbMText
 10
-30.1187782488569
 20
-53.32191625381104
 30
0.0
 40
3.5
 41
0.0
 46
0.0
 71
     1
 72
     1
  1
319.605N
  7
BMG_Text
 73
     1
 44
1.0
  0
LINE
  5
2CC
330
1F
100
AcDbEntity
  8
1
100
AcDbLine
 10
62.283430248
 20
34.720517695
 30
0.0
 11
70.33891856749959
 21
36.14091843485099
 31
0.0
  0
LINE
  5
2CD
330
1F
100
AcDbEntity
  8
1
100
AcDbLine
 10
70.33891856749959
 20
36.14091843485099
 30
0.0
 11
70.6499964
 21
36.14091843485099
 31
0.0
  0
LINE
  5
2CE
330
1F
100
AcDbEntity
  8
1
100
AcDbLine
 10
58.299999684
 20
38.063015789
 30
0.0
 11
58.29999968400016
 21
46.24276980799994
 31
0.0
  0
LINE
  5
2CF
330
1F
100
AcDbEntity
  8
1
100
AcDbLine
 10
58.29999968400016
 20
46.24276980799994
 30
0.0
 11
58.2896704884167
 21
46.30134898782133
 31
0.0
  0
LINE
  5
2D6
330
1F
100
AcDbEntity
  8
CUT
100
AcDbLine
 10
59.24967161573291
 20
34.17153477430355
 30
0.0
 11
70.33891856749959
 21
36.14091843485099
 31
0.0
  0
LINE
  5
2D7
330
1F
100
AcDbEntity
  8
CUT
100
AcDbLine
 10
58.29999968400355
 20
34.97153520600037
 30
0.0
 11
58.29999968400016
 21
46.24276980799994
 31
0.0
  0
LINE
  5
2D9
330
1F
100
AcDbEntity
  8
1
100
AcDbLine
 10
58.2896704884167
 20
46.30134898782133
 30
0.0
 11
59.099999842
 21
46.242770513
 31
0.0
  0
LINE
  5
2DA
330
1F
100
AcDbEntity
  8
1
100
AcDbLine
 10
59.099999842
 20
46.242770513
 30
0.0
 11
70.1999982426
 21
48.2000003023
 31
0.0
  0
LINE
  5
2DB
330
1F
100
AcDbEntity
  8
1
100
AcDbLine
 10
70.1999982426
 20
48.2000003023
 30
0.0
 11
70.1999982426
 21
36.92165132652165
 31
0.0
  0
LINE
  5
2DC
330
1F
100
AcDbEntity
  8
1
100
AcDbLine
 10
70.1999982426
 20
36.92165132652165
 30
0.0
 11
70.6492625175
 21
36.26565262699999
 31
0.0
  0
CIRCLE
  5
2DE
330
1F
100
AcDbEntity
  8
CUT
100
AcDbCircle
 10
64.457
 20
41.35576756
 30
0.0
 40
3.221499288000004
  0
LINE
  5
2E0
330
1F
100
AcDbEntity
  8
NOCUT
100
AcDbLine
 10
58.2896704884167
 20
46.30134898782133
 30
0.0
 11
50.906904042
 21
44.999554753
 31
0.0
  0
LINE
  5
2E1
330
1F
100
AcDbEntity
  8
NOCUT
100
AcDbLine
 10
50.906904042
 20
44.999554753
 30
0.0
 11
1.50898225683769
 21
44.99955475300001
 31
0.0
  0
LINE
  5
2E2
330
1F
100
AcDbEntity
  8
NOCUT
100
AcDbLine
 10
1.50898225683769
 20
44.99955475300001
 30
0.0
 11
0.500000024
 21
43.999999762
 31
0.0
  0
LINE
  5
2E3
330
1F
100
AcDbEntity
  8
NOCUT
100
AcDbLine
 10
0.500000024
 20
43.999999762
 30
0.0
 11
0.500000024
 21
31.750001013
 31
0.0
  0
LINE
  5
2E4
330
1F
100
AcDbEntity
  8
NOCUT
100
AcDbLine
 10
0.500000024
 20
31.750001013
 30
0.0
 11
0.0
 21
31.25
 31
0.0
  0
LINE
  5
2E5
330
1F
100
AcDbEntity
  8
NOCUT
100
AcDbLine
 10
0.0
 20
31.25
 30
0.0
 11
0.0
 21
0.0
 31
0.0
  0
LINE
  5
2E6
330
1F
100
AcDbEntity
  8
NOCUT
100
AcDbLine
 10
0.0
 20
0.0
 30
0.0
 11
66.281199455
 21
0.0
 31
0.0
  0
LINE
  5
2E7
330
1F
100
AcDbEntity
  8
NOCUT
100
AcDbLine
 10
66.281199455
 20
0.0
 30
0.0
 11
70.6499964
 21
7.566987071
 31
0.0
  0
LINE
  5
2E8
330
1F
100
AcDbEntity
  8
NOCUT
100
AcDbLine
 10
70.6499964
 20
7.566987071
 30
0.0
 11
70.6499964
 21
36.264974624
 31
0.0
  0
LINE
  5
2E9
330
1F
100
AcDbEntity
  8
NOCUT
100
AcDbLine
 10
70.6499964
 20
36.264974624
 30
0.0
 11
70.6492625175
 21
36.26565262699999
 31
0.0
  0
LWPOLYLINE
  5
2F8
330
1F
100
AcDbEntity
  8
INFTOTAL
100
AcDbPolyline
 90
        4
 70
     1
 43
0.0
 10
110.9139731468393
 20
64.10359654907658
 10
110.9139731468393
 20
-71.51835467043558
 10
-93.52505124340456
 20
-71.51835467043558
 10
-93.52505124340456
 20
64.10359654907658
  0
LINE
  5
2FB
330
1F
100
AcDbEntity
  8
SK4
100
AcDbLine
 10
-42.544320534
 20
0.0
 30
0.0
 11
0.0
 21
0.0
 31
0.0
  0
LINE
  5
30E
330
1F
100
AcDbEntity
  8
3
100
AcDbLine
 10
0.0
 20
8.00002248
 30
0.0
 11
1.000000048
 21
8.00002248
 31
0.0
  0
LINE
  5
30F
330
1F
100
AcDbEntity
  8
3
100
AcDbLine
 10
1.000000047999997
 20
-8.000000408
 30
0.0
 11
0.0
 21
-8.000000408
 31
0.0
  0
LINE
  5
311
330
1F
100
AcDbEntity
  8
SK3
100
AcDbLine
 10
-3.848262330712753
 20
-8.000000408000002
 30
0.0
 11
0.0000000000000018
 21
-14.52178000877557
 31
0.0
  0
LINE
  5
312
330
1F
100
AcDbEntity
  8
SK3
100
AcDbLine
 10
-3.891011002
 20
7.927552797
 30
0.0
 11
0.0
 21
14.52178000877557
 31
0.0
  0
LINE
  5
321
330
1F
100
AcDbEntity
  8
NOCUT
100
AcDbLine
 10
70.6492625175
 20
36.26565262699999
 30
0.0
 11
70.1999982426
 21
36.92165132652165
 31
0.0
  0
LINE
  5
322
330
1F
100
AcDbEntity
  8
NOCUT
100
AcDbLine
 10
70.1999982426
 20
36.92165132652165
 30
0.0
 11
70.1999982426
 21
48.2000003023
 31
0.0
  0
LINE
  5
323
330
1F
100
AcDbEntity
  8
NOCUT
100
AcDbLine
 10
70.1999982426
 20
48.2000003023
 30
0.0
 11
59.099999842
 21
46.242770513
 31
0.0
  0
LINE
  5
324
330
1F
100
AcDbEntity
  8
NOCUT
100
AcDbLine
 10
59.099999842
 20
46.242770513
 30
0.0
 11
58.2896704884167
 21
46.30134898782133
 31
0.0
  0
ENDSEC
  0
SECTION
  2
OBJECTS
  0
DICTIONARY
  5
C
330
0
100
AcDbDictionary
281
     1
  3
ACAD_DETAILVIEWSTYLE
350
2D3
  3
ACAD_GROUP
350
D
  3
ACAD_LAYOUT
350
239
  3
ACAD_MATERIAL
350
24D
  3
ACAD_MLEADERSTYLE
350
26A
  3
ACAD_MLINESTYLE
350
17
  3
ACAD_PLOTSETTINGS
350
2AC
  3
ACAD_PLOTSTYLENAME
350
2AD
  3
ACAD_SCALELIST
350
217
  3
ACAD_SECTIONVIEWSTYLE
350
2D4
  3
ACAD_TABLESTYLE
350
2B9
  3
ACAD_VISUALSTYLE
350
23C
  3
ACDB_RECOMPOSE_DATA
350
351
  3
AcDbVariableDictionary
350
268
  3
APPDATA
350
2BC
  0
SUN
  5
2F9
330
29
100
AcDbSun
 90
        1
290
     0
 63
     7
421
 16777215
 40
1.0
291
     1
 91
  2455826
 92
 54000000
292
     0
 70
     2
 71
   256
280
     1
  0
DICTIONARY
  5
2BD
330
2
100
AcDbDictionary
280
     1
281
     1
  3
ACAD_LAYERSTATES
360
2BE
  0
DICTIONARY
  5
2D3
102
{ACAD_REACTORS
330
C
102
}
330
C
100
AcDbDictionary
281
     1
  0
DICTIONARY
  5
D
102
{ACAD_REACTORS
330
C
102
}
330
C
100
AcDbDictionary
281
     1
  0
DICTIONARY
  5
239
102
{ACAD_REACTORS
330
C
102
}
330
C
100
AcDbDictionary
281
     1
  3
Layout1
350
23B
  3
Model
350
23A
  0
DICTIONARY
  5
24D
102
{ACAD_REACTORS
330
C
102
}
330
C
100
AcDbDictionary
281
     1
  3
ByBlock
350
24F
  3
ByLayer
350
24E
  3
Global
350
250
  0
DICTIONARY
  5
26A
102
{ACAD_REACTORS
330
C
102
}
330
C
100
AcDbDictionary
281
     1
  3
Standard
350
2BB
  0
DICTIONARY
  5
17
102
{ACAD_REACTORS
330
C
102
}
330
C
100
AcDbDictionary
281
     1
  3
STANDARD
350
18
  0
DICTIONARY
  5
2AC
102
{ACAD_REACTORS
330
C
102
}
330
C
100
AcDbDictionary
281
     1
  0
ACDBDICTIONARYWDFLT
  5
2AD
102
{ACAD_REACTORS
330
C
102
}
330
C
100
AcDbDictionary
281
     1
  3
Normal
350
2AE
100
AcDbDictionaryWithDefault
340
2AE
  0
DICTIONARY
  5
217
102
{ACAD_REACTORS
330
C
102
}
330
C
100
AcDbDictionary
281
     1
  3
A0
350
218
  3
A1
350
219
  3
A2
350
21A
  3
A3
350
21B
  3
A4
350
21C
  3
A5
350
21D
  3
A6
350
21E
  3
A7
350
21F
  3
A8
350
220
  3
A9
350
221
  3
B0
350
222
  3
B1
350
223
  3
B2
350
224
  3
B3
350
225
  3
B4
350
226
  3
B5
350
227
  3
B6
350
228
  3
B7
350
229
  3
B8
350
22A
  3
B9
350
22B
  3
C0
350
22C
  3
C1
350
22D
  3
C2
350
22E
  3
C3
350
22F
  3
C4
350
230
  3
C5
350
231
  3
C6
350
232
  3
C7
350
233
  3
C8
350
234
  3
C9
350
235
  3
D0
350
236
  3
D1
350
237
  3
D2
350
238
  0
DICTIONARY
  5
2D4
102
{ACAD_REACTORS
330
C
102
}
330
C
100
AcDbDictionary
281
     1
  0
DICTIONARY
  5
2B9
102
{ACAD_REACTORS
330
C
102
}
330
C
100
AcDbDictionary
281
     1
  3
Standard
350
2BA
  0
DICTIONARY
  5
23C
102
{ACAD_REACTORS
330
C
102
}
330
C
100
AcDbDictionary
281
     1
  3
2dWireframe
350
241
  3
3D Hidden
350
243
  3
3dWireframe
350
242
  3
Basic
350
244
  3
Brighten
350
248
  3
ColorChange
350
24C
  3
Conceptual
350
246
  3
Dim
350
247
  3
EdgeColorOff
350
2B3
  3
Facepattern
350
24B
  3
Flat
350
23D
  3
FlatWithEdges
350
23E
  3
Gouraud
350
23F
  3
GouraudWithEdges
350
240
  3
Hidden
350
2B0
  3
JitterOff
350
2B1
  3
Linepattern
350
24A
  3
OverhangOff
350
2B2
  3
Realistic
350
245
  3
Shaded
350
2B8
  3
Shaded with edges
350
2B7
  3
Shades of Gray
350
2B4
  3
Sketchy
350
2B5
  3
Thicken
350
249
  3
Wireframe
350
2AF
  3
X-Ray
350
2B6
  0
XRECORD
  5
351
102
{ACAD_REACTORS
330
C
102
}
330
C
100
AcDbXrecord
280
     1
 90
        1
330
2BA
  0
DICTIONARY
  5
268
102
{ACAD_REACTORS
330
C
102
}
330
C
100
AcDbDictionary
281
     1
  3
CANNOSCALE
350
2D0
  3
CMLEADERSTYLE
350
2D2
  3
CTABLESTYLE
350
2D1
  3
DIMASSOC
350
26C
  3
HIDETEXT
350
26D
  3
MSLTSCALE
350
26B
  0
DICTIONARY
  5
2BC
102
{ACAD_REACTORS
330
C
102
}
330
C
100
AcDbDictionary
281
     1
  0
DICTIONARY
  5
2BE
102
{ACAD_REACTORS
330
2BD
102
}
330
2BD
100
AcDbDictionary
281
     1
  0
LAYOUT
  5
23B
102
{ACAD_REACTORS
330
239
102
}
330
239
100
AcDbPlotSettings
  1

  2
none_device
  4

  6

 40
0.0
 41
0.0
 42
0.0
 43
0.0
 44
0.0
 45
0.0
 46
0.0
 47
0.0
 48
0.0
 49
0.0
140
0.0
141
0.0
142
1.0
143
1.0
 70
   688
 72
     0
 73
     0
 74
     5
  7

 75
    16
 76
     0
 77
     2
 78
   300
147
1.0
148
0.0
149
0.0
100
AcDbLayout
  1
Layout1
 70
     1
 71
     1
 10
0.0
 20
0.0
 11
420.0
 21
297.0
 12
0.0
 22
0.0
 32
0.0
 14
1.000000000000000E+20
 24
1.000000000000000E+20
 34
1.000000000000000E+20
 15
-1.000000000000000E+20
 25
-1.000000000000000E+20
 35
-1.000000000000000E+20
146
0.0
 13
0.0
 23
0.0
 33
0.0
 16
1.0
 26
0.0
 36
0.0
 17
0.0
 27
1.0
 37
0.0
 76
     0
330
1B
  0
LAYOUT
  5
23A
102
{ACAD_REACTORS
330
239
102
}
330
239
100
AcDbPlotSettings
  1

  2
none_device
  4

  6

 40
0.0
 41
0.0
 42
0.0
 43
0.0
 44
0.0
 45
0.0
 46
0.0
 47
0.0
 48
0.0
 49
0.0
140
0.0
141
0.0
142
1.0
143
1.0
 70
  1712
 72
     0
 73
     0
 74
     0
  7

 75
     0
 76
     0
 77
     2
 78
   300
147
1.0
148
0.0000001104899866
149
0.0
100
AcDbLayout
  1
Model
 70
     1
 71
     0
 10
0.0
 20
0.0
 11
210.0
 21
297.0
 12
0.0
 22
0.0
 32
0.0
 14
-93.52505124340456
 24
-71.5183546704356
 34
0.0
 15
110.9139731468393
 25
64.10359654907657
 35
0.0
146
0.0
 13
0.0
 23
0.0
 33
0.0
 16
1.0
 26
0.0
 36
0.0
 17
0.0
 27
1.0
 37
0.0
 76
     0
330
1F
331
29
  0
MATERIAL
  5
24F
102
{ACAD_REACTORS
330
24D
102
}
330
24D
100
AcDbMaterial
  1
ByBlock
 72
     1
 94
      127
  0
MATERIAL
  5
24E
102
{ACAD_REACTORS
330
24D
102
}
330
24D
100
AcDbMaterial
  1
ByLayer
 72
     1
 94
      127
  0
MATERIAL
  5
250
102
{ACAD_REACTORS
330
24D
102
}
330
24D
100
AcDbMaterial
  1
Global
 72
     1
 94
      127
  0
MLEADERSTYLE
  5
2BB
102
{ACAD_REACTORS
330
26A
102
}
330
26A
100
AcDbMLeaderStyle
179
     2
170
     2
171
     1
172
     0
 90
        2
 40
0.0
 41
0.0
173
     1
 91
-1056964608
340
14
 92
       -2
290
     1
 42
2.0
291
     1
 43
8.0
  3
Standard
341
0
 44
4.0
300

342
11
174
     1
178
     1
175
     1
176
     0
 93
-1056964608
 45
4.0
292
     0
297
     0
 46
4.0
343
0
 94
-1056964608
 47
1.0
 49
1.0
140
1.0
293
     1
141
0.0
294
     1
177
     0
142
1.0
295
     0
296
     0
143
3.75
271
     0
272
     9
273
     9
298
     0
  0
MLINESTYLE
  5
18
102
{ACAD_REACTORS
330
17
102
}
330
17
100
AcDbMlineStyle
  2
Standard
 70
     0
  3

 62
   256
 51
90.0
 52
90.0
 71
     2
 49
0.5
 62
   256
  6
BYLAYER
 49
-0.5
 62
   256
  6
BYLAYER
  0
ACDBPLACEHOLDER
  5
2AE
102
{ACAD_REACTORS
330
2AD
102
}
330
2AD
  0
SCALE
  5
218
102
{ACAD_REACTORS
330
217
102
}
330
217
100
AcDbScale
 70
     0
300
1:1
140
1.0
141
1.0
290
     1
  0
SCALE
  5
219
102
{ACAD_REACTORS
330
217
102
}
330
217
100
AcDbScale
 70
     0
300
1:2
140
1.0
141
2.0
290
     0
  0
SCALE
  5
21A
102
{ACAD_REACTORS
330
217
102
}
330
217
100
AcDbScale
 70
     0
300
1:4
140
1.0
141
4.0
290
     0
  0
SCALE
  5
21B
102
{ACAD_REACTORS
330
217
102
}
330
217
100
AcDbScale
 70
     0
300
1:5
140
1.0
141
5.0
290
     0
  0
SCALE
  5
21C
102
{ACAD_REACTORS
330
217
102
}
330
217
100
AcDbScale
 70
     0
300
1:8
140
1.0
141
8.0
290
     0
  0
SCALE
  5
21D
102
{ACAD_REACTORS
330
217
102
}
330
217
100
AcDbScale
 70
     0
300
1:10
140
1.0
141
10.0
290
     0
  0
SCALE
  5
21E
102
{ACAD_REACTORS
330
217
102
}
330
217
100
AcDbScale
 70
     0
300
1:16
140
1.0
141
16.0
290
     0
  0
SCALE
  5
21F
102
{ACAD_REACTORS
330
217
102
}
330
217
100
AcDbScale
 70
     0
300
1:20
140
1.0
141
20.0
290
     0
  0
SCALE
  5
220
102
{ACAD_REACTORS
330
217
102
}
330
217
100
AcDbScale
 70
     0
300
1:30
140
1.0
141
30.0
290
     0
  0
SCALE
  5
221
102
{ACAD_REACTORS
330
217
102
}
330
217
100
AcDbScale
 70
     0
300
1:40
140
1.0
141
40.0
290
     0
  0
SCALE
  5
222
102
{ACAD_REACTORS
330
217
102
}
330
217
100
AcDbScale
 70
     0
300
1:50
140
1.0
141
50.0
290
     0
  0
SCALE
  5
223
102
{ACAD_REACTORS
330
217
102
}
330
217
100
AcDbScale
 70
     0
300
1:100
140
1.0
141
100.0
290
     0
  0
SCALE
  5
224
102
{ACAD_REACTORS
330
217
102
}
330
217
100
AcDbScale
 70
     0
300
2:1
140
2.0
141
1.0
290
     0
  0
SCALE
  5
225
102
{ACAD_REACTORS
330
217
102
}
330
217
100
AcDbScale
 70
     0
300
4:1
140
4.0
141
1.0
290
     0
  0
SCALE
  5
226
102
{ACAD_REACTORS
330
217
102
}
330
217
100
AcDbScale
 70
     0
300
8:1
140
8.0
141
1.0
290
     0
  0
SCALE
  5
227
102
{ACAD_REACTORS
330
217
102
}
330
217
100
AcDbScale
 70
     0
300
10:1
140
10.0
141
1.0
290
     0
  0
SCALE
  5
228
102
{ACAD_REACTORS
330
217
102
}
330
217
100
AcDbScale
 70
     0
300
100:1
140
100.0
141
1.0
290
     0
  0
SCALE
  5
229
102
{ACAD_REACTORS
330
217
102
}
330
217
100
AcDbScale
 70
     0
300
1/128" = 1'-0"
140
0.0078125
141
12.0
290
     0
  0
SCALE
  5
22A
102
{ACAD_REACTORS
330
217
102
}
330
217
100
AcDbScale
 70
     0
300
1/64" = 1'-0"
140
0.015625
141
12.0
290
     0
  0
SCALE
  5
22B
102
{ACAD_REACTORS
330
217
102
}
330
217
100
AcDbScale
 70
     0
300
1/32" = 1'-0"
140
0.03125
141
12.0
290
     0
  0
SCALE
  5
22C
102
{ACAD_REACTORS
330
217
102
}
330
217
100
AcDbScale
 70
     0
300
1/16" = 1'-0"
140
0.0625
141
12.0
290
     0
  0
SCALE
  5
22D
102
{ACAD_REACTORS
330
217
102
}
330
217
100
AcDbScale
 70
     0
300
3/32" = 1'-0"
140
0.09375
141
12.0
290
     0
  0
SCALE
  5
22E
102
{ACAD_REACTORS
330
217
102
}
330
217
100
AcDbScale
 70
     0
300
1/8" = 1'-0"
140
0.125
141
12.0
290
     0
  0
SCALE
  5
22F
102
{ACAD_REACTORS
330
217
102
}
330
217
100
AcDbScale
 70
     0
300
3/16" = 1'-0"
140
0.1875
141
12.0
290
     0
  0
SCALE
  5
230
102
{ACAD_REACTORS
330
217
102
}
330
217
100
AcDbScale
 70
     0
300
1/4" = 1'-0"
140
0.25
141
12.0
290
     0
  0
SCALE
  5
231
102
{ACAD_REACTORS
330
217
102
}
330
217
100
AcDbScale
 70
     0
300
3/8" = 1'-0"
140
0.375
141
12.0
290
     0
  0
SCALE
  5
232
102
{ACAD_REACTORS
330
217
102
}
330
217
100
AcDbScale
 70
     0
300
1/2" = 1'-0"
140
0.5
141
12.0
290
     0
  0
SCALE
  5
233
102
{ACAD_REACTORS
330
217
102
}
330
217
100
AcDbScale
 70
     0
300
3/4" = 1'-0"
140
0.75
141
12.0
290
     0
  0
SCALE
  5
234
102
{ACAD_REACTORS
330
217
102
}
330
217
100
AcDbScale
 70
     0
300
1" = 1'-0"
140
1.0
141
12.0
290
     0
  0
SCALE
  5
235
102
{ACAD_REACTORS
330
217
102
}
330
217
100
AcDbScale
 70
     0
300
1-1/2" = 1'-0"
140
1.5
141
12.0
290
     0
  0
SCALE
  5
236
102
{ACAD_REACTORS
330
217
102
}
330
217
100
AcDbScale
 70
     0
300
3" = 1'-0"
140
3.0
141
12.0
290
     0
  0
SCALE
  5
237
102
{ACAD_REACTORS
330
217
102
}
330
217
100
AcDbScale
 70
     0
300
6" = 1'-0"
140
6.0
141
12.0
290
     0
  0
SCALE
  5
238
102
{ACAD_REACTORS
330
217
102
}
330
217
100
AcDbScale
 70
     0
300
1'-0" = 1'-0"
140
12.0
141
12.0
290
     0
  0
TABLESTYLE
  5
2BA
102
{ACAD_REACTORS
330
2B9
102
}
102
{ACAD_XDICTIONARY
360
34F
102
}
330
2B9
100
AcDbTableStyle
  3
Standard
 70
     0
 71
     0
 40
1.5
 41
1.5
280
     0
281
     0
  7
STANDARD
140
4.5
170
     2
 62
     0
 63
   257
283
     0
 90
        4
 91
        0
  1

274
    -2
284
     1
 64
     0
275
    -2
285
     1
 65
     0
276
    -2
286
     1
 66
     0
277
    -2
287
     1
 67
     0
278
    -2
288
     1
 68
     0
279
    -2
289
     1
 69
     0
  7
STANDARD
140
6.0
170
     5
 62
     0
 63
   257
283
     0
 90
        4
 91
        0
  1

274
    -2
284
     1
 64
     0
275
    -2
285
     1
 65
     0
276
    -2
286
     1
 66
     0
277
    -2
287
     1
 67
     0
278
    -2
288
     1
 68
     0
279
    -2
289
     1
 69
     0
  7
STANDARD
140
4.5
170
     5
 62
     0
 63
   257
283
     0
 90
        4
 91
        0
  1

274
    -2
284
     1
 64
     0
275
    -2
285
     1
 65
     0
276
    -2
286
     1
 66
     0
277
    -2
287
     1
 67
     0
278
    -2
288
     1
 68
     0
279
    -2
289
     1
 69
     0
  0
VISUALSTYLE
  5
241
102
{ACAD_REACTORS
330
23C
102
}
330
23C
100
AcDbVisualStyle
  2
2dWireframe
 70
     4
177
     3
291
     0
 70
    58
 90
        0
176
     1
 90
        2
176
     1
 90
        0
176
     1
 90
        0
176
     1
 40
-0.6
176
     1
 40
-30.0
176
     1
 62
     7
176
     1
 90
        1
176
     1
 90
        4
176
     1
 62
     7
176
     1
 62
   257
176
     1
 90
        1
176
     1
 90
        1
176
     1
 40
1.0
176
     1
 90
        0
176
     1
 62
   257
176
     1
 40
1.0
176
     1
 90
        1
176
     1
 90
        6
176
     1
 90
        2
176
     1
 62
     7
176
     1
 90
        5
176
     1
 90
        0
176
     1
 90
        0
176
     1
290
     0
176
     1
 90
        1
176
     1
 40
0.0
176
     1
 90
        0
176
     1
290
     1
176
     1
290
     1
176
     1
290
     0
176
     1
290
     0
176
     1
290
     0
176
     1
290
     0
176
     1
290
     0
176
     1
290
     0
176
     1
290
     0
176
     1
 90
       50
176
     1
 40
0.0
176
     1
 40
1.0
176
     1
 90
        0
176
     1
 62
    18
420
        0
176
     1
 90
       50
176
     1
 90
        3
176
     1
 62
     5
420
      255
176
     1
290
     0
176
     1
 90
       50
176
     1
 90
       50
176
     1
 90
       50
176
     1
290
     0
176
     1
 90
       50
176
     1
 62
   256
176
     0
 40
1.0
176
     0
 90
        2
176
     1
  1
strokes_ogs.tif
176
     1
290
     0
176
     1
 40
1.0
176
     1
 40
1.0
176
     1
  0
VISUALSTYLE
  5
243
102
{ACAD_REACTORS
330
23C
102
}
330
23C
100
AcDbVisualStyle
  2
3D Hidden
 70
     6
177
     3
291
     0
 70
    58
 90
        1
176
     1
 90
        2
176
     1
 90
        2
176
     1
 90
        0
176
     1
 40
-0.6
176
     1
 40
-30.0
176
     1
 62
     7
176
     1
 90
        2
176
     1
 90
        2
176
     1
 62
     7
176
     1
 62
   257
176
     1
 90
        2
176
     1
 90
        1
176
     1
 40
40.0
176
     1
 90
        0
176
     1
 62
   257
176
     1
 40
1.0
176
     1
 90
        1
176
     1
 90
        6
176
     1
 90
        2
176
     1
 62
     7
176
     1
 90
        3
176
     1
 90
        0
176
     1
 90
        0
176
     1
290
     0
176
     1
 90
        1
176
     1
 40
0.0
176
     1
 90
        0
176
     1
290
     0
176
     1
290
     1
176
     1
290
     1
176
     1
290
     0
176
     1
290
     0
176
     1
290
     0
176
     1
290
     0
176
     1
290
     0
176
     1
290
     0
176
     1
 90
       50
176
     1
 40
0.0
176
     1
 40
1.0
176
     1
 90
        0
176
     1
 62
    18
420
        0
176
     1
 90
       50
176
     1
 90
        3
176
     1
 62
     5
420
      255
176
     1
290
     0
176
     1
 90
       50
176
     1
 90
       50
176
     1
 90
       50
176
     1
290
     0
176
     1
 90
       50
176
     1
 62
   256
176
     0
 40
1.0
176
     0
 90
        2
176
     1
  1
strokes_ogs.tif
176
     1
290
     0
176
     1
 40
1.0
176
     1
 40
1.0
176
     1
  0
VISUALSTYLE
  5
242
102
{ACAD_REACTORS
330
23C
102
}
330
23C
100
AcDbVisualStyle
  2
3dWireframe
 70
     5
177
     3
291
     0
 70
    58
 90
        0
176
     1
 90
        2
176
     1
 90
        0
176
     1
 90
        0
176
     1
 40
-0.6
176
     1
 40
-30.0
176
     1
 62
     7
176
     1
 90
        1
176
     1
 90
        4
176
     1
 62
     7
176
     1
 62
   257
176
     1
 90
        1
176
     1
 90
        1
176
     1
 40
1.0
176
     1
 90
        0
176
     1
 62
   257
176
     1
 40
1.0
176
     1
 90
        1
176
     1
 90
        6
176
     1
 90
        2
176
     1
 62
     7
176
     1
 90
        5
176
     1
 90
        0
176
     1
 90
        0
176
     1
290
     0
176
     1
 90
        1
176
     1
 40
0.0
176
     1
 90
        0
176
     1
290
     0
176
     1
290
     1
176
     1
290
     1
176
     1
290
     0
176
     1
290
     0
176
     1
290
     0
176
     1
290
     0
176
     1
290
     0
176
     1
290
     0
176
     1
 90
       50
176
     1
 40
0.0
176
     1
 40
1.0
176
     1
 90
        0
176
     1
 62
    18
420
        0
176
     1
 90
       50
176
     1
 90
        3
176
     1
 62
     5
420
      255
176
     1
290
     0
176
     1
 90
       50
176
     1
 90
       50
176
     1
 90
       50
176
     1
290
     0
176
     1
 90
       50
176
     1
 62
   256
176
     0
 40
1.0
176
     0
 90
        2
176
     1
  1
strokes_ogs.tif
176
     1
290
     0
176
     1
 40
1.0
176
     1
 40
1.0
176
     1
  0
VISUALSTYLE
  5
244
102
{ACAD_REACTORS
330
23C
102
}
330
23C
100
AcDbVisualStyle
  2
Basic
 70
     7
177
     3
291
     1
 70
    58
 90
        1
176
     1
 90
        0
176
     1
 90
        1
176
     1
 90
        0
176
     1
 40
-0.6
176
     1
 40
-30.0
176
     1
 62
     7
176
     1
 90
        0
176
     1
 90
        4
176
     1
 62
     7
176
     1
 62
   257
176
     1
 90
        1
176
     1
 90
        1
176
     1
 40
1.0
176
     1
 90
        8
176
     1
 62
     7
176
     1
 40
1.0
176
     1
 90
        1
176
     1
 90
        6
176
     1
 90
        2
176
     1
 62
     7
176
     1
 90
        5
176
     1
 90
        0
176
     1
 90
        0
176
     1
290
     0
176
     1
 90
        1
176
     1
 40
0.0
176
     1
 90
        0
176
     1
290
     0
176
     1
290
     1
176
     1
290
     1
176
     1
290
     0
176
     1
290
     0
176
     1
290
     0
176
     1
290
     0
176
     1
290
     0
176
     1
290
     0
176
     1
 90
       50
176
     1
 40
0.0
176
     1
 40
1.0
176
     1
 90
        0
176
     1
 62
    18
420
        0
176
     1
 90
       50
176
     1
 90
        3
176
     1
 62
     5
420
      255
176
     1
290
     0
176
     1
 90
       50
176
     1
 90
       50
176
     1
 90
       50
176
     1
290
     0
176
     1
 90
       50
176
     1
 62
   256
176
     0
 40
1.0
176
     0
 90
        2
176
     1
  1
strokes_ogs.tif
176
     1
290
     0
176
     1
 40
1.0
176
     1
 40
1.0
176
     1
  0
VISUALSTYLE
  5
248
102
{ACAD_REACTORS
330
23C
102
}
330
23C
100
AcDbVisualStyle
  2
Brighten
 70
    12
177
     3
291
     1
 70
    58
 90
        2
176
     1
 90
        2
176
     1
 90
        0
176
     1
 90
        0
176
     1
 40
-0.6
176
     1
 40
-30.0
176
     1
 62
     7
176
     1
 90
        1
176
     1
 90
        4
176
     1
 62
     7
176
     1
 62
   257
176
     1
 90
        1
176
     1
 90
        1
176
     1
 40
1.0
176
     1
 90
        8
176
     1
 62
     7
176
     1
 40
1.0
176
     1
 90
        1
176
     1
 90
        6
176
     1
 90
        2
176
     1
 62
     7
176
     1
 90
        5
176
     1
 90
        0
176
     1
 90
        0
176
     1
290
     0
176
     1
 90
        1
176
     1
 40
50.0
176
     1
 90
        0
176
     1
290
     0
176
     1
290
     1
176
     1
290
     1
176
     1
290
     0
176
     1
290
     0
176
     1
290
     0
176
     1
290
     0
176
     1
290
     0
176
     1
290
     0
176
     1
 90
       50
176
     1
 40
0.0
176
     1
 40
1.0
176
     1
 90
        0
176
     1
 62
    18
420
        0
176
     1
 90
       50
176
     1
 90
        3
176
     1
 62
     5
420
      255
176
     1
290
     0
176
     1
 90
       50
176
     1
 90
       50
176
     1
 90
       50
176
     1
290
     0
176
     1
 90
       50
176
     1
 62
   256
176
     0
 40
1.0
176
     0
 90
        2
176
     1
  1
strokes_ogs.tif
176
     1
290
     0
176
     1
 40
1.0
176
     1
 40
1.0
176
     1
  0
VISUALSTYLE
  5
24C
102
{ACAD_REACTORS
330
23C
102
}
330
23C
100
AcDbVisualStyle
  2
ColorChange
 70
    16
177
     3
291
     1
 70
    58
 90
        2
176
     1
 90
        2
176
     1
 90
        3
176
     1
 90
        0
176
     1
 40
-0.6
176
     1
 40
-30.0
176
     1
 62
     8
176
     1
 90
        1
176
     1
 90
        4
176
     1
 62
     7
176
     1
 62
   257
176
     1
 90
        1
176
     1
 90
        1
176
     1
 40
1.0
176
     1
 90
        8
176
     1
 62
     8
176
     1
 40
1.0
176
     1
 90
        1
176
     1
 90
        6
176
     1
 90
        2
176
     1
 62
     7
176
     1
 90
        5
176
     1
 90
        0
176
     1
 90
        0
176
     1
290
     0
176
     1
 90
        1
176
     1
 40
0.0
176
     1
 90
        0
176
     1
290
     0
176
     1
290
     1
176
     1
290
     1
176
     1
290
     0
176
     1
290
     0
176
     1
290
     0
176
     1
290
     0
176
     1
290
     0
176
     1
290
     0
176
     1
 90
       50
176
     1
 40
0.0
176
     1
 40
1.0
176
     1
 90
        0
176
     1
 62
    18
420
        0
176
     1
 90
       50
176
     1
 90
        3
176
     1
 62
     5
420
      255
176
     1
290
     0
176
     1
 90
       50
176
     1
 90
       50
176
     1
 90
       50
176
     1
290
     0
176
     1
 90
       50
176
     1
 62
   256
176
     0
 40
1.0
176
     0
 90
        2
176
     1
  1
strokes_ogs.tif
176
     1
290
     0
176
     1
 40
1.0
176
     1
 40
1.0
176
     1
  0
VISUALSTYLE
  5
246
102
{ACAD_REACTORS
330
23C
102
}
330
23C
100
AcDbVisualStyle
  2
Conceptual
 70
     9
177
     3
291
     0
 70
    58
 90
        3
176
     1
 90
        2
176
     1
 90
        0
176
     1
 90
        0
176
     1
 40
-0.6
176
     1
 40
-30.0
176
     1
 62
     7
176
     1
 90
        2
176
     1
 90
        2
176
     1
 62
     7
176
     1
 62
   257
176
     1
 90
        1
176
     1
 90
        1
176
     1
 40
40.0
176
     1
 90
        8
176
     1
 62
     7
176
     1
 40
1.0
176
     1
 90
        1
176
     1
 90
        6
176
     1
 90
        2
176
     1
 62
     7
176
     1
 90
        3
176
     1
 90
        0
176
     1
 90
        0
176
     1
290
     0
176
     1
 90
        1
176
     1
 40
0.0
176
     1
 90
        0
176
     1
290
     0
176
     1
290
     1
176
     1
290
     1
176
     1
290
     0
176
     1
290
     0
176
     1
290
     0
176
     1
290
     0
176
     1
290
     0
176
     1
290
     0
176
     1
 90
       50
176
     1
 40
0.0
176
     1
 40
1.0
176
     1
 90
        0
176
     1
 62
    18
420
        0
176
     1
 90
       50
176
     1
 90
        3
176
     1
 62
     5
420
      255
176
     1
290
     0
176
     1
 90
       50
176
     1
 90
       50
176
     1
 90
       50
176
     1
290
     0
176
     1
 90
       50
176
     1
 62
   256
176
     0
 40
1.0
176
     0
 90
        2
176
     1
  1
strokes_ogs.tif
176
     1
290
     0
176
     1
 40
1.0
176
     1
 40
1.0
176
     1
  0
VISUALSTYLE
  5
247
102
{ACAD_REACTORS
330
23C
102
}
330
23C
100
AcDbVisualStyle
  2
Dim
 70
    11
177
     3
291
     1
 70
    58
 90
        2
176
     1
 90
        2
176
     1
 90
        0
176
     1
 90
        0
176
     1
 40
-0.6
176
     1
 40
-30.0
176
     1
 62
     7
176
     1
 90
        1
176
     1
 90
        4
176
     1
 62
     7
176
     1
 62
   257
176
     1
 90
        1
176
     1
 90
        1
176
     1
 40
1.0
176
     1
 90
        8
176
     1
 62
     7
176
     1
 40
1.0
176
     1
 90
        1
176
     1
 90
        6
176
     1
 90
        2
176
     1
 62
     7
176
     1
 90
        5
176
     1
 90
        0
176
     1
 90
        0
176
     1
290
     0
176
     1
 90
        1
176
     1
 40
-50.0
176
     1
 90
        0
176
     1
290
     0
176
     1
290
     1
176
     1
290
     1
176
     1
290
     0
176
     1
290
     0
176
     1
290
     0
176
     1
290
     0
176
     1
290
     0
176
     1
290
     0
176
     1
 90
       50
176
     1
 40
0.0
176
     1
 40
1.0
176
     1
 90
        0
176
     1
 62
    18
420
        0
176
     1
 90
       50
176
     1
 90
        3
176
     1
 62
     5
420
      255
176
     1
290
     0
176
     1
 90
       50
176
     1
 90
       50
176
     1
 90
       50
176
     1
290
     0
176
     1
 90
       50
176
     1
 62
   256
176
     0
 40
1.0
176
     0
 90
        2
176
     1
  1
strokes_ogs.tif
176
     1
290
     0
176
     1
 40
1.0
176
     1
 40
1.0
176
     1
  0
VISUALSTYLE
  5
2B3
102
{ACAD_REACTORS
330
23C
102
}
330
23C
100
AcDbVisualStyle
  2
EdgeColorOff
 70
    22
177
     3
291
     1
 70
    58
 90
        2
176
     0
 90
        2
176
     0
 90
        0
176
     0
 90
        0
176
     0
 40
0.6
176
     0
 40
30.0
176
     0
 62
     7
420
 16777215
176
     0
 90
        1
176
     0
 90
        4
176
     0
 62
     7
176
     0
 62
   257
176
     0
 90
        1
176
     0
 90
        1
176
     0
 40
1.0
176
     0
 90
        8
176
     2
 62
     7
176
     0
 40
1.0
176
     0
 90
        1
176
     0
 90
        6
176
     0
 90
        2
176
     0
 62
     7
176
     0
 90
        5
176
     0
 90
        0
176
     0
 90
        0
176
     0
290
     0
176
     0
 90
        1
176
     0
 40
0.0
176
     0
 90
        0
176
     0
290
     0
176
     0
290
     1
176
     0
290
     1
176
     0
290
     0
176
     0
290
     0
176
     0
290
     0
176
     0
290
     0
176
     0
290
     0
176
     0
290
     0
176
     0
 90
       50
176
     0
 40
0.0
176
     0
 40
1.0
176
     0
 90
        0
176
     0
 62
    18
420
        0
176
     0
 90
       50
176
     0
 90
        3
176
     0
 62
     5
420
      255
176
     0
290
     0
176
     0
 90
       50
176
     0
 90
       50
176
     0
 90
       50
176
     0
290
     0
176
     0
 90
       50
176
     0
 62
   256
176
     0
 40
1.0
176
     0
 90
        2
176
     0
  1
strokes_ogs.tif
176
     0
290
     0
176
     0
 40
1.0
176
     0
 40
1.0
176
     0
  0
VISUALSTYLE
  5
24B
102
{ACAD_REACTORS
330
23C
102
}
330
23C
100
AcDbVisualStyle
  2
Facepattern
 70
    15
177
     3
291
     1
 70
    58
 90
        2
176
     1
 90
        2
176
     1
 90
        0
176
     1
 90
        0
176
     1
 40
-0.6
176
     1
 40
-30.0
176
     1
 62
     7
176
     1
 90
        1
176
     1
 90
        4
176
     1
 62
     7
176
     1
 62
   257
176
     1
 90
        1
176
     1
 90
        1
176
     1
 40
1.0
176
     1
 90
        8
176
     1
 62
     7
176
     1
 40
1.0
176
     1
 90
        1
176
     1
 90
        6
176
     1
 90
        2
176
     1
 62
     7
176
     1
 90
        5
176
     1
 90
        0
176
     1
 90
        0
176
     1
290
     0
176
     1
 90
        1
176
     1
 40
0.0
176
     1
 90
        0
176
     1
290
     0
176
     1
290
     1
176
     1
290
     1
176
     1
290
     0
176
     1
290
     0
176
     1
290
     0
176
     1
290
     0
176
     1
290
     0
176
     1
290
     0
176
     1
 90
       50
176
     1
 40
0.0
176
     1
 40
1.0
176
     1
 90
        0
176
     1
 62
    18
420
        0
176
     1
 90
       50
176
     1
 90
        3
176
     1
 62
     5
420
      255
176
     1
290
     0
176
     1
 90
       50
176
     1
 90
       50
176
     1
 90
       50
176
     1
290
     0
176
     1
 90
       50
176
     1
 62
   256
176
     0
 40
1.0
176
     0
 90
        2
176
     1
  1
strokes_ogs.tif
176
     1
290
     0
176
     1
 40
1.0
176
     1
 40
1.0
176
     1
  0
VISUALSTYLE
  5
23D
102
{ACAD_REACTORS
330
23C
102
}
330
23C
100
AcDbVisualStyle
  2
Flat
 70
     0
177
     3
291
     1
 70
    58
 90
        2
176
     1
 90
        1
176
     1
 90
        1
176
     1
 90
        2
176
     1
 40
-0.6
176
     1
 40
30.0
176
     1
 62
     7
176
     1
 90
        0
176
     1
 90
        4
176
     1
 62
     7
176
     1
 62
   257
176
     1
 90
        1
176
     1
 90
        1
176
     1
 40
1.0
176
     1
 90
        8
176
     1
 62
     7
176
     1
 40
1.0
176
     1
 90
        1
176
     1
 90
        6
176
     1
 90
        2
176
     1
 62
     7
176
     1
 90
        5
176
     1
 90
        0
176
     1
 90
        0
176
     1
290
     0
176
     1
 90
       13
176
     1
 40
0.0
176
     1
 90
        0
176
     1
290
     0
176
     1
290
     1
176
     1
290
     1
176
     1
290
     0
176
     1
290
     0
176
     1
290
     0
176
     1
290
     0
176
     1
290
     0
176
     1
290
     0
176
     1
 90
       50
176
     1
 40
0.0
176
     1
 40
1.0
176
     1
 90
        0
176
     1
 62
    18
420
        0
176
     1
 90
       50
176
     1
 90
        3
176
     1
 62
     5
420
      255
176
     1
290
     0
176
     1
 90
       50
176
     1
 90
       50
176
     1
 90
       50
176
     1
290
     0
176
     1
 90
       50
176
     1
 62
   256
176
     0
 40
1.0
176
     0
 90
        2
176
     1
  1
strokes_ogs.tif
176
     1
290
     0
176
     1
 40
1.0
176
     1
 40
1.0
176
     1
  0
VISUALSTYLE
  5
23E
102
{ACAD_REACTORS
330
23C
102
}
330
23C
100
AcDbVisualStyle
  2
FlatWithEdges
 70
     1
177
     3
291
     1
 70
    58
 90
        2
176
     1
 90
        1
176
     1
 90
        1
176
     1
 90
        2
176
     1
 40
-0.6
176
     1
 40
30.0
176
     1
 62
     7
176
     1
 90
        1
176
     1
 90
        4
176
     1
 62
     7
176
     1
 62
   257
176
     1
 90
        1
176
     1
 90
        1
176
     1
 40
1.0
176
     1
 90
        0
176
     1
 62
   257
176
     1
 40
1.0
176
     1
 90
        1
176
     1
 90
        6
176
     1
 90
        2
176
     1
 62
     7
176
     1
 90
        5
176
     1
 90
        0
176
     1
 90
        0
176
     1
290
     0
176
     1
 90
       13
176
     1
 40
0.0
176
     1
 90
        0
176
     1
290
     0
176
     1
290
     1
176
     1
290
     1
176
     1
290
     0
176
     1
290
     0
176
     1
290
     0
176
     1
290
     0
176
     1
290
     0
176
     1
290
     0
176
     1
 90
       50
176
     1
 40
0.0
176
     1
 40
1.0
176
     1
 90
        0
176
     1
 62
    18
420
        0
176
     1
 90
       50
176
     1
 90
        3
176
     1
 62
     5
420
      255
176
     1
290
     0
176
     1
 90
       50
176
     1
 90
       50
176
     1
 90
       50
176
     1
290
     0
176
     1
 90
       50
176
     1
 62
   256
176
     0
 40
1.0
176
     0
 90
        2
176
     1
  1
strokes_ogs.tif
176
     1
290
     0
176
     1
 40
1.0
176
     1
 40
1.0
176
     1
  0
VISUALSTYLE
  5
23F
102
{ACAD_REACTORS
330
23C
102
}
330
23C
100
AcDbVisualStyle
  2
Gouraud
 70
     2
177
     3
291
     1
 70
    58
 90
        2
176
     1
 90
        2
176
     1
 90
        1
176
     1
 90
        2
176
     1
 40
-0.6
176
     1
 40
30.0
176
     1
 62
     7
176
     1
 90
        0
176
     1
 90
        4
176
     1
 62
     7
176
     1
 62
   257
176
     1
 90
        1
176
     1
 90
        1
176
     1
 40
1.0
176
     1
 90
        0
176
     1
 62
     7
176
     1
 40
1.0
176
     1
 90
        1
176
     1
 90
        6
176
     1
 90
        2
176
     1
 62
     7
176
     1
 90
        5
176
     1
 90
        0
176
     1
 90
        0
176
     1
290
     0
176
     1
 90
       13
176
     1
 40
0.0
176
     1
 90
        0
176
     1
290
     0
176
     1
290
     1
176
     1
290
     1
176
     1
290
     0
176
     1
290
     0
176
     1
290
     0
176
     1
290
     0
176
     1
290
     0
176
     1
290
     0
176
     1
 90
       50
176
     1
 40
0.0
176
     1
 40
1.0
176
     1
 90
        0
176
     1
 62
    18
420
        0
176
     1
 90
       50
176
     1
 90
        3
176
     1
 62
     5
420
      255
176
     1
290
     0
176
     1
 90
       50
176
     1
 90
       50
176
     1
 90
       50
176
     1
290
     0
176
     1
 90
       50
176
     1
 62
   256
176
     0
 40
1.0
176
     0
 90
        2
176
     1
  1
strokes_ogs.tif
176
     1
290
     0
176
     1
 40
1.0
176
     1
 40
1.0
176
     1
  0
VISUALSTYLE
  5
240
102
{ACAD_REACTORS
330
23C
102
}
330
23C
100
AcDbVisualStyle
  2
GouraudWithEdges
 70
     3
177
     3
291
     1
 70
    58
 90
        2
176
     1
 90
        2
176
     1
 90
        1
176
     1
 90
        2
176
     1
 40
-0.6
176
     1
 40
30.0
176
     1
 62
     7
176
     1
 90
        1
176
     1
 90
        4
176
     1
 62
     7
176
     1
 62
   257
176
     1
 90
        1
176
     1
 90
        1
176
     1
 40
1.0
176
     1
 90
        0
176
     1
 62
   257
176
     1
 40
1.0
176
     1
 90
        1
176
     1
 90
        6
176
     1
 90
        2
176
     1
 62
     7
176
     1
 90
        5
176
     1
 90
        0
176
     1
 90
        0
176
     1
290
     0
176
     1
 90
       13
176
     1
 40
0.0
176
     1
 90
        0
176
     1
290
     0
176
     1
290
     1
176
     1
290
     1
176
     1
290
     0
176
     1
290
     0
176
     1
290
     0
176
     1
290
     0
176
     1
290
     0
176
     1
290
     0
176
     1
 90
       50
176
     1
 40
0.0
176
     1
 40
1.0
176
     1
 90
        0
176
     1
 62
    18
420
        0
176
     1
 90
       50
176
     1
 90
        3
176
     1
 62
     5
420
      255
176
     1
290
     0
176
     1
 90
       50
176
     1
 90
       50
176
     1
 90
       50
176
     1
290
     0
176
     1
 90
       50
176
     1
 62
   256
176
     0
 40
1.0
176
     0
 90
        2
176
     1
  1
strokes_ogs.tif
176
     1
290
     0
176
     1
 40
1.0
176
     1
 40
1.0
176
     1
  0
VISUALSTYLE
  5
2B0
102
{ACAD_REACTORS
330
23C
102
}
330
23C
100
AcDbVisualStyle
  2
Hidden
 70
     6
177
     3
291
     0
 70
    58
 90
        1
176
     1
 90
        2
176
     1
 90
        2
176
     1
 90
        0
176
     1
 40
0.6
176
     1
 40
30.0
176
     1
 62
     7
420
 16777215
176
     1
 90
        2
176
     1
 90
        2
176
     1
 62
     7
176
     1
 62
   257
176
     1
 90
        2
176
     1
 90
        1
176
     1
 40
40.0
176
     1
 90
        0
176
     1
 62
   257
176
     1
 40
1.0
176
     1
 90
        1
176
     1
 90
        6
176
     1
 90
        2
176
     1
 62
     7
176
     1
 90
        3
176
     1
 90
        0
176
     1
 90
        0
176
     1
290
     0
176
     1
 90
        1
176
     1
 40
0.0
176
     1
 90
        0
176
     1
290
     0
176
     1
290
     1
176
     1
290
     1
176
     1
290
     0
176
     1
290
     0
176
     1
290
     0
176
     1
290
     0
176
     1
290
     0
176
     1
290
     0
176
     1
 90
       50
176
     1
 40
0.0
176
     1
 40
1.0
176
     1
 90
        0
176
     1
 62
    18
420
        0
176
     1
 90
       50
176
     1
 90
        3
176
     1
 62
     5
420
      255
176
     1
290
     0
176
     1
 90
       50
176
     1
 90
       50
176
     1
 90
       50
176
     1
290
     0
176
     1
 90
       50
176
     1
 62
   256
176
     0
 40
1.0
176
     0
 90
        2
176
     1
  1
strokes_ogs.tif
176
     1
290
     0
176
     1
 40
1.0
176
     1
 40
1.0
176
     1
  0
VISUALSTYLE
  5
2B1
102
{ACAD_REACTORS
330
23C
102
}
330
23C
100
AcDbVisualStyle
  2
JitterOff
 70
    20
177
     3
291
     1
 70
    58
 90
        2
176
     0
 90
        2
176
     0
 90
        0
176
     0
 90
        0
176
     0
 40
0.6
176
     0
 40
30.0
176
     0
 62
     7
420
 16777215
176
     0
 90
        1
176
     0
 90
        4
176
     0
 62
     7
176
     0
 62
   257
176
     0
 90
        1
176
     0
 90
        1
176
     0
 40
1.0
176
     0
 90
       10
176
     2
 62
     7
176
     0
 40
1.0
176
     0
 90
        1
176
     0
 90
        6
176
     0
 90
        2
176
     0
 62
     7
176
     0
 90
        5
176
     0
 90
        0
176
     0
 90
        0
176
     0
290
     0
176
     0
 90
        1
176
     0
 40
0.0
176
     0
 90
        0
176
     0
290
     0
176
     0
290
     1
176
     0
290
     1
176
     0
290
     0
176
     0
290
     0
176
     0
290
     0
176
     0
290
     0
176
     0
290
     0
176
     0
290
     0
176
     0
 90
       50
176
     0
 40
0.0
176
     0
 40
1.0
176
     0
 90
        0
176
     0
 62
    18
420
        0
176
     0
 90
       50
176
     0
 90
        3
176
     0
 62
     5
420
      255
176
     0
290
     0
176
     0
 90
       50
176
     0
 90
       50
176
     0
 90
       50
176
     0
290
     0
176
     0
 90
       50
176
     0
 62
   256
176
     0
 40
1.0
176
     0
 90
        2
176
     0
  1
strokes_ogs.tif
176
     0
290
     0
176
     0
 40
1.0
176
     0
 40
1.0
176
     0
  0
VISUALSTYLE
  5
24A
102
{ACAD_REACTORS
330
23C
102
}
330
23C
100
AcDbVisualStyle
  2
Linepattern
 70
    14
177
     3
291
     1
 70
    58
 90
        2
176
     1
 90
        2
176
     1
 90
        0
176
     1
 90
        0
176
     1
 40
-0.6
176
     1
 40
-30.0
176
     1
 62
     7
176
     1
 90
        1
176
     1
 90
        4
176
     1
 62
     7
176
     1
 62
   257
176
     1
 90
        7
176
     1
 90
        7
176
     1
 40
1.0
176
     1
 90
        8
176
     1
 62
     7
176
     1
 40
1.0
176
     1
 90
        1
176
     1
 90
        6
176
     1
 90
        2
176
     1
 62
     7
176
     1
 90
        5
176
     1
 90
        0
176
     1
 90
        0
176
     1
290
     0
176
     1
 90
        1
176
     1
 40
0.0
176
     1
 90
        0
176
     1
290
     0
176
     1
290
     1
176
     1
290
     1
176
     1
290
     0
176
     1
290
     0
176
     1
290
     0
176
     1
290
     0
176
     1
290
     0
176
     1
290
     0
176
     1
 90
       50
176
     1
 40
0.0
176
     1
 40
1.0
176
     1
 90
        0
176
     1
 62
    18
420
        0
176
     1
 90
       50
176
     1
 90
        3
176
     1
 62
     5
420
      255
176
     1
290
     0
176
     1
 90
       50
176
     1
 90
       50
176
     1
 90
       50
176
     1
290
     0
176
     1
 90
       50
176
     1
 62
   256
176
     0
 40
1.0
176
     0
 90
        2
176
     1
  1
strokes_ogs.tif
176
     1
290
     0
176
     1
 40
1.0
176
     1
 40
1.0
176
     1
  0
VISUALSTYLE
  5
2B2
102
{ACAD_REACTORS
330
23C
102
}
330
23C
100
AcDbVisualStyle
  2
OverhangOff
 70
    21
177
     3
291
     1
 70
    58
 90
        2
176
     0
 90
        2
176
     0
 90
        0
176
     0
 90
        0
176
     0
 40
0.6
176
     0
 40
30.0
176
     0
 62
     7
420
 16777215
176
     0
 90
        1
176
     0
 90
        4
176
     0
 62
     7
176
     0
 62
   257
176
     0
 90
        1
176
     0
 90
        1
176
     0
 40
1.0
176
     0
 90
        9
176
     2
 62
     7
176
     0
 40
1.0
176
     0
 90
        1
176
     0
 90
        6
176
     0
 90
        2
176
     0
 62
     7
176
     0
 90
        5
176
     0
 90
        0
176
     0
 90
        0
176
     0
290
     0
176
     0
 90
        1
176
     0
 40
0.0
176
     0
 90
        0
176
     0
290
     0
176
     0
290
     1
176
     0
290
     1
176
     0
290
     0
176
     0
290
     0
176
     0
290
     0
176
     0
290
     0
176
     0
290
     0
176
     0
290
     0
176
     0
 90
       50
176
     0
 40
0.0
176
     0
 40
1.0
176
     0
 90
        0
176
     0
 62
    18
420
        0
176
     0
 90
       50
176
     0
 90
        3
176
     0
 62
     5
420
      255
176
     0
290
     0
176
     0
 90
       50
176
     0
 90
       50
176
     0
 90
       50
176
     0
290
     0
176
     0
 90
       50
176
     0
 62
   256
176
     0
 40
1.0
176
     0
 90
        2
176
     0
  1
strokes_ogs.tif
176
     0
290
     0
176
     0
 40
1.0
176
     0
 40
1.0
176
     0
  0
VISUALSTYLE
  5
245
102
{ACAD_REACTORS
330
23C
102
}
330
23C
100
AcDbVisualStyle
  2
Realistic
 70
     8
177
     3
291
     0
 70
    58
 90
        2
176
     1
 90
        2
176
     1
 90
        0
176
     1
 90
        0
176
     1
 40
-0.6
176
     1
 40
-30.0
176
     1
 62
     7
176
     1
 90
        1
176
     1
 90
        0
176
     1
 62
     7
176
     1
 62
   257
176
     1
 90
        1
176
     1
 90
        1
176
     1
 40
1.0
176
     1
 90
        8
176
     1
 62
     8
176
     1
 40
1.0
176
     1
 90
        1
176
     1
 90
        6
176
     1
 90
        2
176
     1
 62
     7
176
     1
 90
        5
176
     1
 90
        0
176
     1
 90
        0
176
     1
290
     0
176
     1
 90
       13
176
     1
 40
0.0
176
     1
 90
        0
176
     1
290
     0
176
     1
290
     1
176
     1
290
     1
176
     1
290
     0
176
     1
290
     0
176
     1
290
     0
176
     1
290
     0
176
     1
290
     0
176
     1
290
     0
176
     1
 90
       50
176
     1
 40
0.0
176
     1
 40
1.0
176
     1
 90
        0
176
     1
 62
    18
420
        0
176
     1
 90
       50
176
     1
 90
        3
176
     1
 62
     5
420
      255
176
     1
290
     0
176
     1
 90
       50
176
     1
 90
       50
176
     1
 90
       50
176
     1
290
     0
176
     1
 90
       50
176
     1
 62
   256
176
     0
 40
1.0
176
     0
 90
        2
176
     1
  1
strokes_ogs.tif
176
     1
290
     0
176
     1
 40
1.0
176
     1
 40
1.0
176
     1
  0
VISUALSTYLE
  5
2B8
102
{ACAD_REACTORS
330
23C
102
}
330
23C
100
AcDbVisualStyle
  2
Shaded
 70
    27
177
     3
291
     0
 70
    58
 90
        2
176
     1
 90
        2
176
     1
 90
        1
176
     1
 90
        2
176
     1
 40
0.6
176
     1
 40
30.0
176
     1
 62
     7
420
 16777215
176
     1
 90
        0
176
     1
 90
        4
176
     1
 62
     7
176
     1
 62
   257
176
     1
 90
        1
176
     1
 90
        1
176
     1
 40
1.0
176
     1
 90
        8
176
     1
 62
   257
176
     1
 40
1.0
176
     1
 90
        1
176
     1
 90
        6
176
     1
 90
        2
176
     1
 62
     8
420
  7895160
176
     1
 90
        3
176
     1
 90
        0
176
     1
 90
        0
176
     1
290
     0
176
     1
 90
        5
176
     1
 40
0.0
176
     1
 90
        0
176
     1
290
     0
176
     1
290
     1
176
     1
290
     1
176
     1
290
     0
176
     1
290
     0
176
     1
290
     0
176
     1
290
     0
176
     1
290
     0
176
     1
290
     0
176
     1
 90
       50
176
     1
 40
0.0
176
     1
 40
1.0
176
     1
 90
        0
176
     1
 62
    18
420
        0
176
     1
 90
       50
176
     1
 90
        3
176
     1
 62
     5
420
      255
176
     1
290
     0
176
     1
 90
       50
176
     1
 90
       50
176
     1
 90
       50
176
     1
290
     0
176
     1
 90
       50
176
     1
 62
   256
176
     0
 40
1.0
176
     0
 90
        2
176
     1
  1
strokes_ogs.tif
176
     1
290
     0
176
     1
 40
1.0
176
     1
 40
1.0
176
     1
  0
VISUALSTYLE
  5
2B7
102
{ACAD_REACTORS
330
23C
102
}
330
23C
100
AcDbVisualStyle
  2
Shaded with edges
 70
    26
177
     3
291
     0
 70
    58
 90
        2
176
     1
 90
        2
176
     1
 90
        1
176
     1
 90
        2
176
     1
 40
0.6
176
     1
 40
30.0
176
     1
 62
     7
420
 16777215
176
     1
 90
        1
176
     1
 90
       10
176
     1
 62
     7
176
     1
 62
   257
176
     1
 90
        2
176
     1
 90
        1
176
     1
 40
1.0
176
     1
 90
        8
176
     1
 62
   257
176
     1
 40
1.0
176
     1
 90
        1
176
     1
 90
        6
176
     1
 90
        2
176
     1
 62
     7
176
     1
 90
        3
176
     1
 90
        0
176
     1
 90
        0
176
     1
290
     0
176
     1
 90
        5
176
     1
 40
0.0
176
     1
 90
        0
176
     1
290
     0
176
     1
290
     1
176
     1
290
     1
176
     1
290
     0
176
     1
290
     0
176
     1
290
     0
176
     1
290
     0
176
     1
290
     0
176
     1
290
     0
176
     1
 90
       50
176
     1
 40
0.0
176
     1
 40
1.0
176
     1
 90
        0
176
     1
 62
    18
420
        0
176
     1
 90
       50
176
     1
 90
        3
176
     1
 62
     5
420
      255
176
     1
290
     0
176
     1
 90
       50
176
     1
 90
       50
176
     1
 90
       50
176
     1
290
     0
176
     1
 90
       50
176
     1
 62
   256
176
     0
 40
1.0
176
     0
 90
        2
176
     1
  1
strokes_ogs.tif
176
     1
290
     0
176
     1
 40
1.0
176
     1
 40
1.0
176
     1
  0
VISUALSTYLE
  5
2B4
102
{ACAD_REACTORS
330
23C
102
}
330
23C
100
AcDbVisualStyle
  2
Shades of Gray
 70
    23
177
     3
291
     0
 70
    58
 90
        2
176
     1
 90
        2
176
     1
 90
        3
176
     1
 90
        0
176
     1
 40
0.6
176
     1
 40
30.0
176
     1
 62
     7
420
 16777215
176
     1
 90
        2
176
     1
 90
        2
176
     1
 62
     7
176
     1
 62
     7
176
     1
 90
        1
176
     1
 90
        1
176
     1
 40
40.0
176
     1
 90
        8
176
     1
 62
     7
176
     1
 40
1.0
176
     1
 90
        1
176
     1
 90
        6
176
     1
 90
        2
176
     1
 62
     7
176
     1
 90
        3
176
     1
 90
        0
176
     1
 90
        0
176
     1
290
     0
176
     1
 90
        1
176
     1
 40
0.0
176
     1
 90
        0
176
     1
290
     0
176
     1
290
     1
176
     1
290
     1
176
     1
290
     0
176
     1
290
     0
176
     1
290
     0
176
     1
290
     0
176
     1
290
     0
176
     1
290
     0
176
     1
 90
       50
176
     1
 40
0.0
176
     1
 40
1.0
176
     1
 90
        0
176
     1
 62
    18
420
        0
176
     1
 90
       50
176
     1
 90
        3
176
     1
 62
     5
420
      255
176
     1
290
     0
176
     1
 90
       50
176
     1
 90
       50
176
     1
 90
       50
176
     1
290
     0
176
     1
 90
       50
176
     1
 62
   256
176
     0
 40
1.0
176
     0
 90
        2
176
     1
  1
strokes_ogs.tif
176
     1
290
     0
176
     1
 40
1.0
176
     1
 40
1.0
176
     1
  0
VISUALSTYLE
  5
2B5
102
{ACAD_REACTORS
330
23C
102
}
330
23C
100
AcDbVisualStyle
  2
Sketchy
 70
    24
177
     3
291
     0
 70
    58
 90
        1
176
     1
 90
        2
176
     1
 90
        2
176
     1
 90
        0
176
     1
 40
0.6
176
     1
 40
30.0
176
     1
 62
     7
420
 16777215
176
     1
 90
        2
176
     1
 90
        2
176
     1
 62
     7
176
     1
 62
     7
176
     1
 90
        1
176
     1
 90
        1
176
     1
 40
40.0
176
     1
 90
       11
176
     1
 62
     7
176
     1
 40
1.0
176
     1
 90
        1
176
     1
 90
        6
176
     1
 90
        2
176
     1
 62
     7
176
     1
 90
        6
176
     1
 90
        0
176
     1
 90
        0
176
     1
290
     0
176
     1
 90
        1
176
     1
 40
0.0
176
     1
 90
        0
176
     1
290
     0
176
     1
290
     1
176
     1
290
     1
176
     1
290
     0
176
     1
290
     0
176
     1
290
     0
176
     1
290
     0
176
     1
290
     0
176
     1
290
     0
176
     1
 90
       50
176
     1
 40
0.0
176
     1
 40
1.0
176
     1
 90
        0
176
     1
 62
    18
420
        0
176
     1
 90
       50
176
     1
 90
        3
176
     1
 62
     5
420
      255
176
     1
290
     0
176
     1
 90
       50
176
     1
 90
       50
176
     1
 90
       50
176
     1
290
     0
176
     1
 90
       50
176
     1
 62
   256
176
     0
 40
1.0
176
     0
 90
        2
176
     1
  1
strokes_ogs.tif
176
     1
290
     0
176
     1
 40
1.0
176
     1
 40
1.0
176
     1
  0
VISUALSTYLE
  5
249
102
{ACAD_REACTORS
330
23C
102
}
330
23C
100
AcDbVisualStyle
  2
Thicken
 70
    13
177
     3
291
     1
 70
    58
 90
        2
176
     1
 90
        2
176
     1
 90
        0
176
     1
 90
        0
176
     1
 40
-0.6
176
     1
 40
-30.0
176
     1
 62
     7
176
     1
 90
        1
176
     1
 90
        4
176
     1
 62
     7
176
     1
 62
   257
176
     1
 90
        1
176
     1
 90
        1
176
     1
 40
1.0
176
     1
 90
       12
176
     1
 62
     7
176
     1
 40
1.0
176
     1
 90
        1
176
     1
 90
        6
176
     1
 90
        2
176
     1
 62
     7
176
     1
 90
        5
176
     1
 90
        0
176
     1
 90
        0
176
     1
290
     0
176
     1
 90
        1
176
     1
 40
0.0
176
     1
 90
        0
176
     1
290
     0
176
     1
290
     1
176
     1
290
     1
176
     1
290
     0
176
     1
290
     0
176
     1
290
     0
176
     1
290
     0
176
     1
290
     0
176
     1
290
     0
176
     1
 90
       50
176
     1
 40
0.0
176
     1
 40
1.0
176
     1
 90
        0
176
     1
 62
    18
420
        0
176
     1
 90
       50
176
     1
 90
        3
176
     1
 62
     5
420
      255
176
     1
290
     0
176
     1
 90
       50
176
     1
 90
       50
176
     1
 90
       50
176
     1
290
     0
176
     1
 90
       50
176
     1
 62
   256
176
     0
 40
1.0
176
     0
 90
        2
176
     1
  1
strokes_ogs.tif
176
     1
290
     0
176
     1
 40
1.0
176
     1
 40
1.0
176
     1
  0
VISUALSTYLE
  5
2AF
102
{ACAD_REACTORS
330
23C
102
}
330
23C
100
AcDbVisualStyle
  2
Wireframe
 70
     5
177
     3
291
     0
 70
    58
 90
        0
176
     1
 90
        2
176
     1
 90
        0
176
     1
 90
        0
176
     1
 40
0.6
176
     1
 40
30.0
176
     1
 62
     7
420
 16777215
176
     1
 90
        1
176
     1
 90
        4
176
     1
 62
     7
176
     1
 62
   257
176
     1
 90
        1
176
     1
 90
        1
176
     1
 40
1.0
176
     1
 90
        0
176
     1
 62
   257
176
     1
 40
1.0
176
     1
 90
        1
176
     1
 90
        6
176
     1
 90
        2
176
     1
 62
     7
176
     1
 90
        3
176
     1
 90
        0
176
     1
 90
        0
176
     1
290
     0
176
     1
 90
        1
176
     1
 40
0.0
176
     1
 90
        0
176
     1
290
     0
176
     1
290
     1
176
     1
290
     1
176
     1
290
     0
176
     1
290
     0
176
     1
290
     0
176
     1
290
     0
176
     1
290
     0
176
     1
290
     0
176
     1
 90
       50
176
     1
 40
0.0
176
     1
 40
1.0
176
     1
 90
        0
176
     1
 62
    18
420
        0
176
     1
 90
       50
176
     1
 90
        3
176
     1
 62
     5
420
      255
176
     1
290
     0
176
     1
 90
       50
176
     1
 90
       50
176
     1
 90
       50
176
     1
290
     0
176
     1
 90
       50
176
     1
 62
   256
176
     0
 40
1.0
176
     0
 90
        2
176
     1
  1
strokes_ogs.tif
176
     1
290
     0
176
     1
 40
1.0
176
     1
 40
1.0
176
     1
  0
VISUALSTYLE
  5
2B6
102
{ACAD_REACTORS
330
23C
102
}
330
23C
100
AcDbVisualStyle
  2
X-Ray
 70
    25
177
     3
291
     0
 70
    58
 90
        2
176
     1
 90
        2
176
     1
 90
        1
176
     1
 90
        1
176
     1
 40
0.5
176
     1
 40
30.0
176
     1
 62
     7
420
 16777215
176
     1
 90
        1
176
     1
 90
        0
176
     1
 62
     7
176
     1
 62
   257
176
     1
 90
        1
176
     1
 90
        1
176
     1
 40
1.0
176
     1
 90
        8
176
     1
 62
     7
176
     1
 40
1.0
176
     1
 90
        1
176
     1
 90
        6
176
     1
 90
        2
176
     1
 62
     7
176
     1
 90
        3
176
     1
 90
        0
176
     1
 90
        0
176
     1
290
     0
176
     1
 90
       13
176
     1
 40
0.0
176
     1
 90
        0
176
     1
290
     0
176
     1
290
     1
176
     1
290
     1
176
     1
290
     0
176
     1
290
     0
176
     1
290
     0
176
     1
290
     0
176
     1
290
     0
176
     1
290
     0
176
     1
 90
       50
176
     1
 40
0.0
176
     1
 40
1.0
176
     1
 90
        0
176
     1
 62
    18
420
        0
176
     1
 90
       50
176
     1
 90
        3
176
     1
 62
     5
420
      255
176
     1
290
     0
176
     1
 90
       50
176
     1
 90
       50
176
     1
 90
       50
176
     1
290
     0
176
     1
 90
       50
176
     1
 62
   256
176
     0
 40
1.0
176
     0
 90
        2
176
     1
  1
strokes_ogs.tif
176
     1
290
     0
176
     1
 40
1.0
176
     1
 40
1.0
176
     1
  0
DICTIONARYVAR
  5
2D0
102
{ACAD_REACTORS
330
268
102
}
330
268
100
DictionaryVariables
280
     0
  1
1:1
  0
DICTIONARYVAR
  5
2D2
102
{ACAD_REACTORS
330
268
102
}
330
268
100
DictionaryVariables
280
     0
  1
Standard
  0
DICTIONARYVAR
  5
2D1
102
{ACAD_REACTORS
330
268
102
}
330
268
100
DictionaryVariables
280
     0
  1
Standard
  0
DICTIONARYVAR
  5
26C
102
{ACAD_REACTORS
330
268
102
}
330
268
100
DictionaryVariables
280
     0
  1
2
  0
DICTIONARYVAR
  5
26D
102
{ACAD_REACTORS
330
268
102
}
330
268
100
DictionaryVariables
280
     0
  1
1
  0
DICTIONARYVAR
  5
26B
102
{ACAD_REACTORS
330
268
102
}
330
268
100
DictionaryVariables
280
     0
  1
0
  0
DICTIONARY
  5
34F
330
2BA
100
AcDbDictionary
280
     1
281
     1
  3
ACAD_ROUNDTRIP_2008_TABLESTYLE_CELLSTYLEMAP
360
350
  0
CELLSTYLEMAP
  5
350
102
{ACAD_REACTORS
330
34F
102
}
330
34F
100
AcDbCellStyleMap
 90
        3
300
CELLSTYLE
  1
TABLEFORMAT_BEGIN
 90
        5
170
     1
 91
        0
 92
    32768
 62
   257
 93
        1
300
CONTENTFORMAT
  1
CONTENTFORMAT_BEGIN
 90
        0
 91
        0
 92
        4
 93
        0
300

 40
0.0
140
1.0
 94
        5
 62
     0
340
11
144
6.0
309
CONTENTFORMAT_END
171
     1
301
MARGIN
  1
CELLMARGIN_BEGIN
 40
1.5
 40
1.5
 40
1.5
 40
1.5
 40
1.5
 40
1.5
309
CELLMARGIN_END
 94
        6
 95
        1
302
GRIDFORMAT
  1
GRIDFORMAT_BEGIN
 90
        0
 91
        1
 62
     0
 92
       -2
340
14
 93
        0
 40
0.045
309
GRIDFORMAT_END
 95
        2
302
GRIDFORMAT
  1
GRIDFORMAT_BEGIN
 90
        0
 91
        1
 62
     0
 92
       -2
340
14
 93
        0
 40
0.045
309
GRIDFORMAT_END
 95
        4
302
GRIDFORMAT
  1
GRIDFORMAT_BEGIN
 90
        0
 91
        1
 62
     0
 92
       -2
340
14
 93
        0
 40
0.045
309
GRIDFORMAT_END
 95
        8
302
GRIDFORMAT
  1
GRIDFORMAT_BEGIN
 90
        0
 91
        1
 62
     0
 92
       -2
340
14
 93
        0
 40
0.045
309
GRIDFORMAT_END
 95
       16
302
GRIDFORMAT
  1
GRIDFORMAT_BEGIN
 90
        0
 91
        1
 62
     0
 92
       -2
340
14
 93
        0
 40
0.045
309
GRIDFORMAT_END
 95
       32
302
GRIDFORMAT
  1
GRIDFORMAT_BEGIN
 90
        0
 91
        1
 62
     0
 92
       -2
340
14
 93
        0
 40
0.045
309
GRIDFORMAT_END
309
TABLEFORMAT_END
  1
CELLSTYLE_BEGIN
 90
        1
 91
        1
300
_TITLE
309
CELLSTYLE_END
300
CELLSTYLE
  1
TABLEFORMAT_BEGIN
 90
        5
170
     1
 91
        0
 92
        0
 62
   257
 93
        1
300
CONTENTFORMAT
  1
CONTENTFORMAT_BEGIN
 90
        0
 91
        0
 92
        4
 93
        0
300

 40
0.0
140
1.0
 94
        5
 62
     0
340
11
144
4.5
309
CONTENTFORMAT_END
171
     1
301
MARGIN
  1
CELLMARGIN_BEGIN
 40
1.5
 40
1.5
 40
1.5
 40
1.5
 40
1.5
 40
1.5
309
CELLMARGIN_END
 94
        6
 95
        1
302
GRIDFORMAT
  1
GRIDFORMAT_BEGIN
 90
        0
 91
        1
 62
     0
 92
       -2
340
14
 93
        0
 40
0.045
309
GRIDFORMAT_END
 95
        2
302
GRIDFORMAT
  1
GRIDFORMAT_BEGIN
 90
        0
 91
        1
 62
     0
 92
       -2
340
14
 93
        0
 40
0.045
309
GRIDFORMAT_END
 95
        4
302
GRIDFORMAT
  1
GRIDFORMAT_BEGIN
 90
        0
 91
        1
 62
     0
 92
       -2
340
14
 93
        0
 40
0.045
309
GRIDFORMAT_END
 95
        8
302
GRIDFORMAT
  1
GRIDFORMAT_BEGIN
 90
        0
 91
        1
 62
     0
 92
       -2
340
14
 93
        0
 40
0.045
309
GRIDFORMAT_END
 95
       16
302
GRIDFORMAT
  1
GRIDFORMAT_BEGIN
 90
        0
 91
        1
 62
     0
 92
       -2
340
14
 93
        0
 40
0.045
309
GRIDFORMAT_END
 95
       32
302
GRIDFORMAT
  1
GRIDFORMAT_BEGIN
 90
        0
 91
        1
 62
     0
 92
       -2
340
14
 93
        0
 40
0.045
309
GRIDFORMAT_END
309
TABLEFORMAT_END
  1
CELLSTYLE_BEGIN
 90
        2
 91
        1
300
_HEADER
309
CELLSTYLE_END
300
CELLSTYLE
  1
TABLEFORMAT_BEGIN
 90
        5
170
     1
 91
        0
 92
        0
 62
   257
 93
        1
300
CONTENTFORMAT
  1
CONTENTFORMAT_BEGIN
 90
        0
 91
        0
 92
        4
 93
        0
300

 40
0.0
140
1.0
 94
        2
 62
     0
340
11
144
4.5
309
CONTENTFORMAT_END
171
     1
301
MARGIN
  1
CELLMARGIN_BEGIN
 40
1.5
 40
1.5
 40
1.5
 40
1.5
 40
1.5
 40
1.5
309
CELLMARGIN_END
 94
        6
 95
        1
302
GRIDFORMAT
  1
GRIDFORMAT_BEGIN
 90
        0
 91
        1
 62
     0
 92
       -2
340
14
 93
        0
 40
0.045
309
GRIDFORMAT_END
 95
        2
302
GRIDFORMAT
  1
GRIDFORMAT_BEGIN
 90
        0
 91
        1
 62
     0
 92
       -2
340
14
 93
        0
 40
0.045
309
GRIDFORMAT_END
 95
        4
302
GRIDFORMAT
  1
GRIDFORMAT_BEGIN
 90
        0
 91
        1
 62
     0
 92
       -2
340
14
 93
        0
 40
0.045
309
GRIDFORMAT_END
 95
        8
302
GRIDFORMAT
  1
GRIDFORMAT_BEGIN
 90
        0
 91
        1
 62
     0
 92
       -2
340
14
 93
        0
 40
0.045
309
GRIDFORMAT_END
 95
       16
302
GRIDFORMAT
  1
GRIDFORMAT_BEGIN
 90
        0
 91
        1
 62
     0
 92
       -2
340
14
 93
        0
 40
0.045
309
GRIDFORMAT_END
 95
       32
302
GRIDFORMAT
  1
GRIDFORMAT_BEGIN
 90
        0
 91
        1
 62
     0
 92
       -2
340
14
 93
        0
 40
0.045
309
GRIDFORMAT_END
309
TABLEFORMAT_END
  1
CELLSTYLE_BEGIN
 90
        3
 91
        2
300
_DATA
309
CELLSTYLE_END
  0
ENDSEC
  0
EOF
