  0
SECTION
  2
HEADER
  9
$ACADVER
  1
AC1027
  9
$ACADMAINTVER
 70
   105
  9
$DWGCODEPAGE
  3
ANSI_1252
  9
$REQUIREDVERSIONS
160
                 0
  9
$LASTSAVEDBY
  1
christoph.stuessi
  9
$INSBASE
 10
0.0
 20
0.0
 30
0.0
  9
$EXTMIN
 10
-94.92295285524278
 20
-67.05436595483522
 30
0.0
  9
$EXTMAX
 10
111.5282666569523
 20
65.75051209394522
 30
0.0
  9
$LIMMIN
 10
0.0
 20
0.0
  9
$LIMMAX
 10
420.0
 20
297.0
  9
$ORTHOMODE
 70
     0
  9
$REGENMODE
 70
     1
  9
$FILLMODE
 70
     1
  9
$QTEXTMODE
 70
     0
  9
$MIRRTEXT
 70
     1
  9
$LTSCALE
 40
1.0
  9
$ATTMODE
 70
     1
  9
$TEXTSIZE
 40
3.5
  9
$TRACEWID
 40
1.0
  9
$TEXTSTYLE
  7
STANDARD
  9
$CLAYER
  8
INFTOTAL
  9
$CELTYPE
  6
BYLAYER
  9
$CECOLOR
 62
   256
  9
$CELTSCALE
 40
1.0
  9
$DISPSILH
 70
     0
  9
$DIMSCALE
 40
1.0
  9
$DIMASZ
 40
3.5
  9
$DIMEXO
 40
0.0
  9
$DIMDLI
 40
3.75
  9
$DIMRND
 40
0.0
  9
$DIMDLE
 40
0.0
  9
$DIMEXE
 40
1.0
  9
$DIMTP
 40
0.0
  9
$DIMTM
 40
0.0
  9
$DIMTXT
 40
3.5
  9
$DIMCEN
 40
2.5
  9
$DIMTSZ
 40
0.0
  9
$DIMTOL
 70
     0
  9
$DIMLIM
 70
     0
  9
$DIMTIH
 70
     1
  9
$DIMTOH
 70
     1
  9
$DIMSE1
 70
     0
  9
$DIMSE2
 70
     0
  9
$DIMTAD
 70
     1
  9
$DIMZIN
 70
     0
  9
$DIMBLK
  1

  9
$DIMASO
 70
     1
  9
$DIMSHO
 70
     1
  9
$DIMPOST
  1

  9
$DIMAPOST
  1

  9
$DIMALT
 70
     0
  9
$DIMALTD
 70
     3
  9
$DIMALTF
 40
0.0393700787
  9
$DIMLFAC
 40
1.0
  9
$DIMTOFL
 70
     1
  9
$DIMTVP
 40
0.0
  9
$DIMTIX
 70
     0
  9
$DIMSOXD
 70
     0
  9
$DIMSAH
 70
     0
  9
$DIMBLK1
  1

  9
$DIMBLK2
  1

  9
$DIMSTYLE
  2
ISO-25
  9
$DIMCLRD
 70
     0
  9
$DIMCLRE
 70
     0
  9
$DIMCLRT
 70
     0
  9
$DIMTFAC
 40
1.0
  9
$DIMGAP
 40
1.5
  9
$DIMJUST
 70
     0
  9
$DIMSD1
 70
     0
  9
$DIMSD2
 70
     0
  9
$DIMTOLJ
 70
     0
  9
$DIMTZIN
 70
     0
  9
$DIMALTZ
 70
     0
  9
$DIMALTTZ
 70
     0
  9
$DIMUPT
 70
     0
  9
$DIMDEC
 70
     2
  9
$DIMTDEC
 70
     3
  9
$DIMALTU
 70
     2
  9
$DIMALTTD
 70
     3
  9
$DIMTXSTY
  7
STANDARD
  9
$DIMAUNIT
 70
     0
  9
$DIMADEC
 70
     0
  9
$DIMALTRND
 40
0.0
  9
$DIMAZIN
 70
     0
  9
$DIMDSEP
 70
    46
  9
$DIMATFIT
 70
     3
  9
$DIMFRAC
 70
     0
  9
$DIMLDRBLK
  1

  9
$DIMLUNIT
 70
     2
  9
$DIMLWD
 70
    -2
  9
$DIMLWE
 70
    -2
  9
$DIMTMOVE
 70
     2
  9
$DIMFXL
 40
1.0
  9
$DIMFXLON
 70
     0
  9
$DIMJOGANG
 40
0.7853981633974483
  9
$DIMTFILL
 70
     0
  9
$DIMTFILLCLR
 70
     0
  9
$DIMARCSYM
 70
     0
  9
$DIMLTYPE
  6

  9
$DIMLTEX1
  6

  9
$DIMLTEX2
  6

  9
$DIMTXTDIRECTION
 70
     0
  9
$LUNITS
 70
     2
  9
$LUPREC
 70
     2
  9
$SKETCHINC
 40
1.0
  9
$FILLETRAD
 40
10.0
  9
$AUNITS
 70
     0
  9
$AUPREC
 70
     2
  9
$MENU
  1
.
  9
$ELEVATION
 40
0.0
  9
$PELEVATION
 40
0.0
  9
$THICKNESS
 40
0.0
  9
$LIMCHECK
 70
     0
  9
$CHAMFERA
 40
0.0
  9
$CHAMFERB
 40
0.0
  9
$CHAMFERC
 40
0.0
  9
$CHAMFERD
 40
0.0
  9
$SKPOLY
 70
     0
  9
$TDCREATE
 40
2456814.645931979
  9
$TDUCREATE
 40
2456814.562598646
  9
$TDUPDATE
 40
2458416.325873542
  9
$TDUUPDATE
 40
2458416.242540208
  9
$TDINDWG
 40
0.0036161343
  9
$TDUSRTIMER
 40
0.0057613773
  9
$USRTIMER
 70
     1
  9
$ANGBASE
 50
0.0
  9
$ANGDIR
 70
     0
  9
$PDMODE
 70
     0
  9
$PDSIZE
 40
-1.0
  9
$PLINEWID
 40
0.0
  9
$SPLFRAME
 70
     0
  9
$SPLINETYPE
 70
     6
  9
$SPLINESEGS
 70
     8
  9
$HANDSEED
  5
2E9
  9
$SURFTAB1
 70
     6
  9
$SURFTAB2
 70
     6
  9
$SURFTYPE
 70
     6
  9
$SURFU
 70
     6
  9
$SURFV
 70
     6
  9
$UCSBASE
  2

  9
$UCSNAME
  2

  9
$UCSORG
 10
0.0
 20
0.0
 30
0.0
  9
$UCSXDIR
 10
1.0
 20
0.0
 30
0.0
  9
$UCSYDIR
 10
0.0
 20
1.0
 30
0.0
  9
$UCSORTHOREF
  2

  9
$UCSORTHOVIEW
 70
     0
  9
$UCSORGTOP
 10
0.0
 20
0.0
 30
0.0
  9
$UCSORGBOTTOM
 10
0.0
 20
0.0
 30
0.0
  9
$UCSORGLEFT
 10
0.0
 20
0.0
 30
0.0
  9
$UCSORGRIGHT
 10
0.0
 20
0.0
 30
0.0
  9
$UCSORGFRONT
 10
0.0
 20
0.0
 30
0.0
  9
$UCSORGBACK
 10
0.0
 20
0.0
 30
0.0
  9
$PUCSBASE
  2

  9
$PUCSNAME
  2

  9
$PUCSORG
 10
0.0
 20
0.0
 30
0.0
  9
$PUCSXDIR
 10
1.0
 20
0.0
 30
0.0
  9
$PUCSYDIR
 10
0.0
 20
1.0
 30
0.0
  9
$PUCSORTHOREF
  2

  9
$PUCSORTHOVIEW
 70
     0
  9
$PUCSORGTOP
 10
0.0
 20
0.0
 30
0.0
  9
$PUCSORGBOTTOM
 10
0.0
 20
0.0
 30
0.0
  9
$PUCSORGLEFT
 10
0.0
 20
0.0
 30
0.0
  9
$PUCSORGRIGHT
 10
0.0
 20
0.0
 30
0.0
  9
$PUCSORGFRONT
 10
0.0
 20
0.0
 30
0.0
  9
$PUCSORGBACK
 10
0.0
 20
0.0
 30
0.0
  9
$USERI1
 70
     0
  9
$USERI2
 70
     0
  9
$USERI3
 70
     0
  9
$USERI4
 70
     0
  9
$USERI5
 70
     0
  9
$USERR1
 40
0.0
  9
$USERR2
 40
0.0
  9
$USERR3
 40
0.0
  9
$USERR4
 40
0.0
  9
$USERR5
 40
0.0
  9
$WORLDVIEW
 70
     1
  9
$SHADEDGE
 70
     3
  9
$SHADEDIF
 70
    70
  9
$TILEMODE
 70
     1
  9
$MAXACTVP
 70
    64
  9
$PINSBASE
 10
0.0
 20
0.0
 30
0.0
  9
$PLIMCHECK
 70
     0
  9
$PEXTMIN
 10
1.000000000000000E+20
 20
1.000000000000000E+20
 30
1.000000000000000E+20
  9
$PEXTMAX
 10
-1.000000000000000E+20
 20
-1.000000000000000E+20
 30
-1.000000000000000E+20
  9
$PLIMMIN
 10
0.0
 20
0.0
  9
$PLIMMAX
 10
0.0
 20
0.0
  9
$UNITMODE
 70
     0
  9
$VISRETAIN
 70
     1
  9
$PLINEGEN
 70
     0
  9
$PSLTSCALE
 70
     1
  9
$TREEDEPTH
 70
  3020
  9
$CMLSTYLE
  2
STANDARD
  9
$CMLJUST
 70
     0
  9
$CMLSCALE
 40
20.0
  9
$PROXYGRAPHICS
 70
     1
  9
$MEASUREMENT
 70
     1
  9
$CELWEIGHT
370
    -1
  9
$ENDCAPS
280
     0
  9
$JOINSTYLE
280
     0
  9
$LWDISPLAY
290
     0
  9
$INSUNITS
 70
     0
  9
$HYPERLINKBASE
  1

  9
$STYLESHEET
  1

  9
$XEDIT
290
     1
  9
$CEPSNTYPE
380
     0
  9
$PSTYLEMODE
290
     1
  9
$FINGERPRINTGUID
  2
{EDF1DCA1-C129-4576-A010-7EA5DBD3199C}
  9
$VERSIONGUID
  2
{FAEB1C32-E019-11D5-929B-00C0DF256EC4}
  9
$EXTNAMES
290
     1
  9
$PSVPSCALE
 40
0.0
  9
$OLESTARTUP
290
     0
  9
$SORTENTS
280
   127
  9
$INDEXCTL
280
     0
  9
$HIDETEXT
280
     1
  9
$XCLIPFRAME
280
     2
  9
$HALOGAP
280
     0
  9
$OBSCOLOR
 70
   257
  9
$OBSLTYPE
280
     0
  9
$INTERSECTIONDISPLAY
280
     0
  9
$INTERSECTIONCOLOR
 70
   257
  9
$DIMASSOC
280
     2
  9
$PROJECTNAME
  1

  9
$CAMERADISPLAY
290
     0
  9
$LENSLENGTH
 40
50.0
  9
$CAMERAHEIGHT
 40
0.0
  9
$STEPSPERSEC
 40
2.0
  9
$STEPSIZE
 40
6.0
  9
$3DDWFPREC
 40
2.0
  9
$PSOLWIDTH
 40
0.25
  9
$PSOLHEIGHT
 40
4.0
  9
$LOFTANG1
 40
1.570796326794897
  9
$LOFTANG2
 40
1.570796326794897
  9
$LOFTMAG1
 40
0.0
  9
$LOFTMAG2
 40
0.0
  9
$LOFTPARAM
 70
     7
  9
$LOFTNORMALS
280
     1
  9
$LATITUDE
 40
37.795
  9
$LONGITUDE
 40
-122.394
  9
$NORTHDIRECTION
 40
0.0
  9
$TIMEZONE
 70
 -8000
  9
$LIGHTGLYPHDISPLAY
280
     1
  9
$TILEMODELIGHTSYNCH
280
     1
  9
$SOLIDHIST
280
     0
  9
$SHOWHIST
280
     1
  9
$DWFFRAME
280
     2
  9
$DGNFRAME
280
     2
  9
$REALWORLDSCALE
290
     1
  9
$INTERFERECOLOR
 62
   256
  9
$CSHADOW
280
     0
  9
$SHADOWPLANELOCATION
 40
0.0
  0
ENDSEC
  0
SECTION
  2
CLASSES
  0
CLASS
  1
ACDBDICTIONARYWDFLT
  2
AcDbDictionaryWithDefault
  3
ObjectDBX Classes
 90
        0
 91
        5
280
     0
281
     0
  0
CLASS
  1
VISUALSTYLE
  2
AcDbVisualStyle
  3
ObjectDBX Classes
 90
     4095
 91
        5
280
     0
281
     0
  0
CLASS
  1
MATERIAL
  2
AcDbMaterial
  3
ObjectDBX Classes
 90
     1153
 91
        5
280
     0
281
     0
  0
CLASS
  1
SCALE
  2
AcDbScale
  3
ObjectDBX Classes
 90
     1153
 91
        5
280
     0
281
     0
  0
CLASS
  1
SUN
  2
AcDbSun
  3
SCENEOE
 90
     1153
 91
        4
280
     0
281
     0
  0
CLASS
  1
XRECORD
  2
AcDbXrecord
  3
ObjectDBX Classes
 90
        0
 91
        1
280
     0
281
     0
  0
CLASS
  1
LWPOLYLINE
  2
AcDbPolyline
  3
ObjectDBX Classes
 90
        0
 91
        1
280
     0
281
     1
  0
CLASS
  1
HATCH
  2
AcDbHatch
  3
ObjectDBX Classes
 90
        0
 91
        1
280
     0
281
     1
  0
CLASS
  1
DICTIONARYVAR
  2
AcDbDictionaryVar
  3
ObjectDBX Classes
 90
        0
 91
        5
280
     0
281
     0
  0
CLASS
  1
ACDBPLACEHOLDER
  2
AcDbPlaceHolder
  3
ObjectDBX Classes
 90
        0
 91
        1
280
     0
281
     0
  0
CLASS
  1
LAYOUT
  2
AcDbLayout
  3
ObjectDBX Classes
 90
        0
 91
        1
280
     0
281
     0
  0
CLASS
  1
TABLESTYLE
  2
AcDbTableStyle
  3
ObjectDBX Classes
 90
     4095
 91
        5
280
     0
281
     0
  0
CLASS
  1
MLEADERSTYLE
  2
AcDbMLeaderStyle
  3
ACDB_MLEADERSTYLE_CLASS
 90
     4095
 91
        5
280
     0
281
     0
  0
CLASS
  1
CELLSTYLEMAP
  2
AcDbCellStyleMap
  3
ObjectDBX Classes
 90
     1152
 91
        5
280
     0
281
     0
  0
ENDSEC
  0
SECTION
  2
TABLES
  0
TABLE
  2
VPORT
  5
8
330
0
100
AcDbSymbolTable
 70
     1
  0
VPORT
  5
29
330
8
100
AcDbSymbolTableRecord
100
AcDbViewportTableRecord
  2
*ACTIVE
 70
     0
 10
0.0
 20
0.0
 11
1.0
 21
1.0
 12
20.17460812036697
 22
19.06758526467696
 13
0.0
 23
0.0
 14
10.0
 24
10.0
 15
10.0
 25
10.0
 16
0.0
 26
0.0
 36
1.0
 17
0.0
 27
0.0
 37
0.0
 40
296.9999999999999
 41
2.100271002710027
 42
50.0
 43
0.0
 44
0.0
 50
0.0
 51
0.0
 71
    16
 72
  2000
 73
     1
 74
     3
 75
     0
 76
     0
 77
     0
 78
     0
281
     0
 65
     1
110
0.0
120
0.0
130
0.0
111
1.0
121
0.0
131
0.0
112
0.0
122
1.0
132
0.0
 79
     0
146
0.0
348
227
 60
     3
 61
     5
292
     1
282
     1
141
0.0
142
0.0
 63
   256
  0
ENDTAB
  0
TABLE
  2
LTYPE
  5
5
330
0
100
AcDbSymbolTable
 70
     9
  0
LTYPE
  5
14
330
5
100
AcDbSymbolTableRecord
100
AcDbLinetypeTableRecord
  2
BYBLOCK
 70
     0
  3

 72
    65
 73
     0
 40
0.0
  0
LTYPE
  5
15
330
5
100
AcDbSymbolTableRecord
100
AcDbLinetypeTableRecord
  2
BYLAYER
 70
     0
  3

 72
    65
 73
     0
 40
0.0
  0
LTYPE
  5
16
330
5
100
AcDbSymbolTableRecord
100
AcDbLinetypeTableRecord
  2
CONTINUOUS
 70
     0
  3
Solid line
 72
    65
 73
     0
 40
0.0
  0
LTYPE
  5
6A
330
5
100
AcDbSymbolTableRecord
100
AcDbLinetypeTableRecord
  2
HIDDEN
 70
     0
  3
Hidden __ __ __ __ __ __ __ __ __ __ __ __ __ __
 72
    65
 73
     2
 40
1.905
 49
1.27
 74
     0
 49
-0.635
 74
     0
  0
LTYPE
  5
6B
330
5
100
AcDbSymbolTableRecord
100
AcDbLinetypeTableRecord
  2
PHANTOM
 70
     0
  3
Phantom ______  __  __  ______  __  __  ______
 72
    65
 73
     6
 40
12.7
 49
6.35
 74
     0
 49
-1.27
 74
     0
 49
1.27
 74
     0
 49
-1.27
 74
     0
 49
1.27
 74
     0
 49
-1.27
 74
     0
  0
LTYPE
  5
6C
330
5
100
AcDbSymbolTableRecord
100
AcDbLinetypeTableRecord
  2
CENTER
 70
     0
  3
Center ____ _ ____ _ ____ _ ____ _ ____ _ ____
 72
    65
 73
     4
 40
10.16
 49
6.35
 74
     0
 49
-1.27
 74
     0
 49
1.27
 74
     0
 49
-1.27
 74
     0
  0
LTYPE
  5
6D
330
5
100
AcDbSymbolTableRecord
100
AcDbLinetypeTableRecord
  2
CENTERX2
 70
     0
  3
Center (2x) ________  __  ________  __  _____
 72
    65
 73
     4
 40
20.32
 49
12.7
 74
     0
 49
-2.54
 74
     0
 49
2.54
 74
     0
 49
-2.54
 74
     0
  0
LTYPE
  5
6E
330
5
100
AcDbSymbolTableRecord
100
AcDbLinetypeTableRecord
  2
DOT2
 70
     0
  3
Dot (.5x) ........................................
 72
    65
 73
     2
 40
0.635
 49
0.0
 74
     0
 49
-0.635
 74
     0
  0
LTYPE
  5
27E
330
5
100
AcDbSymbolTableRecord
100
AcDbLinetypeTableRecord
  2
DASH
 70
     0
  3
DASH _ _ _ _ _
 72
    65
 73
     2
 40
0.75
 49
0.4
 74
     0
 49
-0.35
 74
     0
  0
LTYPE
  5
27F
330
5
100
AcDbSymbolTableRecord
100
AcDbLinetypeTableRecord
  2
LONGDASH_DASH
 70
     0
  3
LONGDASH_DASH __ . __ . __
 72
    65
 73
     4
 40
0.85
 49
0.4
 74
     0
 49
-0.2
 74
     0
 49
0.05
 74
     0
 49
-0.2
 74
     0
  0
LTYPE
  5
280
330
5
100
AcDbSymbolTableRecord
100
AcDbLinetypeTableRecord
  2
LONGDASH_DASH_DASH
 70
     0
  3
LONGDASH_DASH_DASH __ . . __ . . __
 72
    65
 73
     6
 40
1.1
 49
0.4
 74
     0
 49
-0.2
 74
     0
 49
0.05
 74
     0
 49
-0.2
 74
     0
 49
0.05
 74
     0
 49
-0.2
 74
     0
  0
ENDTAB
  0
TABLE
  2
LAYER
  5
2
102
{ACAD_XDICTIONARY
360
2A0
102
}
330
0
100
AcDbSymbolTable
 70
    16
  0
LAYER
  5
238
330
2
100
AcDbSymbolTableRecord
100
AcDbLayerTableRecord
  2
200
 70
     0
 62
     2
  6
CONTINUOUS
370
    50
390
291
347
236
348
0
  0
LAYER
  5
23B
330
2
100
AcDbSymbolTableRecord
100
AcDbLayerTableRecord
  2
Defpoints
 70
     0
 62
     7
  6
CONTINUOUS
290
     0
370
    -3
390
291
347
236
348
0
  0
LAYER
  5
281
330
2
100
AcDbSymbolTableRecord
100
AcDbLayerTableRecord
  2
0
 70
     0
 62
    -1
  6
CONTINUOUS
370
    -3
390
0
347
236
348
0
  0
LAYER
  5
282
330
2
100
AcDbSymbolTableRecord
100
AcDbLayerTableRecord
  2
1
 70
     0
 62
     4
  6
CONTINUOUS
370
    50
390
0
347
236
348
0
  0
LAYER
  5
283
330
2
100
AcDbSymbolTableRecord
100
AcDbLayerTableRecord
  2
2
 70
     0
 62
     7
  6
CONTINUOUS
370
    25
390
0
347
236
348
0
  0
LAYER
  5
284
330
2
100
AcDbSymbolTableRecord
100
AcDbLayerTableRecord
  2
3
 70
     0
 62
     1
  6
DASH
370
    35
390
0
347
236
348
0
  0
LAYER
  5
285
330
2
100
AcDbSymbolTableRecord
100
AcDbLayerTableRecord
  2
4
 70
     0
 62
     2
  6
LONGDASH_DASH
370
    25
390
0
347
236
348
0
  0
LAYER
  5
286
330
2
100
AcDbSymbolTableRecord
100
AcDbLayerTableRecord
  2
6
 70
     0
 62
     5
  6
CONTINUOUS
370
    -3
390
0
347
236
348
0
  0
LAYER
  5
287
330
2
100
AcDbSymbolTableRecord
100
AcDbLayerTableRecord
  2
CUT
 70
     0
 62
     1
  6
CONTINUOUS
370
    25
390
0
347
236
348
0
  0
LAYER
  5
288
330
2
100
AcDbSymbolTableRecord
100
AcDbLayerTableRecord
  2
NOCUT
 70
     0
 62
     7
  6
CONTINUOUS
370
    25
390
0
347
236
348
0
  0
LAYER
  5
289
330
2
100
AcDbSymbolTableRecord
100
AcDbLayerTableRecord
  2
SK1
 70
     0
 62
     4
  6
CONTINUOUS
370
    50
390
0
347
236
348
0
  0
LAYER
  5
28A
330
2
100
AcDbSymbolTableRecord
100
AcDbLayerTableRecord
  2
SK2
 70
     0
 62
     7
  6
CONTINUOUS
370
    25
390
0
347
236
348
0
  0
LAYER
  5
28B
330
2
100
AcDbSymbolTableRecord
100
AcDbLayerTableRecord
  2
SK3
 70
     0
 62
     1
  6
DASH
370
    35
390
0
347
236
348
0
  0
LAYER
  5
28C
330
2
100
AcDbSymbolTableRecord
100
AcDbLayerTableRecord
  2
SK4
 70
     0
 62
     2
  6
LONGDASH_DASH
370
    25
390
0
347
236
348
0
  0
LAYER
  5
28D
330
2
100
AcDbSymbolTableRecord
100
AcDbLayerTableRecord
  2
SK6
 70
     0
 62
     5
  6
CONTINUOUS
370
    -3
390
0
347
236
348
0
  0
LAYER
  5
28E
330
2
100
AcDbSymbolTableRecord
100
AcDbLayerTableRecord
  2
INFTOTAL
 70
     0
 62
     9
  6
CONTINUOUS
370
    18
390
0
347
236
348
0
  0
ENDTAB
  0
TABLE
  2
STYLE
  5
3
330
0
100
AcDbSymbolTable
 70
     3
  0
STYLE
  5
11
330
3
100
AcDbSymbolTableRecord
100
AcDbTextStyleTableRecord
  2
STANDARD
 70
     0
 40
0.0
 41
1.0
 50
0.0
 71
     0
 42
3.5
  3
txt
  4

  0
STYLE
  5
1C4
330
3
100
AcDbSymbolTableRecord
100
AcDbTextStyleTableRecord
  2
SLDTEXTSTYLE0
 70
     0
 40
0.0
 41
0.605
 50
0.0
 71
     0
 42
3.5
  3
TXT
  4

  0
STYLE
  5
237
330
3
100
AcDbSymbolTableRecord
100
AcDbTextStyleTableRecord
  2
BMG_Text
 70
     0
 40
3.5
 41
1.0
 50
0.0
 71
     0
 42
3.5
  3
monos.ttf
  4

1001
ACAD
1000
Monospac821 BT
1071
       49
  0
ENDTAB
  0
TABLE
  2
VIEW
  5
6
330
0
100
AcDbSymbolTable
 70
     0
  0
ENDTAB
  0
TABLE
  2
UCS
  5
7
330
0
100
AcDbSymbolTable
 70
     0
  0
ENDTAB
  0
TABLE
  2
APPID
  5
9
330
0
100
AcDbSymbolTable
 70
     4
  0
APPID
  5
12
330
9
100
AcDbSymbolTableRecord
100
AcDbRegAppTableRecord
  2
ACAD
 70
     0
  0
APPID
  5
251
330
9
100
AcDbSymbolTableRecord
100
AcDbRegAppTableRecord
  2
ACAD_DSTYLE_DIM_LINETYPE
 70
     0
  0
APPID
  5
252
330
9
100
AcDbSymbolTableRecord
100
AcDbRegAppTableRecord
  2
ACAD_DSTYLE_DIM_EXT1_LINETYPE
 70
     0
  0
APPID
  5
253
330
9
100
AcDbSymbolTableRecord
100
AcDbRegAppTableRecord
  2
ACAD_DSTYLE_DIM_EXT2_LINETYPE
 70
     0
  0
ENDTAB
  0
TABLE
  2
DIMSTYLE
  5
A
330
0
100
AcDbSymbolTable
 70
     3
100
AcDbDimStyleTable
  0
DIMSTYLE
105
27
330
A
100
AcDbSymbolTableRecord
100
AcDbDimStyleTableRecord
  2
ISO-25
 70
     0
 41
2.5
 42
0.625
 43
3.75
 44
1.25
 73
     0
 74
     0
 77
     1
 78
     8
140
2.5
141
2.5
143
0.0393700787
147
0.625
171
     3
172
     1
178
     0
271
     2
272
     2
274
     3
283
     0
284
     8
340
11
  0
DIMSTYLE
105
1C5
102
{ACAD_REACTORS
330
1C3
330
1DC
330
1E6
330
1F1
102
}
330
A
100
AcDbSymbolTableRecord
100
AcDbDimStyleTableRecord
  2
SLDDIMSTYLE0
 70
     0
 41
3.5
 44
0.0
 45
0.000000001
 73
     0
 74
     0
 77
     1
 78
    12
140
3.5
147
0.875
173
     1
178
     0
271
     2
272
     3
284
    12
340
1C4
  0
DIMSTYLE
105
1D0
102
{ACAD_REACTORS
330
1CF
102
}
330
A
100
AcDbSymbolTableRecord
100
AcDbDimStyleTableRecord
  2
SLDDIMSTYLE1
 70
     0
 41
3.5
 44
0.0
 45
0.000000001
 73
     0
 74
     0
 77
     1
 78
    12
140
3.5
147
0.875
173
     1
178
     0
271
     0
272
     3
284
    12
340
1C4
  0
ENDTAB
  0
TABLE
  2
BLOCK_RECORD
  5
1
330
0
100
AcDbSymbolTable
 70
     5
  0
BLOCK_RECORD
  5
1F
330
1
100
AcDbSymbolTableRecord
100
AcDbBlockTableRecord
  2
*MODEL_SPACE
340
220
 70
     0
280
     1
281
     0
  0
BLOCK_RECORD
  5
1B
330
1
100
AcDbSymbolTableRecord
100
AcDbBlockTableRecord
  2
*PAPER_SPACE
340
221
 70
     0
280
     1
281
     0
  0
BLOCK_RECORD
  5
1C6
330
1
100
AcDbSymbolTableRecord
100
AcDbBlockTableRecord
  2
_D
340
0
 70
     0
280
     1
281
     0
  0
BLOCK_RECORD
  5
1D1
330
1
100
AcDbSymbolTableRecord
100
AcDbBlockTableRecord
  2
_D_1
340
0
 70
     0
280
     1
281
     0
  0
BLOCK_RECORD
  5
1DD
330
1
100
AcDbSymbolTableRecord
100
AcDbBlockTableRecord
  2
_D_2
340
0
 70
     0
280
     1
281
     0
  0
BLOCK_RECORD
  5
1E7
330
1
100
AcDbSymbolTableRecord
100
AcDbBlockTableRecord
  2
_D_3
340
0
 70
     0
280
     1
281
     0
  0
BLOCK_RECORD
  5
1F2
330
1
100
AcDbSymbolTableRecord
100
AcDbBlockTableRecord
  2
_D_4
340
0
 70
     0
280
     1
281
     0
  0
ENDTAB
  0
ENDSEC
  0
SECTION
  2
BLOCKS
  0
BLOCK
  5
20
330
1F
100
AcDbEntity
  8
0
100
AcDbBlockBegin
  2
*MODEL_SPACE
 70
     0
 10
0.0
 20
0.0
 30
0.0
  3
*MODEL_SPACE
  1

  0
ENDBLK
  5
21
330
1F
100
AcDbEntity
  8
0
100
AcDbBlockEnd
  0
BLOCK
  5
1C
330
1B
100
AcDbEntity
 67
     1
  8
0
100
AcDbBlockBegin
  2
*PAPER_SPACE
 70
     0
 10
0.0
 20
0.0
 30
0.0
  3
*PAPER_SPACE
  1

  0
ENDBLK
  5
1D
330
1B
100
AcDbEntity
 67
     1
  8
0
100
AcDbBlockEnd
  0
BLOCK
  5
1C7
330
1C6
100
AcDbEntity
  8
0
100
AcDbBlockBegin
  2
_D
 70
     0
 10
0.0
 20
0.0
 30
0.0
  3
_D
  1
_D
  0
LINE
  5
1C9
330
1C6
100
AcDbEntity
  8
2
  6
Continuous
370
    -2
100
AcDbLine
 10
70.9999996407
 20
33.2624990538
 30
0.0
 11
70.9999996407
 21
44.0778939459
 31
0.0
  0
LINE
  5
1CA
330
1C6
100
AcDbEntity
  8
2
  6
Continuous
370
    -2
100
AcDbLine
 10
0.0
 20
31.3125
 30
0.0
 11
0.0
 21
44.0778939459
 31
0.0
  0
LINE
  5
1CB
330
1C6
100
AcDbEntity
  8
2
  6
Continuous
370
    -2
100
AcDbLine
 10
67.4999996407
 20
44.0778939459
 30
0.0
 11
3.5
 21
44.0778939459
 31
0.0
  0
SOLID
  5
1CC
330
1C6
100
AcDbEntity
  8
2
100
AcDbTrace
 10
67.4999996407
 20
43.49456061256667
 30
0.0
 11
67.4999996407
 21
44.66122727923334
 31
0.0
 12
70.9999996407
 22
44.0778939459
 32
0.0
 13
70.9999996407
 23
44.0778939459
 33
0.0
  0
SOLID
  5
1CD
330
1C6
100
AcDbEntity
  8
2
100
AcDbTrace
 10
3.5
 20
44.66122727923334
 30
0.0
 11
3.5
 21
43.49456061256667
 31
0.0
 12
0.0
 22
44.0778939459
 32
0.0
 13
0.0
 23
44.0778939459
 33
0.0
  0
MTEXT
  5
1CE
330
1C6
100
AcDbEntity
  8
2
370
    25
100
AcDbMText
 10
35.4999998204
 20
46.7133939459
 30
0.0
 40
3.5
 41
0.0
 46
0.0
 71
     5
 72
     1
  1
\A1;71
  7
BMG_Text
 73
     1
 44
1.0
  0
POINT
  5
23C
330
1C6
100
AcDbEntity
  8
Defpoints
 62
     0
100
AcDbPoint
 10
70.9999996407
 20
33.1999990538
 30
0.0
  0
POINT
  5
23D
330
1C6
100
AcDbEntity
  8
Defpoints
 62
     0
100
AcDbPoint
 10
0.0
 20
31.25
 30
0.0
  0
POINT
  5
23E
330
1C6
100
AcDbEntity
  8
Defpoints
 62
     0
100
AcDbPoint
 10
0.0
 20
44.0778939459
 30
0.0
  0
ENDBLK
  5
1C8
330
1C6
100
AcDbEntity
  8
0
100
AcDbBlockEnd
  0
BLOCK
  5
1D2
330
1D1
100
AcDbEntity
  8
0
100
AcDbBlockBegin
  2
_D_1
 70
     0
 10
0.0
 20
0.0
 30
0.0
  3
_D_1
  1
_D_1
  0
LINE
  5
1D4
330
1D1
100
AcDbEntity
  8
2
  6
Continuous
370
    -2
100
AcDbLine
 10
70.1235771275
 20
33.98784681984471
 30
0.0
 11
86.17821773073977
 21
33.98784729370164
 31
0.0
  0
LINE
  5
1D5
330
1D1
100
AcDbEntity
  8
2
  6
Continuous
370
    -2
100
AcDbLine
 10
70.1235791339
 20
-33.98784619955529
 30
0.0
 11
86.17821973706022
 21
-33.98784572569836
 31
0.0
  0
LINE
  5
1D6
330
1D1
100
AcDbEntity
  8
2
  6
Continuous
370
    -2
100
AcDbLine
 10
86.1782178340432
 20
30.48784729370164
 30
0.0
 11
86.1782196337568
 21
-30.48784572569836
 31
0.0
  0
SOLID
  5
1D7
330
1D1
100
AcDbEntity
  8
2
100
AcDbTrace
 10
86.76155116737652
 20
30.48784731091888
 30
0.0
 11
85.59488450070987
 21
30.48784727648441
 31
0.0
 12
86.17821773073977
 22
33.98784729370164
 32
0.0
 13
86.17821773073977
 23
33.98784729370164
 33
0.0
  0
SOLID
  5
1D8
330
1D1
100
AcDbEntity
  8
2
100
AcDbTrace
 10
85.59488630042347
 20
-30.48784574291559
 30
0.0
 11
86.76155296709013
 21
-30.48784570848112
 31
0.0
 12
86.17821973706022
 22
-33.98784572569836
 32
0.0
 13
86.17821973706022
 23
-33.98784572569836
 33
0.0
  0
MTEXT
  5
1D9
330
1D1
100
AcDbEntity
  8
2
370
    25
100
AcDbMText
 10
83.4412187339
 20
0.0000007032167257
 30
0.0
 40
3.5
 41
0.0
 46
0.0
 71
     5
 72
     1
  1
\A1;%%c68 - 100
  7
BMG_Text
 11
-2.951526279463942E-8
 21
0.9999999999999996
 31
0.0
 73
     1
 44
1.0
  0
POINT
  5
1DA
330
1D1
100
AcDbEntity
  8
Defpoints
 62
     0
100
AcDbPoint
 10
70.0610771275
 20
33.987846818
 30
0.0
  0
POINT
  5
1DB
330
1D1
100
AcDbEntity
  8
Defpoints
 62
     0
100
AcDbPoint
 10
70.0610791339
 20
-33.9878462014
 30
0.0
  0
POINT
  5
23F
330
1D1
100
AcDbEntity
  8
Defpoints
 62
     0
100
AcDbPoint
 10
86.17821973706022
 20
-33.98784572569836
 30
0.0
  0
ENDBLK
  5
1D3
330
1D1
100
AcDbEntity
  8
0
100
AcDbBlockEnd
  0
BLOCK
  5
1DE
330
1DD
100
AcDbEntity
  8
0
100
AcDbBlockBegin
  2
_D_2
 70
     0
 10
0.0
 20
0.0
 30
0.0
  3
_D_2
  1
_D_2
  0
LINE
  5
1E0
330
1DD
100
AcDbEntity
  8
2
  6
Continuous
370
    -2
100
AcDbLine
 10
39.500001818
 20
-31.312493791
 30
0.0
 11
39.500001818
 21
-41.8387821835
 31
0.0
  0
LINE
  5
1E1
330
1DD
100
AcDbEntity
  8
2
  6
Continuous
370
    -2
100
AcDbLine
 10
0.0
 20
-31.3125
 30
0.0
 11
0.0
 21
-41.8387821835
 31
0.0
  0
LINE
  5
1E2
330
1DD
100
AcDbEntity
  8
2
  6
Continuous
370
    -2
100
AcDbLine
 10
36.000001818
 20
-41.8387821835
 30
0.0
 11
3.5
 21
-41.8387821835
 31
0.0
  0
SOLID
  5
1E3
330
1DD
100
AcDbEntity
  8
2
100
AcDbTrace
 10
36.000001818
 20
-42.42211551683334
 30
0.0
 11
36.000001818
 21
-41.25544885016667
 31
0.0
 12
39.500001818
 22
-41.8387821835
 32
0.0
 13
39.500001818
 23
-41.8387821835
 33
0.0
  0
SOLID
  5
1E4
330
1DD
100
AcDbEntity
  8
2
100
AcDbTrace
 10
3.5
 20
-41.25544885016667
 30
0.0
 11
3.5
 21
-42.42211551683334
 31
0.0
 12
0.0
 22
-41.8387821835
 32
0.0
 13
0.0
 23
-41.8387821835
 33
0.0
  0
MTEXT
  5
1E5
330
1DD
100
AcDbEntity
  8
2
370
    25
100
AcDbMText
 10
19.750000909
 20
-39.1525321835
 30
0.0
 40
3.5
 41
0.0
 46
0.0
 71
     5
 72
     1
  1
\A1;39.5
  7
BMG_Text
 73
     1
 44
1.0
  0
POINT
  5
240
330
1DD
100
AcDbEntity
  8
Defpoints
 62
     0
100
AcDbPoint
 10
39.500001818
 20
-31.249993791
 30
0.0
  0
POINT
  5
241
330
1DD
100
AcDbEntity
  8
Defpoints
 62
     0
100
AcDbPoint
 10
0.0
 20
-31.25
 30
0.0
  0
POINT
  5
242
330
1DD
100
AcDbEntity
  8
Defpoints
 62
     0
100
AcDbPoint
 10
0.0
 20
-41.8387821835
 30
0.0
  0
ENDBLK
  5
1DF
330
1DD
100
AcDbEntity
  8
0
100
AcDbBlockEnd
  0
BLOCK
  5
1E8
330
1E7
100
AcDbEntity
  8
0
100
AcDbBlockBegin
  2
_D_3
 70
     0
 10
0.0
 20
0.0
 30
0.0
  3
_D_3
  1
_D_3
  0
LINE
  5
1EA
330
1E7
100
AcDbEntity
  8
SK2
  6
ByBlock
370
    -2
100
AcDbLine
 10
-35.0625001491
 20
17.9999992246
 30
0.0
 11
-48.9711190037
 21
17.9999992246
 31
0.0
  0
LINE
  5
1EB
330
1E7
100
AcDbEntity
  8
SK2
  6
ByBlock
370
    -2
100
AcDbLine
 10
-35.0625001491
 20
-17.9999992254
 30
0.0
 11
-48.9711190037
 21
-17.9999992254
 31
0.0
  0
LINE
  5
1EC
330
1E7
100
AcDbEntity
  8
SK2
  6
ByBlock
370
    -2
100
AcDbLine
 10
-48.9711190037
 20
14.4999992246
 30
0.0
 11
-48.9711190037
 21
-14.4999992254
 31
0.0
  0
SOLID
  5
1ED
330
1E7
100
AcDbEntity
  8
SK2
100
AcDbTrace
 10
-48.38778567036666
 20
14.4999992246
 30
0.0
 11
-49.55445233703333
 21
14.4999992246
 31
0.0
 12
-48.9711190037
 22
17.9999992246
 32
0.0
 13
-48.9711190037
 23
17.9999992246
 33
0.0
  0
SOLID
  5
1EE
330
1E7
100
AcDbEntity
  8
SK2
100
AcDbTrace
 10
-49.55445233703333
 20
-14.4999992254
 30
0.0
 11
-48.38778567036666
 21
-14.4999992254
 31
0.0
 12
-48.9711190037
 22
-17.9999992254
 32
0.0
 13
-48.9711190037
 23
-17.9999992254
 33
0.0
  0
MTEXT
  5
1EF
330
1E7
100
AcDbEntity
  8
SK2
100
AcDbMText
 10
-51.7081190037
 20
-0.0000000004
 30
0.0
 40
3.5
 41
0.0
 46
0.0
 71
     5
 72
     1
  1
\A1;%%c36
  7
BMG_Text
 11
0.0
 21
1.0
 31
0.0
 73
     1
 44
1.0
  0
POINT
  5
1F0
330
1E7
100
AcDbEntity
  8
Defpoints
 62
     0
100
AcDbPoint
 10
-35.0000001491
 20
17.9999992246
 30
0.0
  0
POINT
  5
243
330
1E7
100
AcDbEntity
  8
Defpoints
 62
     0
100
AcDbPoint
 10
-35.0000001491
 20
-17.9999992254
 30
0.0
  0
POINT
  5
244
330
1E7
100
AcDbEntity
  8
Defpoints
 62
     0
100
AcDbPoint
 10
-48.9711190037
 20
-17.9999992254
 30
0.0
  0
ENDBLK
  5
1E9
330
1E7
100
AcDbEntity
  8
0
100
AcDbBlockEnd
  0
BLOCK
  5
1F3
330
1F2
100
AcDbEntity
  8
0
100
AcDbBlockBegin
  2
_D_4
 70
     0
 10
0.0
 20
0.0
 30
0.0
  3
_D_4
  1
_D_4
  0
LINE
  5
1F5
330
1F2
100
AcDbEntity
  8
2
  6
Continuous
370
    -2
100
AcDbLine
 10
0.437500024
 20
-31.750001013
 30
0.0
 11
-58.9792541407
 21
-31.75000101299999
 31
0.0
  0
LINE
  5
1F6
330
1F2
100
AcDbEntity
  8
2
  6
Continuous
370
    -2
100
AcDbLine
 10
0.437500024
 20
31.750001013
 30
0.0
 11
-58.97925414069999
 21
31.750001013
 31
0.0
  0
LINE
  5
1F7
330
1F2
100
AcDbEntity
  8
2
  6
Continuous
370
    -2
100
AcDbLine
 10
-58.9792541407
 20
-28.25000101299999
 30
0.0
 11
-58.97925414069999
 21
28.250001013
 31
0.0
  0
SOLID
  5
1F8
330
1F2
100
AcDbEntity
  8
2
100
AcDbTrace
 10
-59.56258747403334
 20
-28.25000101299999
 30
0.0
 11
-58.39592080736666
 21
-28.25000101299999
 31
0.0
 12
-58.9792541407
 22
-31.75000101299999
 32
0.0
 13
-58.9792541407
 23
-31.75000101299999
 33
0.0
  0
SOLID
  5
1F9
330
1F2
100
AcDbEntity
  8
2
100
AcDbTrace
 10
-58.39592080736666
 20
28.250001013
 30
0.0
 11
-59.56258747403333
 21
28.250001013
 31
0.0
 12
-58.97925414069999
 22
31.750001013
 32
0.0
 13
-58.97925414069999
 23
31.750001013
 33
0.0
  0
MTEXT
  5
1FA
330
1F2
100
AcDbEntity
  8
2
370
    25
100
AcDbMText
 10
-61.7162541407
 20
0.0000000000000003
 30
0.0
 40
3.5
 41
0.0
 46
0.0
 71
     5
 72
     1
  1
\A1;%%c63.5
  7
BMG_Text
 11
1.118964902503734E-16
 21
1.0
 31
0.0
 73
     1
 44
1.0
  0
POINT
  5
1FB
330
1F2
100
AcDbEntity
  8
Defpoints
 62
     0
100
AcDbPoint
 10
0.500000024
 20
-31.750001013
 30
0.0
  0
POINT
  5
245
330
1F2
100
AcDbEntity
  8
Defpoints
 62
     0
100
AcDbPoint
 10
0.500000024
 20
31.750001013
 30
0.0
  0
POINT
  5
246
330
1F2
100
AcDbEntity
  8
Defpoints
 62
     0
100
AcDbPoint
 10
-58.97925414069999
 20
31.750001013
 30
0.0
  0
ENDBLK
  5
1F4
330
1F2
100
AcDbEntity
  8
0
100
AcDbBlockEnd
  0
ENDSEC
  0
SECTION
  2
ENTITIES
  0
LINE
  5
75
330
1F
100
AcDbEntity
  8
SK3
100
AcDbLine
 10
39.500001818
 20
-23.749999702
 30
0.0
 11
25.796607137
 21
-23.749999702
 31
0.0
  0
LINE
  5
76
330
1F
100
AcDbEntity
  8
SK3
100
AcDbLine
 10
12.134538963
 20
-15.311289579
 30
0.0
 11
34.489023389
 21
-23.749999702
 31
0.0
  0
LINE
  5
77
330
1F
100
AcDbEntity
  8
4
100
AcDbLine
 10
-41.3637525674
 20
0.0000002254
 30
0.0
 11
67.503032744
 21
0.0000002254
 31
0.0
  0
LINE
  5
78
330
1F
100
AcDbEntity
  8
SK3
100
AcDbLine
 10
10.652462952
 20
-17.117107287
 30
0.0
 11
12.134538963
 21
-15.311289579
 31
0.0
  0
LINE
  5
79
330
1F
100
AcDbEntity
  8
SK3
100
AcDbLine
 10
7.973181199
 20
-20.090173996
 30
0.0
 11
10.652462952
 21
-17.117107287
 31
0.0
  0
LINE
  5
7A
330
1F
100
AcDbEntity
  8
SK3
100
AcDbLine
 10
7.896509022
 20
-26.538003236
 30
0.0
 11
7.973181199
 21
-20.090173996
 31
0.0
  0
LINE
  5
7B
330
1F
100
AcDbEntity
  8
SK3
100
AcDbLine
 10
7.896509022
 20
-26.538003236
 30
0.0
 11
12.134538963
 21
-15.311289579
 31
0.0
  0
LINE
  5
7C
330
1F
100
AcDbEntity
  8
SK3
100
AcDbLine
 10
15.58783061
 20
-29.441439703
 30
0.0
 11
7.896509022
 21
-26.538003236
 31
0.0
  0
LINE
  5
7D
330
1F
100
AcDbEntity
  8
SK3
100
AcDbLine
 10
0.173736522
 20
-7.023167612
 30
0.0
 11
10.652462952
 21
-17.117107287
 31
0.0
  0
LINE
  5
7E
330
1F
100
AcDbEntity
  8
SK3
100
AcDbLine
 10
7.973181199
 20
-20.090173996
 30
0.0
 11
-4.577854111
 21
-8.00002248
 31
0.0
  0
LINE
  5
7F
330
1F
100
AcDbEntity
  8
SK1
  6
Continuous
370
    50
100
AcDbLine
 10
-0.4294095926
 20
-17.717037106
 30
0.0
 11
-1.4854414621
 21
-17.9999992254
 31
0.0
  0
LINE
  5
80
330
1F
100
AcDbEntity
  8
SK1
  6
Continuous
370
    50
100
AcDbLine
 10
-1.4854414621
 20
-17.9999992254
 30
0.0
 11
-35.0000001491
 21
-17.9999992254
 31
0.0
  0
LINE
  5
81
330
1F
100
AcDbEntity
  8
SK1
  6
Continuous
370
    50
100
AcDbLine
 10
-35.0000001491
 20
-17.9999992254
 30
0.0
 11
-35.0000001491
 21
-0.300000014
 31
0.0
  0
LINE
  5
82
330
1F
100
AcDbEntity
  8
SK1
  6
Continuous
370
    50
100
AcDbLine
 10
-35.0000001491
 20
-0.300000014
 30
0.0
 11
-23.521754891
 21
-0.300000014
 31
0.0
  0
LINE
  5
83
330
1F
100
AcDbEntity
  8
SK1
  6
Continuous
370
    50
100
AcDbLine
 10
-16.5999997411
 20
-5.8292639437
 30
0.0
 11
-15.1000004264
 21
-5.8292639437
 31
0.0
  0
LINE
  5
84
330
1F
100
AcDbEntity
  8
SK1
  6
Continuous
370
    50
100
AcDbLine
 10
-9.2039457635
 20
-0.2999996525
 30
0.0
 11
-2.3000005275
 21
-0.2999996525
 31
0.0
  0
LINE
  5
85
330
1F
100
AcDbEntity
  8
SK1
  6
Continuous
370
    50
100
AcDbLine
 10
-2.3000005273
 20
0.3000003534
 30
0.0
 11
-9.2039457633
 21
0.3000003534
 31
0.0
  0
LINE
  5
86
330
1F
100
AcDbEntity
  8
SK1
  6
Continuous
370
    50
100
AcDbLine
 10
-15.1000004262
 20
5.8292639438
 30
0.0
 11
-16.5999997414
 21
5.8292639438
 31
0.0
  0
LINE
  5
87
330
1F
100
AcDbEntity
  8
SK1
  6
Continuous
370
    50
100
AcDbLine
 10
-23.5217548912
 20
0.300000014
 30
0.0
 11
-35.0000001491
 21
0.300000014
 31
0.0
  0
LINE
  5
88
330
1F
100
AcDbEntity
  8
SK1
  6
Continuous
370
    50
100
AcDbLine
 10
-35.0000001491
 20
0.300000014
 30
0.0
 11
-35.0000001491
 21
17.9999992246
 31
0.0
  0
LINE
  5
89
330
1F
100
AcDbEntity
  8
SK1
  6
Continuous
370
    50
100
AcDbLine
 10
-35.0000001491
 20
17.9999992246
 30
0.0
 11
-1.4854414621
 21
17.9999992246
 31
0.0
  0
LINE
  5
8A
330
1F
100
AcDbEntity
  8
SK1
  6
Continuous
370
    50
100
AcDbLine
 10
-1.4854414621
 20
17.9999992246
 30
0.0
 11
-0.4294095231
 21
17.7170370866
 31
0.0
  0
LINE
  5
8B
330
1F
100
AcDbEntity
  8
SK1
  6
Continuous
370
    50
100
AcDbLine
 10
-9.2039457633
 20
0.3000003534
 30
0.0
 11
-10.6489217323
 21
0.3000003534
 31
0.0
  0
LINE
  5
8C
330
1F
100
AcDbEntity
  8
SK1
  6
Continuous
370
    50
100
AcDbLine
 10
-18.1449726945
 20
3.3486703374
 30
0.0
 11
-18.8913824383
 21
4.3295401814
 31
0.0
  0
LINE
  5
8D
330
1F
100
AcDbEntity
  8
SK1
  6
Continuous
370
    50
100
AcDbLine
 10
-21.7112991961
 20
0.300000014
 30
0.0
 11
-23.4409663831
 21
0.300000014
 31
0.0
  0
LINE
  5
8E
330
1F
100
AcDbEntity
  8
SK1
  6
Continuous
370
    50
100
AcDbLine
 10
-16.5999997406
 20
5.7325535456
 30
0.0
 11
-15.1000004262
 21
5.7325535456
 31
0.0
  0
LINE
  5
8F
330
1F
100
AcDbEntity
  8
SK1
  6
Continuous
370
    50
100
AcDbLine
 10
-23.521754891
 20
-0.300000014
 30
0.0
 11
-23.440966383
 21
-0.300000014
 31
0.0
  0
LINE
  5
90
330
1F
100
AcDbEntity
  8
SK1
  6
Continuous
370
    50
100
AcDbLine
 10
-23.440966383
 20
-0.300000014
 30
0.0
 11
-21.716077422
 21
-0.299437685
 31
0.0
  0
LINE
  5
91
330
1F
100
AcDbEntity
  8
SK1
  6
Continuous
370
    50
100
AcDbLine
 10
-18.8882094915
 20
-4.3346650157
 30
0.0
 11
-18.1449722865
 21
-3.3486699967
 31
0.0
  0
LINE
  5
92
330
1F
100
AcDbEntity
  8
SK1
  6
Continuous
370
    50
100
AcDbLine
 10
-10.6489217328
 20
-0.2999996525
 30
0.0
 11
-9.2039457635
 21
-0.2999996525
 31
0.0
  0
LINE
  5
93
330
1F
100
AcDbEntity
  8
SK1
  6
Continuous
370
    50
100
AcDbLine
 10
-20.4322617501
 20
2.8900620527
 30
0.0
 11
-19.6044649931
 21
2.2248639727
 31
0.0
  0
LINE
  5
94
330
1F
100
AcDbEntity
  8
SK1
  6
Continuous
370
    50
100
AcDbLine
 10
-19.6044649931
 20
2.2248639727
 30
0.0
 11
-19.2139968281
 21
1.9088379337
 31
0.0
  0
LINE
  5
95
330
1F
100
AcDbEntity
  8
SK1
  6
Continuous
370
    50
100
AcDbLine
 10
-19.6288991724
 20
0.300000014
 30
0.0
 11
-21.7112991961
 21
0.300000014
 31
0.0
  0
LINE
  5
96
330
1F
100
AcDbEntity
  8
SK3
100
AcDbLine
 10
-36.278326123
 20
8.000007221
 30
0.0
 11
-37.000005811
 21
9.25002248
 31
0.0
  0
LINE
  5
97
330
1F
100
AcDbEntity
  8
SK3
100
AcDbLine
 10
-37.000005811
 20
9.25002248
 30
0.0
 11
-39.567022412
 21
9.25002248
 31
0.0
  0
LINE
  5
98
330
1F
100
AcDbEntity
  8
SK1
  6
Continuous
370
    50
100
AcDbLine
 10
-35.0000001491
 20
17.9999992246
 30
0.0
 11
-37.1874868871
 21
17.6925696426
 31
0.0
  0
LINE
  5
99
330
1F
100
AcDbEntity
  8
SK1
  6
Continuous
370
    50
100
AcDbLine
 10
-37.1874868871
 20
17.6925696426
 30
0.0
 11
-38.8448563651
 21
17.9848077526
 31
0.0
  0
LINE
  5
9A
330
1F
100
AcDbEntity
  8
SK1
  6
Continuous
370
    50
100
AcDbLine
 10
-39.7000004499
 20
17.7318219233
 30
0.0
 11
-39.7
 21
-17.731822343
 31
0.0
  0
LINE
  5
9B
330
1F
100
AcDbEntity
  8
SK1
  6
Continuous
370
    50
100
AcDbLine
 10
-38.8448572898
 20
-17.9848079166
 30
0.0
 11
-37.1874868871
 21
-17.6925696434
 31
0.0
  0
LINE
  5
9C
330
1F
100
AcDbEntity
  8
SK1
  6
Continuous
370
    50
100
AcDbLine
 10
-37.1874868871
 20
-17.6925696434
 30
0.0
 11
-35.0000001491
 21
-17.9999992254
 31
0.0
  0
LINE
  5
9D
330
1F
100
AcDbEntity
  8
SK1
  6
Continuous
370
    50
100
AcDbLine
 10
-16.5999997405
 20
-5.7325535456
 30
0.0
 11
-15.1000004261
 21
-5.7325535456
 31
0.0
  0
LINE
  5
9E
330
1F
100
AcDbEntity
  8
SK1
  6
Continuous
370
    50
100
AcDbLine
 10
-35.0000001491
 20
0.300000014
 30
0.0
 11
-35.7000008231
 21
0.300000014
 31
0.0
  0
LINE
  5
9F
330
1F
100
AcDbEntity
  8
SK1
  6
Continuous
370
    50
100
AcDbLine
 10
-35.7000008225
 20
-0.300000014
 30
0.0
 11
-35.0000001491
 21
-0.300000014
 31
0.0
  0
LINE
  5
A0
330
1F
100
AcDbEntity
  8
SK1
  6
Continuous
370
    50
100
AcDbLine
 10
-21.7112991961
 20
-0.2999993071
 30
0.0
 11
-19.6288991721
 21
-0.2999993071
 31
0.0
  0
LINE
  5
A1
330
1F
100
AcDbEntity
  8
SK1
  6
Continuous
370
    50
100
AcDbLine
 10
-19.2139968278
 20
-1.9088372267
 30
0.0
 11
-20.4322617502
 21
-2.8900613461
 31
0.0
  0
LINE
  5
A2
330
1F
100
AcDbEntity
  8
SK3
100
AcDbLine
 10
-39.567022412
 20
-9.250000408
 30
0.0
 11
-37.000005811
 21
-9.250000408
 31
0.0
  0
LINE
  5
A3
330
1F
100
AcDbEntity
  8
SK3
100
AcDbLine
 10
-37.000005811
 20
-9.250000408
 30
0.0
 11
-37.000005811
 21
9.25002248
 31
0.0
  0
LINE
  5
A4
330
1F
100
AcDbEntity
  8
SK3
100
AcDbLine
 10
-0.181809559
 20
8.00002248
 30
0.0
 11
-36.278326123
 21
8.00002248
 31
0.0
  0
LINE
  5
A5
330
1F
100
AcDbEntity
  8
SK3
100
AcDbLine
 10
-36.278326123
 20
8.00002248
 30
0.0
 11
-36.278326123
 21
-8.000000408
 31
0.0
  0
LINE
  5
A6
330
1F
100
AcDbEntity
  8
SK3
100
AcDbLine
 10
-36.278326123
 20
-8.000000408
 30
0.0
 11
-37.000005811
 21
-9.250000408
 31
0.0
  0
LINE
  5
A7
330
1F
100
AcDbEntity
  8
SK3
100
AcDbLine
 10
-13.267955003
 20
-8.000007221
 30
0.0
 11
-17.000005811
 21
-9.000000408
 31
0.0
  0
LINE
  5
A8
330
1F
100
AcDbEntity
  8
SK3
100
AcDbLine
 10
-17.000005811
 20
-9.000000408
 30
0.0
 11
-16.99988374
 21
9.000007221
 31
0.0
  0
LINE
  5
A9
330
1F
100
AcDbEntity
  8
SK3
100
AcDbLine
 10
-16.99988374
 20
9.000007221
 30
0.0
 11
-36.855596631
 21
9.000007221
 31
0.0
  0
LINE
  5
AA
330
1F
100
AcDbEntity
  8
SK3
100
AcDbLine
 10
-36.278326123
 20
-8.000000408
 30
0.0
 11
-0.181801525
 21
-8.000000408
 31
0.0
  0
LINE
  5
AB
330
1F
100
AcDbEntity
  8
SK3
100
AcDbLine
 10
-36.855596631
 20
-9.000000408
 30
0.0
 11
-16.999980383
 21
-9.000000408
 31
0.0
  0
LINE
  5
AC
330
1F
100
AcDbEntity
  8
SK3
100
AcDbLine
 10
-17.000005811
 20
9.000007221
 30
0.0
 11
-13.267955003
 21
8.000007221
 31
0.0
  0
LINE
  5
AD
330
1F
100
AcDbEntity
  8
4
100
AcDbLine
 10
-15.5
 20
-5.5
 30
0.0
 11
-15.5
 21
5.5
 31
0.0
  0
LINE
  5
AE
330
1F
100
AcDbEntity
  8
SK1
  6
Continuous
370
    50
100
AcDbLine
 10
-1.4854414621
 20
17.9999992246
 30
0.0
 11
-1.4854414621
 21
-0.0000000004
 31
0.0
  0
LINE
  5
AF
330
1F
100
AcDbEntity
  8
SK1
  6
Continuous
370
    50
100
AcDbLine
 10
-1.4854414621
 20
-0.0000000004
 30
0.0
 11
-1.4854414621
 21
-17.9999992254
 31
0.0
  0
LINE
  5
B0
330
1F
100
AcDbEntity
  8
SK1
  6
Continuous
370
    50
100
AcDbLine
 10
-23.5217548912
 20
0.300000014
 30
0.0
 11
-23.4409663831
 21
0.300000014
 31
0.0
  0
LINE
  5
B1
330
1F
100
AcDbEntity
  8
SK1
  6
Continuous
370
    50
100
AcDbLine
 10
-37.1874868871
 20
-17.6925696434
 30
0.0
 11
-37.1874868871
 21
-0.0000000004
 31
0.0
  0
LINE
  5
B2
330
1F
100
AcDbEntity
  8
SK1
  6
Continuous
370
    50
100
AcDbLine
 10
-37.1874868871
 20
-0.0000000004
 30
0.0
 11
-37.1874868871
 21
17.6925696426
 31
0.0
  0
LINE
  5
B3
330
1F
100
AcDbEntity
  8
1
  6
Continuous
370
    50
100
AcDbLine
 10
0.500000024
 20
-31.750001013
 30
0.0
 11
17.179764807
 21
-31.750001013
 31
0.0
  0
LINE
  5
B4
330
1F
100
AcDbEntity
  8
1
  6
Continuous
370
    50
100
AcDbLine
 10
17.179764807
 20
31.750001013
 30
0.0
 11
0.500000024
 21
31.750001013
 31
0.0
  0
LINE
  5
B5
330
1F
100
AcDbEntity
  8
1
  6
Continuous
370
    50
100
AcDbLine
 10
0.500000024
 20
31.750001013
 30
0.0
 11
0.0
 21
31.25
 31
0.0
  0
LINE
  5
B6
330
1F
100
AcDbEntity
  8
1
  6
Continuous
370
    50
100
AcDbLine
 10
0.0
 20
-31.25
 30
0.0
 11
0.500000024
 21
-31.750001013
 31
0.0
  0
LINE
  5
B7
330
1F
100
AcDbEntity
  8
1
100
AcDbLine
 10
17.179764807
 20
31.750001013
 30
0.0
 11
39.000000805
 21
31.750001013
 31
0.0
  0
LINE
  5
B8
330
1F
100
AcDbEntity
  8
1
100
AcDbLine
 10
39.500001818
 20
23.749999702
 30
0.0
 11
25.7966071362
 21
23.749999702
 31
0.0
  0
LINE
  5
B9
330
1F
100
AcDbEntity
  8
1
100
AcDbLine
 10
28.699999675
 20
10.39531175
 30
0.0
 11
39.500001818
 21
10.39531175
 31
0.0
  0
LINE
  5
BA
330
1F
100
AcDbEntity
  8
1
100
AcDbLine
 10
28.699999675
 20
-10.395311751
 30
0.0
 11
39.500001818
 21
-10.395311751
 31
0.0
  0
LINE
  5
BB
330
1F
100
AcDbEntity
  8
1
100
AcDbLine
 10
39.000000805
 20
-31.750001013
 30
0.0
 11
17.179764807
 21
-31.750001013
 31
0.0
  0
LINE
  5
BC
330
1F
100
AcDbEntity
  8
1
  6
Continuous
370
    50
100
AcDbLine
 10
28.699999675
 20
-10.395311751
 30
0.0
 11
28.699999675
 21
10.39531175
 31
0.0
  0
LINE
  5
BD
330
1F
100
AcDbEntity
  8
1
  6
Continuous
370
    50
100
AcDbLine
 10
0.0
 20
0.0
 30
0.0
 11
0.0
 21
31.25
 31
0.0
  0
LINE
  5
BE
330
1F
100
AcDbEntity
  8
1
  6
Continuous
370
    50
100
AcDbLine
 10
0.0
 20
-31.25
 30
0.0
 11
0.0
 21
0.0
 31
0.0
  0
LINE
  5
BF
330
1F
100
AcDbEntity
  8
1
100
AcDbLine
 10
39.000000805
 20
-31.750001013
 30
0.0
 11
39.500001818
 21
-31.249993791
 31
0.0
  0
LINE
  5
C0
330
1F
100
AcDbEntity
  8
1
100
AcDbLine
 10
39.500001818
 20
31.249993791
 30
0.0
 11
39.000000805
 21
31.750001013
 31
0.0
  0
LINE
  5
C1
330
1F
100
AcDbEntity
  8
1
100
AcDbLine
 10
39.500001818
 20
-31.249993791
 30
0.0
 11
39.500001818
 21
31.249993791
 31
0.0
  0
LINE
  5
C2
330
1F
100
AcDbEntity
  8
SK3
100
AcDbLine
 10
-0.199999995
 20
-8.000000408
 30
0.0
 11
-0.199999995
 21
8.00002248
 31
0.0
  0
LINE
  5
C3
330
1F
100
AcDbEntity
  8
SK3
100
AcDbLine
 10
7.896509022
 20
26.538003236
 30
0.0
 11
7.973181199
 21
20.090173996
 31
0.0
  0
LINE
  5
C4
330
1F
100
AcDbEntity
  8
SK3
100
AcDbLine
 10
12.134538963
 20
15.311289579
 30
0.0
 11
34.489023389
 21
23.749999702
 31
0.0
  0
LINE
  5
C5
330
1F
100
AcDbEntity
  8
SK3
100
AcDbLine
 10
15.58783061
 20
29.441439703
 30
0.0
 11
7.896509022
 21
26.538003236
 31
0.0
  0
LINE
  5
C6
330
1F
100
AcDbEntity
  8
SK3
100
AcDbLine
 10
7.973181199
 20
20.090173996
 30
0.0
 11
-4.577854111
 21
8.00002248
 31
0.0
  0
LINE
  5
C7
330
1F
100
AcDbEntity
  8
SK3
100
AcDbLine
 10
0.173736522
 20
7.023167612
 30
0.0
 11
10.652462952
 21
17.117107287
 31
0.0
  0
LINE
  5
C8
330
1F
100
AcDbEntity
  8
SK3
100
AcDbLine
 10
-0.181801525
 20
-8.000000408
 30
0.0
 11
2.729960382
 21
0.0
 31
0.0
  0
LINE
  5
C9
330
1F
100
AcDbEntity
  8
SK3
100
AcDbLine
 10
2.729960382
 20
0.0
 30
0.0
 11
-0.181809559
 21
8.00002248
 31
0.0
  0
LINE
  5
CA
330
1F
100
AcDbEntity
  8
SK3
100
AcDbLine
 10
7.973181199
 20
20.090173996
 30
0.0
 11
10.652462952
 21
17.117107287
 31
0.0
  0
LINE
  5
CB
330
1F
100
AcDbEntity
  8
SK3
100
AcDbLine
 10
10.652462952
 20
17.117107287
 30
0.0
 11
12.134538963
 21
15.311289579
 31
0.0
  0
LINE
  5
CC
330
1F
100
AcDbEntity
  8
SK3
100
AcDbLine
 10
7.896509022
 20
26.538003236
 30
0.0
 11
12.134538963
 21
15.311289579
 31
0.0
  0
LINE
  5
CD
330
1F
100
AcDbEntity
  8
1
100
AcDbLine
 10
53.3000033826
 20
25.0000015571
 30
0.0
 11
37.4753252624
 21
25.000001185
 31
0.0
  0
LINE
  5
CE
330
1F
100
AcDbEntity
  8
1
100
AcDbLine
 10
54.3000016841
 20
24.0000013936
 30
0.0
 11
53.7924830351
 21
24.5075219046
 31
0.0
  0
LINE
  5
CF
330
1F
100
AcDbEntity
  8
1
100
AcDbLine
 10
53.7924830351
 20
24.5075219046
 30
0.0
 11
53.3000033826
 21
25.0000015571
 31
0.0
  0
LINE
  5
D0
330
1F
100
AcDbEntity
  8
1
100
AcDbLine
 10
54.3000016841
 20
13.1710686456
 30
0.0
 11
54.3000016841
 21
24.0000013936
 31
0.0
  0
LINE
  5
D1
330
1F
100
AcDbEntity
  8
1
100
AcDbLine
 10
55.1412541899
 20
10.3953129351
 30
0.0
 11
39.698073179
 21
10.3953129351
 31
0.0
  0
LINE
  5
D2
330
1F
100
AcDbEntity
  8
1
100
AcDbLine
 10
39.698073179
 20
10.3953129351
 30
0.0
 11
39.698073179
 21
-10.39531175
 31
0.0
  0
LINE
  5
D3
330
1F
100
AcDbEntity
  8
1
100
AcDbLine
 10
39.448072672
 20
-26.447370648
 30
0.0
 11
39.578826636
 21
-26.374692097
 31
0.0
  0
LINE
  5
D4
330
1F
100
AcDbEntity
  8
1
100
AcDbLine
 10
39.578826636
 20
-26.374692097
 30
0.0
 11
39.66152063
 21
-26.282755658
 31
0.0
  0
LINE
  5
D5
330
1F
100
AcDbEntity
  8
1
100
AcDbLine
 10
39.66152063
 20
-26.282755658
 30
0.0
 11
39.697838485
 21
-26.165170595
 31
0.0
  0
LINE
  5
D6
330
1F
100
AcDbEntity
  8
1
100
AcDbLine
 10
39.697838485
 20
-26.165170595
 30
0.0
 11
39.664843589
 21
-26.030324399
 31
0.0
  0
LINE
  5
D7
330
1F
100
AcDbEntity
  8
1
100
AcDbLine
 10
39.664843589
 20
-26.030324399
 30
0.0
 11
39.549344689
 21
-25.906106457
 31
0.0
  0
LINE
  5
D8
330
1F
100
AcDbEntity
  8
1
100
AcDbLine
 10
39.549344689
 20
-25.906106457
 30
0.0
 11
39.448072672
 21
-25.851238519
 31
0.0
  0
LINE
  5
D9
330
1F
100
AcDbEntity
  8
1
100
AcDbLine
 10
39.698073179
 20
-10.39531175
 30
0.0
 11
60.548083395
 21
-10.39531175
 31
0.0
  0
LINE
  5
DA
330
1F
100
AcDbEntity
  8
1
100
AcDbLine
 10
60.548083395
 20
-10.39531175
 30
0.0
 11
60.548083395
 21
-31.457472593
 31
0.0
  0
LINE
  5
DB
330
1F
100
AcDbEntity
  8
1
100
AcDbLine
 10
58.73470521
 20
-31.457472593
 30
0.0
 11
60.548083395
 21
-31.457472593
 31
0.0
  0
LINE
  5
DC
330
1F
100
AcDbEntity
  8
1
100
AcDbLine
 10
58.5347055499
 20
-31.7096598449
 30
0.0
 11
58.5347055499
 21
-31.484164298
 31
0.0
  0
LINE
  5
DD
330
1F
100
AcDbEntity
  8
1
100
AcDbLine
 10
58.3638016158
 20
-31.7498425194
 30
0.0
 11
39.687970191
 21
-31.749840826
 31
0.0
  0
LINE
  5
DE
330
1F
100
AcDbEntity
  8
1
100
AcDbLine
 10
39.448072672
 20
-31.258136034
 30
0.0
 11
39.577377498
 21
-31.238848343
 31
0.0
  0
LINE
  5
DF
330
1F
100
AcDbEntity
  8
1
100
AcDbLine
 10
39.577377498
 20
-31.238848343
 30
0.0
 11
39.663483858
 21
-31.212529167
 31
0.0
  0
LINE
  5
E0
330
1F
100
AcDbEntity
  8
1
100
AcDbLine
 10
39.663483858
 20
-31.212529167
 30
0.0
 11
39.697745353
 21
-31.181396916
 31
0.0
  0
LINE
  5
E1
330
1F
100
AcDbEntity
  8
1
100
AcDbLine
 10
39.697745353
 20
-31.181396916
 30
0.0
 11
39.674886972
 21
-31.148577109
 31
0.0
  0
LINE
  5
E2
330
1F
100
AcDbEntity
  8
1
100
AcDbLine
 10
39.674886972
 20
-31.148577109
 30
0.0
 11
39.596056104
 21
-31.11814335
 31
0.0
  0
LINE
  5
E3
330
1F
100
AcDbEntity
  8
1
100
AcDbLine
 10
39.596056104
 20
-31.11814335
 30
0.0
 11
39.47076714
 21
-31.094336882
 31
0.0
  0
LINE
  5
E4
330
1F
100
AcDbEntity
  8
1
100
AcDbLine
 10
39.47076714
 20
-31.094336882
 30
0.0
 11
39.448072672
 21
-31.091459095
 31
0.0
  0
LINE
  5
E5
330
1F
100
AcDbEntity
  8
1
100
AcDbLine
 10
39.448072672
 20
-29.568010941
 30
0.0
 11
39.577824533
 21
-29.525630176
 31
0.0
  0
LINE
  5
E6
330
1F
100
AcDbEntity
  8
1
100
AcDbLine
 10
39.577824533
 20
-29.525630176
 30
0.0
 11
39.662735075
 21
-29.469640925
 31
0.0
  0
LINE
  5
E7
330
1F
100
AcDbEntity
  8
1
100
AcDbLine
 10
39.662735075
 20
-29.469640925
 30
0.0
 11
39.697745353
 21
-29.402326792
 31
0.0
  0
LINE
  5
E8
330
1F
100
AcDbEntity
  8
1
100
AcDbLine
 10
39.697745353
 20
-29.402326792
 30
0.0
 11
39.67223084
 21
-29.329665005
 31
0.0
  0
LINE
  5
E9
330
1F
100
AcDbEntity
  8
1
100
AcDbLine
 10
39.67223084
 20
-29.329665005
 30
0.0
 11
39.583088368
 21
-29.262684286
 31
0.0
  0
LINE
  5
EA
330
1F
100
AcDbEntity
  8
1
100
AcDbLine
 10
39.583088368
 20
-29.262684286
 30
0.0
 11
39.448072672
 21
-29.214426875
 31
0.0
  0
LINE
  5
EB
330
1F
100
AcDbEntity
  8
1
100
AcDbLine
 10
67.503032744
 20
-11.659521609
 30
0.0
 11
67.397927404
 21
-12.496901676
 31
0.0
  0
LINE
  5
EC
330
1F
100
AcDbEntity
  8
1
100
AcDbLine
 10
67.397927404
 20
-12.496901676
 30
0.0
 11
67.302418411
 21
-12.812425382
 31
0.0
  0
LINE
  5
ED
330
1F
100
AcDbEntity
  8
1
100
AcDbLine
 10
67.302418411
 20
-12.812425382
 30
0.0
 11
67.120877564
 21
-13.149997219
 31
0.0
  0
LINE
  5
EE
330
1F
100
AcDbEntity
  8
1
100
AcDbLine
 10
67.120877564
 20
-13.149997219
 30
0.0
 11
67.014431119
 21
-13.259994797
 31
0.0
  0
LINE
  5
EF
330
1F
100
AcDbEntity
  8
1
100
AcDbLine
 10
67.014431119
 20
-13.259994797
 30
0.0
 11
66.879307389
 21
-13.334872201
 31
0.0
  0
LINE
  5
F0
330
1F
100
AcDbEntity
  8
1
100
AcDbLine
 10
66.879307389
 20
-13.334872201
 30
0.0
 11
66.770648122
 21
-13.350357301
 31
0.0
  0
LINE
  5
F1
330
1F
100
AcDbEntity
  8
1
100
AcDbLine
 10
66.770648122
 20
-13.350357301
 30
0.0
 11
66.662979782
 21
-13.329281472
 31
0.0
  0
LINE
  5
F2
330
1F
100
AcDbEntity
  8
1
100
AcDbLine
 10
66.662979782
 20
-13.329281472
 30
0.0
 11
66.63973397
 21
-13.320025057
 31
0.0
  0
LINE
  5
F3
330
1F
100
AcDbEntity
  8
1
100
AcDbLine
 10
67.503032744
 20
-11.659521609
 30
0.0
 11
67.517628431
 21
-11.684044264
 31
0.0
  0
LINE
  5
F4
330
1F
100
AcDbEntity
  8
1
100
AcDbLine
 10
60.548083395
 20
-31.457472593
 30
0.0
 11
62.918489337
 21
-31.879272312
 31
0.0
  0
LINE
  5
F5
330
1F
100
AcDbEntity
  8
1
100
AcDbLine
 10
62.918489337
 20
-31.879272312
 30
0.0
 11
69.269639909
 21
-33.008947968
 31
0.0
  0
LINE
  5
F6
330
1F
100
AcDbEntity
  8
1
100
AcDbLine
 10
65.3999984227
 20
0.0000002254
 30
0.0
 11
55.7644680107
 21
9.6355343634
 31
0.0
  0
LINE
  5
F7
330
1F
100
AcDbEntity
  8
1
100
AcDbLine
 10
65.3999984227
 20
-3.9999999646
 30
0.0
 11
65.3999984227
 21
0.0000002254
 31
0.0
  0
LINE
  5
F8
330
1F
100
AcDbEntity
  8
1
100
AcDbLine
 10
70.6499980538
 20
-15.3990128897
 30
0.0
 11
70.6499944529
 21
-21.2649738026
 31
0.0
  0
LINE
  5
F9
330
1F
100
AcDbEntity
  8
1
100
AcDbLine
 10
70.6499944529
 20
-21.2649738026
 30
0.0
 11
70.4923401679
 21
-21.4105991256
 31
0.0
  0
LINE
  5
FA
330
1F
100
AcDbEntity
  8
1
100
AcDbLine
 10
70.2295805419
 20
-21.3640311336
 30
0.0
 11
70.4923401679
 21
-21.4105991256
 31
0.0
  0
LINE
  5
FB
330
1F
100
AcDbEntity
  8
1
100
AcDbLine
 10
70.208562076
 20
-32.214283943
 30
0.0
 11
70.2085605935
 21
-21.5634221455
 31
0.0
  0
LINE
  5
FC
330
1F
100
AcDbEntity
  8
1
100
AcDbLine
 10
70.208562076
 20
-32.214283943
 30
0.0
 11
70.2084726692
 21
-32.2259925308
 31
0.0
  0
LINE
  5
FD
330
1F
100
AcDbEntity
  8
1
100
AcDbLine
 10
35.9000031376
 20
24.7000020661
 30
0.0
 11
35.9000031376
 21
-31.3277605259
 31
0.0
  0
LINE
  5
FE
330
1F
100
AcDbEntity
  8
1
100
AcDbLine
 10
36.199999511
 20
17.774598673
 30
0.0
 11
36.1499986648
 21
17.6421124491
 31
0.0
  0
LINE
  5
FF
330
1F
100
AcDbEntity
  8
1
100
AcDbLine
 10
36.149998665
 20
-17.642112449
 30
0.0
 11
36.1999976756
 21
-17.7745986582
 31
0.0
  0
LINE
  5
100
330
1F
100
AcDbEntity
  8
1
100
AcDbLine
 10
35.899998158
 20
-16.506375745
 30
0.0
 11
35.934360236
 21
-16.862472519
 31
0.0
  0
LINE
  5
101
330
1F
100
AcDbEntity
  8
1
100
AcDbLine
 10
35.934360236
 20
-16.862472519
 30
0.0
 11
36.149998665
 21
-17.642112449
 31
0.0
  0
LINE
  5
102
330
1F
100
AcDbEntity
  8
1
100
AcDbLine
 10
36.199999511
 20
24.405652657
 30
0.0
 11
36.1499986649
 21
24.3164561687
 31
0.0
  0
LINE
  5
103
330
1F
100
AcDbEntity
  8
1
100
AcDbLine
 10
36.149998665
 20
-24.316456169
 30
0.0
 11
36.1999976744
 21
-24.4056518454
 31
0.0
  0
LINE
  5
104
330
1F
100
AcDbEntity
  8
1
100
AcDbLine
 10
36.1500036446
 20
24.9500007101
 30
0.0
 11
36.2000044906
 21
25.0000015571
 31
0.0
  0
LINE
  5
105
330
1F
100
AcDbEntity
  8
1
100
AcDbLine
 10
37.4753252624
 20
25.000001185
 30
0.0
 11
36.2000044906
 21
25.0000015571
 31
0.0
  0
LINE
  5
106
330
1F
100
AcDbEntity
  8
1
100
AcDbLine
 10
36.1999976754
 20
-27.6013178874
 30
0.0
 11
36.149998665
 21
-27.560213581
 31
0.0
  0
LINE
  5
107
330
1F
100
AcDbEntity
  8
1
100
AcDbLine
 10
36.149998665
 20
-27.560213581
 30
0.0
 11
36.071126819
 21
-27.501536533
 31
0.0
  0
LINE
  5
108
330
1F
100
AcDbEntity
  8
1
100
AcDbLine
 10
36.071126819
 20
-27.501536533
 30
0.0
 11
35.994415641
 21
-27.461070567
 31
0.0
  0
LINE
  5
109
330
1F
100
AcDbEntity
  8
1
100
AcDbLine
 10
35.994415641
 20
-27.461070567
 30
0.0
 11
35.93588388
 21
-27.453834191
 31
0.0
  0
LINE
  5
10A
330
1F
100
AcDbEntity
  8
1
100
AcDbLine
 10
35.93588388
 20
-27.453834191
 30
0.0
 11
35.907608926
 21
-27.476878837
 31
0.0
  0
LINE
  5
10B
330
1F
100
AcDbEntity
  8
1
100
AcDbLine
 10
35.907608926
 20
-27.476878837
 30
0.0
 11
35.899998158
 21
-27.516445145
 31
0.0
  0
LINE
  5
10C
330
1F
100
AcDbEntity
  8
1
100
AcDbLine
 10
36.149998665
 20
-28.272530064
 30
0.0
 11
36.199997676
 21
-28.3431707208
 31
0.0
  0
LINE
  5
10D
330
1F
100
AcDbEntity
  8
1
100
AcDbLine
 10
35.9000031376
 20
24.7000020661
 30
0.0
 11
35.9109294146
 21
24.7109264801
 31
0.0
  0
LINE
  5
10E
330
1F
100
AcDbEntity
  8
1
100
AcDbLine
 10
35.9109294146
 20
24.7109264801
 30
0.0
 11
35.9432314066
 21
24.7432284721
 31
0.0
  0
LINE
  5
10F
330
1F
100
AcDbEntity
  8
1
100
AcDbLine
 10
35.9432314066
 20
24.7432284721
 30
0.0
 11
35.9954935036
 21
24.7954924321
 31
0.0
  0
LINE
  5
110
330
1F
100
AcDbEntity
  8
1
100
AcDbLine
 10
35.9954935036
 20
24.7954924321
 30
0.0
 11
36.0654358296
 21
24.8654366201
 31
0.0
  0
LINE
  5
111
330
1F
100
AcDbEntity
  8
1
100
AcDbLine
 10
36.0654358296
 20
24.8654366201
 30
0.0
 11
36.1500036446
 21
24.9500007101
 31
0.0
  0
LINE
  5
112
330
1F
100
AcDbEntity
  8
1
100
AcDbLine
 10
36.1999976757
 20
-30.2346368357
 30
0.0
 11
36.149998665
 21
-30.191380531
 31
0.0
  0
LINE
  5
113
330
1F
100
AcDbEntity
  8
1
100
AcDbLine
 10
36.149998665
 20
-30.584011227
 30
0.0
 11
36.1999976755
 21
-30.6436748943
 31
0.0
  0
LINE
  5
114
330
1F
100
AcDbEntity
  8
1
100
AcDbLine
 10
36.149998665
 20
-30.191380531
 30
0.0
 11
36.0522843
 21
-30.112342909
 31
0.0
  0
LINE
  5
115
330
1F
100
AcDbEntity
  8
1
100
AcDbLine
 10
36.0522843
 20
-30.112342909
 30
0.0
 11
35.972805232
 21
-30.060503632
 31
0.0
  0
LINE
  5
116
330
1F
100
AcDbEntity
  8
1
100
AcDbLine
 10
35.972805232
 20
-30.060503632
 30
0.0
 11
35.918233454
 21
-30.042840168
 31
0.0
  0
LINE
  5
117
330
1F
100
AcDbEntity
  8
1
100
AcDbLine
 10
35.918233454
 20
-30.042840168
 30
0.0
 11
35.900333434
 21
-30.059853569
 31
0.0
  0
LINE
  5
118
330
1F
100
AcDbEntity
  8
1
100
AcDbLine
 10
35.900333434
 20
-30.059853569
 30
0.0
 11
35.899998158
 21
-30.065141618
 31
0.0
  0
LINE
  5
119
330
1F
100
AcDbEntity
  8
1
100
AcDbLine
 10
36.1999976759
 20
-31.5346441248
 30
0.0
 11
36.149998665
 21
-31.487673521
 31
0.0
  0
LINE
  5
11A
330
1F
100
AcDbEntity
  8
1
100
AcDbLine
 10
36.1500036442
 20
-31.6137249852
 30
0.0
 11
36.200002655
 21
-31.6659789141
 31
0.0
  0
LINE
  5
11B
330
1F
100
AcDbEntity
  8
1
100
AcDbLine
 10
58.363800407
 20
31.749840826
 30
0.0
 11
39.8879735766
 21
31.749840826
 31
0.0
  0
LINE
  5
11C
330
1F
100
AcDbEntity
  8
1
100
AcDbLine
 10
58.363800407
 20
31.555846334
 30
0.0
 11
58.363800407
 21
31.749840826
 31
0.0
  0
LINE
  5
11D
330
1F
100
AcDbEntity
  8
1
100
AcDbLine
 10
57.313283444
 20
21.88709192
 30
0.0
 11
58.299997359
 21
23.06301333
 31
0.0
  0
LINE
  5
11E
330
1F
100
AcDbEntity
  8
1
100
AcDbLine
 10
62.283427924
 20
19.720518962
 30
0.0
 11
61.2967132281
 21
18.5445968228
 31
0.0
  0
LINE
  5
11F
330
1F
100
AcDbEntity
  8
1
100
AcDbLine
 10
70.6499995658
 20
21.2649734796
 30
0.0
 11
70.6452758978
 21
21.2641352896
 31
0.0
  0
LINE
  5
120
330
1F
100
AcDbEntity
  8
1
100
AcDbLine
 10
70.6499995658
 20
15.3990121666
 30
0.0
 11
70.6499995658
 21
21.2649734796
 31
0.0
  0
LINE
  5
121
330
1F
100
AcDbEntity
  8
1
100
AcDbLine
 10
65.3999984227
 20
0.0000002254
 30
0.0
 11
65.4000014867
 21
4.0000002254
 31
0.0
  0
LINE
  5
122
330
1F
100
AcDbEntity
  8
1
100
AcDbLine
 10
70.6499995658
 20
21.2649734796
 30
0.0
 11
70.6485318018
 21
21.2663294856
 31
0.0
  0
LINE
  5
123
330
1F
100
AcDbEntity
  8
1
100
AcDbLine
 10
36.3499983253
 20
31.6137261687
 30
0.0
 11
36.3999991723
 21
31.6659808157
 31
0.0
  0
LINE
  5
124
330
1F
100
AcDbEntity
  8
1
100
AcDbLine
 10
36.099997819
 20
24.900000542
 30
0.0
 11
36.099997819
 21
31.32776171
 31
0.0
  0
LINE
  5
127
330
1F
100
AcDbEntity
  8
CUT
100
AcDbLine
 10
70.9999973167
 20
21.9287641788
 30
0.0
 11
70.9999996407
 21
33.1999990538
 31
0.0
  0
LINE
  5
128
330
1F
100
AcDbEntity
  8
CUT
100
AcDbLine
 10
70.0610771275
 20
33.987846818
 30
0.0
 11
58.9610792195
 21
32.030616548
 31
0.0
  0
LINE
  5
129
330
1F
100
AcDbEntity
  8
CUT
100
AcDbLine
 10
70.999997676
 20
-21.928764607
 30
0.0
 11
70.999997676
 21
-33.199999999
 31
0.0
  0
LINE
  5
12A
330
1F
100
AcDbEntity
  8
CUT
100
AcDbLine
 10
70.415543166
 20
-33.199999999
 30
0.0
 11
70.415543166
 21
-21.928764607
 31
0.0
  0
LINE
  5
12B
330
1F
100
AcDbEntity
  8
CUT
100
AcDbLine
 10
70.2374267575
 20
-21.7164937373
 30
0.0
 11
70.208562076
 21
-21.711403504
 31
0.0
  0
LINE
  5
12C
330
1F
100
AcDbEntity
  8
CUT
100
AcDbLine
 10
59.076347858
 20
-31.457472593
 30
0.0
 11
70.1625685945
 21
-33.4122708687
 31
0.0
  0
LINE
  5
12D
330
1F
100
AcDbEntity
  8
CUT
100
AcDbLine
 10
70.0610791339
 20
-33.9878462014
 30
0.0
 11
58.961079925
 21
-32.030615956
 31
0.0
  0
LINE
  5
12E
330
1F
100
AcDbEntity
  8
1
100
AcDbLine
 10
69.2696399094
 20
-33.0009050669
 30
0.0
 11
69.114936054
 21
-32.738659531
 31
0.0
  0
LINE
  5
12F
330
1F
100
AcDbEntity
  8
1
100
AcDbLine
 10
69.114936054
 20
-32.738659531
 30
0.0
 11
68.901543975
 21
-32.257746905
 31
0.0
  0
LINE
  5
130
330
1F
100
AcDbEntity
  8
1
100
AcDbLine
 10
68.901543975
 20
-32.257746905
 30
0.0
 11
68.691497207
 21
-31.644359231
 31
0.0
  0
LINE
  5
131
330
1F
100
AcDbEntity
  8
1
100
AcDbLine
 10
68.691497207
 20
-31.644359231
 30
0.0
 11
68.4860847
 21
-30.902141705
 31
0.0
  0
LINE
  5
132
330
1F
100
AcDbEntity
  8
1
100
AcDbLine
 10
68.4860847
 20
-30.902141705
 30
0.0
 11
68.223392129
 21
-29.727809131
 31
0.0
  0
LINE
  5
133
330
1F
100
AcDbEntity
  8
1
100
AcDbLine
 10
68.223392129
 20
-29.727809131
 30
0.0
 11
67.970824897
 21
-28.336238116
 31
0.0
  0
LINE
  5
134
330
1F
100
AcDbEntity
  8
1
100
AcDbLine
 10
67.970824897
 20
-28.336238116
 30
0.0
 11
67.731005609
 21
-26.743020862
 31
0.0
  0
LINE
  5
135
330
1F
100
AcDbEntity
  8
1
100
AcDbLine
 10
67.731005609
 20
-26.743020862
 30
0.0
 11
67.506564319
 21
-24.963751435
 31
0.0
  0
LINE
  5
136
330
1F
100
AcDbEntity
  8
1
100
AcDbLine
 10
67.506564319
 20
-24.963751435
 30
0.0
 11
67.298700571
 21
-23.004204035
 31
0.0
  0
LINE
  5
137
330
1F
100
AcDbEntity
  8
1
100
AcDbLine
 10
67.298700571
 20
-23.004204035
 30
0.0
 11
67.107779443
 21
-20.871952176
 31
0.0
  0
LINE
  5
138
330
1F
100
AcDbEntity
  8
1
100
AcDbLine
 10
67.107779443
 20
-20.871952176
 30
0.0
 11
66.935767889
 21
-18.590418622
 31
0.0
  0
LINE
  5
139
330
1F
100
AcDbEntity
  8
1
100
AcDbLine
 10
66.935767889
 20
-18.590418622
 30
0.0
 11
66.784640312
 21
-16.183035448
 31
0.0
  0
LINE
  5
13A
330
1F
100
AcDbEntity
  8
1
100
AcDbLine
 10
66.784640312
 20
-16.183035448
 30
0.0
 11
66.708681643
 21
-14.768572524
 31
0.0
  0
LINE
  5
13B
330
1F
100
AcDbEntity
  8
1
100
AcDbLine
 10
66.708681643
 20
-14.768572524
 30
0.0
 11
66.63973397
 21
-13.320025057
 31
0.0
  0
LINE
  5
13C
330
1F
100
AcDbEntity
  8
1
100
AcDbLine
 10
69.2696399094
 20
-33.0009050669
 30
0.0
 11
69.269639909
 21
-33.008947968
 31
0.0
  0
LINE
  5
13D
330
1F
100
AcDbEntity
  8
1
100
AcDbLine
 10
57.313283444
 20
21.88709192
 30
0.0
 11
57.316226423
 21
21.884622052
 31
0.0
  0
LINE
  5
13E
330
1F
100
AcDbEntity
  8
1
100
AcDbLine
 10
57.316226423
 20
21.884622052
 30
0.0
 11
57.324943602
 21
21.877307445
 31
0.0
  0
LINE
  5
13F
330
1F
100
AcDbEntity
  8
1
100
AcDbLine
 10
61.2967132281
 20
18.5445968228
 30
0.0
 11
61.293771029
 21
18.547067419
 31
0.0
  0
LINE
  5
140
330
1F
100
AcDbEntity
  8
CUT
100
AcDbLine
 10
70.415543166
 20
-33.199999999
 30
0.0
 11
70.999997676
 21
-33.199999999
 31
0.0
  0
LINE
  5
141
330
1F
100
AcDbEntity
  8
CUT
100
AcDbLine
 10
70.1625685945
 20
-33.4122708687
 30
0.0
 11
70.0610791339
 21
-33.9878462014
 31
0.0
  0
LINE
  5
142
330
1F
100
AcDbEntity
  8
CUT
100
AcDbLine
 10
70.2374267575
 20
-21.7164937373
 30
0.0
 11
70.297454953
 21
-21.376060322
 31
0.0
  0
LINE
  5
143
330
1F
100
AcDbEntity
  8
CUT
100
AcDbLine
 10
70.415543166
 20
-21.928764607
 30
0.0
 11
70.999997676
 21
-21.928764607
 31
0.0
  0
LINE
  5
144
330
1F
100
AcDbEntity
  8
CUT
100
AcDbLine
 10
59.062139601
 20
-31.457472593
 30
0.0
 11
58.961079925
 21
-32.030615956
 31
0.0
  0
ARC
  5
145
330
1F
100
AcDbEntity
  8
SK3
100
AcDbCircle
 10
25.792290775
 20
-35.7437550532
 30
0.0
 40
11.99375612784754
100
AcDbArc
 50
89.9793801601
 51
160.549880022
  0
ARC
  5
146
330
1F
100
AcDbEntity
  8
SK1
  6
Continuous
370
    50
100
AcDbCircle
 10
-0.3000000001
 20
-18.2000000004
 30
0.0
 40
0.5000000000000316
100
AcDbArc
 50
53.130102354
 51
105.000008294
  0
ARC
  5
147
330
1F
100
AcDbEntity
  8
SK1
  6
Continuous
370
    50
100
AcDbCircle
 10
-17.1516526784
 20
0.5772525239
 30
0.0
 40
6.430223496427079
100
AcDbArc
 50
187.8411124333
 51
274.921490825
  0
ARC
  5
148
330
1F
100
AcDbEntity
  8
SK1
  6
Continuous
370
    50
100
AcDbCircle
 10
-15.0473331507
 20
-0.6583179349
 30
0.0
 40
5.171214216100957
100
AcDbArc
 50
269.4164494716
 51
306.0773387039
  0
ARC
  5
149
330
1F
100
AcDbEntity
  8
SK1
  6
Continuous
370
    50
100
AcDbCircle
 10
-14.8834504964
 20
0.070553794
 30
0.0
 40
5.691580085279904
100
AcDbArc
 50
300.4139298984
 51
356.2670865049
  0
ARC
  5
14A
330
1F
100
AcDbEntity
  8
SK1
  6
Continuous
370
    50
100
AcDbCircle
 10
-2.3000005274
 20
0.0000003505
 30
0.0
 40
0.3000000029638183
100
AcDbArc
 50
269.9999999783
 51
89.99999997829998
  0
ARC
  5
14B
330
1F
100
AcDbEntity
  8
SK1
  6
Continuous
370
    50
100
AcDbCircle
 10
-14.8605283434
 20
-0.0564192174
 30
0.0
 40
5.667800401897263
100
AcDbArc
 50
3.605423469499999
 51
59.7135680509
  0
ARC
  5
14C
330
1F
100
AcDbEntity
  8
SK1
  6
Continuous
370
    50
100
AcDbCircle
 10
-15.0473331514
 20
0.658317935
 30
0.0
 40
5.171214216090743
100
AcDbArc
 50
53.9226612951
 51
90.583550518
  0
ARC
  5
14D
330
1F
100
AcDbEntity
  8
SK1
  6
Continuous
370
    50
100
AcDbCircle
 10
-17.1515574495
 20
-0.5773717355
 30
0.0
 40
6.430334099652714
100
AcDbArc
 50
85.0794456891
 51
172.157951055
  0
ARC
  5
14E
330
1F
100
AcDbEntity
  8
SK1
  6
Continuous
370
    50
100
AcDbCircle
 10
-0.3000000001
 20
18.1999999996
 30
0.0
 40
0.4999999999882721
100
AcDbArc
 50
254.999999946
 51
306.8698976460001
  0
ARC
  5
14F
330
1F
100
AcDbEntity
  8
SK1
  6
Continuous
370
    50
100
AcDbCircle
 10
-15.1389105964
 20
0.0000003534
 30
0.0
 40
4.499999999935798
100
AcDbArc
 50
3.8225537294
 51
131.913953375
  0
ARC
  5
150
330
1F
100
AcDbEntity
  8
SK1
  6
Continuous
370
    50
100
AcDbCircle
 10
-16.0500004765
 20
-0.2550390984
 30
0.0
 40
5.393683215223007
100
AcDbArc
 50
121.7893681721
 51
144.383946177
  0
ARC
  5
151
330
1F
100
AcDbEntity
  8
SK1
  6
Continuous
370
    50
100
AcDbCircle
 10
-17.43781368
 20
-0.203528891
 30
0.0
 40
4.305312844999992
100
AcDbArc
 50
134.131013314
 51
173.280034912
  0
ARC
  5
152
330
1F
100
AcDbEntity
  8
SK1
  6
Continuous
370
    50
100
AcDbCircle
 10
-16.6380618722
 20
-1.243051802
 30
0.0
 40
6.97570918911273
100
AcDbArc
 50
89.687370809
 51
167.220265382
  0
ARC
  5
153
330
1F
100
AcDbEntity
  8
SK1
  6
Continuous
370
    50
100
AcDbCircle
 10
-15.0992906682
 20
1.1717602132
 30
0.0
 40
4.560793387613411
100
AcDbArc
 50
68.596573314
 51
90.0089164614
  0
ARC
  5
154
330
1F
100
AcDbEntity
  8
SK1
  6
Continuous
370
    50
100
AcDbCircle
 10
-15.13891012
 20
-0.281083258
 30
0.0
 40
5.943171301999994
100
AcDbArc
 50
73.357788598
 51
129.149079114
  0
ARC
  5
155
330
1F
100
AcDbEntity
  8
SK1
  6
Continuous
370
    50
100
AcDbCircle
 10
-17.4378136799
 20
0.203528891
 30
0.0
 40
4.307727477882134
100
AcDbArc
 50
186.7051002415
 51
225.853636863
  0
ARC
  5
156
330
1F
100
AcDbEntity
  8
SK1
  6
Continuous
370
    50
100
AcDbCircle
 10
-16.05
 20
0.255039452
 30
0.0
 40
5.395994918000017
100
AcDbArc
 50
215.605963111
 51
238.201272817
  0
ARC
  5
157
330
1F
100
AcDbEntity
  8
SK1
  6
Continuous
370
    50
100
AcDbCircle
 10
-15.13891012
 20
0.281083258
 30
0.0
 40
5.945272702000015
100
AcDbArc
 50
230.850920886
 51
286.6071115680001
  0
ARC
  5
158
330
1F
100
AcDbEntity
  8
SK1
  6
Continuous
370
    50
100
AcDbCircle
 10
-15.1720545942
 20
0.9260708798
 30
0.0
 40
6.578053725899224
100
AcDbArc
 50
285.277996721
 51
298.8092209902
  0
ARC
  5
159
330
1F
100
AcDbEntity
  8
SK1
  6
Continuous
370
    50
100
AcDbCircle
 10
-15.1389105964
 20
0.0000003534
 30
0.0
 40
4.499999999836371
100
AcDbArc
 50
228.0860536051
 51
356.177446195
  0
ARC
  5
15A
330
1F
100
AcDbEntity
  8
SK1
  6
Continuous
370
    50
100
AcDbCircle
 10
-15.1430574261
 20
0.0010671338
 30
0.0
 40
4.49579103603953
100
AcDbArc
 50
154.8907276465
 51
176.187492248
  0
ARC
  5
15B
330
1F
100
AcDbEntity
  8
SK1
  6
Continuous
370
    50
100
AcDbCircle
 10
-39.0185045425
 20
16.9999999996
 30
0.0
 40
0.9999999999360918
100
AcDbArc
 50
80.000000014
 51
132.9606494081
  0
ARC
  5
15C
330
1F
100
AcDbEntity
  8
SK1
  6
Continuous
370
    50
100
AcDbCircle
 10
-39.0185045422
 20
-17.0000000002
 30
0.0
 40
1.000000000247156
100
AcDbArc
 50
227.0393858059
 51
279.999946163
  0
ARC
  5
15D
330
1F
100
AcDbEntity
  8
SK1
  6
Continuous
370
    50
100
AcDbCircle
 10
-16.6380618721
 20
1.243051802
 30
0.0
 40
6.975709189112786
100
AcDbArc
 50
192.779734618
 51
270.312629191
  0
ARC
  5
15E
330
1F
100
AcDbEntity
  8
SK1
  6
Continuous
370
    50
100
AcDbCircle
 10
-15.0992906681
 20
-1.1717602134
 30
0.0
 40
4.560793387474146
100
AcDbArc
 50
269.9910835386
 51
291.3520106085
  0
ARC
  5
15F
330
1F
100
AcDbEntity
  8
SK1
  6
Continuous
370
    50
100
AcDbCircle
 10
-15.1720545945
 20
-0.9260708801
 30
0.0
 40
6.578053726023995
100
AcDbArc
 50
61.19077901430002
 51
74.722003279
  0
ARC
  5
160
330
1F
100
AcDbEntity
  8
SK1
  6
Continuous
370
    50
100
AcDbCircle
 10
-35.7000011121
 20
0.0
 30
0.0
 40
0.3000000140000746
100
AcDbArc
 50
89.9999448051
 51
270.00005531
  0
ARC
  5
161
330
1F
100
AcDbEntity
  8
SK1
  6
Continuous
370
    50
100
AcDbCircle
 10
-15.1538720222
 20
-0.0038553971
 30
0.0
 40
4.484815404039667
100
AcDbArc
 50
183.7861427243
 51
205.135637385
  0
ARC
  5
162
330
1F
100
AcDbEntity
  8
SK1
  6
Continuous
370
    50
100
AcDbCircle
 10
-15.1388918973
 20
0.0000103135
 30
0.0
 40
4.500019902879692
100
AcDbArc
 50
205.0991802335
 51
228.0859611504
  0
ARC
  5
163
330
1F
100
AcDbEntity
  8
SK1
  6
Continuous
370
    50
100
AcDbCircle
 10
-15.1388992451
 20
-0.0000041519
 30
0.0
 40
4.500010935320318
100
AcDbArc
 50
131.9140226062
 51
154.9008429759
  0
ARC
  5
164
330
1F
100
AcDbEntity
  8
1
  6
Continuous
370
    50
100
AcDbCircle
 10
25.792290775
 20
35.7437550533
 30
0.0
 40
11.993756128
100
AcDbArc
 50
199.450119978
 51
270.020619836
  0
ARC
  5
165
330
1F
100
AcDbEntity
  8
1
  6
Continuous
370
    50
100
AcDbCircle
 10
81.279958418
 20
0.0
 30
0.0
 40
53.59771047157955
100
AcDbArc
 50
168.8165689382
 51
180.0
  0
ARC
  5
166
330
1F
100
AcDbEntity
  8
1
  6
Continuous
370
    50
100
AcDbCircle
 10
81.279958418
 20
0.0
 30
0.0
 40
53.59032138899998
100
AcDbArc
 50
180.0
 51
191.183430807
  0
ARC
  5
167
330
1F
100
AcDbEntity
  8
1
100
AcDbCircle
 10
71.4965906794
 20
-26.8129527495
 30
0.0
 40
56.95978457400003
100
AcDbArc
 50
124.239375938
 51
125.494703262
  0
ARC
  5
168
330
1F
100
AcDbEntity
  8
1
100
AcDbCircle
 10
57.562783025
 20
-7.274562877
 30
0.0
 40
32.94508342
100
AcDbArc
 50
125.494796581
 51
130.458684161
  0
ARC
  5
169
330
1F
100
AcDbEntity
  8
1
100
AcDbCircle
 10
39.0871993426
 20
20.7755811999
 30
0.0
 40
0.6168039371955989
100
AcDbArc
 50
305.8080742079
 51
54.19204043199999
  0
ARC
  5
16A
330
1F
100
AcDbEntity
  8
1
100
AcDbCircle
 10
8.899557242
 20
-26.812953319
 30
0.0
 40
56.97139511833715
100
AcDbArc
 50
57.5741302939
 51
61.70642850500001
  0
ARC
  5
16B
330
1F
100
AcDbEntity
  8
1
100
AcDbCircle
 10
61.1042906656
 20
-26.8129521349
 30
0.0
 40
56.94655510000002
100
AcDbArc
 50
114.515053517
 51
115.930651407
  0
ARC
  5
16C
330
1F
100
AcDbEntity
  8
1
100
AcDbCircle
 10
59.3000350601
 20
13.1710786736
 30
0.0
 40
5.00003337600503
100
AcDbArc
 50
180.0001149116
 51
213.721008589
  0
ARC
  5
16D
330
1F
100
AcDbEntity
  8
1
100
AcDbCircle
 10
37.4773417106
 20
10.536290216
 30
0.0
 40
2.225201754579785
100
AcDbArc
 50
356.3676028327
 51
27.669435047
  0
ARC
  5
16E
330
1F
100
AcDbEntity
  8
1
100
AcDbCircle
 10
17.7435532304
 20
-3.0130790855
 30
0.0
 40
26.14843934191687
100
AcDbArc
 50
33.8960965039
 51
38.787977819
  0
ARC
  5
16F
330
1F
100
AcDbEntity
  8
1
100
AcDbCircle
 10
12.441059903
 20
-7.274562877
 30
0.0
 40
32.94508342000004
100
AcDbArc
 50
38.787977819
 51
44.57212358999998
  0
ARC
  5
170
330
1F
100
AcDbEntity
  8
1
100
AcDbCircle
 10
37.3997519845
 20
-10.519770612
 30
0.0
 40
2.30168858047945
100
AcDbArc
 50
332.86330425
 51
3.099657860799999
  0
ARC
  5
171
330
1F
100
AcDbEntity
  8
1
100
AcDbCircle
 10
14.092541315
 20
39.341599494
 30
0.0
 40
70.49889229100005
100
AcDbArc
 50
288.275465054
 51
291.0770138930001
  0
ARC
  5
172
330
1F
100
AcDbEntity
  8
1
100
AcDbCircle
 10
61.104285686
 20
26.812953319
 30
0.0
 40
56.952340394
100
AcDbArc
 50
244.069348593
 51
247.461812867
  0
ARC
  5
173
330
1F
100
AcDbEntity
  8
1
100
AcDbCircle
 10
66.303606459
 20
39.341599494
 30
0.0
 40
70.50765029600001
100
AcDbArc
 50
247.461812867
 51
247.611281796
  0
ARC
  5
174
330
1F
100
AcDbEntity
  8
1
100
AcDbCircle
 10
8.899557242
 20
26.812953319
 30
0.0
 40
56.96404974400001
100
AcDbArc
 50
298.293571495
 51
302.425870292
  0
ARC
  5
175
330
1F
100
AcDbEntity
  8
1
100
AcDbCircle
 10
39.084176666
 20
-20.775580779
 30
0.0
 40
0.6185769400000012
100
AcDbArc
 50
306.034996627
 51
53.96500337299999
  0
ARC
  5
176
330
1F
100
AcDbEntity
  8
1
100
AcDbCircle
 10
57.562783025
 20
7.274562877
 30
0.0
 40
32.92155967599999
100
AcDbArc
 50
229.541315839
 51
234.505203419
  0
ARC
  5
177
330
1F
100
AcDbEntity
  8
1
100
AcDbCircle
 10
71.496590532
 20
26.812953319
 30
0.0
 40
56.94299359300002
100
AcDbArc
 50
234.505296738
 51
235.760624062
  0
ARC
  5
178
330
1F
100
AcDbEntity
  8
1
100
AcDbCircle
 10
12.441059903
 20
7.274562877
 30
0.0
 40
32.930874384
100
AcDbArc
 50
315.42787641
 51
321.212022181
  0
ARC
  5
179
330
1F
100
AcDbEntity
  8
1
100
AcDbCircle
 10
17.743553622
 20
3.013080007
 30
0.0
 40
26.14238719700001
100
AcDbArc
 50
321.212022181
 51
326.103905183
  0
ARC
  5
17A
330
1F
100
AcDbEntity
  8
1
100
AcDbCircle
 10
58.693947219
 20
-31.914714693
 30
0.0
 40
0.459055064031986
100
AcDbArc
 50
84.9061884747
 51
110.297218874
  0
ARC
  5
17B
330
1F
100
AcDbEntity
  8
1
100
AcDbCircle
 10
58.352408055
 20
-31.252880361
 30
0.0
 40
0.4970927479999852
100
AcDbArc
 50
271.313356759
 51
291.7565584060002
  0
ARC
  5
17C
330
1F
100
AcDbEntity
  8
1
100
AcDbCircle
 10
39.192508917
 20
-63.9909496713
 30
0.0
 40
32.24491559067795
100
AcDbArc
 50
89.1195834576
 51
89.545885683
  0
ARC
  5
17D
330
1F
100
AcDbEntity
  8
1
100
AcDbCircle
 10
40.1980788662
 20
61.0711606238
 30
0.0
 40
92.82328190200003
100
AcDbArc
 50
267.531397549
 51
269.537042343
  0
ARC
  5
17E
330
1F
100
AcDbEntity
  8
1
100
AcDbCircle
 10
29.805769041
 20
61.07115944
 30
0.0
 40
92.82629484000002
100
AcDbArc
 50
273.949879345
 51
275.962007349
  0
ARC
  5
17F
330
1F
100
AcDbEntity
  8
1
100
AcDbCircle
 10
50.590378732
 20
61.07115944
 30
0.0
 40
92.83692101700001
100
AcDbArc
 50
261.082792497
 51
263.106493269
  0
ARC
  5
180
330
1F
100
AcDbEntity
  8
1
100
AcDbCircle
 10
19.413464196
 20
61.07115944
 30
0.0
 40
92.83607132900005
100
AcDbArc
 50
280.4174728199998
 51
282.464078495
  0
ARC
  5
181
330
1F
100
AcDbEntity
  8
1
100
AcDbCircle
 10
55.911301614
 20
39.341599494
 30
0.0
 40
70.49655042600003
100
AcDbArc
 50
253.763270546
 51
256.496537241
  0
ARC
  5
182
330
1F
100
AcDbEntity
  8
1
100
AcDbCircle
 10
69.404016785
 20
-32.207537102
 30
0.0
 40
0.8046675540000142
100
AcDbArc
 50
260.386749907
 51
358.6857791080001
  0
ARC
  5
183
330
1F
100
AcDbEntity
  8
1
100
AcDbCircle
 10
100.4499747658
 20
64.9068731368
 30
0.0
 40
85.22077202006146
100
AcDbArc
 50
242.081321031
 51
246.6256441834
  0
ARC
  5
184
330
1F
100
AcDbEntity
  8
1
100
AcDbCircle
 10
80.3999980539
 20
-3.9999997746
 30
0.0
 40
14.99999963121604
100
AcDbArc
 50
180.0000007257
 51
210.7061228072
  0
ARC
  5
185
330
1F
100
AcDbEntity
  8
1
100
AcDbCircle
 10
59.300002024
 20
13.1710685747
 30
0.0
 40
5.000000291885984
100
AcDbArc
 50
213.7211224954
 51
225.0000016044
  0
ARC
  5
186
330
1F
100
AcDbEntity
  8
1
100
AcDbCircle
 10
80.3999980539
 20
-3.9999997746
 30
0.0
 40
15.0
100
AcDbArc
 50
226.236978409
 51
229.458398126
  0
ARC
  5
187
330
1F
100
AcDbEntity
  8
1
100
AcDbCircle
 10
70.2931579943
 20
-21.399114072
 30
0.0
 40
0.0745641699999835
100
AcDbArc
 50
153.326885058
 51
167.639176193
  0
ARC
  5
188
330
1F
100
AcDbEntity
  8
1
100
AcDbCircle
 10
70.4805242242
 20
-21.440174924
 30
0.0
 40
0.2663768330316092
100
AcDbArc
 50
167.6391762458
 51
174.834712783
  0
ARC
  5
189
330
1F
100
AcDbEntity
  8
1
100
AcDbCircle
 10
71.8507673116
 20
-21.564038042
 30
0.0
 40
1.642206833603884
100
AcDbArc
 50
174.8347745338
 51
179.978511677
  0
ARC
  5
18A
330
1F
100
AcDbEntity
  8
1
100
AcDbCircle
 10
140.6173533087
 20
-8.999999509
 30
0.0
 40
72.29032039800003
100
AcDbArc
 50
183.214921891
 51
185.344722231
  0
ARC
  5
18B
330
1F
100
AcDbEntity
  8
1
100
AcDbCircle
 10
80.4394447684
 20
-14.6298526217
 30
0.0
 40
11.836340225
100
AcDbArc
 50
185.345024151
 51
192.606993773
  0
ARC
  5
18C
330
1F
100
AcDbEntity
  8
1
100
AcDbCircle
 10
72.1449019513
 20
-16.4849656887
 30
0.0
 40
3.336876416179447
100
AcDbArc
 50
192.6069937779
 51
207.00288411
  0
ARC
  5
18D
330
1F
100
AcDbEntity
  8
1
100
AcDbCircle
 10
69.2941530404
 20
-17.9376762677
 30
0.0
 40
0.1373237319999955
100
AcDbArc
 50
207.0026236171
 51
270.0
  0
ARC
  5
18E
330
1F
100
AcDbEntity
  8
1
100
AcDbCircle
 10
69.2941530404
 20
-17.9376762677
 30
0.0
 40
0.1373237319999845
100
AcDbArc
 50
270.0
 51
332.997376199
  0
ARC
  5
18F
330
1F
100
AcDbEntity
  8
1
100
AcDbCircle
 10
66.443404129
 20
-16.4849656889
 30
0.0
 40
3.336876416617811
100
AcDbArc
 50
332.9971158902
 51
347.393006227
  0
ARC
  5
190
330
1F
100
AcDbEntity
  8
1
100
AcDbCircle
 10
58.1488613124
 20
-14.629852622
 30
0.0
 40
11.83634022482057
100
AcDbArc
 50
347.3930062284
 51
354.654975849
  0
ARC
  5
191
330
1F
100
AcDbEntity
  8
1
100
AcDbCircle
 10
-2.029046499
 20
-9.0
 30
0.0
 40
72.27702047478559
100
AcDbArc
 50
354.6552777693
 51
355.371729646
  0
ARC
  5
192
330
1F
100
AcDbEntity
  8
1
100
AcDbCircle
 10
80.3999980539
 20
-3.9999997746
 30
0.0
 40
14.99999956053878
100
AcDbArc
 50
210.815128434
 51
217.1288943099
  0
ARC
  5
193
330
1F
100
AcDbEntity
  8
1
100
AcDbCircle
 10
39.401076218
 20
16.331095479
 30
0.0
 40
3.505462987000009
100
AcDbArc
 50
158.037941297
 51
177.133899549
  0
ARC
  5
194
330
1F
100
AcDbEntity
  8
1
100
AcDbCircle
 10
79.4775030218
 20
-4.8777180786
 30
0.0
 40
13.72816445957677
100
AcDbArc
 50
216.622617276
 51
226.4837822216
  0
ARC
  5
195
330
1F
100
AcDbEntity
  8
1
100
AcDbCircle
 10
37.410374827
 20
23.471828491
 30
0.0
 40
1.517215866000013
100
AcDbArc
 50
146.172404143
 51
174.557733757
  0
ARC
  5
196
330
1F
100
AcDbEntity
  8
1
100
AcDbCircle
 10
37.5873042091
 20
-23.4087052009
 30
0.0
 40
1.699958542823437
100
AcDbArc
 50
186.994814938
 51
212.275047183
  0
ARC
  5
197
330
1F
100
AcDbEntity
  8
1
100
AcDbCircle
 10
36.9652552929
 20
-27.5552427221
 30
0.0
 40
1.085884202077872
100
AcDbArc
 50
191.185476629
 51
221.3422914979
  0
ARC
  5
198
330
1F
100
AcDbEntity
  8
1
100
AcDbCircle
 10
36.9660707939
 20
-29.7766607491
 30
0.0
 40
1.1479497000713
100
AcDbArc
 50
201.77073485
 51
224.6921879842
  0
ARC
  5
199
330
1F
100
AcDbEntity
  8
1
100
AcDbCircle
 10
69.4058527376
 20
-32.2178719785
 30
0.0
 40
0.8027173574192147
100
AcDbArc
 50
260.2302247647
 51
0.2561050556
  0
ARC
  5
19A
330
1F
100
AcDbEntity
  8
1
100
AcDbCircle
 10
35.6084902612
 20
-31.8962223828
 30
0.0
 40
0.6783387972685797
100
AcDbArc
 50
37.0332568588
 51
64.549071606
  0
ARC
  5
19B
330
1F
100
AcDbEntity
  8
1
100
AcDbCircle
 10
37.3153015634
 20
-30.342717274
 30
0.0
 40
1.72434910682206
100
AcDbArc
 50
214.8377953768
 51
227.4844700409
  0
ARC
  5
19C
330
1F
100
AcDbEntity
  8
1
100
AcDbCircle
 10
39.392328442
 20
64.0070774565
 30
0.0
 40
32.26104429699998
100
AcDbArc
 50
270.454207213
 51
270.880302925
  0
ARC
  5
19D
330
1F
100
AcDbEntity
  8
1
100
AcDbCircle
 10
59.3049981798
 20
20.2158441852
 30
0.0
 40
2.599999342290086
100
AcDbArc
 50
139.9999892886
 51
320.0
  0
ARC
  5
19E
330
1F
100
AcDbEntity
  8
1
100
AcDbCircle
 10
80.400002505
 20
4.0000002254
 30
0.0
 40
15.00000101827068
100
AcDbArc
 50
130.5416133198
 51
180.0
  0
ARC
  5
19F
330
1F
100
AcDbEntity
  8
1
100
AcDbCircle
 10
58.352408055
 20
31.252880361
 30
0.0
 40
0.4945900390000048
100
AcDbArc
 50
76.444169304
 51
88.68664324100001
  0
ARC
  5
1A0
330
1F
100
AcDbEntity
  8
1
100
AcDbCircle
 10
40.398073888
 20
-61.0711595577
 30
0.0
 40
92.82123649582766
100
AcDbArc
 50
90.4629586181
 51
92.46860245100001
  0
ARC
  5
1A1
330
1F
100
AcDbEntity
  8
1
100
AcDbCircle
 10
37.5152962442
 20
30.3427184579
 30
0.0
 40
1.724349106411688
100
AcDbArc
 50
132.5155299591
 51
145.1622046042
  0
ARC
  5
1A2
330
1F
100
AcDbEntity
  8
CUT
100
AcDbCircle
 10
70.1999973167
 20
21.9287641788
 30
0.0
 40
0.8000000000000267
100
AcDbArc
 50
280.0
 51
0.0
  0
ARC
  5
1A3
330
1F
100
AcDbEntity
  8
CUT
100
AcDbCircle
 10
59.0999972412
 20
19.971535121
 30
0.0
 40
0.7999995652262797
100
AcDbArc
 50
180.0
 51
279.9999806452
  0
ARC
  5
1A4
330
1F
100
AcDbEntity
  8
CUT
100
AcDbCircle
 10
59.0999970749
 20
31.242770513
 30
0.0
 40
0.799999715874456
100
AcDbArc
 50
99.99995364449998
 51
179.9999598214
  0
ARC
  5
1A5
330
1F
100
AcDbEntity
  8
CUT
100
AcDbCircle
 10
70.1999983537
 20
33.1999997819
 30
0.0
 40
0.8000012870554842
100
AcDbArc
 50
359.9999478526
 51
100.0001789422
  0
ARC
  5
1A6
330
1F
100
AcDbEntity
  8
CUT
100
AcDbCircle
 10
70.199997676
 20
-33.199999999
 30
0.0
 40
0.8000000000000401
100
AcDbArc
 50
260.0
 51
0.0
  0
ARC
  5
1A7
330
1F
100
AcDbEntity
  8
CUT
100
AcDbCircle
 10
70.199997676
 20
-33.199999999
 30
0.0
 40
0.215545490000033
100
AcDbArc
 50
260.0
 51
0.0
  0
ARC
  5
1A8
330
1F
100
AcDbEntity
  8
CUT
100
AcDbCircle
 10
70.199997676
 20
-21.928764607
 30
0.0
 40
0.7999999999999972
100
AcDbArc
 50
0.0
 51
55.898251634
  0
ARC
  5
1A9
330
1F
100
AcDbEntity
  8
CUT
100
AcDbCircle
 10
70.199997676
 20
-21.928764607
 30
0.0
 40
0.2155454900000222
100
AcDbArc
 50
0.0
 51
80.0
  0
ARC
  5
1AA
330
1F
100
AcDbEntity
  8
CUT
100
AcDbCircle
 10
59.0999977529
 20
-31.2427700771
 30
0.0
 40
0.7999995573743646
100
AcDbArc
 50
217.854036383
 51
260.0000463555
  0
ARC
  5
1AB
330
1F
100
AcDbEntity
  8
1
100
AcDbCircle
 10
65.4552538597
 20
24.626737131
 30
0.0
 40
0.7000000000000014
100
AcDbArc
 50
63.384161806
 51
176.615838194
  0
ARC
  5
1AC
330
1F
100
AcDbEntity
  8
1
100
AcDbCircle
 10
65.9032601007
 20
25.52076756
 30
0.0
 40
0.2999999999882314
100
AcDbArc
 50
243.3841617101
 51
330.0
  0
ARC
  5
1AD
330
1F
100
AcDbEntity
  8
1
100
AcDbCircle
 10
64.4569976759
 20
24.68576756
 30
0.0
 40
0.3000000001105434
100
AcDbArc
 50
270.0
 51
356.6158382317
  0
ARC
  5
1AE
330
1F
100
AcDbEntity
  8
1
100
AcDbCircle
 10
63.010735251
 20
25.52076756
 30
0.0
 40
0.2999999999428914
100
AcDbArc
 50
210.0
 51
296.615838194
  0
ARC
  5
1AF
330
1F
100
AcDbEntity
  8
1
100
AcDbCircle
 10
63.458741492
 20
24.626737131
 30
0.0
 40
0.6999999999882428
100
AcDbArc
 50
3.384161806
 51
116.6158382351
  0
ARC
  5
1B0
330
1F
100
AcDbEntity
  8
1
100
AcDbCircle
 10
64.4569976759
 20
24.68576756
 30
0.0
 40
0.3000000001105434
100
AcDbArc
 50
183.3841617571
 51
270.0
  0
ARC
  5
1B1
330
1F
100
AcDbEntity
  8
1
100
AcDbCircle
 10
63.010735251
 20
27.19076756
 30
0.0
 40
0.3000000000000217
100
AcDbArc
 50
150.0
 51
236.615838194
  0
ARC
  5
1B2
330
1F
100
AcDbEntity
  8
1
100
AcDbCircle
 10
62.460485308
 20
26.35576756
 30
0.0
 40
0.6999999999428853
100
AcDbArc
 50
303.384161806
 51
56.6158382077
  0
ARC
  5
1B3
330
1F
100
AcDbEntity
  8
1
100
AcDbCircle
 10
63.010735251
 20
25.52076756
 30
0.0
 40
0.2999999999428804
100
AcDbArc
 50
123.3841617741
 51
210.0
  0
ARC
  5
1B4
330
1F
100
AcDbEntity
  8
1
100
AcDbCircle
 10
66.4535100438
 20
26.3557675601
 30
0.0
 40
0.6999999999999877
100
AcDbArc
 50
123.3841618019
 51
236.6158381968
  0
ARC
  5
1B5
330
1F
100
AcDbEntity
  8
1
100
AcDbCircle
 10
65.9032601008
 20
27.1907675602
 30
0.0
 40
0.2999999999882281
100
AcDbArc
 50
303.384161774
 51
30.0
  0
ARC
  5
1B6
330
1F
100
AcDbEntity
  8
1
100
AcDbCircle
 10
65.9032601007
 20
25.52076756
 30
0.0
 40
0.2999999999882516
100
AcDbArc
 50
330.0
 51
56.615838226
  0
ARC
  5
1B7
330
1F
100
AcDbEntity
  8
1
100
AcDbCircle
 10
64.456997676
 20
28.0257675602
 30
0.0
 40
0.3000000000000306
100
AcDbArc
 50
90.0
 51
176.615838194
  0
ARC
  5
1B8
330
1F
100
AcDbEntity
  8
1
100
AcDbCircle
 10
63.4587414921
 20
28.0847979892
 30
0.0
 40
0.7000000001105601
100
AcDbArc
 50
243.384161806
 51
356.615838215
  0
ARC
  5
1B9
330
1F
100
AcDbEntity
  8
1
100
AcDbCircle
 10
63.010735251
 20
27.19076756
 30
0.0
 40
0.3000000000000217
100
AcDbArc
 50
63.3841617101
 51
150.0
  0
ARC
  5
1BA
330
1F
100
AcDbEntity
  8
1
100
AcDbCircle
 10
65.4552538598
 20
28.0847979892
 30
0.0
 40
0.7000000000000156
100
AcDbArc
 50
183.384161806
 51
296.615838194
  0
ARC
  5
1BB
330
1F
100
AcDbEntity
  8
1
100
AcDbCircle
 10
64.456997676
 20
28.0257675602
 30
0.0
 40
0.3000000000000327
100
AcDbArc
 50
3.384161768299999
 51
90.0
  0
ARC
  5
1BC
330
1F
100
AcDbEntity
  8
1
100
AcDbCircle
 10
65.9032601008
 20
27.1907675602
 30
0.0
 40
0.2999999999882018
100
AcDbArc
 50
30.0
 51
116.6158382899
  0
ARC
  5
1BD
330
1F
100
AcDbEntity
  8
1
100
AcDbCircle
 10
351.1094566515
 20
0.0000000248
 30
0.0
 40
283.8324187339906
100
AcDbArc
 50
182.35926412
 51
183.67733647
  0
ARC
  5
1BE
330
1F
100
AcDbEntity
  8
1
100
AcDbCircle
 10
180.3129119878
 20
-10.9770112328
 30
0.0
 40
112.670690006
100
AcDbArc
 50
183.677369918
 51
187.095933649
  0
ARC
  5
1BF
330
1F
100
AcDbEntity
  8
1
100
AcDbCircle
 10
124.2887892477
 20
-17.9511468528
 30
0.0
 40
56.2141501151388
100
AcDbArc
 50
187.0959336487
 51
192.474884001
  0
ARC
  5
1C0
330
1F
100
AcDbEntity
  8
1
100
AcDbCircle
 10
78.0350704713
 20
-28.1840112499
 30
0.0
 40
8.842027359321676
100
AcDbArc
 50
192.4753148374
 51
202.812008309
  0
ARC
  5
1C1
330
1F
100
AcDbEntity
  8
1
100
AcDbCircle
 10
72.890289546
 20
-30.347946924
 30
0.0
 40
3.260684476955162
100
AcDbArc
 50
202.8120083119
 51
215.003113497
  0
CIRCLE
  5
1C2
330
1F
100
AcDbEntity
  8
1
100
AcDbCircle
 10
64.456997676
 20
26.35576756
 30
0.0
 40
3.180917548999986
  0
DIMENSION
  5
1C3
330
1F
100
AcDbEntity
  8
2
  6
Continuous
370
    25
100
AcDbDimension
280
     0
  2
_D
 10
0.0
 20
44.0778939459
 30
0.0
 11
35.4999998204
 21
44.0778939459
 31
0.0
 70
   160
  1
<>
 71
     5
 42
70.9999996407
 73
     0
 74
     0
 75
     0
  3
SLDDIMSTYLE0
100
AcDbAlignedDimension
 13
70.9999996407
 23
33.1999990538
 33
0.0
 14
0.0
 24
31.25
 34
0.0
100
AcDbRotatedDimension
1001
ACAD
1000
DSTYLE
1002
{
1070
   140
1040
3.5
1070
   340
1005
237
1070
   177
1070
   256
1070
   176
1070
   256
1070
   178
1070
   256
1070
   347
1005
14
1070
   346
1005
14
1070
   345
1005
14
1002
}
  0
DIMENSION
  5
1CF
330
1F
100
AcDbEntity
  8
2
  6
Continuous
370
    25
100
AcDbDimension
280
     0
  2
_D_1
 10
86.17821973706022
 20
-33.98784572569836
 30
0.0
 11
86.1782187339
 21
0.000000784
 31
0.0
 70
   160
  1
%%c<> - 100
 71
     5
 42
67.97569301940001
 73
     0
 74
     0
 75
     0
  3
SLDDIMSTYLE1
100
AcDbAlignedDimension
 13
70.0610771275
 23
33.987846818
 33
0.0
 14
70.0610791339
 24
-33.9878462014
 34
0.0
 50
-89.99999830890002
100
AcDbRotatedDimension
1001
ACAD
1000
DSTYLE
1002
{
1070
   140
1040
3.5
1070
   340
1005
237
1070
   177
1070
   256
1070
   176
1070
   256
1070
   178
1070
   256
1070
   347
1005
14
1070
   346
1005
14
1070
   345
1005
14
1002
}
  0
DIMENSION
  5
1DC
330
1F
100
AcDbEntity
  8
2
  6
Continuous
370
    25
100
AcDbDimension
280
     0
  2
_D_2
 10
0.0
 20
-41.8387821835
 30
0.0
 11
19.750000909
 21
-41.8387821835
 31
0.0
 70
   160
  1
<>
 71
     5
 42
39.500001818
 73
     0
 74
     0
 75
     0
  3
SLDDIMSTYLE0
100
AcDbAlignedDimension
 13
39.500001818
 23
-31.249993791
 33
0.0
 14
0.0
 24
-31.25
 34
0.0
100
AcDbRotatedDimension
1001
ACAD
1000
DSTYLE
1002
{
1070
   140
1040
3.5
1070
   340
1005
237
1070
   177
1070
   256
1070
   176
1070
   256
1070
   178
1070
   256
1070
   347
1005
14
1070
   346
1005
14
1070
   345
1005
14
1002
}
  0
DIMENSION
  5
1E6
330
1F
100
AcDbEntity
  8
SK2
100
AcDbDimension
280
     0
  2
_D_3
 10
-48.9711190037
 20
-17.9999992254
 30
0.0
 11
-48.9711190037
 21
-0.0000000004
 31
0.0
 70
   160
  1
%%c<>
 71
     5
 42
35.99999845
 73
     0
 74
     0
 75
     0
  3
SLDDIMSTYLE0
100
AcDbAlignedDimension
 13
-35.0000001491
 23
17.9999992246
 33
0.0
 14
-35.0000001491
 24
-17.9999992254
 34
0.0
 50
90.0
100
AcDbRotatedDimension
1001
ACAD
1000
DSTYLE
1002
{
1070
   140
1040
3.5
1070
   340
1005
237
1070
   177
1070
   256
1070
   176
1070
   256
1070
   178
1070
   256
1070
   347
1005
14
1070
   346
1005
14
1070
   345
1005
14
1002
}
  0
DIMENSION
  5
1F1
330
1F
100
AcDbEntity
  8
2
  6
Continuous
370
    25
100
AcDbDimension
280
     0
  2
_D_4
 10
-58.97925414069999
 20
31.750001013
 30
0.0
 11
-58.9792541407
 21
0.0
 31
0.0
 70
   160
  1
%%c<>
 71
     5
 42
63.500002026
 73
     0
 74
     0
 75
     0
  3
SLDDIMSTYLE0
100
AcDbAlignedDimension
 13
0.500000024
 23
-31.750001013
 33
0.0
 14
0.500000024
 24
31.750001013
 34
0.0
 50
90.0
100
AcDbRotatedDimension
1001
ACAD
1000
DSTYLE
1002
{
1070
   140
1040
3.5
1070
   340
1005
237
1070
   177
1070
   256
1070
   176
1070
   256
1070
   178
1070
   256
1070
   347
1005
14
1070
   346
1005
14
1070
   345
1005
14
1002
}
  0
MTEXT
  5
1FC
330
1F
100
AcDbEntity
  8
SK6
100
AcDbMText
 10
-27.59626499045338
 20
-21.20965375421105
 30
0.0
 40
3.5
 41
0.0
 46
0.0
 71
     1
 72
     1
  1
319.604N
  7
BMG_Text
 73
     1
 44
1.0
  0
LINE
  5
2C9
330
1F
100
AcDbEntity
  8
1
100
AcDbLine
 10
62.283427924
 20
19.720518962
 30
0.0
 11
70.33891585883356
 21
21.14091797639021
 31
0.0
  0
LINE
  5
2CA
330
1F
100
AcDbEntity
  8
1
100
AcDbLine
 10
70.33891585883356
 20
21.14091797639021
 30
0.0
 11
70.6499995658
 21
21.14091797639021
 31
0.0
  0
LINE
  5
2CB
330
1F
100
AcDbEntity
  8
1
100
AcDbLine
 10
58.299997359
 20
23.06301333
 30
0.0
 11
58.29999735902575
 21
31.24277107399889
 31
0.0
  0
LINE
  5
2CC
330
1F
100
AcDbEntity
  8
1
100
AcDbLine
 10
58.29999735902575
 20
31.24277107399889
 30
0.0
 11
58.29999735902575
 21
31.749840826
 31
0.0
  0
LINE
  5
2CE
330
1F
100
AcDbEntity
  8
CUT
100
AcDbLine
 10
70.33891585883356
 20
21.14091797639021
 30
0.0
 11
59.23891544169764
 21
19.18368929983146
 31
0.0
  0
LINE
  5
2CF
330
1F
100
AcDbEntity
  8
CUT
100
AcDbLine
 10
58.29999767597372
 20
19.971535121
 30
0.0
 11
58.29999767597372
 21
31.21172381322294
 31
0.0
  0
CIRCLE
  5
2D0
330
1F
100
AcDbEntity
  8
CUT
100
AcDbCircle
 10
64.456997676
 20
26.35576756
 30
0.0
 40
3.180917548999986
  0
LINE
  5
2D2
330
1F
100
AcDbEntity
  8
NOCUT
100
AcDbLine
 10
0.0
 20
0.0
 30
0.0
 11
65.37742128552294
 21
0.0
 31
0.0
  0
LINE
  5
2D3
330
1F
100
AcDbEntity
  8
NOCUT
100
AcDbLine
 10
65.37742128552294
 20
0.0
 30
0.0
 11
65.40000148672932
 21
4.000000225400002
 31
0.0
  0
ARC
  5
2D5
330
1F
100
AcDbEntity
  8
NOCUT
100
AcDbCircle
 10
80.40000250500003
 20
4.000000225399985
 30
0.0
 40
15.00000101827071
100
AcDbArc
 50
130.5416133198001
 51
179.9999999999999
  0
ARC
  5
2D6
330
1F
100
AcDbEntity
  8
NOCUT
100
AcDbCircle
 10
70.18560532916418
 20
21.93400243387497
 30
0.0
 40
0.8144088338659161
100
AcDbArc
 50
304.765742415418
 51
359.6314725911902
  0
LINE
  5
2D7
330
1F
100
AcDbEntity
  8
NOCUT
100
AcDbLine
 10
70.6499995658
 20
15.3990121666
 30
0.0
 11
70.6499995658
 21
21.26497347959999
 31
0.0
  0
ARC
  5
2D8
330
1F
100
AcDbEntity
  8
NOCUT
100
AcDbCircle
 10
70.19999835372205
 20
33.19999978198228
 30
0.0
 40
0.8000012869782793
100
AcDbArc
 50
359.9999478478698
 51
100.0001789447786
  0
LINE
  5
2D9
330
1F
100
AcDbEntity
  8
NOCUT
100
AcDbLine
 10
70.9999973167
 20
21.9287641788
 30
0.0
 11
70.9999973167
 21
33.22180715993306
 31
0.0
  0
ARC
  5
2DA
330
1F
100
AcDbEntity
  8
NOCUT
100
AcDbCircle
 10
59.09999003016245
 20
31.24278271489272
 30
0.0
 40
0.7999864760778204
100
AcDbArc
 50
99.99960851238829
 51
142.1463176280866
  0
LINE
  5
2DB
330
1F
100
AcDbEntity
  8
NOCUT
100
AcDbLine
 10
58.9610792195
 20
32.030616548
 30
0.0
 11
70.19999835372205
 21
34.00000106896056
 31
0.0
  0
LINE
  5
2DC
330
1F
100
AcDbEntity
  8
NOCUT
100
AcDbLine
 10
58.468336378707
 20
31.73369210216333
 30
0.0
 11
0.500000024
 21
31.750001013
 31
0.0
  0
LINE
  5
2DD
330
1F
100
AcDbEntity
  8
NOCUT
100
AcDbLine
 10
0.500000024
 20
31.750001013
 30
0.0
 11
0.0
 21
31.25
 31
0.0
  0
LINE
  5
2DE
330
1F
100
AcDbEntity
  8
NOCUT
100
AcDbLine
 10
0.0
 20
31.25
 30
0.0
 11
0.0
 21
0.0
 31
0.0
  0
LWPOLYLINE
  5
2E5
330
1F
100
AcDbEntity
  8
INFTOTAL
100
AcDbPolyline
 90
        4
 70
     1
 43
0.0
 10
111.5282666569523
 20
65.75051209394523
 10
111.5282666569523
 20
-67.0543659548352
 10
-94.92295285524278
 20
-67.0543659548352
 10
-94.92295285524278
 20
65.75051209394523
  0
ENDSEC
  0
SECTION
  2
OBJECTS
  0
DICTIONARY
  5
C
330
0
100
AcDbDictionary
281
     1
  3
ACAD_DETAILVIEWSTYLE
350
2C3
  3
ACAD_GROUP
350
D
  3
ACAD_LAYOUT
350
21F
  3
ACAD_MATERIAL
350
233
  3
ACAD_MLEADERSTYLE
350
24D
  3
ACAD_MLINESTYLE
350
17
  3
ACAD_PLOTSETTINGS
350
28F
  3
ACAD_PLOTSTYLENAME
350
290
  3
ACAD_SCALELIST
350
1FD
  3
ACAD_SECTIONVIEWSTYLE
350
2C4
  3
ACAD_TABLESTYLE
350
29C
  3
ACAD_VISUALSTYLE
350
222
  3
ACDB_RECOMPOSE_DATA
350
2E8
  3
AcDbVariableDictionary
350
24B
  3
APPDATA
350
29F
  0
DICTIONARY
  5
2A0
330
2
100
AcDbDictionary
280
     1
281
     1
  3
ACAD_LAYERSTATES
360
2A1
  0
DICTIONARY
  5
2C3
102
{ACAD_REACTORS
330
C
102
}
330
C
100
AcDbDictionary
281
     1
  0
DICTIONARY
  5
D
102
{ACAD_REACTORS
330
C
102
}
330
C
100
AcDbDictionary
281
     1
  0
DICTIONARY
  5
21F
102
{ACAD_REACTORS
330
C
102
}
330
C
100
AcDbDictionary
281
     1
  3
Layout1
350
221
  3
Model
350
220
  0
DICTIONARY
  5
233
102
{ACAD_REACTORS
330
C
102
}
330
C
100
AcDbDictionary
281
     1
  3
ByBlock
350
235
  3
ByLayer
350
234
  3
Global
350
236
  0
DICTIONARY
  5
24D
102
{ACAD_REACTORS
330
C
102
}
330
C
100
AcDbDictionary
281
     1
  3
Standard
350
29E
  0
DICTIONARY
  5
17
102
{ACAD_REACTORS
330
C
102
}
330
C
100
AcDbDictionary
281
     1
  3
STANDARD
350
18
  0
DICTIONARY
  5
28F
102
{ACAD_REACTORS
330
C
102
}
330
C
100
AcDbDictionary
281
     1
  0
ACDBDICTIONARYWDFLT
  5
290
102
{ACAD_REACTORS
330
C
102
}
330
C
100
AcDbDictionary
281
     1
  3
Normal
350
291
100
AcDbDictionaryWithDefault
340
291
  0
DICTIONARY
  5
1FD
102
{ACAD_REACTORS
330
C
102
}
330
C
100
AcDbDictionary
281
     1
  3
A0
350
1FE
  3
A1
350
1FF
  3
A2
350
200
  3
A3
350
201
  3
A4
350
202
  3
A5
350
203
  3
A6
350
204
  3
A7
350
205
  3
A8
350
206
  3
A9
350
207
  3
B0
350
208
  3
B1
350
209
  3
B2
350
20A
  3
B3
350
20B
  3
B4
350
20C
  3
B5
350
20D
  3
B6
350
20E
  3
B7
350
20F
  3
B8
350
210
  3
B9
350
211
  3
C0
350
212
  3
C1
350
213
  3
C2
350
214
  3
C3
350
215
  3
C4
350
216
  3
C5
350
217
  3
C6
350
218
  3
C7
350
219
  3
C8
350
21A
  3
C9
350
21B
  3
D0
350
21C
  3
D1
350
21D
  3
D2
350
21E
  0
DICTIONARY
  5
2C4
102
{ACAD_REACTORS
330
C
102
}
330
C
100
AcDbDictionary
281
     1
  0
DICTIONARY
  5
29C
102
{ACAD_REACTORS
330
C
102
}
330
C
100
AcDbDictionary
281
     1
  3
Standard
350
29D
  0
DICTIONARY
  5
222
102
{ACAD_REACTORS
330
C
102
}
330
C
100
AcDbDictionary
281
     1
  3
2dWireframe
350
227
  3
3D Hidden
350
229
  3
3dWireframe
350
228
  3
Basic
350
22A
  3
Brighten
350
22E
  3
ColorChange
350
232
  3
Conceptual
350
22C
  3
Dim
350
22D
  3
EdgeColorOff
350
296
  3
Facepattern
350
231
  3
Flat
350
223
  3
FlatWithEdges
350
224
  3
Gouraud
350
225
  3
GouraudWithEdges
350
226
  3
Hidden
350
293
  3
JitterOff
350
294
  3
Linepattern
350
230
  3
OverhangOff
350
295
  3
Realistic
350
22B
  3
Shaded
350
29B
  3
Shaded with edges
350
29A
  3
Shades of Gray
350
297
  3
Sketchy
350
298
  3
Thicken
350
22F
  3
Wireframe
350
292
  3
X-Ray
350
299
  0
XRECORD
  5
2E8
102
{ACAD_REACTORS
330
C
102
}
330
C
100
AcDbXrecord
280
     1
 90
        1
330
29D
  0
DICTIONARY
  5
24B
102
{ACAD_REACTORS
330
C
102
}
330
C
100
AcDbDictionary
281
     1
  3
CANNOSCALE
350
2C0
  3
CMLEADERSTYLE
350
2C2
  3
CTABLESTYLE
350
2C1
  3
DIMASSOC
350
24F
  3
HIDETEXT
350
250
  3
MSLTSCALE
350
24E
  0
DICTIONARY
  5
29F
102
{ACAD_REACTORS
330
C
102
}
330
C
100
AcDbDictionary
281
     1
  0
DICTIONARY
  5
2A1
102
{ACAD_REACTORS
330
2A0
102
}
330
2A0
100
AcDbDictionary
281
     1
  0
LAYOUT
  5
221
102
{ACAD_REACTORS
330
21F
102
}
330
21F
100
AcDbPlotSettings
  1

  2
none_device
  4

  6

 40
0.0
 41
0.0
 42
0.0
 43
0.0
 44
0.0
 45
0.0
 46
0.0
 47
0.0
 48
0.0
 49
0.0
140
0.0
141
0.0
142
1.0
143
1.0
 70
   688
 72
     0
 73
     0
 74
     5
  7

 75
    16
 76
     0
 77
     2
 78
   300
147
1.0
148
0.0
149
0.0
100
AcDbLayout
  1
Layout1
 70
     1
 71
     1
 10
0.0
 20
0.0
 11
420.0
 21
297.0
 12
0.0
 22
0.0
 32
0.0
 14
1.000000000000000E+20
 24
1.000000000000000E+20
 34
1.000000000000000E+20
 15
-1.000000000000000E+20
 25
-1.000000000000000E+20
 35
-1.000000000000000E+20
146
0.0
 13
0.0
 23
0.0
 33
0.0
 16
1.0
 26
0.0
 36
0.0
 17
0.0
 27
1.0
 37
0.0
 76
     0
330
1B
  0
LAYOUT
  5
220
102
{ACAD_REACTORS
330
21F
102
}
330
21F
100
AcDbPlotSettings
  1

  2
none_device
  4

  6

 40
0.0
 41
0.0
 42
0.0
 43
0.0
 44
0.0
 45
0.0
 46
0.0
 47
0.0
 48
0.0
 49
0.0
140
0.0
141
0.0
142
1.0
143
1.0
 70
  1712
 72
     0
 73
     0
 74
     0
  7

 75
     0
 76
     0
 77
     2
 78
   300
147
1.0
148
-0.0000001562100806
149
0.0
100
AcDbLayout
  1
Model
 70
     1
 71
     0
 10
0.0
 20
0.0
 11
420.0
 21
297.0
 12
0.0
 22
0.0
 32
0.0
 14
-94.92295285524278
 24
-67.05436595483522
 34
0.0
 15
111.5282666569523
 25
65.75051209394522
 35
0.0
146
0.0
 13
0.0
 23
0.0
 33
0.0
 16
1.0
 26
0.0
 36
0.0
 17
0.0
 27
1.0
 37
0.0
 76
     0
330
1F
331
29
  0
MATERIAL
  5
235
102
{ACAD_REACTORS
330
233
102
}
330
233
100
AcDbMaterial
  1
ByBlock
 72
     1
 94
      127
  0
MATERIAL
  5
234
102
{ACAD_REACTORS
330
233
102
}
330
233
100
AcDbMaterial
  1
ByLayer
 72
     1
 94
      127
  0
MATERIAL
  5
236
102
{ACAD_REACTORS
330
233
102
}
330
233
100
AcDbMaterial
  1
Global
 72
     1
 94
      127
  0
MLEADERSTYLE
  5
29E
102
{ACAD_REACTORS
330
24D
102
}
330
24D
100
AcDbMLeaderStyle
179
     2
170
     2
171
     1
172
     0
 90
        2
 40
0.0
 41
0.0
173
     1
 91
-1056964608
340
14
 92
       -2
290
     1
 42
2.0
291
     1
 43
8.0
  3
Standard
341
0
 44
4.0
300

342
11
174
     1
178
     1
175
     1
176
     0
 93
-1056964608
 45
4.0
292
     0
297
     0
 46
4.0
343
0
 94
-1056964608
 47
1.0
 49
1.0
140
1.0
293
     1
141
0.0
294
     1
177
     0
142
1.0
295
     0
296
     0
143
3.75
271
     0
272
     9
273
     9
298
     0
  0
MLINESTYLE
  5
18
102
{ACAD_REACTORS
330
17
102
}
330
17
100
AcDbMlineStyle
  2
Standard
 70
     0
  3

 62
   256
 51
90.0
 52
90.0
 71
     2
 49
0.5
 62
   256
  6
BYLAYER
 49
-0.5
 62
   256
  6
BYLAYER
  0
ACDBPLACEHOLDER
  5
291
102
{ACAD_REACTORS
330
290
102
}
330
290
  0
SCALE
  5
1FE
102
{ACAD_REACTORS
330
1FD
102
}
330
1FD
100
AcDbScale
 70
     0
300
1:1
140
1.0
141
1.0
290
     1
  0
SCALE
  5
1FF
102
{ACAD_REACTORS
330
1FD
102
}
330
1FD
100
AcDbScale
 70
     0
300
1:2
140
1.0
141
2.0
290
     0
  0
SCALE
  5
200
102
{ACAD_REACTORS
330
1FD
102
}
330
1FD
100
AcDbScale
 70
     0
300
1:4
140
1.0
141
4.0
290
     0
  0
SCALE
  5
201
102
{ACAD_REACTORS
330
1FD
102
}
330
1FD
100
AcDbScale
 70
     0
300
1:5
140
1.0
141
5.0
290
     0
  0
SCALE
  5
202
102
{ACAD_REACTORS
330
1FD
102
}
330
1FD
100
AcDbScale
 70
     0
300
1:8
140
1.0
141
8.0
290
     0
  0
SCALE
  5
203
102
{ACAD_REACTORS
330
1FD
102
}
330
1FD
100
AcDbScale
 70
     0
300
1:10
140
1.0
141
10.0
290
     0
  0
SCALE
  5
204
102
{ACAD_REACTORS
330
1FD
102
}
330
1FD
100
AcDbScale
 70
     0
300
1:16
140
1.0
141
16.0
290
     0
  0
SCALE
  5
205
102
{ACAD_REACTORS
330
1FD
102
}
330
1FD
100
AcDbScale
 70
     0
300
1:20
140
1.0
141
20.0
290
     0
  0
SCALE
  5
206
102
{ACAD_REACTORS
330
1FD
102
}
330
1FD
100
AcDbScale
 70
     0
300
1:30
140
1.0
141
30.0
290
     0
  0
SCALE
  5
207
102
{ACAD_REACTORS
330
1FD
102
}
330
1FD
100
AcDbScale
 70
     0
300
1:40
140
1.0
141
40.0
290
     0
  0
SCALE
  5
208
102
{ACAD_REACTORS
330
1FD
102
}
330
1FD
100
AcDbScale
 70
     0
300
1:50
140
1.0
141
50.0
290
     0
  0
SCALE
  5
209
102
{ACAD_REACTORS
330
1FD
102
}
330
1FD
100
AcDbScale
 70
     0
300
1:100
140
1.0
141
100.0
290
     0
  0
SCALE
  5
20A
102
{ACAD_REACTORS
330
1FD
102
}
330
1FD
100
AcDbScale
 70
     0
300
2:1
140
2.0
141
1.0
290
     0
  0
SCALE
  5
20B
102
{ACAD_REACTORS
330
1FD
102
}
330
1FD
100
AcDbScale
 70
     0
300
4:1
140
4.0
141
1.0
290
     0
  0
SCALE
  5
20C
102
{ACAD_REACTORS
330
1FD
102
}
330
1FD
100
AcDbScale
 70
     0
300
8:1
140
8.0
141
1.0
290
     0
  0
SCALE
  5
20D
102
{ACAD_REACTORS
330
1FD
102
}
330
1FD
100
AcDbScale
 70
     0
300
10:1
140
10.0
141
1.0
290
     0
  0
SCALE
  5
20E
102
{ACAD_REACTORS
330
1FD
102
}
330
1FD
100
AcDbScale
 70
     0
300
100:1
140
100.0
141
1.0
290
     0
  0
SCALE
  5
20F
102
{ACAD_REACTORS
330
1FD
102
}
330
1FD
100
AcDbScale
 70
     0
300
1/128" = 1'-0"
140
0.0078125
141
12.0
290
     0
  0
SCALE
  5
210
102
{ACAD_REACTORS
330
1FD
102
}
330
1FD
100
AcDbScale
 70
     0
300
1/64" = 1'-0"
140
0.015625
141
12.0
290
     0
  0
SCALE
  5
211
102
{ACAD_REACTORS
330
1FD
102
}
330
1FD
100
AcDbScale
 70
     0
300
1/32" = 1'-0"
140
0.03125
141
12.0
290
     0
  0
SCALE
  5
212
102
{ACAD_REACTORS
330
1FD
102
}
330
1FD
100
AcDbScale
 70
     0
300
1/16" = 1'-0"
140
0.0625
141
12.0
290
     0
  0
SCALE
  5
213
102
{ACAD_REACTORS
330
1FD
102
}
330
1FD
100
AcDbScale
 70
     0
300
3/32" = 1'-0"
140
0.09375
141
12.0
290
     0
  0
SCALE
  5
214
102
{ACAD_REACTORS
330
1FD
102
}
330
1FD
100
AcDbScale
 70
     0
300
1/8" = 1'-0"
140
0.125
141
12.0
290
     0
  0
SCALE
  5
215
102
{ACAD_REACTORS
330
1FD
102
}
330
1FD
100
AcDbScale
 70
     0
300
3/16" = 1'-0"
140
0.1875
141
12.0
290
     0
  0
SCALE
  5
216
102
{ACAD_REACTORS
330
1FD
102
}
330
1FD
100
AcDbScale
 70
     0
300
1/4" = 1'-0"
140
0.25
141
12.0
290
     0
  0
SCALE
  5
217
102
{ACAD_REACTORS
330
1FD
102
}
330
1FD
100
AcDbScale
 70
     0
300
3/8" = 1'-0"
140
0.375
141
12.0
290
     0
  0
SCALE
  5
218
102
{ACAD_REACTORS
330
1FD
102
}
330
1FD
100
AcDbScale
 70
     0
300
1/2" = 1'-0"
140
0.5
141
12.0
290
     0
  0
SCALE
  5
219
102
{ACAD_REACTORS
330
1FD
102
}
330
1FD
100
AcDbScale
 70
     0
300
3/4" = 1'-0"
140
0.75
141
12.0
290
     0
  0
SCALE
  5
21A
102
{ACAD_REACTORS
330
1FD
102
}
330
1FD
100
AcDbScale
 70
     0
300
1" = 1'-0"
140
1.0
141
12.0
290
     0
  0
SCALE
  5
21B
102
{ACAD_REACTORS
330
1FD
102
}
330
1FD
100
AcDbScale
 70
     0
300
1-1/2" = 1'-0"
140
1.5
141
12.0
290
     0
  0
SCALE
  5
21C
102
{ACAD_REACTORS
330
1FD
102
}
330
1FD
100
AcDbScale
 70
     0
300
3" = 1'-0"
140
3.0
141
12.0
290
     0
  0
SCALE
  5
21D
102
{ACAD_REACTORS
330
1FD
102
}
330
1FD
100
AcDbScale
 70
     0
300
6" = 1'-0"
140
6.0
141
12.0
290
     0
  0
SCALE
  5
21E
102
{ACAD_REACTORS
330
1FD
102
}
330
1FD
100
AcDbScale
 70
     0
300
1'-0" = 1'-0"
140
12.0
141
12.0
290
     0
  0
TABLESTYLE
  5
29D
102
{ACAD_REACTORS
330
29C
102
}
102
{ACAD_XDICTIONARY
360
2E6
102
}
330
29C
100
AcDbTableStyle
  3
Standard
 70
     0
 71
     0
 40
0.06
 41
0.06
280
     0
281
     0
  7
STANDARD
140
4.5
170
     2
 62
     0
 63
   257
283
     0
 90
        4
 91
        0
  1

274
    -2
284
     1
 64
     0
275
    -2
285
     1
 65
     0
276
    -2
286
     1
 66
     0
277
    -2
287
     1
 67
     0
278
    -2
288
     1
 68
     0
279
    -2
289
     1
 69
     0
  7
STANDARD
140
6.0
170
     5
 62
     0
 63
   257
283
     0
 90
        4
 91
        0
  1

274
    -2
284
     1
 64
     0
275
    -2
285
     1
 65
     0
276
    -2
286
     1
 66
     0
277
    -2
287
     1
 67
     0
278
    -2
288
     1
 68
     0
279
    -2
289
     1
 69
     0
  7
STANDARD
140
4.5
170
     5
 62
     0
 63
   257
283
     0
 90
        4
 91
        0
  1

274
    -2
284
     1
 64
     0
275
    -2
285
     1
 65
     0
276
    -2
286
     1
 66
     0
277
    -2
287
     1
 67
     0
278
    -2
288
     1
 68
     0
279
    -2
289
     1
 69
     0
  0
VISUALSTYLE
  5
227
102
{ACAD_REACTORS
330
222
102
}
330
222
100
AcDbVisualStyle
  2
2dWireframe
 70
     4
177
     3
291
     0
 70
    58
 90
        0
176
     1
 90
        2
176
     1
 90
        0
176
     1
 90
        0
176
     1
 40
-0.6
176
     1
 40
-30.0
176
     1
 62
     7
176
     1
 90
        1
176
     1
 90
        4
176
     1
 62
     7
176
     1
 62
   257
176
     1
 90
        1
176
     1
 90
        1
176
     1
 40
1.0
176
     1
 90
        0
176
     1
 62
   257
176
     1
 40
1.0
176
     1
 90
        1
176
     1
 90
        6
176
     1
 90
        2
176
     1
 62
     7
176
     1
 90
        5
176
     1
 90
        0
176
     1
 90
        0
176
     1
290
     0
176
     1
 90
        1
176
     1
 40
0.0
176
     1
 90
        0
176
     1
290
     1
176
     1
290
     1
176
     1
290
     0
176
     1
290
     0
176
     1
290
     0
176
     1
290
     0
176
     1
290
     0
176
     1
290
     0
176
     1
290
     0
176
     1
 90
       50
176
     1
 40
0.0
176
     1
 40
1.0
176
     1
 90
        0
176
     1
 62
    18
420
        0
176
     1
 90
       50
176
     1
 90
        3
176
     1
 62
     5
420
      255
176
     1
290
     0
176
     1
 90
       50
176
     1
 90
       50
176
     1
 90
       50
176
     1
290
     0
176
     1
 90
       50
176
     1
 62
   256
176
     0
 40
1.0
176
     0
 90
        2
176
     1
  1
strokes_ogs.tif
176
     1
290
     0
176
     1
 40
1.0
176
     1
 40
1.0
176
     1
  0
VISUALSTYLE
  5
229
102
{ACAD_REACTORS
330
222
102
}
330
222
100
AcDbVisualStyle
  2
3D Hidden
 70
     6
177
     3
291
     0
 70
    58
 90
        1
176
     1
 90
        2
176
     1
 90
        2
176
     1
 90
        0
176
     1
 40
-0.6
176
     1
 40
-30.0
176
     1
 62
     7
176
     1
 90
        2
176
     1
 90
        2
176
     1
 62
     7
176
     1
 62
   257
176
     1
 90
        2
176
     1
 90
        1
176
     1
 40
40.0
176
     1
 90
        0
176
     1
 62
   257
176
     1
 40
1.0
176
     1
 90
        1
176
     1
 90
        6
176
     1
 90
        2
176
     1
 62
     7
176
     1
 90
        3
176
     1
 90
        0
176
     1
 90
        0
176
     1
290
     0
176
     1
 90
        1
176
     1
 40
0.0
176
     1
 90
        0
176
     1
290
     0
176
     1
290
     1
176
     1
290
     1
176
     1
290
     0
176
     1
290
     0
176
     1
290
     0
176
     1
290
     0
176
     1
290
     0
176
     1
290
     0
176
     1
 90
       50
176
     1
 40
0.0
176
     1
 40
1.0
176
     1
 90
        0
176
     1
 62
    18
420
        0
176
     1
 90
       50
176
     1
 90
        3
176
     1
 62
     5
420
      255
176
     1
290
     0
176
     1
 90
       50
176
     1
 90
       50
176
     1
 90
       50
176
     1
290
     0
176
     1
 90
       50
176
     1
 62
   256
176
     0
 40
1.0
176
     0
 90
        2
176
     1
  1
strokes_ogs.tif
176
     1
290
     0
176
     1
 40
1.0
176
     1
 40
1.0
176
     1
  0
VISUALSTYLE
  5
228
102
{ACAD_REACTORS
330
222
102
}
330
222
100
AcDbVisualStyle
  2
3dWireframe
 70
     5
177
     3
291
     0
 70
    58
 90
        0
176
     1
 90
        2
176
     1
 90
        0
176
     1
 90
        0
176
     1
 40
-0.6
176
     1
 40
-30.0
176
     1
 62
     7
176
     1
 90
        1
176
     1
 90
        4
176
     1
 62
     7
176
     1
 62
   257
176
     1
 90
        1
176
     1
 90
        1
176
     1
 40
1.0
176
     1
 90
        0
176
     1
 62
   257
176
     1
 40
1.0
176
     1
 90
        1
176
     1
 90
        6
176
     1
 90
        2
176
     1
 62
     7
176
     1
 90
        5
176
     1
 90
        0
176
     1
 90
        0
176
     1
290
     0
176
     1
 90
        1
176
     1
 40
0.0
176
     1
 90
        0
176
     1
290
     0
176
     1
290
     1
176
     1
290
     1
176
     1
290
     0
176
     1
290
     0
176
     1
290
     0
176
     1
290
     0
176
     1
290
     0
176
     1
290
     0
176
     1
 90
       50
176
     1
 40
0.0
176
     1
 40
1.0
176
     1
 90
        0
176
     1
 62
    18
420
        0
176
     1
 90
       50
176
     1
 90
        3
176
     1
 62
     5
420
      255
176
     1
290
     0
176
     1
 90
       50
176
     1
 90
       50
176
     1
 90
       50
176
     1
290
     0
176
     1
 90
       50
176
     1
 62
   256
176
     0
 40
1.0
176
     0
 90
        2
176
     1
  1
strokes_ogs.tif
176
     1
290
     0
176
     1
 40
1.0
176
     1
 40
1.0
176
     1
  0
VISUALSTYLE
  5
22A
102
{ACAD_REACTORS
330
222
102
}
330
222
100
AcDbVisualStyle
  2
Basic
 70
     7
177
     3
291
     1
 70
    58
 90
        1
176
     1
 90
        0
176
     1
 90
        1
176
     1
 90
        0
176
     1
 40
-0.6
176
     1
 40
-30.0
176
     1
 62
     7
176
     1
 90
        0
176
     1
 90
        4
176
     1
 62
     7
176
     1
 62
   257
176
     1
 90
        1
176
     1
 90
        1
176
     1
 40
1.0
176
     1
 90
        8
176
     1
 62
     7
176
     1
 40
1.0
176
     1
 90
        1
176
     1
 90
        6
176
     1
 90
        2
176
     1
 62
     7
176
     1
 90
        5
176
     1
 90
        0
176
     1
 90
        0
176
     1
290
     0
176
     1
 90
        1
176
     1
 40
0.0
176
     1
 90
        0
176
     1
290
     0
176
     1
290
     1
176
     1
290
     1
176
     1
290
     0
176
     1
290
     0
176
     1
290
     0
176
     1
290
     0
176
     1
290
     0
176
     1
290
     0
176
     1
 90
       50
176
     1
 40
0.0
176
     1
 40
1.0
176
     1
 90
        0
176
     1
 62
    18
420
        0
176
     1
 90
       50
176
     1
 90
        3
176
     1
 62
     5
420
      255
176
     1
290
     0
176
     1
 90
       50
176
     1
 90
       50
176
     1
 90
       50
176
     1
290
     0
176
     1
 90
       50
176
     1
 62
   256
176
     0
 40
1.0
176
     0
 90
        2
176
     1
  1
strokes_ogs.tif
176
     1
290
     0
176
     1
 40
1.0
176
     1
 40
1.0
176
     1
  0
VISUALSTYLE
  5
22E
102
{ACAD_REACTORS
330
222
102
}
330
222
100
AcDbVisualStyle
  2
Brighten
 70
    12
177
     3
291
     1
 70
    58
 90
        2
176
     1
 90
        2
176
     1
 90
        0
176
     1
 90
        0
176
     1
 40
-0.6
176
     1
 40
-30.0
176
     1
 62
     7
176
     1
 90
        1
176
     1
 90
        4
176
     1
 62
     7
176
     1
 62
   257
176
     1
 90
        1
176
     1
 90
        1
176
     1
 40
1.0
176
     1
 90
        8
176
     1
 62
     7
176
     1
 40
1.0
176
     1
 90
        1
176
     1
 90
        6
176
     1
 90
        2
176
     1
 62
     7
176
     1
 90
        5
176
     1
 90
        0
176
     1
 90
        0
176
     1
290
     0
176
     1
 90
        1
176
     1
 40
50.0
176
     1
 90
        0
176
     1
290
     0
176
     1
290
     1
176
     1
290
     1
176
     1
290
     0
176
     1
290
     0
176
     1
290
     0
176
     1
290
     0
176
     1
290
     0
176
     1
290
     0
176
     1
 90
       50
176
     1
 40
0.0
176
     1
 40
1.0
176
     1
 90
        0
176
     1
 62
    18
420
        0
176
     1
 90
       50
176
     1
 90
        3
176
     1
 62
     5
420
      255
176
     1
290
     0
176
     1
 90
       50
176
     1
 90
       50
176
     1
 90
       50
176
     1
290
     0
176
     1
 90
       50
176
     1
 62
   256
176
     0
 40
1.0
176
     0
 90
        2
176
     1
  1
strokes_ogs.tif
176
     1
290
     0
176
     1
 40
1.0
176
     1
 40
1.0
176
     1
  0
VISUALSTYLE
  5
232
102
{ACAD_REACTORS
330
222
102
}
330
222
100
AcDbVisualStyle
  2
ColorChange
 70
    16
177
     3
291
     1
 70
    58
 90
        2
176
     1
 90
        2
176
     1
 90
        3
176
     1
 90
        0
176
     1
 40
-0.6
176
     1
 40
-30.0
176
     1
 62
     8
176
     1
 90
        1
176
     1
 90
        4
176
     1
 62
     7
176
     1
 62
   257
176
     1
 90
        1
176
     1
 90
        1
176
     1
 40
1.0
176
     1
 90
        8
176
     1
 62
     8
176
     1
 40
1.0
176
     1
 90
        1
176
     1
 90
        6
176
     1
 90
        2
176
     1
 62
     7
176
     1
 90
        5
176
     1
 90
        0
176
     1
 90
        0
176
     1
290
     0
176
     1
 90
        1
176
     1
 40
0.0
176
     1
 90
        0
176
     1
290
     0
176
     1
290
     1
176
     1
290
     1
176
     1
290
     0
176
     1
290
     0
176
     1
290
     0
176
     1
290
     0
176
     1
290
     0
176
     1
290
     0
176
     1
 90
       50
176
     1
 40
0.0
176
     1
 40
1.0
176
     1
 90
        0
176
     1
 62
    18
420
        0
176
     1
 90
       50
176
     1
 90
        3
176
     1
 62
     5
420
      255
176
     1
290
     0
176
     1
 90
       50
176
     1
 90
       50
176
     1
 90
       50
176
     1
290
     0
176
     1
 90
       50
176
     1
 62
   256
176
     0
 40
1.0
176
     0
 90
        2
176
     1
  1
strokes_ogs.tif
176
     1
290
     0
176
     1
 40
1.0
176
     1
 40
1.0
176
     1
  0
VISUALSTYLE
  5
22C
102
{ACAD_REACTORS
330
222
102
}
330
222
100
AcDbVisualStyle
  2
Conceptual
 70
     9
177
     3
291
     0
 70
    58
 90
        3
176
     1
 90
        2
176
     1
 90
        0
176
     1
 90
        0
176
     1
 40
-0.6
176
     1
 40
-30.0
176
     1
 62
     7
176
     1
 90
        2
176
     1
 90
        2
176
     1
 62
     7
176
     1
 62
   257
176
     1
 90
        1
176
     1
 90
        1
176
     1
 40
40.0
176
     1
 90
        8
176
     1
 62
     7
176
     1
 40
1.0
176
     1
 90
        1
176
     1
 90
        6
176
     1
 90
        2
176
     1
 62
     7
176
     1
 90
        3
176
     1
 90
        0
176
     1
 90
        0
176
     1
290
     0
176
     1
 90
        1
176
     1
 40
0.0
176
     1
 90
        0
176
     1
290
     0
176
     1
290
     1
176
     1
290
     1
176
     1
290
     0
176
     1
290
     0
176
     1
290
     0
176
     1
290
     0
176
     1
290
     0
176
     1
290
     0
176
     1
 90
       50
176
     1
 40
0.0
176
     1
 40
1.0
176
     1
 90
        0
176
     1
 62
    18
420
        0
176
     1
 90
       50
176
     1
 90
        3
176
     1
 62
     5
420
      255
176
     1
290
     0
176
     1
 90
       50
176
     1
 90
       50
176
     1
 90
       50
176
     1
290
     0
176
     1
 90
       50
176
     1
 62
   256
176
     0
 40
1.0
176
     0
 90
        2
176
     1
  1
strokes_ogs.tif
176
     1
290
     0
176
     1
 40
1.0
176
     1
 40
1.0
176
     1
  0
VISUALSTYLE
  5
22D
102
{ACAD_REACTORS
330
222
102
}
330
222
100
AcDbVisualStyle
  2
Dim
 70
    11
177
     3
291
     1
 70
    58
 90
        2
176
     1
 90
        2
176
     1
 90
        0
176
     1
 90
        0
176
     1
 40
-0.6
176
     1
 40
-30.0
176
     1
 62
     7
176
     1
 90
        1
176
     1
 90
        4
176
     1
 62
     7
176
     1
 62
   257
176
     1
 90
        1
176
     1
 90
        1
176
     1
 40
1.0
176
     1
 90
        8
176
     1
 62
     7
176
     1
 40
1.0
176
     1
 90
        1
176
     1
 90
        6
176
     1
 90
        2
176
     1
 62
     7
176
     1
 90
        5
176
     1
 90
        0
176
     1
 90
        0
176
     1
290
     0
176
     1
 90
        1
176
     1
 40
-50.0
176
     1
 90
        0
176
     1
290
     0
176
     1
290
     1
176
     1
290
     1
176
     1
290
     0
176
     1
290
     0
176
     1
290
     0
176
     1
290
     0
176
     1
290
     0
176
     1
290
     0
176
     1
 90
       50
176
     1
 40
0.0
176
     1
 40
1.0
176
     1
 90
        0
176
     1
 62
    18
420
        0
176
     1
 90
       50
176
     1
 90
        3
176
     1
 62
     5
420
      255
176
     1
290
     0
176
     1
 90
       50
176
     1
 90
       50
176
     1
 90
       50
176
     1
290
     0
176
     1
 90
       50
176
     1
 62
   256
176
     0
 40
1.0
176
     0
 90
        2
176
     1
  1
strokes_ogs.tif
176
     1
290
     0
176
     1
 40
1.0
176
     1
 40
1.0
176
     1
  0
VISUALSTYLE
  5
296
102
{ACAD_REACTORS
330
222
102
}
330
222
100
AcDbVisualStyle
  2
EdgeColorOff
 70
    22
177
     3
291
     1
 70
    58
 90
        2
176
     0
 90
        2
176
     0
 90
        0
176
     0
 90
        0
176
     0
 40
0.6
176
     0
 40
30.0
176
     0
 62
     7
420
 16777215
176
     0
 90
        1
176
     0
 90
        4
176
     0
 62
     7
176
     0
 62
   257
176
     0
 90
        1
176
     0
 90
        1
176
     0
 40
1.0
176
     0
 90
        8
176
     2
 62
     7
176
     0
 40
1.0
176
     0
 90
        1
176
     0
 90
        6
176
     0
 90
        2
176
     0
 62
     7
176
     0
 90
        5
176
     0
 90
        0
176
     0
 90
        0
176
     0
290
     0
176
     0
 90
        1
176
     0
 40
0.0
176
     0
 90
        0
176
     0
290
     0
176
     0
290
     1
176
     0
290
     1
176
     0
290
     0
176
     0
290
     0
176
     0
290
     0
176
     0
290
     0
176
     0
290
     0
176
     0
290
     0
176
     0
 90
       50
176
     0
 40
0.0
176
     0
 40
1.0
176
     0
 90
        0
176
     0
 62
    18
420
        0
176
     0
 90
       50
176
     0
 90
        3
176
     0
 62
     5
420
      255
176
     0
290
     0
176
     0
 90
       50
176
     0
 90
       50
176
     0
 90
       50
176
     0
290
     0
176
     0
 90
       50
176
     0
 62
   256
176
     0
 40
1.0
176
     0
 90
        2
176
     0
  1
strokes_ogs.tif
176
     0
290
     0
176
     0
 40
1.0
176
     0
 40
1.0
176
     0
  0
VISUALSTYLE
  5
231
102
{ACAD_REACTORS
330
222
102
}
330
222
100
AcDbVisualStyle
  2
Facepattern
 70
    15
177
     3
291
     1
 70
    58
 90
        2
176
     1
 90
        2
176
     1
 90
        0
176
     1
 90
        0
176
     1
 40
-0.6
176
     1
 40
-30.0
176
     1
 62
     7
176
     1
 90
        1
176
     1
 90
        4
176
     1
 62
     7
176
     1
 62
   257
176
     1
 90
        1
176
     1
 90
        1
176
     1
 40
1.0
176
     1
 90
        8
176
     1
 62
     7
176
     1
 40
1.0
176
     1
 90
        1
176
     1
 90
        6
176
     1
 90
        2
176
     1
 62
     7
176
     1
 90
        5
176
     1
 90
        0
176
     1
 90
        0
176
     1
290
     0
176
     1
 90
        1
176
     1
 40
0.0
176
     1
 90
        0
176
     1
290
     0
176
     1
290
     1
176
     1
290
     1
176
     1
290
     0
176
     1
290
     0
176
     1
290
     0
176
     1
290
     0
176
     1
290
     0
176
     1
290
     0
176
     1
 90
       50
176
     1
 40
0.0
176
     1
 40
1.0
176
     1
 90
        0
176
     1
 62
    18
420
        0
176
     1
 90
       50
176
     1
 90
        3
176
     1
 62
     5
420
      255
176
     1
290
     0
176
     1
 90
       50
176
     1
 90
       50
176
     1
 90
       50
176
     1
290
     0
176
     1
 90
       50
176
     1
 62
   256
176
     0
 40
1.0
176
     0
 90
        2
176
     1
  1
strokes_ogs.tif
176
     1
290
     0
176
     1
 40
1.0
176
     1
 40
1.0
176
     1
  0
VISUALSTYLE
  5
223
102
{ACAD_REACTORS
330
222
102
}
330
222
100
AcDbVisualStyle
  2
Flat
 70
     0
177
     3
291
     1
 70
    58
 90
        2
176
     1
 90
        1
176
     1
 90
        1
176
     1
 90
        2
176
     1
 40
-0.6
176
     1
 40
30.0
176
     1
 62
     7
176
     1
 90
        0
176
     1
 90
        4
176
     1
 62
     7
176
     1
 62
   257
176
     1
 90
        1
176
     1
 90
        1
176
     1
 40
1.0
176
     1
 90
        8
176
     1
 62
     7
176
     1
 40
1.0
176
     1
 90
        1
176
     1
 90
        6
176
     1
 90
        2
176
     1
 62
     7
176
     1
 90
        5
176
     1
 90
        0
176
     1
 90
        0
176
     1
290
     0
176
     1
 90
       13
176
     1
 40
0.0
176
     1
 90
        0
176
     1
290
     0
176
     1
290
     1
176
     1
290
     1
176
     1
290
     0
176
     1
290
     0
176
     1
290
     0
176
     1
290
     0
176
     1
290
     0
176
     1
290
     0
176
     1
 90
       50
176
     1
 40
0.0
176
     1
 40
1.0
176
     1
 90
        0
176
     1
 62
    18
420
        0
176
     1
 90
       50
176
     1
 90
        3
176
     1
 62
     5
420
      255
176
     1
290
     0
176
     1
 90
       50
176
     1
 90
       50
176
     1
 90
       50
176
     1
290
     0
176
     1
 90
       50
176
     1
 62
   256
176
     0
 40
1.0
176
     0
 90
        2
176
     1
  1
strokes_ogs.tif
176
     1
290
     0
176
     1
 40
1.0
176
     1
 40
1.0
176
     1
  0
VISUALSTYLE
  5
224
102
{ACAD_REACTORS
330
222
102
}
330
222
100
AcDbVisualStyle
  2
FlatWithEdges
 70
     1
177
     3
291
     1
 70
    58
 90
        2
176
     1
 90
        1
176
     1
 90
        1
176
     1
 90
        2
176
     1
 40
-0.6
176
     1
 40
30.0
176
     1
 62
     7
176
     1
 90
        1
176
     1
 90
        4
176
     1
 62
     7
176
     1
 62
   257
176
     1
 90
        1
176
     1
 90
        1
176
     1
 40
1.0
176
     1
 90
        0
176
     1
 62
   257
176
     1
 40
1.0
176
     1
 90
        1
176
     1
 90
        6
176
     1
 90
        2
176
     1
 62
     7
176
     1
 90
        5
176
     1
 90
        0
176
     1
 90
        0
176
     1
290
     0
176
     1
 90
       13
176
     1
 40
0.0
176
     1
 90
        0
176
     1
290
     0
176
     1
290
     1
176
     1
290
     1
176
     1
290
     0
176
     1
290
     0
176
     1
290
     0
176
     1
290
     0
176
     1
290
     0
176
     1
290
     0
176
     1
 90
       50
176
     1
 40
0.0
176
     1
 40
1.0
176
     1
 90
        0
176
     1
 62
    18
420
        0
176
     1
 90
       50
176
     1
 90
        3
176
     1
 62
     5
420
      255
176
     1
290
     0
176
     1
 90
       50
176
     1
 90
       50
176
     1
 90
       50
176
     1
290
     0
176
     1
 90
       50
176
     1
 62
   256
176
     0
 40
1.0
176
     0
 90
        2
176
     1
  1
strokes_ogs.tif
176
     1
290
     0
176
     1
 40
1.0
176
     1
 40
1.0
176
     1
  0
VISUALSTYLE
  5
225
102
{ACAD_REACTORS
330
222
102
}
330
222
100
AcDbVisualStyle
  2
Gouraud
 70
     2
177
     3
291
     1
 70
    58
 90
        2
176
     1
 90
        2
176
     1
 90
        1
176
     1
 90
        2
176
     1
 40
-0.6
176
     1
 40
30.0
176
     1
 62
     7
176
     1
 90
        0
176
     1
 90
        4
176
     1
 62
     7
176
     1
 62
   257
176
     1
 90
        1
176
     1
 90
        1
176
     1
 40
1.0
176
     1
 90
        0
176
     1
 62
     7
176
     1
 40
1.0
176
     1
 90
        1
176
     1
 90
        6
176
     1
 90
        2
176
     1
 62
     7
176
     1
 90
        5
176
     1
 90
        0
176
     1
 90
        0
176
     1
290
     0
176
     1
 90
       13
176
     1
 40
0.0
176
     1
 90
        0
176
     1
290
     0
176
     1
290
     1
176
     1
290
     1
176
     1
290
     0
176
     1
290
     0
176
     1
290
     0
176
     1
290
     0
176
     1
290
     0
176
     1
290
     0
176
     1
 90
       50
176
     1
 40
0.0
176
     1
 40
1.0
176
     1
 90
        0
176
     1
 62
    18
420
        0
176
     1
 90
       50
176
     1
 90
        3
176
     1
 62
     5
420
      255
176
     1
290
     0
176
     1
 90
       50
176
     1
 90
       50
176
     1
 90
       50
176
     1
290
     0
176
     1
 90
       50
176
     1
 62
   256
176
     0
 40
1.0
176
     0
 90
        2
176
     1
  1
strokes_ogs.tif
176
     1
290
     0
176
     1
 40
1.0
176
     1
 40
1.0
176
     1
  0
VISUALSTYLE
  5
226
102
{ACAD_REACTORS
330
222
102
}
330
222
100
AcDbVisualStyle
  2
GouraudWithEdges
 70
     3
177
     3
291
     1
 70
    58
 90
        2
176
     1
 90
        2
176
     1
 90
        1
176
     1
 90
        2
176
     1
 40
-0.6
176
     1
 40
30.0
176
     1
 62
     7
176
     1
 90
        1
176
     1
 90
        4
176
     1
 62
     7
176
     1
 62
   257
176
     1
 90
        1
176
     1
 90
        1
176
     1
 40
1.0
176
     1
 90
        0
176
     1
 62
   257
176
     1
 40
1.0
176
     1
 90
        1
176
     1
 90
        6
176
     1
 90
        2
176
     1
 62
     7
176
     1
 90
        5
176
     1
 90
        0
176
     1
 90
        0
176
     1
290
     0
176
     1
 90
       13
176
     1
 40
0.0
176
     1
 90
        0
176
     1
290
     0
176
     1
290
     1
176
     1
290
     1
176
     1
290
     0
176
     1
290
     0
176
     1
290
     0
176
     1
290
     0
176
     1
290
     0
176
     1
290
     0
176
     1
 90
       50
176
     1
 40
0.0
176
     1
 40
1.0
176
     1
 90
        0
176
     1
 62
    18
420
        0
176
     1
 90
       50
176
     1
 90
        3
176
     1
 62
     5
420
      255
176
     1
290
     0
176
     1
 90
       50
176
     1
 90
       50
176
     1
 90
       50
176
     1
290
     0
176
     1
 90
       50
176
     1
 62
   256
176
     0
 40
1.0
176
     0
 90
        2
176
     1
  1
strokes_ogs.tif
176
     1
290
     0
176
     1
 40
1.0
176
     1
 40
1.0
176
     1
  0
VISUALSTYLE
  5
293
102
{ACAD_REACTORS
330
222
102
}
330
222
100
AcDbVisualStyle
  2
Hidden
 70
     6
177
     3
291
     0
 70
    58
 90
        1
176
     1
 90
        2
176
     1
 90
        2
176
     1
 90
        0
176
     1
 40
0.6
176
     1
 40
30.0
176
     1
 62
     7
420
 16777215
176
     1
 90
        2
176
     1
 90
        2
176
     1
 62
     7
176
     1
 62
   257
176
     1
 90
        2
176
     1
 90
        1
176
     1
 40
40.0
176
     1
 90
        0
176
     1
 62
   257
176
     1
 40
1.0
176
     1
 90
        1
176
     1
 90
        6
176
     1
 90
        2
176
     1
 62
     7
176
     1
 90
        3
176
     1
 90
        0
176
     1
 90
        0
176
     1
290
     0
176
     1
 90
        1
176
     1
 40
0.0
176
     1
 90
        0
176
     1
290
     0
176
     1
290
     1
176
     1
290
     1
176
     1
290
     0
176
     1
290
     0
176
     1
290
     0
176
     1
290
     0
176
     1
290
     0
176
     1
290
     0
176
     1
 90
       50
176
     1
 40
0.0
176
     1
 40
1.0
176
     1
 90
        0
176
     1
 62
    18
420
        0
176
     1
 90
       50
176
     1
 90
        3
176
     1
 62
     5
420
      255
176
     1
290
     0
176
     1
 90
       50
176
     1
 90
       50
176
     1
 90
       50
176
     1
290
     0
176
     1
 90
       50
176
     1
 62
   256
176
     0
 40
1.0
176
     0
 90
        2
176
     1
  1
strokes_ogs.tif
176
     1
290
     0
176
     1
 40
1.0
176
     1
 40
1.0
176
     1
  0
VISUALSTYLE
  5
294
102
{ACAD_REACTORS
330
222
102
}
330
222
100
AcDbVisualStyle
  2
JitterOff
 70
    20
177
     3
291
     1
 70
    58
 90
        2
176
     0
 90
        2
176
     0
 90
        0
176
     0
 90
        0
176
     0
 40
0.6
176
     0
 40
30.0
176
     0
 62
     7
420
 16777215
176
     0
 90
        1
176
     0
 90
        4
176
     0
 62
     7
176
     0
 62
   257
176
     0
 90
        1
176
     0
 90
        1
176
     0
 40
1.0
176
     0
 90
       10
176
     2
 62
     7
176
     0
 40
1.0
176
     0
 90
        1
176
     0
 90
        6
176
     0
 90
        2
176
     0
 62
     7
176
     0
 90
        5
176
     0
 90
        0
176
     0
 90
        0
176
     0
290
     0
176
     0
 90
        1
176
     0
 40
0.0
176
     0
 90
        0
176
     0
290
     0
176
     0
290
     1
176
     0
290
     1
176
     0
290
     0
176
     0
290
     0
176
     0
290
     0
176
     0
290
     0
176
     0
290
     0
176
     0
290
     0
176
     0
 90
       50
176
     0
 40
0.0
176
     0
 40
1.0
176
     0
 90
        0
176
     0
 62
    18
420
        0
176
     0
 90
       50
176
     0
 90
        3
176
     0
 62
     5
420
      255
176
     0
290
     0
176
     0
 90
       50
176
     0
 90
       50
176
     0
 90
       50
176
     0
290
     0
176
     0
 90
       50
176
     0
 62
   256
176
     0
 40
1.0
176
     0
 90
        2
176
     0
  1
strokes_ogs.tif
176
     0
290
     0
176
     0
 40
1.0
176
     0
 40
1.0
176
     0
  0
VISUALSTYLE
  5
230
102
{ACAD_REACTORS
330
222
102
}
330
222
100
AcDbVisualStyle
  2
Linepattern
 70
    14
177
     3
291
     1
 70
    58
 90
        2
176
     1
 90
        2
176
     1
 90
        0
176
     1
 90
        0
176
     1
 40
-0.6
176
     1
 40
-30.0
176
     1
 62
     7
176
     1
 90
        1
176
     1
 90
        4
176
     1
 62
     7
176
     1
 62
   257
176
     1
 90
        7
176
     1
 90
        7
176
     1
 40
1.0
176
     1
 90
        8
176
     1
 62
     7
176
     1
 40
1.0
176
     1
 90
        1
176
     1
 90
        6
176
     1
 90
        2
176
     1
 62
     7
176
     1
 90
        5
176
     1
 90
        0
176
     1
 90
        0
176
     1
290
     0
176
     1
 90
        1
176
     1
 40
0.0
176
     1
 90
        0
176
     1
290
     0
176
     1
290
     1
176
     1
290
     1
176
     1
290
     0
176
     1
290
     0
176
     1
290
     0
176
     1
290
     0
176
     1
290
     0
176
     1
290
     0
176
     1
 90
       50
176
     1
 40
0.0
176
     1
 40
1.0
176
     1
 90
        0
176
     1
 62
    18
420
        0
176
     1
 90
       50
176
     1
 90
        3
176
     1
 62
     5
420
      255
176
     1
290
     0
176
     1
 90
       50
176
     1
 90
       50
176
     1
 90
       50
176
     1
290
     0
176
     1
 90
       50
176
     1
 62
   256
176
     0
 40
1.0
176
     0
 90
        2
176
     1
  1
strokes_ogs.tif
176
     1
290
     0
176
     1
 40
1.0
176
     1
 40
1.0
176
     1
  0
VISUALSTYLE
  5
295
102
{ACAD_REACTORS
330
222
102
}
330
222
100
AcDbVisualStyle
  2
OverhangOff
 70
    21
177
     3
291
     1
 70
    58
 90
        2
176
     0
 90
        2
176
     0
 90
        0
176
     0
 90
        0
176
     0
 40
0.6
176
     0
 40
30.0
176
     0
 62
     7
420
 16777215
176
     0
 90
        1
176
     0
 90
        4
176
     0
 62
     7
176
     0
 62
   257
176
     0
 90
        1
176
     0
 90
        1
176
     0
 40
1.0
176
     0
 90
        9
176
     2
 62
     7
176
     0
 40
1.0
176
     0
 90
        1
176
     0
 90
        6
176
     0
 90
        2
176
     0
 62
     7
176
     0
 90
        5
176
     0
 90
        0
176
     0
 90
        0
176
     0
290
     0
176
     0
 90
        1
176
     0
 40
0.0
176
     0
 90
        0
176
     0
290
     0
176
     0
290
     1
176
     0
290
     1
176
     0
290
     0
176
     0
290
     0
176
     0
290
     0
176
     0
290
     0
176
     0
290
     0
176
     0
290
     0
176
     0
 90
       50
176
     0
 40
0.0
176
     0
 40
1.0
176
     0
 90
        0
176
     0
 62
    18
420
        0
176
     0
 90
       50
176
     0
 90
        3
176
     0
 62
     5
420
      255
176
     0
290
     0
176
     0
 90
       50
176
     0
 90
       50
176
     0
 90
       50
176
     0
290
     0
176
     0
 90
       50
176
     0
 62
   256
176
     0
 40
1.0
176
     0
 90
        2
176
     0
  1
strokes_ogs.tif
176
     0
290
     0
176
     0
 40
1.0
176
     0
 40
1.0
176
     0
  0
VISUALSTYLE
  5
22B
102
{ACAD_REACTORS
330
222
102
}
330
222
100
AcDbVisualStyle
  2
Realistic
 70
     8
177
     3
291
     0
 70
    58
 90
        2
176
     1
 90
        2
176
     1
 90
        0
176
     1
 90
        0
176
     1
 40
-0.6
176
     1
 40
-30.0
176
     1
 62
     7
176
     1
 90
        1
176
     1
 90
        0
176
     1
 62
     7
176
     1
 62
   257
176
     1
 90
        1
176
     1
 90
        1
176
     1
 40
1.0
176
     1
 90
        8
176
     1
 62
     8
176
     1
 40
1.0
176
     1
 90
        1
176
     1
 90
        6
176
     1
 90
        2
176
     1
 62
     7
176
     1
 90
        5
176
     1
 90
        0
176
     1
 90
        0
176
     1
290
     0
176
     1
 90
       13
176
     1
 40
0.0
176
     1
 90
        0
176
     1
290
     0
176
     1
290
     1
176
     1
290
     1
176
     1
290
     0
176
     1
290
     0
176
     1
290
     0
176
     1
290
     0
176
     1
290
     0
176
     1
290
     0
176
     1
 90
       50
176
     1
 40
0.0
176
     1
 40
1.0
176
     1
 90
        0
176
     1
 62
    18
420
        0
176
     1
 90
       50
176
     1
 90
        3
176
     1
 62
     5
420
      255
176
     1
290
     0
176
     1
 90
       50
176
     1
 90
       50
176
     1
 90
       50
176
     1
290
     0
176
     1
 90
       50
176
     1
 62
   256
176
     0
 40
1.0
176
     0
 90
        2
176
     1
  1
strokes_ogs.tif
176
     1
290
     0
176
     1
 40
1.0
176
     1
 40
1.0
176
     1
  0
VISUALSTYLE
  5
29B
102
{ACAD_REACTORS
330
222
102
}
330
222
100
AcDbVisualStyle
  2
Shaded
 70
    27
177
     3
291
     0
 70
    58
 90
        2
176
     1
 90
        2
176
     1
 90
        1
176
     1
 90
        2
176
     1
 40
0.6
176
     1
 40
30.0
176
     1
 62
     7
420
 16777215
176
     1
 90
        0
176
     1
 90
        4
176
     1
 62
     7
176
     1
 62
   257
176
     1
 90
        1
176
     1
 90
        1
176
     1
 40
1.0
176
     1
 90
        8
176
     1
 62
   257
176
     1
 40
1.0
176
     1
 90
        1
176
     1
 90
        6
176
     1
 90
        2
176
     1
 62
     8
420
  7895160
176
     1
 90
        3
176
     1
 90
        0
176
     1
 90
        0
176
     1
290
     0
176
     1
 90
        5
176
     1
 40
0.0
176
     1
 90
        0
176
     1
290
     0
176
     1
290
     1
176
     1
290
     1
176
     1
290
     0
176
     1
290
     0
176
     1
290
     0
176
     1
290
     0
176
     1
290
     0
176
     1
290
     0
176
     1
 90
       50
176
     1
 40
0.0
176
     1
 40
1.0
176
     1
 90
        0
176
     1
 62
    18
420
        0
176
     1
 90
       50
176
     1
 90
        3
176
     1
 62
     5
420
      255
176
     1
290
     0
176
     1
 90
       50
176
     1
 90
       50
176
     1
 90
       50
176
     1
290
     0
176
     1
 90
       50
176
     1
 62
   256
176
     0
 40
1.0
176
     0
 90
        2
176
     1
  1
strokes_ogs.tif
176
     1
290
     0
176
     1
 40
1.0
176
     1
 40
1.0
176
     1
  0
VISUALSTYLE
  5
29A
102
{ACAD_REACTORS
330
222
102
}
330
222
100
AcDbVisualStyle
  2
Shaded with edges
 70
    26
177
     3
291
     0
 70
    58
 90
        2
176
     1
 90
        2
176
     1
 90
        1
176
     1
 90
        2
176
     1
 40
0.6
176
     1
 40
30.0
176
     1
 62
     7
420
 16777215
176
     1
 90
        1
176
     1
 90
       10
176
     1
 62
     7
176
     1
 62
   257
176
     1
 90
        2
176
     1
 90
        1
176
     1
 40
1.0
176
     1
 90
        8
176
     1
 62
   257
176
     1
 40
1.0
176
     1
 90
        1
176
     1
 90
        6
176
     1
 90
        2
176
     1
 62
     7
176
     1
 90
        3
176
     1
 90
        0
176
     1
 90
        0
176
     1
290
     0
176
     1
 90
        5
176
     1
 40
0.0
176
     1
 90
        0
176
     1
290
     0
176
     1
290
     1
176
     1
290
     1
176
     1
290
     0
176
     1
290
     0
176
     1
290
     0
176
     1
290
     0
176
     1
290
     0
176
     1
290
     0
176
     1
 90
       50
176
     1
 40
0.0
176
     1
 40
1.0
176
     1
 90
        0
176
     1
 62
    18
420
        0
176
     1
 90
       50
176
     1
 90
        3
176
     1
 62
     5
420
      255
176
     1
290
     0
176
     1
 90
       50
176
     1
 90
       50
176
     1
 90
       50
176
     1
290
     0
176
     1
 90
       50
176
     1
 62
   256
176
     0
 40
1.0
176
     0
 90
        2
176
     1
  1
strokes_ogs.tif
176
     1
290
     0
176
     1
 40
1.0
176
     1
 40
1.0
176
     1
  0
VISUALSTYLE
  5
297
102
{ACAD_REACTORS
330
222
102
}
330
222
100
AcDbVisualStyle
  2
Shades of Gray
 70
    23
177
     3
291
     0
 70
    58
 90
        2
176
     1
 90
        2
176
     1
 90
        3
176
     1
 90
        0
176
     1
 40
0.6
176
     1
 40
30.0
176
     1
 62
     7
420
 16777215
176
     1
 90
        2
176
     1
 90
        2
176
     1
 62
     7
176
     1
 62
     7
176
     1
 90
        1
176
     1
 90
        1
176
     1
 40
40.0
176
     1
 90
        8
176
     1
 62
     7
176
     1
 40
1.0
176
     1
 90
        1
176
     1
 90
        6
176
     1
 90
        2
176
     1
 62
     7
176
     1
 90
        3
176
     1
 90
        0
176
     1
 90
        0
176
     1
290
     0
176
     1
 90
        1
176
     1
 40
0.0
176
     1
 90
        0
176
     1
290
     0
176
     1
290
     1
176
     1
290
     1
176
     1
290
     0
176
     1
290
     0
176
     1
290
     0
176
     1
290
     0
176
     1
290
     0
176
     1
290
     0
176
     1
 90
       50
176
     1
 40
0.0
176
     1
 40
1.0
176
     1
 90
        0
176
     1
 62
    18
420
        0
176
     1
 90
       50
176
     1
 90
        3
176
     1
 62
     5
420
      255
176
     1
290
     0
176
     1
 90
       50
176
     1
 90
       50
176
     1
 90
       50
176
     1
290
     0
176
     1
 90
       50
176
     1
 62
   256
176
     0
 40
1.0
176
     0
 90
        2
176
     1
  1
strokes_ogs.tif
176
     1
290
     0
176
     1
 40
1.0
176
     1
 40
1.0
176
     1
  0
VISUALSTYLE
  5
298
102
{ACAD_REACTORS
330
222
102
}
330
222
100
AcDbVisualStyle
  2
Sketchy
 70
    24
177
     3
291
     0
 70
    58
 90
        1
176
     1
 90
        2
176
     1
 90
        2
176
     1
 90
        0
176
     1
 40
0.6
176
     1
 40
30.0
176
     1
 62
     7
420
 16777215
176
     1
 90
        2
176
     1
 90
        2
176
     1
 62
     7
176
     1
 62
     7
176
     1
 90
        1
176
     1
 90
        1
176
     1
 40
40.0
176
     1
 90
       11
176
     1
 62
     7
176
     1
 40
1.0
176
     1
 90
        1
176
     1
 90
        6
176
     1
 90
        2
176
     1
 62
     7
176
     1
 90
        6
176
     1
 90
        0
176
     1
 90
        0
176
     1
290
     0
176
     1
 90
        1
176
     1
 40
0.0
176
     1
 90
        0
176
     1
290
     0
176
     1
290
     1
176
     1
290
     1
176
     1
290
     0
176
     1
290
     0
176
     1
290
     0
176
     1
290
     0
176
     1
290
     0
176
     1
290
     0
176
     1
 90
       50
176
     1
 40
0.0
176
     1
 40
1.0
176
     1
 90
        0
176
     1
 62
    18
420
        0
176
     1
 90
       50
176
     1
 90
        3
176
     1
 62
     5
420
      255
176
     1
290
     0
176
     1
 90
       50
176
     1
 90
       50
176
     1
 90
       50
176
     1
290
     0
176
     1
 90
       50
176
     1
 62
   256
176
     0
 40
1.0
176
     0
 90
        2
176
     1
  1
strokes_ogs.tif
176
     1
290
     0
176
     1
 40
1.0
176
     1
 40
1.0
176
     1
  0
VISUALSTYLE
  5
22F
102
{ACAD_REACTORS
330
222
102
}
330
222
100
AcDbVisualStyle
  2
Thicken
 70
    13
177
     3
291
     1
 70
    58
 90
        2
176
     1
 90
        2
176
     1
 90
        0
176
     1
 90
        0
176
     1
 40
-0.6
176
     1
 40
-30.0
176
     1
 62
     7
176
     1
 90
        1
176
     1
 90
        4
176
     1
 62
     7
176
     1
 62
   257
176
     1
 90
        1
176
     1
 90
        1
176
     1
 40
1.0
176
     1
 90
       12
176
     1
 62
     7
176
     1
 40
1.0
176
     1
 90
        1
176
     1
 90
        6
176
     1
 90
        2
176
     1
 62
     7
176
     1
 90
        5
176
     1
 90
        0
176
     1
 90
        0
176
     1
290
     0
176
     1
 90
        1
176
     1
 40
0.0
176
     1
 90
        0
176
     1
290
     0
176
     1
290
     1
176
     1
290
     1
176
     1
290
     0
176
     1
290
     0
176
     1
290
     0
176
     1
290
     0
176
     1
290
     0
176
     1
290
     0
176
     1
 90
       50
176
     1
 40
0.0
176
     1
 40
1.0
176
     1
 90
        0
176
     1
 62
    18
420
        0
176
     1
 90
       50
176
     1
 90
        3
176
     1
 62
     5
420
      255
176
     1
290
     0
176
     1
 90
       50
176
     1
 90
       50
176
     1
 90
       50
176
     1
290
     0
176
     1
 90
       50
176
     1
 62
   256
176
     0
 40
1.0
176
     0
 90
        2
176
     1
  1
strokes_ogs.tif
176
     1
290
     0
176
     1
 40
1.0
176
     1
 40
1.0
176
     1
  0
VISUALSTYLE
  5
292
102
{ACAD_REACTORS
330
222
102
}
330
222
100
AcDbVisualStyle
  2
Wireframe
 70
     5
177
     3
291
     0
 70
    58
 90
        0
176
     1
 90
        2
176
     1
 90
        0
176
     1
 90
        0
176
     1
 40
0.6
176
     1
 40
30.0
176
     1
 62
     7
420
 16777215
176
     1
 90
        1
176
     1
 90
        4
176
     1
 62
     7
176
     1
 62
   257
176
     1
 90
        1
176
     1
 90
        1
176
     1
 40
1.0
176
     1
 90
        0
176
     1
 62
   257
176
     1
 40
1.0
176
     1
 90
        1
176
     1
 90
        6
176
     1
 90
        2
176
     1
 62
     7
176
     1
 90
        3
176
     1
 90
        0
176
     1
 90
        0
176
     1
290
     0
176
     1
 90
        1
176
     1
 40
0.0
176
     1
 90
        0
176
     1
290
     0
176
     1
290
     1
176
     1
290
     1
176
     1
290
     0
176
     1
290
     0
176
     1
290
     0
176
     1
290
     0
176
     1
290
     0
176
     1
290
     0
176
     1
 90
       50
176
     1
 40
0.0
176
     1
 40
1.0
176
     1
 90
        0
176
     1
 62
    18
420
        0
176
     1
 90
       50
176
     1
 90
        3
176
     1
 62
     5
420
      255
176
     1
290
     0
176
     1
 90
       50
176
     1
 90
       50
176
     1
 90
       50
176
     1
290
     0
176
     1
 90
       50
176
     1
 62
   256
176
     0
 40
1.0
176
     0
 90
        2
176
     1
  1
strokes_ogs.tif
176
     1
290
     0
176
     1
 40
1.0
176
     1
 40
1.0
176
     1
  0
VISUALSTYLE
  5
299
102
{ACAD_REACTORS
330
222
102
}
330
222
100
AcDbVisualStyle
  2
X-Ray
 70
    25
177
     3
291
     0
 70
    58
 90
        2
176
     1
 90
        2
176
     1
 90
        1
176
     1
 90
        1
176
     1
 40
0.5
176
     1
 40
30.0
176
     1
 62
     7
420
 16777215
176
     1
 90
        1
176
     1
 90
        0
176
     1
 62
     7
176
     1
 62
   257
176
     1
 90
        1
176
     1
 90
        1
176
     1
 40
1.0
176
     1
 90
        8
176
     1
 62
     7
176
     1
 40
1.0
176
     1
 90
        1
176
     1
 90
        6
176
     1
 90
        2
176
     1
 62
     7
176
     1
 90
        3
176
     1
 90
        0
176
     1
 90
        0
176
     1
290
     0
176
     1
 90
       13
176
     1
 40
0.0
176
     1
 90
        0
176
     1
290
     0
176
     1
290
     1
176
     1
290
     1
176
     1
290
     0
176
     1
290
     0
176
     1
290
     0
176
     1
290
     0
176
     1
290
     0
176
     1
290
     0
176
     1
 90
       50
176
     1
 40
0.0
176
     1
 40
1.0
176
     1
 90
        0
176
     1
 62
    18
420
        0
176
     1
 90
       50
176
     1
 90
        3
176
     1
 62
     5
420
      255
176
     1
290
     0
176
     1
 90
       50
176
     1
 90
       50
176
     1
 90
       50
176
     1
290
     0
176
     1
 90
       50
176
     1
 62
   256
176
     0
 40
1.0
176
     0
 90
        2
176
     1
  1
strokes_ogs.tif
176
     1
290
     0
176
     1
 40
1.0
176
     1
 40
1.0
176
     1
  0
DICTIONARYVAR
  5
2C0
102
{ACAD_REACTORS
330
24B
102
}
330
24B
100
DictionaryVariables
280
     0
  1
1:1
  0
DICTIONARYVAR
  5
2C2
102
{ACAD_REACTORS
330
24B
102
}
330
24B
100
DictionaryVariables
280
     0
  1
Standard
  0
DICTIONARYVAR
  5
2C1
102
{ACAD_REACTORS
330
24B
102
}
330
24B
100
DictionaryVariables
280
     0
  1
Standard
  0
DICTIONARYVAR
  5
24F
102
{ACAD_REACTORS
330
24B
102
}
330
24B
100
DictionaryVariables
280
     0
  1
2
  0
DICTIONARYVAR
  5
250
102
{ACAD_REACTORS
330
24B
102
}
330
24B
100
DictionaryVariables
280
     0
  1
1
  0
DICTIONARYVAR
  5
24E
102
{ACAD_REACTORS
330
24B
102
}
330
24B
100
DictionaryVariables
280
     0
  1
0
  0
DICTIONARY
  5
2E6
330
29D
100
AcDbDictionary
280
     1
281
     1
  3
ACAD_ROUNDTRIP_2008_TABLESTYLE_CELLSTYLEMAP
360
2E7
  0
CELLSTYLEMAP
  5
2E7
102
{ACAD_REACTORS
330
2E6
102
}
330
2E6
100
AcDbCellStyleMap
 90
        3
300
CELLSTYLE
  1
TABLEFORMAT_BEGIN
 90
        5
170
     1
 91
        0
 92
    32768
 62
   257
 93
        1
300
CONTENTFORMAT
  1
CONTENTFORMAT_BEGIN
 90
        0
 91
        0
 92
        4
 93
        0
300

 40
0.0
140
1.0
 94
        5
 62
     0
340
11
144
6.0
309
CONTENTFORMAT_END
171
     1
301
MARGIN
  1
CELLMARGIN_BEGIN
 40
1.5
 40
1.5
 40
1.5
 40
1.5
 40
1.5
 40
1.5
309
CELLMARGIN_END
 94
        6
 95
        1
302
GRIDFORMAT
  1
GRIDFORMAT_BEGIN
 90
        0
 91
        1
 62
     0
 92
       -2
340
14
 93
        0
 40
0.045
309
GRIDFORMAT_END
 95
        2
302
GRIDFORMAT
  1
GRIDFORMAT_BEGIN
 90
        0
 91
        1
 62
     0
 92
       -2
340
14
 93
        0
 40
0.045
309
GRIDFORMAT_END
 95
        4
302
GRIDFORMAT
  1
GRIDFORMAT_BEGIN
 90
        0
 91
        1
 62
     0
 92
       -2
340
14
 93
        0
 40
0.045
309
GRIDFORMAT_END
 95
        8
302
GRIDFORMAT
  1
GRIDFORMAT_BEGIN
 90
        0
 91
        1
 62
     0
 92
       -2
340
14
 93
        0
 40
0.045
309
GRIDFORMAT_END
 95
       16
302
GRIDFORMAT
  1
GRIDFORMAT_BEGIN
 90
        0
 91
        1
 62
     0
 92
       -2
340
14
 93
        0
 40
0.045
309
GRIDFORMAT_END
 95
       32
302
GRIDFORMAT
  1
GRIDFORMAT_BEGIN
 90
        0
 91
        1
 62
     0
 92
       -2
340
14
 93
        0
 40
0.045
309
GRIDFORMAT_END
309
TABLEFORMAT_END
  1
CELLSTYLE_BEGIN
 90
        1
 91
        1
300
_TITLE
309
CELLSTYLE_END
300
CELLSTYLE
  1
TABLEFORMAT_BEGIN
 90
        5
170
     1
 91
        0
 92
        0
 62
   257
 93
        1
300
CONTENTFORMAT
  1
CONTENTFORMAT_BEGIN
 90
        0
 91
        0
 92
        4
 93
        0
300

 40
0.0
140
1.0
 94
        5
 62
     0
340
11
144
4.5
309
CONTENTFORMAT_END
171
     1
301
MARGIN
  1
CELLMARGIN_BEGIN
 40
1.5
 40
1.5
 40
1.5
 40
1.5
 40
1.5
 40
1.5
309
CELLMARGIN_END
 94
        6
 95
        1
302
GRIDFORMAT
  1
GRIDFORMAT_BEGIN
 90
        0
 91
        1
 62
     0
 92
       -2
340
14
 93
        0
 40
0.045
309
GRIDFORMAT_END
 95
        2
302
GRIDFORMAT
  1
GRIDFORMAT_BEGIN
 90
        0
 91
        1
 62
     0
 92
       -2
340
14
 93
        0
 40
0.045
309
GRIDFORMAT_END
 95
        4
302
GRIDFORMAT
  1
GRIDFORMAT_BEGIN
 90
        0
 91
        1
 62
     0
 92
       -2
340
14
 93
        0
 40
0.045
309
GRIDFORMAT_END
 95
        8
302
GRIDFORMAT
  1
GRIDFORMAT_BEGIN
 90
        0
 91
        1
 62
     0
 92
       -2
340
14
 93
        0
 40
0.045
309
GRIDFORMAT_END
 95
       16
302
GRIDFORMAT
  1
GRIDFORMAT_BEGIN
 90
        0
 91
        1
 62
     0
 92
       -2
340
14
 93
        0
 40
0.045
309
GRIDFORMAT_END
 95
       32
302
GRIDFORMAT
  1
GRIDFORMAT_BEGIN
 90
        0
 91
        1
 62
     0
 92
       -2
340
14
 93
        0
 40
0.045
309
GRIDFORMAT_END
309
TABLEFORMAT_END
  1
CELLSTYLE_BEGIN
 90
        2
 91
        1
300
_HEADER
309
CELLSTYLE_END
300
CELLSTYLE
  1
TABLEFORMAT_BEGIN
 90
        5
170
     1
 91
        0
 92
        0
 62
   257
 93
        1
300
CONTENTFORMAT
  1
CONTENTFORMAT_BEGIN
 90
        0
 91
        0
 92
        4
 93
        0
300

 40
0.0
140
1.0
 94
        2
 62
     0
340
11
144
4.5
309
CONTENTFORMAT_END
171
     1
301
MARGIN
  1
CELLMARGIN_BEGIN
 40
1.5
 40
1.5
 40
1.5
 40
1.5
 40
1.5
 40
1.5
309
CELLMARGIN_END
 94
        6
 95
        1
302
GRIDFORMAT
  1
GRIDFORMAT_BEGIN
 90
        0
 91
        1
 62
     0
 92
       -2
340
14
 93
        0
 40
0.045
309
GRIDFORMAT_END
 95
        2
302
GRIDFORMAT
  1
GRIDFORMAT_BEGIN
 90
        0
 91
        1
 62
     0
 92
       -2
340
14
 93
        0
 40
0.045
309
GRIDFORMAT_END
 95
        4
302
GRIDFORMAT
  1
GRIDFORMAT_BEGIN
 90
        0
 91
        1
 62
     0
 92
       -2
340
14
 93
        0
 40
0.045
309
GRIDFORMAT_END
 95
        8
302
GRIDFORMAT
  1
GRIDFORMAT_BEGIN
 90
        0
 91
        1
 62
     0
 92
       -2
340
14
 93
        0
 40
0.045
309
GRIDFORMAT_END
 95
       16
302
GRIDFORMAT
  1
GRIDFORMAT_BEGIN
 90
        0
 91
        1
 62
     0
 92
       -2
340
14
 93
        0
 40
0.045
309
GRIDFORMAT_END
 95
       32
302
GRIDFORMAT
  1
GRIDFORMAT_BEGIN
 90
        0
 91
        1
 62
     0
 92
       -2
340
14
 93
        0
 40
0.045
309
GRIDFORMAT_END
309
TABLEFORMAT_END
  1
CELLSTYLE_BEGIN
 90
        3
 91
        2
300
_DATA
309
CELLSTYLE_END
  0
ENDSEC
  0
EOF
