  0
SECTION
  2
HEADER
  9
$ACADVER
  1
AC1027
  9
$ACADMAINTVER
 70
   105
  9
$DWGCODEPAGE
  3
ANSI_1252
  9
$REQUIREDVERSIONS
160
                 0
  9
$LASTSAVEDBY
  1
matthias.ochs
  9
$INSBASE
 10
0.0
 20
0.0
 30
0.0
  9
$EXTMIN
 10
-22.24053808512834
 20
-48.44084906757358
 30
0.0
  9
$EXTMAX
 10
66.39585010943328
 20
60.00000000000003
 30
0.0
  9
$LIMMIN
 10
0.0
 20
0.0
  9
$LIMMAX
 10
420.0
 20
297.0
  9
$ORTHOMODE
 70
     0
  9
$REGENMODE
 70
     1
  9
$FILLMODE
 70
     1
  9
$QTEXTMODE
 70
     0
  9
$MIRRTEXT
 70
     1
  9
$LTSCALE
 40
1.0
  9
$ATTMODE
 70
     1
  9
$TEXTSIZE
 40
3.5
  9
$TRACEWID
 40
1.0
  9
$TEXTSTYLE
  7
STANDARD
  9
$CLAYER
  8
SK1
  9
$CELTYPE
  6
BYLAYER
  9
$CECOLOR
 62
   256
  9
$CELTSCALE
 40
1.0
  9
$DISPSILH
 70
     0
  9
$DIMSCALE
 40
1.0
  9
$DIMASZ
 40
3.5
  9
$DIMEXO
 40
0.0
  9
$DIMDLI
 40
3.75
  9
$DIMRND
 40
0.0
  9
$DIMDLE
 40
0.0
  9
$DIMEXE
 40
1.0
  9
$DIMTP
 40
0.0
  9
$DIMTM
 40
0.0
  9
$DIMTXT
 40
3.5
  9
$DIMCEN
 40
2.5
  9
$DIMTSZ
 40
0.0
  9
$DIMTOL
 70
     0
  9
$DIMLIM
 70
     0
  9
$DIMTIH
 70
     1
  9
$DIMTOH
 70
     1
  9
$DIMSE1
 70
     0
  9
$DIMSE2
 70
     0
  9
$DIMTAD
 70
     1
  9
$DIMZIN
 70
     0
  9
$DIMBLK
  1

  9
$DIMASO
 70
     1
  9
$DIMSHO
 70
     1
  9
$DIMPOST
  1

  9
$DIMAPOST
  1

  9
$DIMALT
 70
     0
  9
$DIMALTD
 70
     3
  9
$DIMALTF
 40
0.0393700787
  9
$DIMLFAC
 40
1.0
  9
$DIMTOFL
 70
     1
  9
$DIMTVP
 40
0.0
  9
$DIMTIX
 70
     0
  9
$DIMSOXD
 70
     0
  9
$DIMSAH
 70
     0
  9
$DIMBLK1
  1

  9
$DIMBLK2
  1

  9
$DIMSTYLE
  2
ISO-25
  9
$DIMCLRD
 70
     0
  9
$DIMCLRE
 70
     0
  9
$DIMCLRT
 70
     0
  9
$DIMTFAC
 40
1.0
  9
$DIMGAP
 40
1.5
  9
$DIMJUST
 70
     0
  9
$DIMSD1
 70
     0
  9
$DIMSD2
 70
     0
  9
$DIMTOLJ
 70
     0
  9
$DIMTZIN
 70
     0
  9
$DIMALTZ
 70
     0
  9
$DIMALTTZ
 70
     0
  9
$DIMUPT
 70
     0
  9
$DIMDEC
 70
     2
  9
$DIMTDEC
 70
     3
  9
$DIMALTU
 70
     2
  9
$DIMALTTD
 70
     3
  9
$DIMTXSTY
  7
STANDARD
  9
$DIMAUNIT
 70
     0
  9
$DIMADEC
 70
     0
  9
$DIMALTRND
 40
0.0
  9
$DIMAZIN
 70
     0
  9
$DIMDSEP
 70
    46
  9
$DIMATFIT
 70
     3
  9
$DIMFRAC
 70
     0
  9
$DIMLDRBLK
  1

  9
$DIMLUNIT
 70
     2
  9
$DIMLWD
 70
    -2
  9
$DIMLWE
 70
    -2
  9
$DIMTMOVE
 70
     2
  9
$DIMFXL
 40
1.0
  9
$DIMFXLON
 70
     0
  9
$DIMJOGANG
 40
0.7853981633974483
  9
$DIMTFILL
 70
     0
  9
$DIMTFILLCLR
 70
     0
  9
$DIMARCSYM
 70
     0
  9
$DIMLTYPE
  6

  9
$DIMLTEX1
  6

  9
$DIMLTEX2
  6

  9
$DIMTXTDIRECTION
 70
     0
  9
$LUNITS
 70
     2
  9
$LUPREC
 70
     2
  9
$SKETCHINC
 40
1.0
  9
$FILLETRAD
 40
10.0
  9
$AUNITS
 70
     0
  9
$AUPREC
 70
     2
  9
$MENU
  1
.
  9
$ELEVATION
 40
0.0
  9
$PELEVATION
 40
0.0
  9
$THICKNESS
 40
0.0
  9
$LIMCHECK
 70
     0
  9
$CHAMFERA
 40
0.0
  9
$CHAMFERB
 40
0.0
  9
$CHAMFERC
 40
0.0
  9
$CHAMFERD
 40
0.0
  9
$SKPOLY
 70
     0
  9
$TDCREATE
 40
2458059.53502
  9
$TDUCREATE
 40
2458059.451686667
  9
$TDUPDATE
 40
2458677.333761377
  9
$TDUUPDATE
 40
2458677.250428044
  9
$TDINDWG
 40
0.0713036806
  9
$TDUSRTIMER
 40
0.0033673148
  9
$USRTIMER
 70
     1
  9
$ANGBASE
 50
0.0
  9
$ANGDIR
 70
     0
  9
$PDMODE
 70
     0
  9
$PDSIZE
 40
-1.0
  9
$PLINEWID
 40
0.0
  9
$SPLFRAME
 70
     0
  9
$SPLINETYPE
 70
     6
  9
$SPLINESEGS
 70
     8
  9
$HANDSEED
  5
3D2
  9
$SURFTAB1
 70
     6
  9
$SURFTAB2
 70
     6
  9
$SURFTYPE
 70
     6
  9
$SURFU
 70
     6
  9
$SURFV
 70
     6
  9
$UCSBASE
  2

  9
$UCSNAME
  2

  9
$UCSORG
 10
0.0
 20
0.0
 30
0.0
  9
$UCSXDIR
 10
1.0
 20
0.0
 30
0.0
  9
$UCSYDIR
 10
0.0
 20
1.0
 30
0.0
  9
$UCSORTHOREF
  2

  9
$UCSORTHOVIEW
 70
     0
  9
$UCSORGTOP
 10
0.0
 20
0.0
 30
0.0
  9
$UCSORGBOTTOM
 10
0.0
 20
0.0
 30
0.0
  9
$UCSORGLEFT
 10
0.0
 20
0.0
 30
0.0
  9
$UCSORGRIGHT
 10
0.0
 20
0.0
 30
0.0
  9
$UCSORGFRONT
 10
0.0
 20
0.0
 30
0.0
  9
$UCSORGBACK
 10
0.0
 20
0.0
 30
0.0
  9
$PUCSBASE
  2

  9
$PUCSNAME
  2

  9
$PUCSORG
 10
0.0
 20
0.0
 30
0.0
  9
$PUCSXDIR
 10
1.0
 20
0.0
 30
0.0
  9
$PUCSYDIR
 10
0.0
 20
1.0
 30
0.0
  9
$PUCSORTHOREF
  2

  9
$PUCSORTHOVIEW
 70
     0
  9
$PUCSORGTOP
 10
0.0
 20
0.0
 30
0.0
  9
$PUCSORGBOTTOM
 10
0.0
 20
0.0
 30
0.0
  9
$PUCSORGLEFT
 10
0.0
 20
0.0
 30
0.0
  9
$PUCSORGRIGHT
 10
0.0
 20
0.0
 30
0.0
  9
$PUCSORGFRONT
 10
0.0
 20
0.0
 30
0.0
  9
$PUCSORGBACK
 10
0.0
 20
0.0
 30
0.0
  9
$USERI1
 70
     0
  9
$USERI2
 70
     0
  9
$USERI3
 70
     0
  9
$USERI4
 70
     0
  9
$USERI5
 70
     0
  9
$USERR1
 40
0.0
  9
$USERR2
 40
0.0
  9
$USERR3
 40
0.0
  9
$USERR4
 40
0.0
  9
$USERR5
 40
0.0
  9
$WORLDVIEW
 70
     1
  9
$SHADEDGE
 70
     3
  9
$SHADEDIF
 70
    70
  9
$TILEMODE
 70
     1
  9
$MAXACTVP
 70
    64
  9
$PINSBASE
 10
0.0
 20
0.0
 30
0.0
  9
$PLIMCHECK
 70
     0
  9
$PEXTMIN
 10
1.000000000000000E+20
 20
1.000000000000000E+20
 30
1.000000000000000E+20
  9
$PEXTMAX
 10
-1.000000000000000E+20
 20
-1.000000000000000E+20
 30
-1.000000000000000E+20
  9
$PLIMMIN
 10
0.0
 20
0.0
  9
$PLIMMAX
 10
0.0
 20
0.0
  9
$UNITMODE
 70
     0
  9
$VISRETAIN
 70
     1
  9
$PLINEGEN
 70
     0
  9
$PSLTSCALE
 70
     1
  9
$TREEDEPTH
 70
  3020
  9
$CMLSTYLE
  2
STANDARD
  9
$CMLJUST
 70
     0
  9
$CMLSCALE
 40
20.0
  9
$PROXYGRAPHICS
 70
     1
  9
$MEASUREMENT
 70
     1
  9
$CELWEIGHT
370
    -1
  9
$ENDCAPS
280
     0
  9
$JOINSTYLE
280
     0
  9
$LWDISPLAY
290
     0
  9
$INSUNITS
 70
     0
  9
$HYPERLINKBASE
  1

  9
$STYLESHEET
  1

  9
$XEDIT
290
     1
  9
$CEPSNTYPE
380
     0
  9
$PSTYLEMODE
290
     1
  9
$FINGERPRINTGUID
  2
{3DCCCD17-530E-4CA1-99FE-32C029E45466}
  9
$VERSIONGUID
  2
{FAEB1C32-E019-11D5-929B-00C0DF256EC4}
  9
$EXTNAMES
290
     1
  9
$PSVPSCALE
 40
0.0
  9
$OLESTARTUP
290
     0
  9
$SORTENTS
280
   127
  9
$INDEXCTL
280
     0
  9
$HIDETEXT
280
     1
  9
$XCLIPFRAME
280
     2
  9
$HALOGAP
280
     0
  9
$OBSCOLOR
 70
   257
  9
$OBSLTYPE
280
     0
  9
$INTERSECTIONDISPLAY
280
     0
  9
$INTERSECTIONCOLOR
 70
   257
  9
$DIMASSOC
280
     2
  9
$PROJECTNAME
  1

  9
$CAMERADISPLAY
290
     0
  9
$LENSLENGTH
 40
50.0
  9
$CAMERAHEIGHT
 40
0.0
  9
$STEPSPERSEC
 40
2.0
  9
$STEPSIZE
 40
6.0
  9
$3DDWFPREC
 40
2.0
  9
$PSOLWIDTH
 40
0.25
  9
$PSOLHEIGHT
 40
4.0
  9
$LOFTANG1
 40
1.570796326794897
  9
$LOFTANG2
 40
1.570796326794897
  9
$LOFTMAG1
 40
0.0
  9
$LOFTMAG2
 40
0.0
  9
$LOFTPARAM
 70
     7
  9
$LOFTNORMALS
280
     1
  9
$LATITUDE
 40
37.795
  9
$LONGITUDE
 40
-122.394
  9
$NORTHDIRECTION
 40
0.0
  9
$TIMEZONE
 70
 -8000
  9
$LIGHTGLYPHDISPLAY
280
     1
  9
$TILEMODELIGHTSYNCH
280
     1
  9
$SOLIDHIST
280
     0
  9
$SHOWHIST
280
     1
  9
$DWFFRAME
280
     2
  9
$DGNFRAME
280
     2
  9
$REALWORLDSCALE
290
     1
  9
$INTERFERECOLOR
 62
   256
  9
$CSHADOW
280
     0
  9
$SHADOWPLANELOCATION
 40
0.0
  0
ENDSEC
  0
SECTION
  2
CLASSES
  0
CLASS
  1
ACDBDICTIONARYWDFLT
  2
AcDbDictionaryWithDefault
  3
ObjectDBX Classes
 90
        0
 91
       14
280
     0
281
     0
  0
CLASS
  1
VISUALSTYLE
  2
AcDbVisualStyle
  3
ObjectDBX Classes
 90
     4095
 91
       14
280
     0
281
     0
  0
CLASS
  1
MATERIAL
  2
AcDbMaterial
  3
ObjectDBX Classes
 90
     1153
 91
       14
280
     0
281
     0
  0
CLASS
  1
SCALE
  2
AcDbScale
  3
ObjectDBX Classes
 90
     1153
 91
       14
280
     0
281
     0
  0
CLASS
  1
TABLESTYLE
  2
AcDbTableStyle
  3
ObjectDBX Classes
 90
     4095
 91
       14
280
     0
281
     0
  0
CLASS
  1
MLEADERSTYLE
  2
AcDbMLeaderStyle
  3
ACDB_MLEADERSTYLE_CLASS
 90
     4095
 91
       14
280
     0
281
     0
  0
CLASS
  1
SUN
  2
AcDbSun
  3
SCENEOE
 90
     1153
 91
       14
280
     0
281
     0
  0
CLASS
  1
XRECORD
  2
AcDbXrecord
  3
ObjectDBX Classes
 90
        0
 91
        1
280
     0
281
     0
  0
CLASS
  1
LWPOLYLINE
  2
AcDbPolyline
  3
ObjectDBX Classes
 90
        0
 91
        1
280
     0
281
     1
  0
CLASS
  1
HATCH
  2
AcDbHatch
  3
ObjectDBX Classes
 90
        0
 91
        1
280
     0
281
     1
  0
CLASS
  1
DICTIONARYVAR
  2
AcDbDictionaryVar
  3
ObjectDBX Classes
 90
        0
 91
       14
280
     0
281
     0
  0
CLASS
  1
ACDBPLACEHOLDER
  2
AcDbPlaceHolder
  3
ObjectDBX Classes
 90
        0
 91
        1
280
     0
281
     0
  0
CLASS
  1
LAYOUT
  2
AcDbLayout
  3
ObjectDBX Classes
 90
        0
 91
        1
280
     0
281
     0
  0
CLASS
  1
SORTENTSTABLE
  2
AcDbSortentsTable
  3
ObjectDBX Classes
 90
        0
 91
        5
280
     0
281
     0
  0
CLASS
  1
CELLSTYLEMAP
  2
AcDbCellStyleMap
  3
ObjectDBX Classes
 90
     1152
 91
        5
280
     0
281
     0
  0
ENDSEC
  0
SECTION
  2
TABLES
  0
TABLE
  2
VPORT
  5
8
330
0
100
AcDbSymbolTable
 70
     1
  0
VPORT
  5
29
330
8
100
AcDbSymbolTableRecord
100
AcDbViewportTableRecord
  2
*ACTIVE
 70
     0
 10
0.0
 20
0.0
 11
1.0
 21
1.0
 12
-17.3208734074566
 22
2.868894497658474
 13
0.0
 23
0.0
 14
10.0
 24
10.0
 15
10.0
 25
10.0
 16
0.0
 26
0.0
 36
1.0
 17
0.0
 27
0.0
 37
0.0
 40
174.4266538324119
 41
1.831002331002331
 42
50.0
 43
0.0
 44
0.0
 50
0.0
 51
0.0
 71
    16
 72
  2000
 73
     1
 74
     3
 75
     0
 76
     0
 77
     0
 78
     0
281
     0
 65
     1
110
0.0
120
0.0
130
0.0
111
1.0
121
0.0
131
0.0
112
0.0
122
1.0
132
0.0
 79
     0
146
0.0
348
1FF
 60
     3
 61
     5
292
     1
282
     1
141
0.0
142
0.0
 63
   256
361
2CC
  0
ENDTAB
  0
TABLE
  2
LTYPE
  5
5
330
0
100
AcDbSymbolTable
 70
     9
  0
LTYPE
  5
14
330
5
100
AcDbSymbolTableRecord
100
AcDbLinetypeTableRecord
  2
BYBLOCK
 70
     0
  3

 72
    65
 73
     0
 40
0.0
  0
LTYPE
  5
15
330
5
100
AcDbSymbolTableRecord
100
AcDbLinetypeTableRecord
  2
BYLAYER
 70
     0
  3

 72
    65
 73
     0
 40
0.0
  0
LTYPE
  5
16
330
5
100
AcDbSymbolTableRecord
100
AcDbLinetypeTableRecord
  2
CONTINUOUS
 70
     0
  3
Solid line
 72
    65
 73
     0
 40
0.0
  0
LTYPE
  5
6E
330
5
100
AcDbSymbolTableRecord
100
AcDbLinetypeTableRecord
  2
HIDDEN
 70
     0
  3
Hidden __ __ __ __ __ __ __ __ __ __ __ __ __ __
 72
    65
 73
     2
 40
1.905
 49
1.27
 74
     0
 49
-0.635
 74
     0
  0
LTYPE
  5
6F
330
5
100
AcDbSymbolTableRecord
100
AcDbLinetypeTableRecord
  2
PHANTOM
 70
     0
  3
Phantom ______  __  __  ______  __  __  ______
 72
    65
 73
     6
 40
12.7
 49
6.35
 74
     0
 49
-1.27
 74
     0
 49
1.27
 74
     0
 49
-1.27
 74
     0
 49
1.27
 74
     0
 49
-1.27
 74
     0
  0
LTYPE
  5
70
330
5
100
AcDbSymbolTableRecord
100
AcDbLinetypeTableRecord
  2
CENTER
 70
     0
  3
Center ____ _ ____ _ ____ _ ____ _ ____ _ ____
 72
    65
 73
     4
 40
10.16
 49
6.35
 74
     0
 49
-1.27
 74
     0
 49
1.27
 74
     0
 49
-1.27
 74
     0
  0
LTYPE
  5
71
330
5
100
AcDbSymbolTableRecord
100
AcDbLinetypeTableRecord
  2
CENTERX2
 70
     0
  3
Center (2x) ________  __  ________  __  _____
 72
    65
 73
     4
 40
20.32
 49
12.7
 74
     0
 49
-2.54
 74
     0
 49
2.54
 74
     0
 49
-2.54
 74
     0
  0
LTYPE
  5
72
330
5
100
AcDbSymbolTableRecord
100
AcDbLinetypeTableRecord
  2
DOT2
 70
     0
  3
Dot (.5x) ........................................
 72
    65
 73
     2
 40
0.635
 49
0.0
 74
     0
 49
-0.635
 74
     0
  0
LTYPE
  5
250
330
5
100
AcDbSymbolTableRecord
100
AcDbLinetypeTableRecord
  2
DASH
 70
     0
  3
DASH _ _ _ _ _
 72
    65
 73
     2
 40
0.75
 49
0.4
 74
     0
 49
-0.35
 74
     0
  0
LTYPE
  5
251
330
5
100
AcDbSymbolTableRecord
100
AcDbLinetypeTableRecord
  2
LONGDASH_DASH
 70
     0
  3
LONGDASH_DASH __ . __ . __
 72
    65
 73
     4
 40
0.85
 49
0.4
 74
     0
 49
-0.2
 74
     0
 49
0.05
 74
     0
 49
-0.2
 74
     0
  0
LTYPE
  5
252
330
5
100
AcDbSymbolTableRecord
100
AcDbLinetypeTableRecord
  2
LONGDASH_DASH_DASH
 70
     0
  3
LONGDASH_DASH_DASH __ . . __ . . __
 72
    65
 73
     6
 40
1.1
 49
0.4
 74
     0
 49
-0.2
 74
     0
 49
0.05
 74
     0
 49
-0.2
 74
     0
 49
0.05
 74
     0
 49
-0.2
 74
     0
  0
ENDTAB
  0
TABLE
  2
LAYER
  5
2
102
{ACAD_XDICTIONARY
360
272
102
}
330
0
100
AcDbSymbolTable
 70
    17
  0
LAYER
  5
210
330
2
100
AcDbSymbolTableRecord
100
AcDbLayerTableRecord
  2
200
 70
     0
 62
     2
  6
CONTINUOUS
370
    50
390
263
347
20E
348
0
  0
LAYER
  5
213
330
2
100
AcDbSymbolTableRecord
100
AcDbLayerTableRecord
  2
Defpoints
 70
     0
 62
     7
  6
CONTINUOUS
290
     0
370
    -3
390
263
347
20E
348
0
  0
LAYER
  5
253
330
2
100
AcDbSymbolTableRecord
100
AcDbLayerTableRecord
  2
0
 70
     0
 62
     1
  6
CONTINUOUS
370
    -3
390
263
347
20E
348
0
  0
LAYER
  5
254
330
2
100
AcDbSymbolTableRecord
100
AcDbLayerTableRecord
  2
1
 70
     0
 62
     4
  6
CONTINUOUS
370
    50
390
263
347
20E
348
0
  0
LAYER
  5
255
330
2
100
AcDbSymbolTableRecord
100
AcDbLayerTableRecord
  2
2
 70
     0
 62
     7
  6
CONTINUOUS
370
    25
390
263
347
20E
348
0
  0
LAYER
  5
256
330
2
100
AcDbSymbolTableRecord
100
AcDbLayerTableRecord
  2
3
 70
     0
 62
     1
  6
DASH
370
    35
390
263
347
20E
348
0
  0
LAYER
  5
257
330
2
100
AcDbSymbolTableRecord
100
AcDbLayerTableRecord
  2
4
 70
     0
 62
     2
  6
LONGDASH_DASH
370
    25
390
263
347
20E
348
0
  0
LAYER
  5
258
330
2
100
AcDbSymbolTableRecord
100
AcDbLayerTableRecord
  2
6
 70
     0
 62
     5
  6
CONTINUOUS
370
    -3
390
263
347
20E
348
0
  0
LAYER
  5
259
330
2
100
AcDbSymbolTableRecord
100
AcDbLayerTableRecord
  2
CUT
 70
     0
 62
     1
  6
CONTINUOUS
370
    25
390
263
347
20E
348
0
  0
LAYER
  5
25A
330
2
100
AcDbSymbolTableRecord
100
AcDbLayerTableRecord
  2
NOCUT
 70
     0
 62
     7
  6
CONTINUOUS
370
    25
390
263
347
20E
348
0
  0
LAYER
  5
25B
330
2
100
AcDbSymbolTableRecord
100
AcDbLayerTableRecord
  2
SK1
 70
     0
 62
     4
  6
CONTINUOUS
370
    50
390
263
347
20E
348
0
  0
LAYER
  5
25C
330
2
100
AcDbSymbolTableRecord
100
AcDbLayerTableRecord
  2
SK2
 70
     0
 62
     7
  6
CONTINUOUS
370
    25
390
263
347
20E
348
0
  0
LAYER
  5
25D
330
2
100
AcDbSymbolTableRecord
100
AcDbLayerTableRecord
  2
SK3
 70
     0
 62
     1
  6
DASH
370
    35
390
263
347
20E
348
0
  0
LAYER
  5
25E
330
2
100
AcDbSymbolTableRecord
100
AcDbLayerTableRecord
  2
SK4
 70
     0
 62
     2
  6
LONGDASH_DASH
370
    25
390
263
347
20E
348
0
  0
LAYER
  5
25F
330
2
100
AcDbSymbolTableRecord
100
AcDbLayerTableRecord
  2
SK6
 70
     0
 62
     5
  6
CONTINUOUS
370
    -3
390
263
347
20E
348
0
  0
LAYER
  5
260
330
2
100
AcDbSymbolTableRecord
100
AcDbLayerTableRecord
  2
INFTOTAL
 70
     0
 62
     9
  6
CONTINUOUS
370
    18
390
263
347
20E
348
0
  0
LAYER
  5
35D
330
2
100
AcDbSymbolTableRecord
100
AcDbLayerTableRecord
  2
7
 70
     0
 62
     5
  6
CONTINUOUS
370
    18
390
263
347
20E
348
0
1001
AcAecLayerStandard
1000

1000

  0
ENDTAB
  0
TABLE
  2
STYLE
  5
3
330
0
100
AcDbSymbolTable
 70
     4
  0
STYLE
  5
11
330
3
100
AcDbSymbolTableRecord
100
AcDbTextStyleTableRecord
  2
STANDARD
 70
     0
 40
0.0
 41
1.0
 50
0.0
 71
     0
 42
3.5
  3
txt
  4

  0
STYLE
  5
1BF
330
3
100
AcDbSymbolTableRecord
100
AcDbTextStyleTableRecord
  2
SLDTEXTSTYLE0
 70
     0
 40
0.0
 41
0.605
 50
0.0
 71
     0
 42
3.5
  3
TXT
  4

  0
STYLE
  5
1D3
330
3
100
AcDbSymbolTableRecord
100
AcDbTextStyleTableRecord
  2
SLDTEXTSTYLE1
 70
     0
 40
0.0
 41
1.0
 50
0.0
 71
     0
 42
3.5
  3
TXT
  4

  0
STYLE
  5
20F
330
3
100
AcDbSymbolTableRecord
100
AcDbTextStyleTableRecord
  2
BMG_Text
 70
     0
 40
3.5
 41
1.0
 50
0.0
 71
     0
 42
3.5
  3
monos.ttf
  4

1001
ACAD
1000
Monospac821 BT
1071
       49
  0
ENDTAB
  0
TABLE
  2
VIEW
  5
6
330
0
100
AcDbSymbolTable
 70
     0
  0
ENDTAB
  0
TABLE
  2
UCS
  5
7
330
0
100
AcDbSymbolTable
 70
     0
  0
ENDTAB
  0
TABLE
  2
APPID
  5
9
330
0
100
AcDbSymbolTable
 70
     7
  0
APPID
  5
12
330
9
100
AcDbSymbolTableRecord
100
AcDbRegAppTableRecord
  2
ACAD
 70
     0
  0
APPID
  5
223
330
9
100
AcDbSymbolTableRecord
100
AcDbRegAppTableRecord
  2
ACAD_DSTYLE_DIM_LINETYPE
 70
     0
  0
APPID
  5
224
330
9
100
AcDbSymbolTableRecord
100
AcDbRegAppTableRecord
  2
ACAD_DSTYLE_DIM_EXT1_LINETYPE
 70
     0
  0
APPID
  5
225
330
9
100
AcDbSymbolTableRecord
100
AcDbRegAppTableRecord
  2
ACAD_DSTYLE_DIM_EXT2_LINETYPE
 70
     0
  0
APPID
  5
30C
330
9
100
AcDbSymbolTableRecord
100
AcDbRegAppTableRecord
  2
FX_DIMP_FAV_VERSION
 70
     0
  0
APPID
  5
35E
330
9
100
AcDbSymbolTableRecord
100
AcDbRegAppTableRecord
  2
AcAecLayerStandard
 70
     0
  0
APPID
  5
366
330
9
100
AcDbSymbolTableRecord
100
AcDbRegAppTableRecord
  2
PE_URL
 70
     0
  0
ENDTAB
  0
TABLE
  2
DIMSTYLE
  5
A
330
0
100
AcDbSymbolTable
 70
     5
100
AcDbDimStyleTable
  0
DIMSTYLE
105
27
102
{ACAD_REACTORS
330
1BE
330
2F8
102
}
330
A
100
AcDbSymbolTableRecord
100
AcDbDimStyleTableRecord
  2
ISO-25
 70
     0
 41
2.5
 42
0.625
 43
3.75
 44
1.25
 73
     0
 74
     0
 77
     1
 78
     8
140
2.5
141
2.5
143
0.0393700787
147
0.625
171
     3
172
     1
178
     0
271
     2
272
     2
274
     3
283
     0
284
     8
340
11
  0
DIMSTYLE
105
1C0
330
A
100
AcDbSymbolTableRecord
100
AcDbDimStyleTableRecord
  2
SLDDIMSTYLE0
 70
     0
 41
3.5
 44
0.0
 45
0.000000001
 73
     0
 74
     0
 76
     1
 77
     1
 78
    12
140
3.5
147
0.875
173
     1
178
     0
271
     2
272
     3
282
     1
284
    12
340
1BF
  0
DIMSTYLE
105
1CB
330
A
100
AcDbSymbolTableRecord
100
AcDbDimStyleTableRecord
  2
SLDDIMSTYLE1
 70
     0
 41
3.5
 44
0.0
 45
0.000000001
 73
     0
 74
     0
 75
     1
 77
     1
 78
    12
140
3.5
147
0.875
173
     1
178
     0
271
     2
272
     3
281
     1
284
    12
340
1BF
  0
DIMSTYLE
105
35F
330
A
100
AcDbSymbolTableRecord
100
AcDbDimStyleTableRecord
  2
Matthias
 70
     0
 41
3.0
 44
2.0
 73
     0
 77
     1
140
3.0
147
2.0
178
     0
340
11
  0
DIMSTYLE
105
365
330
A
100
AcDbSymbolTableRecord
100
AcDbDimStyleTableRecord
  2
SLDDIMSTYLE2
 70
     0
 41
3.5
 44
0.0
 45
0.000000001
 73
     0
 74
     0
 77
     1
 78
    12
 79
     3
140
3.5
147
0.875
173
     1
178
     0
271
     2
272
     0
276
     2
284
    12
340
1BF
  0
ENDTAB
  0
TABLE
  2
BLOCK_RECORD
  5
1
330
0
100
AcDbSymbolTable
 70
     3
  0
BLOCK_RECORD
  5
1F
102
{ACAD_XDICTIONARY
360
376
102
}
330
1
100
AcDbSymbolTableRecord
100
AcDbBlockTableRecord
  2
*MODEL_SPACE
340
1F8
 70
     0
280
     1
281
     0
  0
BLOCK_RECORD
  5
1B
330
1
100
AcDbSymbolTableRecord
100
AcDbBlockTableRecord
  2
*PAPER_SPACE
340
1F9
 70
     0
280
     1
281
     0
  0
BLOCK_RECORD
  5
1C1
330
1
100
AcDbSymbolTableRecord
100
AcDbBlockTableRecord
  2
_D
340
0
 70
     0
280
     1
281
     0
  0
BLOCK_RECORD
  5
1CC
330
1
100
AcDbSymbolTableRecord
100
AcDbBlockTableRecord
  2
_D_1
340
0
 70
     0
280
     1
281
     0
  0
BLOCK_RECORD
  5
2F9
330
1
100
AcDbSymbolTableRecord
100
AcDbBlockTableRecord
  2
*D2
340
0
 70
     0
280
     1
281
     0
  0
ENDTAB
  0
ENDSEC
  0
SECTION
  2
BLOCKS
  0
BLOCK
  5
20
330
1F
100
AcDbEntity
  8
0
100
AcDbBlockBegin
  2
*MODEL_SPACE
 70
     0
 10
0.0
 20
0.0
 30
0.0
  3
*MODEL_SPACE
  1

  0
ENDBLK
  5
21
330
1F
100
AcDbEntity
  8
0
100
AcDbBlockEnd
  0
BLOCK
  5
1C
330
1B
100
AcDbEntity
 67
     1
  8
0
100
AcDbBlockBegin
  2
*PAPER_SPACE
 70
     0
 10
0.0
 20
0.0
 30
0.0
  3
*PAPER_SPACE
  1

  0
ENDBLK
  5
1D
330
1B
100
AcDbEntity
 67
     1
  8
0
100
AcDbBlockEnd
  0
BLOCK
  5
1C2
330
1C1
100
AcDbEntity
  8
0
100
AcDbBlockBegin
  2
_D
 70
     0
 10
0.0
 20
0.0
 30
0.0
  3
_D
  1

  0
LINE
  5
1C4
330
1C1
100
AcDbEntity
  8
SK2
 62
     0
370
    -2
100
AcDbLine
 10
50.204144857
 20
49.0010920954
 30
0.0
 11
60.65661295850001
 21
49.0010920954
 31
0.0
  0
LINE
  5
1C5
330
1C1
100
AcDbEntity
  8
SK2
 62
     0
370
    -2
100
AcDbLine
 10
59.40661295850001
 20
36.499995738
 30
0.0
 11
59.40661295850001
 21
5.023892990436174
 31
0.0
  0
LINE
  5
1C6
330
1C1
100
AcDbEntity
  8
SK2
 62
     0
370
    -2
100
AcDbLine
 10
59.40661295850001
 20
49.0010920954
 30
0.0
 11
59.40661295850001
 21
36.499995738
 31
0.0
  0
SOLID
  5
1C7
330
1C1
100
AcDbEntity
  8
SK2
 62
     0
100
AcDbTrace
 10
59.82327962516667
 20
46.5010920954
 30
0.0
 11
58.98994629183334
 21
46.5010920954
 31
0.0
 12
59.40661295850001
 22
49.0010920954
 32
0.0
 13
59.40661295850001
 23
49.0010920954
 33
0.0
  0
MTEXT
  5
1C8
330
1C1
100
AcDbEntity
  8
SK2
 62
     0
100
AcDbMText
 10
57.53161295850001
 20
17.1072263237695
 30
0.0
 40
2.5
 41
0.0
 46
0.0
 71
     5
 72
     1
  1
%%c200 - 620
 11
0.0
 21
1.0
 31
0.0
 73
     1
 44
1.0
  0
POINT
  5
1C9
330
1C1
100
AcDbEntity
  8
Defpoints
 62
     0
100
AcDbPoint
 10
49.579144857
 20
49.0010920954
 30
0.0
  0
POINT
  5
214
330
1C1
100
AcDbEntity
  8
Defpoints
 62
     0
100
AcDbPoint
 10
49.23408106
 20
36.499995738
 30
0.0
  0
POINT
  5
30F
330
1C1
100
AcDbEntity
  8
Defpoints
 62
     0
100
AcDbPoint
 10
59.40661295850001
 20
36.499995738
 30
0.0
  0
ENDBLK
  5
1C3
330
1C1
100
AcDbEntity
  8
0
100
AcDbBlockEnd
  0
BLOCK
  5
1CD
330
1CC
100
AcDbEntity
  8
0
100
AcDbBlockBegin
  2
_D_1
 70
     0
 10
0.0
 20
0.0
 30
0.0
  3
_D_1
  1

  0
LINE
  5
1CF
330
1CC
100
AcDbEntity
  8
2
  6
ByBlock
370
    -2
100
AcDbLine
 10
0.0
 20
-7.4385936744
 30
0.0
 11
0.0
 21
7.3352931146
 31
0.0
  0
LINE
  5
1D0
330
1CC
100
AcDbEntity
  8
2
  6
ByBlock
370
    -2
100
AcDbLine
 10
3.5
 20
7.3352931146
 30
0.0
 11
37.5956768193
 21
7.3352931146
 31
0.0
  0
SOLID
  5
1D1
330
1CC
100
AcDbEntity
  8
2
100
AcDbTrace
 10
3.5
 20
7.918626447933333
 30
0.0
 11
3.5
 21
6.751959781266667
 31
0.0
 12
0.0
 22
7.3352931146
 32
0.0
 13
0.0
 23
7.3352931146
 33
0.0
  0
MTEXT
  5
1D2
330
1CC
100
AcDbEntity
  8
2
100
AcDbMText
 10
32.6291768193
 20
9.9707931146
 30
0.0
 40
3.5
 41
0.0
 46
0.0
 71
     5
 72
     1
  1
\A1;117
  7
BMG_Text
 73
     1
 44
1.0
  0
POINT
  5
216
330
1CC
100
AcDbEntity
  8
Defpoints
 62
     0
100
AcDbPoint
 10
49.9791448571
 20
-0.4000000001
 30
0.0
  0
POINT
  5
217
330
1CC
100
AcDbEntity
  8
Defpoints
 62
     0
100
AcDbPoint
 10
0.0
 20
-7.5010936744
 30
0.0
  0
POINT
  5
218
330
1CC
100
AcDbEntity
  8
Defpoints
 62
     0
100
AcDbPoint
 10
0.0
 20
7.3352931146
 30
0.0
  0
ENDBLK
  5
1CE
330
1CC
100
AcDbEntity
  8
0
100
AcDbBlockEnd
  0
BLOCK
  5
2FA
330
2F9
100
AcDbEntity
  8
0
100
AcDbBlockBegin
  2
*D2
 70
     1
 10
0.0
 20
0.0
 30
0.0
  3
*D2
  1

  0
LINE
  5
2FC
330
2F9
100
AcDbEntity
  8
2
 62
     0
370
    -2
100
AcDbLine
 10
49.97914485706216
 20
49.1635920953
 30
0.0
 11
49.97914485706216
 21
54.89665214351045
 31
0.0
  0
LINE
  5
2FD
330
2F9
100
AcDbEntity
  8
2
 62
     0
370
    -2
100
AcDbLine
 10
47.47914485706216
 20
53.64665214351045
 30
0.0
 11
23.05152594619382
 21
53.64665214351046
 31
0.0
  0
SOLID
  5
2FE
330
2F9
100
AcDbEntity
  8
2
 62
     0
100
AcDbTrace
 10
47.47914485706216
 20
53.22998547684379
 30
0.0
 11
47.47914485706216
 21
54.06331881017712
 31
0.0
 12
49.97914485706216
 22
53.64665214351045
 32
0.0
 13
49.97914485706216
 23
53.64665214351045
 33
0.0
  0
MTEXT
  5
2FF
330
2F9
100
AcDbEntity
  8
2
 62
     0
100
AcDbMText
 10
26.17652594619382
 20
55.52165214351045
 30
0.0
 40
2.5
 41
0.0
 46
0.0
 71
     5
 72
     1
  1
117
 73
     1
 44
1.0
  0
POINT
  5
300
330
2F9
100
AcDbEntity
  8
Defpoints
 62
     0
100
AcDbPoint
 10
-0.0000000000378435
 20
55.63968576959999
 30
0.0
  0
POINT
  5
301
330
2F9
100
AcDbEntity
  8
Defpoints
 62
     0
100
AcDbPoint
 10
49.97914485706216
 20
48.5385920953
 30
0.0
  0
POINT
  5
302
330
2F9
100
AcDbEntity
  8
Defpoints
 62
     0
100
AcDbPoint
 10
49.97914485706216
 20
53.64665214351045
 30
0.0
  0
ENDBLK
  5
2FB
330
2F9
100
AcDbEntity
  8
0
100
AcDbBlockEnd
  0
ENDSEC
  0
SECTION
  2
ENTITIES
  0
LINE
  5
79
330
1F
100
AcDbEntity
  8
SK3
100
AcDbLine
 10
39.488558188
 20
42.450446858
 30
0.0
 11
39.488558188
 21
-24.500000015
 31
0.0
  0
LINE
  5
7A
330
1F
100
AcDbEntity
  8
SK3
100
AcDbLine
 10
11.789489537
 20
-30.990000814
 30
0.0
 11
10.35188511
 21
-28.500000015
 31
0.0
  0
LINE
  5
7B
330
1F
100
AcDbEntity
  8
SK3
100
AcDbLine
 10
19.999999553
 20
-33.190000802
 30
0.0
 11
11.789489537
 21
-30.990000814
 31
0.0
  0
LINE
  5
7C
330
1F
100
AcDbEntity
  8
SK4
100
AcDbLine
 10
-7.9974291835
 20
8.649842464999999
 30
0.0
 11
4.0025708165
 21
8.649842464999999
 31
0.0
  0
LINE
  5
7D
330
1F
100
AcDbEntity
  8
SK4
100
AcDbLine
 10
27.0
 20
-35.83080654050001
 30
0.0
 11
27.0
 21
48.9574951406
 31
0.0
  0
LINE
  5
7E
330
1F
100
AcDbEntity
  8
SK4
100
AcDbLine
 10
33.9478679755
 20
15.499997884
 30
0.0
 11
19.500000402
 21
15.499997884
 31
0.0
  0
LINE
  5
7F
330
1F
100
AcDbEntity
  8
SK4
100
AcDbLine
 10
1.000000047
 20
0.0
 30
0.0
 11
-13.1172257331
 21
0.0
 31
0.0
  0
LINE
  5
80
330
1F
100
AcDbEntity
  8
SK4
100
AcDbLine
 10
-8.0629232403
 20
-8.750001117500005
 30
0.0
 11
3.9370767597
 21
-8.750001117500005
 31
0.0
  0
LINE
  5
81
330
1F
100
AcDbEntity
  8
SK4
100
AcDbLine
 10
-9.0629232403
 20
-26.1701084675
 30
0.0
 11
3.9370767597
 21
-26.1701084675
 31
0.0
  0
LINE
  5
82
330
1F
100
AcDbEntity
  8
SK4
100
AcDbLine
 10
-13.1172257331
 20
-35.0364536375
 30
0.0
 11
2.0713097956
 21
-35.0364536375
 31
0.0
  0
LINE
  5
83
330
1F
100
AcDbEntity
  8
1
100
AcDbLine
 10
16.368655488
 20
34.9769108
 30
0.0
 11
16.476862133
 21
34.739922732
 31
0.0
  0
LINE
  5
84
330
1F
100
AcDbEntity
  8
1
100
AcDbLine
 10
16.476862133
 20
34.739922732
 30
0.0
 11
16.499871388
 21
34.666445106
 31
0.0
  0
LINE
  5
85
330
1F
100
AcDbEntity
  8
1
100
AcDbLine
 10
16.499871388
 20
34.666445106
 30
0.0
 11
16.617970541
 21
34.41176935999999
 31
0.0
  0
LINE
  5
86
330
1F
100
AcDbEntity
  8
1
100
AcDbLine
 10
16.617970541
 20
34.41176935999999
 30
0.0
 11
16.658280045
 21
34.303698689
 31
0.0
  0
LINE
  5
87
330
1F
100
AcDbEntity
  8
1
100
AcDbLine
 10
16.658280045
 20
34.303698689
 30
0.0
 11
16.783865169
 21
34.03690084799999
 31
0.0
  0
LINE
  5
88
330
1F
100
AcDbEntity
  8
1
100
AcDbLine
 10
16.783865169
 20
34.03690084799999
 30
0.0
 11
16.838785261
 21
33.900339156
 31
0.0
  0
LINE
  5
89
330
1F
100
AcDbEntity
  8
1
100
AcDbLine
 10
16.838785261
 20
33.900339156
 30
0.0
 11
17.035590485
 21
33.469323069
 31
0.0
  0
LINE
  5
8A
330
1F
100
AcDbEntity
  8
1
100
AcDbLine
 10
17.035590485
 20
33.469323069
 30
0.0
 11
17.242366448
 21
33.024508506
 31
0.0
  0
LINE
  5
8B
330
1F
100
AcDbEntity
  8
1
100
AcDbLine
 10
17.242366448
 20
33.024508506
 30
0.0
 11
17.452469096
 21
32.58020058299999
 31
0.0
  0
LINE
  5
8C
330
1F
100
AcDbEntity
  8
1
100
AcDbLine
 10
17.452469096
 20
32.58020058299999
 30
0.0
 11
17.659144476
 21
32.15065971
 31
0.0
  0
LINE
  5
8D
330
1F
100
AcDbEntity
  8
1
100
AcDbLine
 10
17.659144476
 20
32.15065971
 30
0.0
 11
17.855752259
 21
31.749706715
 31
0.0
  0
LINE
  5
8E
330
1F
100
AcDbEntity
  8
1
100
AcDbLine
 10
17.855752259
 20
31.749706715
 30
0.0
 11
18.035970628
 21
31.390231103
 31
0.0
  0
LINE
  5
8F
330
1F
100
AcDbEntity
  8
1
100
AcDbLine
 10
18.035970628
 20
31.390231103
 30
0.0
 11
18.194008619
 21
31.083773822
 31
0.0
  0
LINE
  5
90
330
1F
100
AcDbEntity
  8
1
100
AcDbLine
 10
18.194008619
 20
31.083773822
 30
0.0
 11
18.324786797
 21
30.84019199
 31
0.0
  0
LINE
  5
91
330
1F
100
AcDbEntity
  8
1
100
AcDbLine
 10
18.324786797
 20
30.84019199
 30
0.0
 11
18.424101174
 21
30.667316169
 31
0.0
  0
LINE
  5
92
330
1F
100
AcDbEntity
  8
1
100
AcDbLine
 10
18.424101174
 20
30.667316169
 30
0.0
 11
18.488759175
 21
30.570697039
 31
0.0
  0
LINE
  5
93
330
1F
100
AcDbEntity
  8
1
100
AcDbLine
 10
18.488759175
 20
30.570697039
 30
0.0
 11
18.516683951
 21
30.553441495
 31
0.0
  0
LINE
  5
94
330
1F
100
AcDbEntity
  8
1
100
AcDbLine
 10
18.516683951
 20
30.553441495
 30
0.0
 11
18.506977707
 21
30.616108328
 31
0.0
  0
LINE
  5
95
330
1F
100
AcDbEntity
  8
1
100
AcDbLine
 10
18.506977707
 20
30.616108328
 30
0.0
 11
18.459951505
 21
30.756685883
 31
0.0
  0
LINE
  5
96
330
1F
100
AcDbEntity
  8
1
100
AcDbLine
 10
18.459951505
 20
30.756685883
 30
0.0
 11
18.377117813
 21
30.970644206
 31
0.0
  0
LINE
  5
97
330
1F
100
AcDbEntity
  8
1
100
AcDbLine
 10
18.377117813
 20
30.970644206
 30
0.0
 11
18.261140212
 21
31.251113862
 31
0.0
  0
LINE
  5
98
330
1F
100
AcDbEntity
  8
1
100
AcDbLine
 10
18.261140212
 20
31.251113862
 30
0.0
 11
18.115742132
 21
31.589079648
 31
0.0
  0
LINE
  5
99
330
1F
100
AcDbEntity
  8
1
100
AcDbLine
 10
18.115742132
 20
31.589079648
 30
0.0
 11
17.945600674
 21
31.973686069
 31
0.0
  0
LINE
  5
9A
330
1F
100
AcDbEntity
  8
1
100
AcDbLine
 10
17.945600674
 20
31.973686069
 30
0.0
 11
17.7561827
 21
32.39255771
 31
0.0
  0
LINE
  5
9B
330
1F
100
AcDbEntity
  8
1
100
AcDbLine
 10
17.7561827
 20
32.39255771
 30
0.0
 11
17.5535772
 21
32.832238823
 31
0.0
  0
LINE
  5
9C
330
1F
100
AcDbEntity
  8
1
100
AcDbLine
 10
17.5535772
 20
32.832238823
 30
0.0
 11
17.344295978
 21
33.27859565599999
 31
0.0
  0
LINE
  5
9D
330
1F
100
AcDbEntity
  8
1
100
AcDbLine
 10
17.344295978
 20
33.27859565599999
 30
0.0
 11
17.135063186
 21
33.717285842
 31
0.0
  0
LINE
  5
9E
330
1F
100
AcDbEntity
  8
1
100
AcDbLine
 10
17.135063186
 20
33.717285842
 30
0.0
 11
16.932606697
 21
34.134212881
 31
0.0
  0
LINE
  5
9F
330
1F
100
AcDbEntity
  8
1
100
AcDbLine
 10
16.932606697
 20
34.134212881
 30
0.0
 11
16.74343273
 21
34.51596573
 31
0.0
  0
LINE
  5
A0
330
1F
100
AcDbEntity
  8
1
100
AcDbLine
 10
16.74343273
 20
34.51596573
 30
0.0
 11
16.57362096
 21
34.85028073199999
 31
0.0
  0
LINE
  5
A1
330
1F
100
AcDbEntity
  8
1
100
AcDbLine
 10
16.57362096
 20
34.85028073199999
 30
0.0
 11
16.428628936
 21
35.126406699
 31
0.0
  0
LINE
  5
A2
330
1F
100
AcDbEntity
  8
1
100
AcDbLine
 10
16.428628936
 20
35.126406699
 30
0.0
 11
16.313116998
 21
35.335484892
 31
0.0
  0
LINE
  5
A3
330
1F
100
AcDbEntity
  8
1
100
AcDbLine
 10
16.313116998
 20
35.335484892
 30
0.0
 11
16.230799258
 21
35.47077253499999
 31
0.0
  0
LINE
  5
A4
330
1F
100
AcDbEntity
  8
1
100
AcDbLine
 10
16.230799258
 20
35.47077253499999
 30
0.0
 11
16.184320673
 21
35.527940839
 31
0.0
  0
LINE
  5
A5
330
1F
100
AcDbEntity
  8
1
100
AcDbLine
 10
16.184320673
 20
35.527940839
 30
0.0
 11
16.175175086
 21
35.50514206299999
 31
0.0
  0
LINE
  5
A6
330
1F
100
AcDbEntity
  8
1
100
AcDbLine
 10
16.175175086
 20
35.50514206299999
 30
0.0
 11
16.20365493
 21
35.403106362
 31
0.0
  0
LINE
  5
A7
330
1F
100
AcDbEntity
  8
1
100
AcDbLine
 10
16.20365493
 20
35.403106362
 30
0.0
 11
16.26884751
 21
35.225126892
 31
0.0
  0
LINE
  5
A8
330
1F
100
AcDbEntity
  8
1
100
AcDbLine
 10
16.26884751
 20
35.225126892
 30
0.0
 11
16.368655488
 21
34.9769108
 31
0.0
  0
LINE
  5
A9
330
1F
100
AcDbEntity
  8
1
100
AcDbLine
 10
14.511441812
 20
42.497780174
 30
0.0
 11
14.611291699
 21
42.484339327
 31
0.0
  0
LINE
  5
AA
330
1F
100
AcDbEntity
  8
1
100
AcDbLine
 10
14.611291699
 20
42.484339327
 30
0.0
 11
14.800698496
 21
42.45917126499999
 31
0.0
  0
LINE
  5
AB
330
1F
100
AcDbEntity
  8
1
100
AcDbLine
 10
14.800698496
 20
42.45917126499999
 30
0.0
 11
15.416557901
 21
42.37992689
 31
0.0
  0
LINE
  5
AC
330
1F
100
AcDbEntity
  8
1
100
AcDbLine
 10
15.416557901
 20
42.37992689
 30
0.0
 11
15.856698155
 21
42.32576862
 31
0.0
  0
LINE
  5
AD
330
1F
100
AcDbEntity
  8
1
100
AcDbLine
 10
15.856698155
 20
42.32576862
 30
0.0
 11
16.376374289
 21
42.26448759399999
 31
0.0
  0
LINE
  5
AE
330
1F
100
AcDbEntity
  8
1
100
AcDbLine
 10
16.376374289
 20
42.26448759399999
 30
0.0
 11
17.608441412
 21
42.130757123
 31
0.0
  0
LINE
  5
AF
330
1F
100
AcDbEntity
  8
1
100
AcDbLine
 10
17.608441412
 20
42.130757123
 30
0.0
 11
18.344430253
 21
42.058650404
 31
0.0
  0
LINE
  5
B0
330
1F
100
AcDbEntity
  8
1
100
AcDbLine
 10
18.344430253
 20
42.058650404
 30
0.0
 11
19.143002108
 21
41.986998171
 31
0.0
  0
LINE
  5
B1
330
1F
100
AcDbEntity
  8
1
100
AcDbLine
 10
19.143002108
 20
41.986998171
 30
0.0
 11
19.979652017
 21
41.919324547
 31
0.0
  0
LINE
  5
B2
330
1F
100
AcDbEntity
  8
1
100
AcDbLine
 10
19.979652017
 20
41.919324547
 30
0.0
 11
20.865127444
 21
41.85592755699999
 31
0.0
  0
LINE
  5
B3
330
1F
100
AcDbEntity
  8
1
100
AcDbLine
 10
20.865127444
 20
41.85592755699999
 30
0.0
 11
21.821284667
 21
41.797045618
 31
0.0
  0
LINE
  5
B4
330
1F
100
AcDbEntity
  8
1
100
AcDbLine
 10
21.821284667
 20
41.797045618
 30
0.0
 11
22.815840319
 21
41.746292263
 31
0.0
  0
LINE
  5
B5
330
1F
100
AcDbEntity
  8
1
100
AcDbLine
 10
22.815840319
 20
41.746292263
 30
0.0
 11
23.808935657
 21
41.706386954
 31
0.0
  0
LINE
  5
B6
330
1F
100
AcDbEntity
  8
1
100
AcDbLine
 10
23.808935657
 20
41.706386954
 30
0.0
 11
24.824371561
 21
41.676651686
 31
0.0
  0
LINE
  5
B7
330
1F
100
AcDbEntity
  8
1
100
AcDbLine
 10
24.824371561
 20
41.676651686
 30
0.0
 11
25.885747746
 21
41.657630354
 31
0.0
  0
LINE
  5
B8
330
1F
100
AcDbEntity
  8
1
100
AcDbLine
 10
25.885747746
 20
41.657630354
 30
0.0
 11
26.955422014
 21
41.650842875
 31
0.0
  0
LINE
  5
B9
330
1F
100
AcDbEntity
  8
1
100
AcDbLine
 10
26.955422014
 20
41.650842875
 30
0.0
 11
29.010813683
 21
41.672889143
 31
0.0
  0
LINE
  5
BA
330
1F
100
AcDbEntity
  8
1
100
AcDbLine
 10
29.010813683
 20
41.672889143
 30
0.0
 11
30.050283298
 21
41.70159623
 31
0.0
  0
LINE
  5
BB
330
1F
100
AcDbEntity
  8
1
100
AcDbLine
 10
30.050283298
 20
41.70159623
 30
0.0
 11
31.06749244
 21
41.741047055
 31
0.0
  0
LINE
  5
BC
330
1F
100
AcDbEntity
  8
1
100
AcDbLine
 10
31.06749244
 20
41.741047055
 30
0.0
 11
32.952655107
 21
41.843939573
 31
0.0
  0
LINE
  5
BD
330
1F
100
AcDbEntity
  8
1
100
AcDbLine
 10
32.952655107
 20
41.843939573
 30
0.0
 11
33.861920237
 21
41.907358915
 31
0.0
  0
LINE
  5
BE
330
1F
100
AcDbEntity
  8
1
100
AcDbLine
 10
33.861920237
 20
41.907358915
 30
0.0
 11
34.721814096
 21
41.975546628
 31
0.0
  0
LINE
  5
BF
330
1F
100
AcDbEntity
  8
1
100
AcDbLine
 10
34.721814096
 20
41.975546628
 30
0.0
 11
36.240585148
 21
42.115490884
 31
0.0
  0
LINE
  5
C0
330
1F
100
AcDbEntity
  8
1
100
AcDbLine
 10
36.240585148
 20
42.115490884
 30
0.0
 11
36.925293505
 21
42.186696082
 31
0.0
  0
LINE
  5
C1
330
1F
100
AcDbEntity
  8
1
100
AcDbLine
 10
36.925293505
 20
42.186696082
 30
0.0
 11
37.537943572
 21
42.254667729
 31
0.0
  0
LINE
  5
C2
330
1F
100
AcDbEntity
  8
1
100
AcDbLine
 10
37.537943572
 20
42.254667729
 30
0.0
 11
38.426700979
 21
42.360406369
 31
0.0
  0
LINE
  5
C3
330
1F
100
AcDbEntity
  8
1
100
AcDbLine
 10
38.426700979
 20
42.360406369
 30
0.0
 11
39.070189137
 21
42.442221433
 31
0.0
  0
LINE
  5
C4
330
1F
100
AcDbEntity
  8
1
100
AcDbLine
 10
41.000001133
 20
42.474899441
 30
0.0
 11
41.000001133
 21
40.88490083799999
 31
0.0
  0
LINE
  5
C5
330
1F
100
AcDbEntity
  8
1
100
AcDbLine
 10
43.2649403813
 20
38.80173340469999
 30
0.0
 11
45.5000000002
 21
37.10623004919999
 31
0.0
  0
LINE
  5
C6
330
1F
100
AcDbEntity
  8
1
100
AcDbLine
 10
46.0
 20
36.878239116
 30
0.0
 11
46.000000089
 21
39.247360081
 31
0.0
  0
LINE
  5
C7
330
1F
100
AcDbEntity
  8
1
100
AcDbLine
 10
46.000000089
 20
39.247360081
 30
0.0
 11
45.608177781
 21
39.50182720999999
 31
0.0
  0
LINE
  5
C8
330
1F
100
AcDbEntity
  8
1
100
AcDbLine
 10
45.608177781
 20
39.50182720999999
 30
0.0
 11
43.00000146
 21
41.195701808
 31
0.0
  0
LINE
  5
C9
330
1F
100
AcDbEntity
  8
1
100
AcDbLine
 10
43.00000146
 20
41.195701808
 30
0.0
 11
41.000001133
 21
42.474899441
 31
0.0
  0
LINE
  5
CA
330
1F
100
AcDbEntity
  8
1
100
AcDbLine
 10
20.5646810099
 20
27.3471436317
 30
0.0
 11
23.94542869
 21
30.183927762
 31
0.0
  0
LINE
  5
CB
330
1F
100
AcDbEntity
  8
1
100
AcDbLine
 10
31.898271292
 20
38.801733404
 30
0.0
 11
32.087888569
 21
39.207983762
 31
0.0
  0
LINE
  5
CC
330
1F
100
AcDbEntity
  8
1
100
AcDbLine
 10
32.087888569
 20
39.207983762
 30
0.0
 11
32.149635255
 21
39.56676647099999
 31
0.0
  0
LINE
  5
CD
330
1F
100
AcDbEntity
  8
1
100
AcDbLine
 10
32.149635255
 20
39.56676647099999
 30
0.0
 11
32.059036195
 21
39.918798953
 31
0.0
  0
LINE
  5
CE
330
1F
100
AcDbEntity
  8
1
100
AcDbLine
 10
32.059036195
 20
39.918798953
 30
0.0
 11
31.815696508
 21
40.191989392
 31
0.0
  0
LINE
  5
CF
330
1F
100
AcDbEntity
  8
1
100
AcDbLine
 10
31.815696508
 20
40.191989392
 30
0.0
 11
31.452648342
 21
40.398966521
 31
0.0
  0
LINE
  5
D0
330
1F
100
AcDbEntity
  8
1
100
AcDbLine
 10
31.452648342
 20
40.398966521
 30
0.0
 11
31.026467681
 21
40.544960648
 31
0.0
  0
LINE
  5
D1
330
1F
100
AcDbEntity
  8
1
100
AcDbLine
 10
31.026467681
 20
40.544960648
 30
0.0
 11
30.100233853
 21
40.723536164
 31
0.0
  0
LINE
  5
D2
330
1F
100
AcDbEntity
  8
1
100
AcDbLine
 10
30.100233853
 20
40.723536164
 30
0.0
 11
28.953827918
 21
40.832597762
 31
0.0
  0
LINE
  5
D3
330
1F
100
AcDbEntity
  8
1
100
AcDbLine
 10
28.953827918
 20
40.832597762
 30
0.0
 11
27.772337198
 21
40.88490083799999
 31
0.0
  0
LINE
  5
D4
330
1F
100
AcDbEntity
  8
1
100
AcDbLine
 10
27.772337198
 20
40.88490083799999
 30
0.0
 11
26.424927637
 21
40.914859623
 31
0.0
  0
LINE
  5
D5
330
1F
100
AcDbEntity
  8
1
100
AcDbLine
 10
26.424927637
 20
40.914859623
 30
0.0
 11
25.077518076
 21
40.924418718
 31
0.0
  0
LINE
  5
D6
330
1F
100
AcDbEntity
  8
1
100
AcDbLine
 10
25.077518076
 20
40.924418718
 30
0.0
 11
1.000000047
 21
40.924418718
 31
0.0
  0
LINE
  5
D7
330
1F
100
AcDbEntity
  8
1
100
AcDbLine
 10
1.000000047
 20
40.924418718
 30
0.0
 11
-0.0000000005
 21
39.9244186705
 31
0.0
  0
LINE
  5
D8
330
1F
100
AcDbEntity
  8
1
100
AcDbLine
 10
37.473760545
 20
44.999998063
 30
0.0
 11
32.481387258
 21
44.996533543
 31
0.0
  0
LINE
  5
D9
330
1F
100
AcDbEntity
  8
1
100
AcDbLine
 10
32.481387258
 20
44.996533543
 30
0.0
 11
32.468128949
 21
44.99407485099999
 31
0.0
  0
LINE
  5
DA
330
1F
100
AcDbEntity
  8
1
100
AcDbLine
 10
32.468128949
 20
44.99407485099999
 30
0.0
 11
32.298885286
 21
44.963162392
 31
0.0
  0
LINE
  5
DB
330
1F
100
AcDbEntity
  8
1
100
AcDbLine
 10
32.298885286
 20
44.963162392
 30
0.0
 11
31.97773546
 21
44.90710422399999
 31
0.0
  0
LINE
  5
DC
330
1F
100
AcDbEntity
  8
1
100
AcDbLine
 10
31.97773546
 20
44.90710422399999
 30
0.0
 11
31.528729945
 21
44.834438711
 31
0.0
  0
LINE
  5
DD
330
1F
100
AcDbEntity
  8
1
100
AcDbLine
 10
31.528729945
 20
44.834438711
 30
0.0
 11
30.940948054
 21
44.74946483999999
 31
0.0
  0
LINE
  5
DE
330
1F
100
AcDbEntity
  8
1
100
AcDbLine
 10
30.940948054
 20
44.74946483999999
 30
0.0
 11
30.251229182
 21
44.664543122
 31
0.0
  0
LINE
  5
DF
330
1F
100
AcDbEntity
  8
1
100
AcDbLine
 10
30.251229182
 20
44.664543122
 30
0.0
 11
29.447358102
 21
44.585902244
 31
0.0
  0
LINE
  5
E0
330
1F
100
AcDbEntity
  8
1
100
AcDbLine
 10
29.447358102
 20
44.585902244
 30
0.0
 11
28.594994917
 21
44.526610523
 31
0.0
  0
LINE
  5
E1
330
1F
100
AcDbEntity
  8
1
100
AcDbLine
 10
28.594994917
 20
44.526610523
 30
0.0
 11
27.669757605
 21
44.490490109
 31
0.0
  0
LINE
  5
E2
330
1F
100
AcDbEntity
  8
1
100
AcDbLine
 10
27.669757605
 20
44.490490109
 30
0.0
 11
26.765197515
 21
44.48370263
 31
0.0
  0
LINE
  5
E3
330
1F
100
AcDbEntity
  8
1
100
AcDbLine
 10
26.765197515
 20
44.48370263
 30
0.0
 11
25.841023773
 21
44.50591281099999
 31
0.0
  0
LINE
  5
E4
330
1F
100
AcDbEntity
  8
1
100
AcDbLine
 10
25.841023773
 20
44.50591281099999
 30
0.0
 11
24.982322007
 21
44.552896172
 31
0.0
  0
LINE
  5
E5
330
1F
100
AcDbEntity
  8
1
100
AcDbLine
 10
24.982322007
 20
44.552896172
 30
0.0
 11
24.15653877
 21
44.62190344899999
 31
0.0
  0
LINE
  5
E6
330
1F
100
AcDbEntity
  8
1
100
AcDbLine
 10
24.15653877
 20
44.62190344899999
 30
0.0
 11
23.422822356
 21
44.70267519399999
 31
0.0
  0
LINE
  5
E7
330
1F
100
AcDbEntity
  8
1
100
AcDbLine
 10
23.422822356
 20
44.70267519399999
 30
0.0
 11
22.769801319
 21
44.789839536
 31
0.0
  0
LINE
  5
E8
330
1F
100
AcDbEntity
  8
1
100
AcDbLine
 10
22.769801319
 20
44.789839536
 30
0.0
 11
22.244662046
 21
44.870276004
 31
0.0
  0
LINE
  5
E9
330
1F
100
AcDbEntity
  8
1
100
AcDbLine
 10
22.244662046
 20
44.870276004
 30
0.0
 11
21.841838956
 21
44.938180596
 31
0.0
  0
LINE
  5
EA
330
1F
100
AcDbEntity
  8
1
100
AcDbLine
 10
21.841838956
 20
44.938180596
 30
0.0
 11
21.596927196
 21
44.98207941699999
 31
0.0
  0
LINE
  5
EB
330
1F
100
AcDbEntity
  8
1
100
AcDbLine
 10
21.596927196
 20
44.98207941699999
 30
0.0
 11
21.506689489
 21
44.999998063
 31
0.0
  0
LINE
  5
EC
330
1F
100
AcDbEntity
  8
1
100
AcDbLine
 10
21.506689489
 20
44.999998063
 30
0.0
 11
16.031501815
 21
44.999998063
 31
0.0
  0
LINE
  5
ED
330
1F
100
AcDbEntity
  8
1
100
AcDbLine
 10
8.7133496999
 20
40.84872081899999
 30
0.0
 11
9.207944386
 21
40.259283036
 31
0.0
  0
LINE
  5
EE
330
1F
100
AcDbEntity
  8
1
100
AcDbLine
 10
9.207944386
 20
40.259283036
 30
0.0
 11
9.776826017
 21
39.581317455
 31
0.0
  0
LINE
  5
EF
330
1F
100
AcDbEntity
  8
1
100
AcDbLine
 10
9.776826017
 20
39.581317455
 30
0.0
 11
10.419437662
 21
38.815487176
 31
0.0
  0
LINE
  5
F0
330
1F
100
AcDbEntity
  8
1
100
AcDbLine
 10
10.419437662
 20
38.815487176
 30
0.0
 11
11.135147885
 21
37.962529808
 31
0.0
  0
LINE
  5
F1
330
1F
100
AcDbEntity
  8
1
100
AcDbLine
 10
11.135147885
 20
37.962529808
 30
0.0
 11
11.923254468
 21
37.023302168
 31
0.0
  0
LINE
  5
F2
330
1F
100
AcDbEntity
  8
1
100
AcDbLine
 10
11.923254468
 20
37.023302168
 30
0.0
 11
12.106836773
 21
36.804515868
 31
0.0
  0
LINE
  5
F3
330
1F
100
AcDbEntity
  8
1
100
AcDbLine
 10
12.106836773
 20
36.804515868
 30
0.0
 11
12.34542951
 21
36.52017190999999
 31
0.0
  0
LINE
  5
F4
330
1F
100
AcDbEntity
  8
1
100
AcDbLine
 10
12.34542951
 20
36.52017190999999
 30
0.0
 11
12.634619139
 21
36.175530404
 31
0.0
  0
LINE
  5
F5
330
1F
100
AcDbEntity
  8
1
100
AcDbLine
 10
12.634619139
 20
36.175530404
 30
0.0
 11
12.969057076
 21
35.776969045
 31
0.0
  0
LINE
  5
F6
330
1F
100
AcDbEntity
  8
1
100
AcDbLine
 10
12.969057076
 20
35.776969045
 30
0.0
 11
13.342556544
 21
35.331849009
 31
0.0
  0
LINE
  5
F7
330
1F
100
AcDbEntity
  8
1
100
AcDbLine
 10
13.342556544
 20
35.331849009
 30
0.0
 11
13.748209923
 21
34.848403186
 31
0.0
  0
LINE
  5
F8
330
1F
100
AcDbEntity
  8
1
100
AcDbLine
 10
13.748209923
 20
34.848403186
 30
0.0
 11
14.178514481
 21
34.335587174
 31
0.0
  0
LINE
  5
F9
330
1F
100
AcDbEntity
  8
1
100
AcDbLine
 10
14.178514481
 20
34.335587174
 30
0.0
 11
14.625510201
 21
33.80287811199999
 31
0.0
  0
LINE
  5
FA
330
1F
100
AcDbEntity
  8
1
100
AcDbLine
 10
14.625510201
 20
33.80287811199999
 30
0.0
 11
15.080928802
 21
33.260133117
 31
0.0
  0
LINE
  5
FB
330
1F
100
AcDbEntity
  8
1
100
AcDbLine
 10
15.080928802
 20
33.260133117
 30
0.0
 11
19.500000402
 21
27.993690223
 31
0.0
  0
LINE
  5
FC
330
1F
100
AcDbEntity
  8
1
100
AcDbLine
 10
19.500000402
 20
27.993690223
 30
0.0
 11
19.999999553
 21
27.397815138
 31
0.0
  0
LINE
  5
FE
330
1F
100
AcDbEntity
  8
1
100
AcDbLine
 10
19.999999553
 20
27.397815138
 30
0.0
 11
19.999999553
 21
-43.25000057
 31
0.0
  0
LINE
  5
FF
330
1F
100
AcDbEntity
  8
1
100
AcDbLine
 10
19.999999553
 20
-43.25000057
 30
0.0
 11
19.500000402
 21
-43.750000652
 31
0.0
  0
LINE
  5
100
330
1F
100
AcDbEntity
  8
1
100
AcDbLine
 10
19.500000402
 20
-43.750000652
 30
0.0
 11
1.000000047
 21
-43.750000652
 31
0.0
  0
LINE
  5
101
330
1F
100
AcDbEntity
  8
1
100
AcDbLine
 10
1.000000047
 20
-43.750000652
 30
0.0
 11
1.000000047
 21
42.50000044700001
 31
0.0
  0
LINE
  5
106
330
1F
100
AcDbEntity
  8
1
100
AcDbLine
 10
1.000000047
 20
42.500000447
 30
0.0
 11
14.531604946
 21
42.500000447
 31
0.0
  0
LINE
  5
108
330
1F
100
AcDbEntity
  8
1
100
AcDbLine
 10
46.000000089
 20
-7.454305887000004
 30
0.0
 11
45.5
 21
-7.152006707000005
 31
0.0
  0
LINE
  5
109
330
1F
100
AcDbEntity
  8
1
100
AcDbLine
 10
43.451871723
 20
-7.517542690000006
 30
0.0
 11
32.177007787
 21
-9.217356021
 31
0.0
  0
LINE
  5
10A
330
1F
100
AcDbEntity
  8
1
100
AcDbLine
 10
29.0
 20
-11.09674126300001
 30
0.0
 11
29.0
 21
-23.914846119
 31
0.0
  0
LINE
  5
10B
330
1F
100
AcDbEntity
  8
1
100
AcDbLine
 10
32.177008688
 20
-25.794232264
 30
0.0
 11
40.942076594
 21
-27.11566537600001
 31
0.0
  0
LINE
  5
10C
330
1F
100
AcDbEntity
  8
1
100
AcDbLine
 10
40.942076594
 20
-27.11566537600001
 30
0.0
 11
45.499999076
 21
-22.98703789700001
 31
0.0
  0
LINE
  5
10D
330
1F
100
AcDbEntity
  8
1
100
AcDbLine
 10
45.499999076
 20
-22.98703789700001
 30
0.0
 11
46.000000089
 21
-22.51563407500001
 31
0.0
  0
LINE
  5
10F
330
1F
100
AcDbEntity
  8
1
100
AcDbLine
 10
48.01728949
 20
48.25421795299999
 30
0.0
 11
47.925170511
 21
48.435013741
 31
0.0
  0
LINE
  5
110
330
1F
100
AcDbEntity
  8
1
100
AcDbLine
 10
47.925170511
 20
48.435013741
 30
0.0
 11
41.820436716
 21
47.358583659
 31
0.0
  0
LINE
  5
111
330
1F
100
AcDbEntity
  8
1
100
AcDbLine
 10
41.820436716
 20
47.358583659
 30
0.0
 11
39.194490761
 21
46.895552427
 31
0.0
  0
LINE
  5
112
330
1F
100
AcDbEntity
  8
1
100
AcDbLine
 10
39.194490761
 20
46.895552427
 30
0.0
 11
38.495067507
 21
45.684110373
 31
0.0
  0
LINE
  5
113
330
1F
100
AcDbEntity
  8
1
100
AcDbLine
 10
38.495067507
 20
45.684110373
 30
0.0
 11
38.100000471
 21
44.9998267
 31
0.0
  0
LINE
  5
114
330
1F
100
AcDbEntity
  8
1
100
AcDbLine
 10
38.100000471
 20
44.9998267
 30
0.0
 11
37.500586204
 21
44.99982976299999
 31
0.0
  0
LINE
  5
115
330
1F
100
AcDbEntity
  8
SK1
100
AcDbLine
 10
0.0
 20
-4.750002176000002
 30
0.0
 11
-4.5
 21
-4.750000745000001
 31
0.0
  0
LINE
  5
116
330
1F
100
AcDbEntity
  8
SK1
100
AcDbLine
 10
-6.0
 20
-6.250001490100004
 30
0.0
 11
-6.0
 21
-11.250000745
 31
0.0
  0
LINE
  5
117
330
1F
100
AcDbEntity
  8
SK1
100
AcDbLine
 10
-4.4999998063
 20
-12.750000745
 30
0.0
 11
0.0
 21
-12.749999762
 31
0.0
  0
LINE
  5
118
330
1F
100
AcDbEntity
  8
SK1
100
AcDbLine
 10
0.0
 20
12.749996036
 30
0.0
 11
-4.5
 21
12.749999255
 31
0.0
  0
LINE
  5
119
330
1F
100
AcDbEntity
  8
SK1
100
AcDbLine
 10
-6.0
 20
11.250000447
 30
0.0
 11
-6.0
 21
6.249999254999999
 31
0.0
  0
LINE
  5
11A
330
1F
100
AcDbEntity
  8
SK1
100
AcDbLine
 10
-4.4999998063
 20
4.749999254999999
 30
0.0
 11
0.0
 21
4.74999845
 31
0.0
  0
LINE
  5
11B
330
1F
100
AcDbEntity
  8
SK1
100
AcDbLine
 10
0.0
 20
-22.250000387
 30
0.0
 11
-4.5
 21
-22.25000074500001
 31
0.0
  0
LINE
  5
11C
330
1F
100
AcDbEntity
  8
SK1
100
AcDbLine
 10
-6.0
 20
-23.7500015646
 30
0.0
 11
-6.0
 21
-28.75000074500001
 31
0.0
  0
LINE
  5
11D
330
1F
100
AcDbEntity
  8
SK1
100
AcDbLine
 10
-4.4999998063
 20
-30.25000074500001
 30
0.0
 11
0.0
 21
-30.249999836
 31
0.0
  0
LINE
  5
11E
330
1F
100
AcDbEntity
  8
1
100
AcDbLine
 10
33.5
 20
9.499999254999999
 30
0.0
 11
33.5
 21
21.521205482
 31
0.0
  0
LINE
  5
11F
330
1F
100
AcDbEntity
  8
1
100
AcDbLine
 10
34.591119736
 20
23.368198425
 30
0.0
 11
45.499999076
 21
32.048363239
 31
0.0
  0
LINE
  5
120
330
1F
100
AcDbEntity
  8
1
100
AcDbLine
 10
45.499999076
 20
32.048363239
 30
0.0
 11
46.000000089
 21
31.926009804
 31
0.0
  0
LINE
  5
122
330
1F
100
AcDbEntity
  8
1
100
AcDbLine
 10
46.000000089
 20
8.204821496999998
 30
0.0
 11
45.5
 21
7.812787735000001
 31
0.0
  0
LINE
  5
123
330
1F
100
AcDbEntity
  8
1
100
AcDbLine
 10
41.3461923599
 20
7.999997585499997
 30
0.0
 11
37.1213203439
 21
7.999999254499997
 31
0.0
  0
LINE
  5
124
330
1F
100
AcDbEntity
  8
1
100
AcDbLine
 10
37.1213203439
 20
7.999999254499997
 30
0.0
 11
20.3999999999
 21
7.999999254499997
 31
0.0
  0
LINE
  5
125
330
1F
100
AcDbEntity
  8
1
100
AcDbLine
 10
1.000000047
 20
42.500000447
 30
0.0
 11
0.0
 21
41.499998421
 31
0.0
  0
LINE
  5
129
330
1F
100
AcDbEntity
  8
1
100
AcDbLine
 10
0.0
 20
41.499998421
 30
0.0
 11
0.0
 21
-42.750000954
 31
0.0
  0
LINE
  5
12A
330
1F
100
AcDbEntity
  8
1
100
AcDbLine
 10
0.0
 20
-42.750000954
 30
0.0
 11
1.000000047
 21
-43.750000652
 31
0.0
  0
LINE
  5
12B
330
1F
100
AcDbEntity
  8
1
100
AcDbLine
 10
20.00768669
 20
23.51686731
 30
0.0
 11
20.030448213
 21
23.48221466
 31
0.0
  0
LINE
  5
12C
330
1F
100
AcDbEntity
  8
1
100
AcDbLine
 10
20.030448213
 20
23.48221466
 30
0.0
 11
20.067412406
 21
23.450288922
 31
0.0
  0
LINE
  5
12D
330
1F
100
AcDbEntity
  8
1
100
AcDbLine
 10
20.067412406
 20
23.450288922
 30
0.0
 11
20.11715807
 21
23.42229709
 31
0.0
  0
LINE
  5
12E
330
1F
100
AcDbEntity
  8
1
100
AcDbLine
 10
20.11715807
 20
23.42229709
 30
0.0
 11
20.177772269
 21
23.39932695
 31
0.0
  0
LINE
  5
12F
330
1F
100
AcDbEntity
  8
1
100
AcDbLine
 10
20.177772269
 20
23.39932695
 30
0.0
 11
20.246926695
 21
23.38225767
 31
0.0
  0
LINE
  5
130
330
1F
100
AcDbEntity
  8
1
100
AcDbLine
 10
20.246926695
 20
23.38225767
 30
0.0
 11
20.321963355
 21
23.371752352
 31
0.0
  0
LINE
  5
131
330
1F
100
AcDbEntity
  8
1
100
AcDbLine
 10
20.321963355
 20
23.371752352
 30
0.0
 11
20.400000736
 21
23.368198425
 31
0.0
  0
LINE
  5
132
330
1F
100
AcDbEntity
  8
1
100
AcDbLine
 10
20.400000736
 20
23.368198425
 30
0.0
 11
34.591119736
 21
23.368198425
 31
0.0
  0
LINE
  5
133
330
1F
100
AcDbEntity
  8
1
100
AcDbLine
 10
18.110519275
 20
31.26173839
 30
0.0
 11
18.244842067
 21
31.008597463
 31
0.0
  0
LINE
  5
134
330
1F
100
AcDbEntity
  8
1
100
AcDbLine
 10
18.244842067
 20
31.008597463
 30
0.0
 11
18.348550424
 21
30.824627727
 31
0.0
  0
LINE
  5
135
330
1F
100
AcDbEntity
  8
1
100
AcDbLine
 10
18.348550424
 20
30.824627727
 30
0.0
 11
18.41811277
 21
30.71610257
 31
0.0
  0
LINE
  5
136
330
1F
100
AcDbEntity
  8
1
100
AcDbLine
 10
18.41811277
 20
30.71610257
 30
0.0
 11
18.451161683
 21
30.68671748
 31
0.0
  0
LINE
  5
137
330
1F
100
AcDbEntity
  8
1
100
AcDbLine
 10
18.451161683
 20
30.68671748
 30
0.0
 11
18.446572125
 21
30.737470836
 31
0.0
  0
LINE
  5
138
330
1F
100
AcDbEntity
  8
1
100
AcDbLine
 10
18.446572125
 20
30.737470836
 30
0.0
 11
18.404496834
 21
30.866634101
 31
0.0
  0
LINE
  5
139
330
1F
100
AcDbEntity
  8
1
100
AcDbLine
 10
18.404496834
 20
30.866634101
 30
0.0
 11
18.326371908
 21
31.069803983
 31
0.0
  0
LINE
  5
13A
330
1F
100
AcDbEntity
  8
1
100
AcDbLine
 10
16.36534743
 20
35.010185093
 30
0.0
 11
16.287222505
 21
35.213362426
 31
0.0
  0
LINE
  5
13B
330
1F
100
AcDbEntity
  8
1
100
AcDbLine
 10
16.287222505
 20
35.213362426
 30
0.0
 11
16.245147213
 21
35.342525691
 31
0.0
  0
LINE
  5
13C
330
1F
100
AcDbEntity
  8
1
100
AcDbLine
 10
16.245147213
 20
35.342525691
 30
0.0
 11
16.240557656
 21
35.39327159499999
 31
0.0
  0
LINE
  5
13D
330
1F
100
AcDbEntity
  8
1
100
AcDbLine
 10
16.240557656
 20
35.39327159499999
 30
0.0
 11
16.273606569
 21
35.363886505
 31
0.0
  0
LINE
  5
13E
330
1F
100
AcDbEntity
  8
1
100
AcDbLine
 10
16.273606569
 20
35.363886505
 30
0.0
 11
16.343168914
 21
35.25536134799999
 31
0.0
  0
LINE
  5
13F
330
1F
100
AcDbEntity
  8
1
100
AcDbLine
 10
16.343168914
 20
35.25536134799999
 30
0.0
 11
16.446877271
 21
35.071399063
 31
0.0
  0
LINE
  5
140
330
1F
100
AcDbEntity
  8
1
100
AcDbLine
 10
28.443375602
 20
13.00000026799999
 30
0.0
 11
29.886750504
 21
15.4999984635
 31
0.0
  0
LINE
  5
141
330
1F
100
AcDbEntity
  8
1
100
AcDbLine
 10
29.886750504
 20
15.4999984635
 30
0.0
 11
28.443375602
 21
18.00000295
 31
0.0
  0
LINE
  5
142
330
1F
100
AcDbEntity
  8
1
100
AcDbLine
 10
28.443375602
 20
18.00000295
 30
0.0
 11
25.556623936
 21
18.00000295
 31
0.0
  0
LINE
  5
143
330
1F
100
AcDbEntity
  8
1
100
AcDbLine
 10
25.556623936
 20
18.00000295
 30
0.0
 11
24.113249034
 21
15.499997884
 31
0.0
  0
LINE
  5
144
330
1F
100
AcDbEntity
  8
1
100
AcDbLine
 10
24.113249034
 20
15.499997884
 30
0.0
 11
25.556623936
 21
13.00000026799999
 31
0.0
  0
LINE
  5
145
330
1F
100
AcDbEntity
  8
1
100
AcDbLine
 10
25.556623936
 20
13.00000026799999
 30
0.0
 11
28.443375602
 21
13.00000026799999
 31
0.0
  0
LINE
  5
146
330
1F
100
AcDbEntity
  8
SK1
100
AcDbLine
 10
0.0000000005
 20
-31.0000013555
 30
0.0
 11
-11.5999998525
 21
-31.0000013555
 31
0.0
  0
LINE
  5
147
330
1F
100
AcDbEntity
  8
SK1
100
AcDbLine
 10
-11.5999998525
 20
-31.0000013555
 30
0.0
 11
-12.500000186
 21
-31.899999827
 31
0.0
  0
LINE
  5
149
330
1F
100
AcDbEntity
  8
SK1
100
AcDbLine
 10
-12.500000186
 20
-31.899999827
 30
0.0
 11
-12.500000186
 21
-38.100000471
 31
0.0
  0
LINE
  5
14A
330
1F
100
AcDbEntity
  8
SK1
100
AcDbLine
 10
-12.500000186
 20
-38.100000471
 30
0.0
 11
-11.5999998525
 21
-39.0000008045
 31
0.0
  0
LINE
  5
14B
330
1F
100
AcDbEntity
  8
SK1
100
AcDbLine
 10
-11.5999998525
 20
-39.0000008045
 30
0.0
 11
0.0000000005
 21
-39.0000008045
 31
0.0
  0
LINE
  5
14C
330
1F
100
AcDbEntity
  8
SK1
100
AcDbLine
 10
0.0000000005
 20
4.000000656499999
 30
0.0
 11
-11.5999998525
 21
4.000000656499999
 31
0.0
  0
LINE
  5
14D
330
1F
100
AcDbEntity
  8
SK1
100
AcDbLine
 10
-11.5999998525
 20
4.000000656499999
 30
0.0
 11
-12.500000186
 21
3.100000322
 31
0.0
  0
LINE
  5
14F
330
1F
100
AcDbEntity
  8
SK1
100
AcDbLine
 10
-12.500000186
 20
3.100000322
 30
0.0
 11
-12.500000186
 21
-3.100000322
 31
0.0
  0
LINE
  5
150
330
1F
100
AcDbEntity
  8
SK1
100
AcDbLine
 10
-12.500000186
 20
-3.100000322
 30
0.0
 11
-11.5999998525
 21
-4.000000655500003
 31
0.0
  0
LINE
  5
151
330
1F
100
AcDbEntity
  8
SK1
100
AcDbLine
 10
-11.5999998525
 20
-4.000000655500003
 30
0.0
 11
0.0000000005
 21
-4.000000655500003
 31
0.0
  0
LINE
  5
152
330
1F
100
AcDbEntity
  8
1
100
AcDbLine
 10
20.4000007362
 20
-9.2173553999
 30
0.0
 11
32.177007787
 21
-9.217356021
 31
0.0
  0
LINE
  5
153
330
1F
100
AcDbEntity
  8
1
100
AcDbLine
 10
19.999999553
 20
-28.500000015
 30
0.0
 11
45.499999076
 21
-28.500000015
 31
0.0
  0
LINE
  5
154
330
1F
100
AcDbEntity
  8
1
100
AcDbLine
 10
45.499999076
 20
-28.500000015
 30
0.0
 11
46.000000089
 21
-28.000000864
 31
0.0
  0
LINE
  5
155
330
1F
100
AcDbEntity
  8
1
100
AcDbLine
 10
46.000000089
 20
-28.000000864
 30
0.0
 11
46.000000089
 21
31.926009804
 31
0.0
  0
LINE
  5
157
330
1F
100
AcDbEntity
  8
1
100
AcDbLine
 10
32.177008688
 20
-25.794232264
 30
0.0
 11
20.400000736
 21
-25.794232264
 31
0.0
  0
LINE
  5
158
330
1F
100
AcDbEntity
  8
1
100
AcDbLine
 10
1.000000047
 20
0.0
 30
0.0
 11
4.999999888
 21
-1.000002026000004
 31
0.0
  0
LINE
  5
159
330
1F
100
AcDbEntity
  8
1
100
AcDbLine
 10
4.999999888
 20
-1.000002026000004
 30
0.0
 11
4.999999888
 21
0.999998300999998
 31
0.0
  0
LINE
  5
15A
330
1F
100
AcDbEntity
  8
1
100
AcDbLine
 10
4.999999888
 20
0.999998300999998
 30
0.0
 11
1.000000047
 21
0.0
 31
0.0
  0
LINE
  5
15B
330
1F
100
AcDbEntity
  8
1
100
AcDbLine
 10
19.999999553
 20
-33.190000802
 30
0.0
 11
34.5672234
 21
-33.190000802
 31
0.0
  0
LINE
  5
15C
330
1F
100
AcDbEntity
  8
1
100
AcDbLine
 10
34.5672234
 20
-33.190000802
 30
0.0
 11
42.777733415
 21
-30.990000814
 31
0.0
  0
LINE
  5
15D
330
1F
100
AcDbEntity
  8
1
100
AcDbLine
 10
42.777733415
 20
-30.990000814
 30
0.0
 11
44.215337843
 21
-28.500000015
 31
0.0
  0
LINE
  5
15E
330
1F
100
AcDbEntity
  8
1
100
AcDbLine
 10
49.475498286
 20
38.980450895
 30
0.0
 11
49.978596699
 21
48.580158248
 31
0.0
  0
LINE
  5
161
330
1F
100
AcDbEntity
  8
1
100
AcDbLine
 10
43.066322803
 20
45.731570572
 30
0.0
 11
41.707788398
 21
45.802771204
 31
0.0
  0
LINE
  5
162
330
1F
100
AcDbEntity
  8
1
100
AcDbLine
 10
41.5403136163
 20
42.6071566778
 30
0.0
 11
42.898844927
 21
42.535956949
 31
0.0
  0
LINE
  5
163
330
1F
100
AcDbEntity
  8
1
100
AcDbLine
 10
18.242621794
 20
29.492173344
 30
0.0
 11
18.371589482
 21
29.878612608
 31
0.0
  0
LINE
  5
164
330
1F
100
AcDbEntity
  8
1
100
AcDbLine
 10
18.371589482
 20
29.878612608
 30
0.0
 11
18.517509103
 21
30.556742102
 31
0.0
  0
LINE
  5
166
330
1F
100
AcDbEntity
  8
SK1
100
AcDbLine
 10
-11.5999998525
 20
-31.0000013555
 30
0.0
 11
-11.5999998525
 21
-39.0000008045
 31
0.0
  0
LINE
  5
168
330
1F
100
AcDbEntity
  8
SK1
100
AcDbLine
 10
-11.5999998525
 20
4.000000656499999
 30
0.0
 11
-11.5999998525
 21
-4.000000655500003
 31
0.0
  0
LINE
  5
169
330
1F
100
AcDbEntity
  8
1
100
AcDbLine
 10
40.942076594
 20
-27.11566537600001
 30
0.0
 11
39.095271379
 21
-28.500000015
 31
0.0
  0
LINE
  5
16A
330
1F
100
AcDbEntity
  8
1
100
AcDbLine
 10
19.999999553
 20
-30.990000814
 30
0.0
 11
42.777733415
 21
-30.990000814
 31
0.0
  0
LINE
  5
16B
330
1F
100
AcDbEntity
  8
1
100
AcDbLine
 10
46.0
 20
36.878239116
 30
0.0
 11
46.000000089
 21
31.926009804
 31
0.0
  0
LINE
  5
16C
330
1F
100
AcDbEntity
  8
1
100
AcDbLine
 10
27.772337198
 20
40.88490083799999
 30
0.0
 11
41.000001133
 21
40.88490083799999
 31
0.0
  0
LINE
  5
16D
330
1F
100
AcDbEntity
  8
1
100
AcDbLine
 10
16.932606697
 20
34.134212881
 30
0.0
 11
16.922501847
 21
34.140985459
 31
0.0
  0
LINE
  5
16E
330
1F
100
AcDbEntity
  8
1
100
AcDbLine
 10
31.244460493
 20
44.793341309
 30
0.0
 11
30.09999916
 21
45.099999756
 31
0.0
  0
LINE
  5
16F
330
1F
100
AcDbEntity
  8
1
100
AcDbLine
 10
30.09999916
 20
45.099999756
 30
0.0
 11
23.900000378
 21
45.099999756
 31
0.0
  0
LINE
  5
170
330
1F
100
AcDbEntity
  8
1
100
AcDbLine
 10
23.900000378
 20
45.099999756
 30
0.0
 11
22.752404213
 21
44.792499393
 31
0.0
  0
LINE
  5
171
330
1F
100
AcDbEntity
  8
1
100
AcDbLine
 10
14.999999665
 20
43.989155442
 30
0.0
 11
14.999999665
 21
42.433526367
 31
0.0
  0
LINE
  5
172
330
1F
100
AcDbEntity
  8
1
100
AcDbLine
 10
37.975661457
 20
42.30673983699999
 30
0.0
 11
37.500586204
 21
44.99982976299999
 31
0.0
  0
LINE
  5
173
330
1F
100
AcDbEntity
  8
1
100
AcDbLine
 10
49.031469971
 20
38.603875786
 30
0.0
 11
49.334041774
 21
38.407381624
 31
0.0
  0
LINE
  5
174
330
1F
100
AcDbEntity
  8
1
100
AcDbLine
 10
49.334041774
 20
38.407381624
 30
0.0
 11
49.23408106
 21
36.499995738
 31
0.0
  0
LINE
  5
175
330
1F
100
AcDbEntity
  8
1
100
AcDbLine
 10
49.23408106
 20
36.499995738
 30
0.0
 11
46.000000089
 21
36.499995738
 31
0.0
  0
LINE
  5
176
330
1F
100
AcDbEntity
  8
1
100
AcDbLine
 10
49.334041774
 20
38.407381624
 30
0.0
 11
49.233224243
 21
38.595121354
 31
0.0
  0
LINE
  5
177
330
1F
100
AcDbEntity
  8
1
100
AcDbLine
 10
49.233224243
 20
38.595121354
 30
0.0
 11
49.195483327
 21
38.619633764
 31
0.0
  0
LINE
  5
178
330
1F
100
AcDbEntity
  8
1
100
AcDbLine
 10
48.388887197
 20
48.443559557
 30
0.0
 11
47.95948416
 21
48.367675394
 31
0.0
  0
LINE
  5
179
330
1F
100
AcDbEntity
  8
SK3
100
AcDbLine
 10
10.35188511
 20
-28.500000015
 30
0.0
 11
19.999999553
 21
-28.500000015
 31
0.0
  0
LINE
  5
17A
330
1F
100
AcDbEntity
  8
SK3
100
AcDbLine
 10
11.789489537
 20
-30.990000814
 30
0.0
 11
19.999999553
 21
-30.990000814
 31
0.0
  0
LINE
  5
17B
330
1F
100
AcDbEntity
  8
SK3
100
AcDbLine
 10
10.35188511
 20
-24.500000015
 30
0.0
 11
44.215337843
 21
-24.500000015
 31
0.0
  0
LINE
  5
17C
330
1F
100
AcDbEntity
  8
SK3
100
AcDbLine
 10
10.35188511
 20
-28.500000015
 30
0.0
 11
10.35188511
 21
-24.500000015
 31
0.0
  0
LINE
  5
17D
330
1F
100
AcDbEntity
  8
SK3
100
AcDbLine
 10
44.215337843
 20
-28.500000015
 30
0.0
 11
44.215337843
 21
-24.500000015
 31
0.0
  0
LINE
  5
17E
330
1F
100
AcDbEntity
  8
SK3
100
AcDbLine
 10
14.511441812
 20
42.497780174
 30
0.0
 11
14.511441812
 21
-24.500000015
 31
0.0
  0
ARC
  5
17F
330
1F
100
AcDbEntity
  8
1
100
AcDbCircle
 10
44.732050808
 20
-230.8447898529
 30
0.0
 40
273.3456551971266
100
AcDbArc
 50
90.782297858
 51
91.1868634927
  0
ARC
  5
180
330
1F
100
AcDbEntity
  8
1
100
AcDbCircle
 10
47.3044203241
 20
45.46655766209999
 30
0.0
 40
7.793412640867079
100
AcDbArc
 50
216.0073048308
 51
238.780386849
  0
ARC
  5
181
330
1F
100
AcDbEntity
  8
1
100
AcDbCircle
 10
-35.591495804
 20
-140.0752032482
 30
0.0
 40
194.856590848506
100
AcDbArc
 50
65.24603688500001
 51
65.4076189798
  0
ARC
  5
182
330
1F
100
AcDbEntity
  8
1
100
AcDbCircle
 10
20.3075685966
 20
27.6535772169
 30
0.0
 40
0.4000150149999868
100
AcDbArc
 50
220.0019217329998
 51
283.3601348779998
  0
ARC
  5
183
330
1F
100
AcDbEntity
  8
1
100
AcDbCircle
 10
20.3075660785
 20
27.6535600117
 30
0.0
 40
0.3999988573003107
100
AcDbArc
 50
283.3610552722998
 51
310.0001163169999
  0
ARC
  5
184
330
1F
100
AcDbEntity
  8
1
100
AcDbCircle
 10
-27.864665129
 20
92.352037516
 30
0.0
 40
80.92687867400826
100
AcDbArc
 50
309.8073853624
 51
310.861659899
  0
ARC
  5
185
330
1F
100
AcDbEntity
  8
1
100
AcDbCircle
 10
-4.830125861
 20
65.724154497
 30
0.0
 40
45.71011178099995
100
AcDbArc
 50
310.8617417089999
 51
317.297407456
  0
ARC
  5
186
330
1F
100
AcDbEntity
  8
1
100
AcDbCircle
 10
7.2626710142
 20
54.5642295598
 30
0.0
 40
29.25472783325238
100
AcDbArc
 50
317.2974074563999
 51
326.9270181329999
  0
ARC
  5
187
330
1F
100
AcDbEntity
  8
1
100
AcDbCircle
 10
24.2289601664
 20
43.5154389627
 30
0.0
 40
9.007981396976184
100
AcDbArc
 50
326.9270331688
 51
328.424319352
  0
ARC
  5
188
330
1F
100
AcDbEntity
  8
1
100
AcDbCircle
 10
9.043141288
 20
40.277836845
 30
0.0
 40
0.6592958390000312
100
AcDbArc
 50
78.72962446000011
 51
120.0144180029999
  0
ARC
  5
189
330
1F
100
AcDbEntity
  8
1
100
AcDbCircle
 10
39.6538769579
 20
21.6671628793
 30
0.0
 40
29.40615055167652
100
AcDbArc
 50
280.498865737
 51
281.4671535538
  0
ARC
  5
18A
330
1F
100
AcDbEntity
  8
1
100
AcDbCircle
 10
36.846194078
 20
36.815922235
 30
0.0
 40
44.81592298100004
100
AcDbArc
 50
278.474711505
 51
280.4992887189999
  0
ARC
  5
18B
330
1F
100
AcDbEntity
  8
1
100
AcDbCircle
 10
33.828427125
 20
-19.8187593559
 30
0.0
 40
10.72925619507739
100
AcDbArc
 50
98.85401506059999
 51
105.445253599
  0
ARC
  5
18C
330
1F
100
AcDbEntity
  8
1
100
AcDbCircle
 10
32.1913381586
 20
-13.89376517340001
 30
0.0
 40
4.575017496000018
100
AcDbArc
 50
105.444797142
 51
119.908210372
  0
ARC
  5
18D
330
1F
100
AcDbEntity
  8
1
100
AcDbCircle
 10
31.2349463535
 20
-12.2311002392
 30
0.0
 40
2.65690906112949
100
AcDbArc
 50
119.9082103634
 51
139.191596284
  0
ARC
  5
18E
330
1F
100
AcDbEntity
  8
1
100
AcDbCircle
 10
29.9211836203
 20
-11.09674126300001
 30
0.0
 40
0.9211836202544816
100
AcDbArc
 50
139.1922129433998
 51
180.0
  0
ARC
  5
18F
330
1F
100
AcDbEntity
  8
1
100
AcDbCircle
 10
29.92118362
 20
-23.914846119
 30
0.0
 40
0.9211836200000354
100
AcDbArc
 50
180.0
 51
220.8077870809996
  0
ARC
  5
190
330
1F
100
AcDbEntity
  8
1
100
AcDbCircle
 10
31.2349463532
 20
-22.7804871428
 30
0.0
 40
2.656909060745646
100
AcDbArc
 50
220.8084037245001
 51
240.091789628
  0
ARC
  5
191
330
1F
100
AcDbEntity
  8
1
100
AcDbCircle
 10
32.1913381582
 20
-21.11782220790001
 30
0.0
 40
4.575017496303935
100
AcDbArc
 50
240.0917896293
 51
254.555202858
  0
ARC
  5
192
330
1F
100
AcDbEntity
  8
1
100
AcDbCircle
 10
33.828427125
 20
-15.19282802560001
 30
0.0
 40
10.72201809348094
100
AcDbArc
 50
254.5547463988
 51
261.1459904399999
  0
ARC
  5
193
330
1F
100
AcDbEntity
  8
1
100
AcDbCircle
 10
37.504555559
 20
42.788095607
 30
0.0
 40
2.211737717858032
100
AcDbArc
 50
90.10282747779996
 51
100.7344966459999
  0
ARC
  5
194
330
1F
100
AcDbEntity
  8
1
100
AcDbCircle
 10
37.504555559
 20
42.788095607
 30
0.0
 40
2.215094350999995
100
AcDbArc
 50
100.7344966460001
 51
136.900052346
  0
ARC
  5
195
330
1F
100
AcDbEntity
  8
SK1
100
AcDbCircle
 10
40.1698864319
 20
40.2939431961
 30
0.0
 40
5.865407339099602
100
AcDbArc
 50
136.9001631794
 51
138.419014063
  0
ARC
  5
196
330
1F
100
AcDbEntity
  8
1
100
AcDbCircle
 10
37.0340135121
 20
43.3660881501
 30
0.0
 40
1.502720506000002
100
AcDbArc
 50
146.714575878
 51
196.2422850109999
  0
ARC
  5
197
330
1F
100
AcDbEntity
  8
1
100
AcDbCircle
 10
211.4502381039
 20
86.6002951799
 30
0.0
 40
181.1962843453879
100
AcDbArc
 50
193.9410767676
 51
194.22593328
  0
ARC
  5
198
330
1F
100
AcDbEntity
  8
SK1
100
AcDbCircle
 10
-4.5
 20
-6.250000745000001
 30
0.0
 40
1.500000000000057
100
AcDbArc
 50
90.0
 51
180.0000284609999
  0
ARC
  5
199
330
1F
100
AcDbEntity
  8
SK1
100
AcDbCircle
 10
-4.5
 20
-11.250000745
 30
0.0
 40
1.500000000000069
100
AcDbArc
 50
180.0
 51
270.0000073991998
  0
ARC
  5
19A
330
1F
100
AcDbEntity
  8
SK1
100
AcDbCircle
 10
-4.5
 20
11.249999255
 30
0.0
 40
1.500000000000086
100
AcDbArc
 50
90.0
 51
179.9999544690001
  0
ARC
  5
19B
330
1F
100
AcDbEntity
  8
SK1
100
AcDbCircle
 10
-4.5
 20
6.249999254999999
 30
0.0
 40
1.500000000000069
100
AcDbArc
 50
180.0
 51
270.0000073994
  0
ARC
  5
19C
330
1F
100
AcDbEntity
  8
SK1
100
AcDbCircle
 10
-4.5
 20
-23.75000074500001
 30
0.0
 40
1.500000000000059
100
AcDbArc
 50
90.0
 51
180.0000313059999
  0
ARC
  5
19D
330
1F
100
AcDbEntity
  8
SK1
100
AcDbCircle
 10
-4.5
 20
-28.75000074500001
 30
0.0
 40
1.500000000000069
100
AcDbArc
 50
180.0
 51
270.0000073991998
  0
ARC
  5
19E
330
1F
100
AcDbEntity
  8
1
100
AcDbCircle
 10
37.1213203439
 20
16.0415128245
 30
0.0
 40
8.041513569999992
100
AcDbArc
 50
254.554746401
 51
270.0
  0
ARC
  5
19F
330
1F
100
AcDbEntity
  8
1
100
AcDbCircle
 10
35.893503619
 20
11.5977671876
 30
0.0
 40
3.431263121918043
100
AcDbArc
 50
240.091789628
 51
254.5552028603001
  0
ARC
  5
1A0
330
1F
100
AcDbEntity
  8
1
100
AcDbCircle
 10
35.1762097652
 20
10.350768487
 30
0.0
 40
1.99268179569313
100
AcDbArc
 50
220.808403716
 51
240.0917896355999
  0
ARC
  5
1A1
330
1F
100
AcDbEntity
  8
1
100
AcDbCircle
 10
34.1908877152
 20
9.499999254999999
 30
0.0
 40
0.6908877152212156
100
AcDbArc
 50
180.0
 51
220.8077870701
  0
ARC
  5
1A2
330
1F
100
AcDbEntity
  8
1
100
AcDbCircle
 10
35.342367239
 20
21.521205482
 30
0.0
 40
1.842367238999998
100
AcDbArc
 50
139.1922129190001
 51
180.0
  0
ARC
  5
1A3
330
1F
100
AcDbEntity
  8
1
100
AcDbCircle
 10
37.9698927072
 20
19.2524875298
 30
0.0
 40
5.313818121747935
100
AcDbArc
 50
129.384118702
 51
139.1915962896
  0
ARC
  5
1A4
330
1F
100
AcDbEntity
  8
1
100
AcDbCircle
 10
41.346194078
 20
-36.81592372520001
 30
0.0
 40
44.82160182582761
100
AcDbArc
 50
84.6825295616
 51
90.0
  0
ARC
  5
1A5
330
1F
100
AcDbEntity
  8
1
100
AcDbCircle
 10
20.3999999999
 20
7.599999254499998
 30
0.0
 40
0.3999999999999559
100
AcDbArc
 50
90.0
 51
180.0
  0
ARC
  5
1A6
330
1F
100
AcDbEntity
  8
1
100
AcDbCircle
 10
20.388299598
 20
-8.829032224000002
 30
0.0
 40
0.3884994280000171
100
AcDbArc
 50
181.8357151810005
 51
271.7259413759998
  0
ARC
  5
1A7
330
1F
100
AcDbEntity
  8
1
100
AcDbCircle
 10
20.38830068
 20
-26.18255665300001
 30
0.0
 40
0.3885006079910908
100
AcDbArc
 50
88.27422354130012
 51
178.163836621001
  0
ARC
  5
1A8
330
1F
100
AcDbEntity
  8
1
100
AcDbCircle
 10
13.568207096
 20
31.266959622
 30
0.0
 40
5.000000000000032
100
AcDbArc
 50
58.45202942699997
 51
100.790788066
  0
ARC
  5
1A9
330
1F
100
AcDbEntity
  8
1
100
AcDbCircle
 10
26.9585179771
 20
70.70761278879999
 30
0.0
 40
27.94497478623445
100
AcDbArc
 50
246.993187245
 51
288.3967512006
  0
ARC
  5
1AA
330
1F
100
AcDbEntity
  8
1
100
AcDbCircle
 10
15.989100364
 20
44.017109926
 30
0.0
 40
0.966701438000019
100
AcDbArc
 50
87.25886955300011
 51
181.7045465890001
  0
ARC
  5
1AB
330
1F
100
AcDbEntity
  8
1
100
AcDbCircle
 10
26.9523703
 20
75.81090928399999
 30
0.0
 40
33.98157548898948
100
AcDbArc
 50
249.464773226
 51
284.7275525126
  0
ARC
  5
1AC
330
1F
100
AcDbEntity
  8
1
100
AcDbCircle
 10
46.7970531229
 20
43.0896244117
 30
0.0
 40
0.150000000000018
100
AcDbArc
 50
201.6807760260019
 51
9.69518731399995
  0
ARC
  5
1AD
330
1F
100
AcDbEntity
  8
1
100
AcDbCircle
 10
46.2859620051
 20
42.88643516579999
 30
0.0
 40
0.4000000002675284
100
AcDbArc
 50
21.68077602480068
 51
129.6951873099999
  0
ARC
  5
1AE
330
1F
100
AcDbEntity
  8
1
100
AcDbCircle
 10
45.9346752519
 20
43.3096344301
 30
0.0
 40
0.1499999999469926
100
AcDbArc
 50
141.6807760479997
 51
309.6951872030997
  0
ARC
  5
1AF
330
1F
100
AcDbEntity
  8
1
100
AcDbCircle
 10
45.503162644
 20
43.650657698
 30
0.0
 40
0.4000000000820375
100
AcDbArc
 50
321.6807761272996
 51
69.69518731600049
  0
ARC
  5
1B0
330
1F
100
AcDbEntity
  8
1
100
AcDbCircle
 10
45.6940205811
 20
44.16648058219999
 30
0.0
 40
0.149999999897232
100
AcDbArc
 50
81.68077603800054
 51
249.6951871676005
  0
ARC
  5
1B1
330
1F
100
AcDbEntity
  8
1
100
AcDbCircle
 10
45.773599091
 20
44.7106930968
 30
0.0
 40
0.4000000003347654
100
AcDbArc
 50
261.6807760503997
 51
9.695187305999696
  0
ARC
  5
1B2
330
1F
100
AcDbEntity
  8
1
100
AcDbCircle
 10
46.3157437814
 20
44.8033167168
 30
0.0
 40
0.1499999999441646
100
AcDbArc
 50
21.68077603999916
 51
189.6951871711005
  0
ARC
  5
1B3
330
1F
100
AcDbEntity
  8
1
100
AcDbCircle
 10
46.8268348991
 20
45.0065059627
 30
0.0
 40
0.4000000002675294
100
AcDbArc
 50
201.6807760196002
 51
309.6951873099998
  0
ARC
  5
1B4
330
1F
100
AcDbEntity
  8
1
100
AcDbCircle
 10
47.1781216523
 20
44.5833066985
 30
0.0
 40
0.1499999999470019
100
AcDbArc
 50
321.6807760479992
 51
129.6951872031
  0
ARC
  5
1B5
330
1F
100
AcDbEntity
  8
1
100
AcDbCircle
 10
47.6096342595
 20
44.2422834302
 30
0.0
 40
0.3999999996897519
100
AcDbArc
 50
141.6807760297001
 51
249.6951871880002
  0
ARC
  5
1B6
330
1F
100
AcDbEntity
  8
1
100
AcDbCircle
 10
47.4187763228
 20
43.726460546
 30
0.0
 40
0.1500000001926589
100
AcDbArc
 50
261.680776032001
 51
69.69518765840009
  0
ARC
  5
1B7
330
1F
100
AcDbEntity
  8
1
100
AcDbCircle
 10
47.3391978127
 20
43.1822480317
 30
0.0
 40
0.3999999997841804
100
AcDbArc
 50
81.68077603189964
 51
189.6951872523997
  0
ARC
  5
1B8
330
1F
100
AcDbEntity
  8
1
100
AcDbCircle
 10
49.579144857
 20
48.6010920953
 30
0.0
 40
0.4000000000621596
100
AcDbArc
 50
357.0000767654999
 51
116.9998625847005
  0
ARC
  5
1B9
330
1F
100
AcDbEntity
  8
1
100
AcDbCircle
 10
41.0140045338
 20
44.23693512179999
 30
0.0
 40
0.3999999997228336
100
AcDbArc
 50
117.0000000572001
 51
236.9998644759998
  0
ARC
  5
1BA
330
1F
100
AcDbEntity
  8
1
100
AcDbCircle
 10
49.0760459791
 20
39.0013847447
 30
0.0
 40
0.400000464510732
100
AcDbArc
 50
236.9999999868003
 51
357.0000799117993
  0
ARC
  5
1BB
330
1F
100
AcDbEntity
  8
1
100
AcDbCircle
 10
41.624050868
 20
44.2049639482
 30
0.0
 40
1.600000000196379
100
AcDbArc
 50
87.0000000003
 51
267.0000099790001
  0
CIRCLE
  5
1BC
330
1F
100
AcDbEntity
  8
1
100
AcDbCircle
 10
27.0
 20
15.49999887529999
 30
0.0
 40
5.250000000000213
  0
DIMENSION
  5
1BE
330
1F
100
AcDbEntity
  8
SK2
100
AcDbDimension
280
     0
  2
_D
 10
59.40661295850001
 20
36.499995738
 30
0.0
 11
59.40661295850001
 21
17.1072263237695
 31
0.0
 70
   160
  1
%%c200 - 620
 71
     5
 42
12.5010963574
 73
     0
 74
     0
 75
     0
  3
ISO-25
100
AcDbAlignedDimension
 13
49.579144857
 23
49.0010920954
 33
0.0
 14
49.23408106
 24
36.499995738
 34
0.0
 50
90.0
100
AcDbRotatedDimension
1001
ACAD
1000
DSTYLE
1002
{
1070
    76
1070
     1
1070
    75
1070
     0
1070
   282
1070
     1
1070
   281
1070
     0
1002
}
  0
MTEXT
  5
1D4
330
1F
100
AcDbEntity
  8
SK6
100
AcDbMText
 10
24.65609945773349
 20
-38.80811748732015
 30
0.0
 40
3.5
 41
0.0
 46
0.0
 71
     1
 72
     1
  1
318.104
  7
BMG_Text
 73
     1
 44
1.0
  0
LINE
  5
277
330
1F
100
AcDbEntity
  8
1
100
AcDbLine
 10
43.066322803
 20
45.731570572
 30
0.0
 11
48.388887197
 21
48.443559557
 31
0.0
  0
LINE
  5
278
330
1F
100
AcDbEntity
  8
3
100
AcDbLine
 10
48.388887197
 20
48.443559557
 30
0.0
 11
49.579144857
 21
48.6010920953
 31
0.0
  0
LINE
  5
279
330
1F
100
AcDbEntity
  8
3
100
AcDbLine
 10
49.579144857
 20
48.6010920953
 30
0.0
 11
49.0760459791
 21
39.0013847447
 31
0.0
  0
LINE
  5
27A
330
1F
100
AcDbEntity
  8
3
100
AcDbLine
 10
49.0760459791
 20
39.0013847447
 30
0.0
 11
49.031469971
 21
38.603875786
 31
0.0
  0
LINE
  5
27B
330
1F
100
AcDbEntity
  8
1
100
AcDbLine
 10
49.031469971
 20
38.603875786
 30
0.0
 11
48.88071092278277
 21
38.61751112264118
 31
0.0
  0
LINE
  5
27C
330
1F
100
AcDbEntity
  8
1
100
AcDbLine
 10
48.88071092278277
 20
38.61751112264118
 30
0.0
 11
48.85819011202603
 21
38.66591612800054
 31
0.0
  0
LINE
  5
27D
330
1F
100
AcDbEntity
  8
1
100
AcDbLine
 10
48.85819011202603
 20
38.66591612800054
 30
0.0
 11
42.898844927
 21
42.535956949
 31
0.0
  0
LINE
  5
27F
330
1F
100
AcDbEntity
  8
1
100
AcDbLine
 10
40.8324083336742
 20
44.59333773104709
 30
0.0
 11
49.39754951185448
 21
48.95749514056084
 31
0.0
  0
LINE
  5
280
330
1F
100
AcDbEntity
  8
1
100
AcDbLine
 10
40.79614812644913
 20
43.90146741015782
 30
0.0
 11
48.85819011202603
 21
38.66591612800054
 31
0.0
  0
CIRCLE
  5
281
330
1F
100
AcDbEntity
  8
1
100
AcDbCircle
 10
46.556398452
 20
43.94647056399999
 30
0.0
 40
1.725000000000009
  0
LINE
  5
283
330
1F
100
AcDbEntity
  8
NOCUT
100
AcDbLine
 10
49.19548332700001
 20
38.619633764
 30
0.0
 11
49.23322424300002
 21
38.595121354
 31
0.0
  0
LINE
  5
284
330
1F
100
AcDbEntity
  8
NOCUT
100
AcDbLine
 10
49.23322424300002
 20
38.595121354
 30
0.0
 11
49.33404177399999
 21
38.407381624
 31
0.0
  0
LINE
  5
285
330
1F
100
AcDbEntity
  8
NOCUT
100
AcDbLine
 10
49.33404177399999
 20
38.407381624
 30
0.0
 11
49.23408106000002
 21
36.499995738
 31
0.0
  0
LINE
  5
286
330
1F
100
AcDbEntity
  8
NOCUT
100
AcDbLine
 10
49.23408106000002
 20
36.499995738
 30
0.0
 11
46.000000089
 21
36.499995738
 31
0.0
  0
LINE
  5
287
330
1F
100
AcDbEntity
  8
NOCUT
100
AcDbLine
 10
46.000000089
 20
36.499995738
 30
0.0
 11
46.000000089
 21
-28.000000864
 31
0.0
  0
LINE
  5
288
330
1F
100
AcDbEntity
  8
NOCUT
100
AcDbLine
 10
46.000000089
 20
-28.000000864
 30
0.0
 11
45.49999907600002
 21
-28.500000015
 31
0.0
  0
LINE
  5
289
330
1F
100
AcDbEntity
  8
NOCUT
100
AcDbLine
 10
45.49999907600002
 20
-28.500000015
 30
0.0
 11
44.21533784300001
 21
-28.500000015
 31
0.0
  0
LINE
  5
28A
330
1F
100
AcDbEntity
  8
NOCUT
100
AcDbLine
 10
44.21533784300001
 20
-28.500000015
 30
0.0
 11
42.77773341500003
 21
-30.990000814
 31
0.0
  0
LINE
  5
28B
330
1F
100
AcDbEntity
  8
NOCUT
100
AcDbLine
 10
42.77773341500003
 20
-30.990000814
 30
0.0
 11
34.56722340000002
 21
-33.190000802
 31
0.0
  0
LINE
  5
28C
330
1F
100
AcDbEntity
  8
NOCUT
100
AcDbLine
 10
34.56722340000002
 20
-33.190000802
 30
0.0
 11
19.99999955300001
 21
-33.190000802
 31
0.0
  0
LINE
  5
28D
330
1F
100
AcDbEntity
  8
NOCUT
100
AcDbLine
 10
19.99999955300001
 20
-33.190000802
 30
0.0
 11
19.99999955300001
 21
-43.25000057
 31
0.0
  0
LINE
  5
28E
330
1F
100
AcDbEntity
  8
NOCUT
100
AcDbLine
 10
19.99999955300001
 20
-43.25000057
 30
0.0
 11
19.50000040200001
 21
-43.750000652
 31
0.0
  0
LINE
  5
28F
330
1F
100
AcDbEntity
  8
NOCUT
100
AcDbLine
 10
19.50000040200001
 20
-43.750000652
 30
0.0
 11
1.000000046999986
 21
-43.750000652
 31
0.0
  0
LINE
  5
290
330
1F
100
AcDbEntity
  8
NOCUT
100
AcDbLine
 10
1.000000046999986
 20
-43.750000652
 30
0.0
 11
0.0
 21
-42.750000954
 31
0.0
  0
LINE
  5
291
330
1F
100
AcDbEntity
  8
NOCUT
100
AcDbLine
 10
0.0
 20
-42.750000954
 30
0.0
 11
0.0
 21
41.499998421
 31
0.0
  0
LINE
  5
292
330
1F
100
AcDbEntity
  8
NOCUT
100
AcDbLine
 10
0.0
 20
41.499998421
 30
0.0
 11
1.000000046999986
 21
42.500000447
 31
0.0
  0
LINE
  5
293
330
1F
100
AcDbEntity
  8
NOCUT
100
AcDbLine
 10
1.000000046999986
 20
42.500000447
 30
0.0
 11
14.53160494599999
 21
42.500000447
 31
0.0
  0
LINE
  5
294
330
1F
100
AcDbEntity
  8
NOCUT
100
AcDbLine
 10
14.53160494599999
 20
42.500000447
 30
0.0
 11
14.99999966499999
 21
42.433526367
 31
0.0
  0
LINE
  5
295
330
1F
100
AcDbEntity
  8
NOCUT
100
AcDbLine
 10
14.99999966499999
 20
42.433526367
 30
0.0
 11
14.99999966499999
 21
43.989155442
 31
0.0
  0
ARC
  5
296
330
1F
100
AcDbEntity
  8
NOCUT
100
AcDbCircle
 10
16.0168107230586
 20
44.00596657187296
 30
0.0
 40
0.9941400472441863
100
AcDbArc
 50
89.15326999804803
 51
181.0150785245167
  0
LINE
  5
297
330
1F
100
AcDbEntity
  8
NOCUT
100
AcDbLine
 10
16.03150181499998
 20
44.999998063
 30
0.0
 11
21.506689489
 21
44.999998063
 31
0.0
  0
ARC
  5
298
330
1F
100
AcDbEntity
  8
NOCUT
100
AcDbCircle
 10
27.04984153306742
 20
74.48703915871056
 30
0.0
 40
30.00403988907419
100
AcDbArc
 50
259.4412816702832
 51
261.7988501235343
  0
ARC
  5
299
330
1F
100
AcDbEntity
  8
NOCUT
100
AcDbCircle
 10
26.77876463917286
 20
75.84349630667975
 30
0.0
 40
31.36965120106701
100
AcDbArc
 50
278.1665167514479
 51
280.473916534889
  0
LINE
  5
29A
330
1F
100
AcDbEntity
  8
NOCUT
100
AcDbLine
 10
22.75240421300001
 20
44.792499393
 30
0.0
 11
23.90000037799999
 21
45.099999756
 31
0.0
  0
LINE
  5
29B
330
1F
100
AcDbEntity
  8
NOCUT
100
AcDbLine
 10
23.90000037799999
 20
45.099999756
 30
0.0
 11
30.09999916000001
 21
45.099999756
 31
0.0
  0
LINE
  5
29C
330
1F
100
AcDbEntity
  8
NOCUT
100
AcDbLine
 10
30.09999916000001
 20
45.099999756
 30
0.0
 11
31.24446049299999
 21
44.793341309
 31
0.0
  0
LINE
  5
29D
330
1F
100
AcDbEntity
  8
NOCUT
100
AcDbLine
 10
32.48138725800001
 20
44.996533543
 30
0.0
 11
38.0994598900206
 21
44.996533543
 31
0.0
  0
LINE
  5
29E
330
1F
100
AcDbEntity
  8
NOCUT
100
AcDbLine
 10
38.0994598900206
 20
44.996533543
 30
0.0
 11
39.194490761
 21
46.895552427
 31
0.0
  0
LINE
  5
29F
330
1F
100
AcDbEntity
  8
NOCUT
100
AcDbLine
 10
39.194490761
 20
46.895552427
 30
0.0
 11
47.925170511
 21
48.435013741
 31
0.0
  0
LINE
  5
2A0
330
1F
100
AcDbEntity
  8
NOCUT
100
AcDbLine
 10
47.925170511
 20
48.435013741
 30
0.0
 11
47.95948416000002
 21
48.367675394
 31
0.0
  0
LINE
  5
2A1
330
1F
100
AcDbEntity
  8
NOCUT
100
AcDbLine
 10
47.95948416000002
 20
48.367675394
 30
0.0
 11
48.388887197
 21
48.443559557
 31
0.0
  0
LWPOLYLINE
  5
2C6
330
1F
100
AcDbEntity
  8
INFTOTAL
100
AcDbPolyline
 90
        4
 70
     1
 43
0.0
 10
66.39585010943328
 20
60.00000000000003
 10
66.39585010943325
 20
-48.44084906757358
 10
-22.24053808512834
 20
-48.44084906757358
 10
-22.24053808512831
 20
60.00000000000003
  0
LINE
  5
2DB
330
1F
100
AcDbEntity
  8
CUT
100
AcDbLine
 10
49.475498286
 20
38.980450895
 30
0.0
 11
49.978596699
 21
48.580158248
 31
0.0
  0
ARC
  5
2DC
330
1F
100
AcDbEntity
  8
CUT
100
AcDbCircle
 10
49.57914485700001
 20
48.6010920953
 30
0.0
 40
0.4000000000621596
100
AcDbArc
 50
357.0000767654999
 51
116.9998625847005
  0
ARC
  5
2DD
330
1F
100
AcDbEntity
  8
CUT
100
AcDbCircle
 10
41.0140045338
 20
44.23693512179999
 30
0.0
 40
0.3999999997228336
100
AcDbArc
 50
117.0000000572001
 51
236.9998644760004
  0
ARC
  5
2DE
330
1F
100
AcDbEntity
  8
CUT
100
AcDbCircle
 10
49.07604597909999
 20
39.0013847447
 30
0.0
 40
0.400000464510732
100
AcDbArc
 50
236.9999999868016
 51
357.0000799117994
  0
LINE
  5
2DF
330
1F
100
AcDbEntity
  8
CUT
100
AcDbLine
 10
40.8324083336742
 20
44.59333773104709
 30
0.0
 11
49.39754951185449
 21
48.95749514056084
 31
0.0
  0
LINE
  5
2E0
330
1F
100
AcDbEntity
  8
CUT
100
AcDbLine
 10
40.79614812644913
 20
43.90146741015782
 30
0.0
 11
48.85819011202603
 21
38.66591612800054
 31
0.0
  0
LINE
  5
2E7
330
1F
100
AcDbEntity
  8
4
100
AcDbLine
 10
-7.997429183500003
 20
8.649842464999999
 30
0.0
 11
4.002570816499997
 21
8.649842464999999
 31
0.0
  0
LINE
  5
2E8
330
1F
100
AcDbEntity
  8
4
100
AcDbLine
 10
27.0
 20
-35.83080654049999
 30
0.0
 11
27.0
 21
48.9574951406
 31
0.0
  0
LINE
  5
2E9
330
1F
100
AcDbEntity
  8
4
100
AcDbLine
 10
33.9478679755
 20
15.499997884
 30
0.0
 11
19.500000402
 21
15.499997884
 31
0.0
  0
LINE
  5
2EA
330
1F
100
AcDbEntity
  8
4
100
AcDbLine
 10
1.000000047
 20
0.0
 30
0.0
 11
-13.1172257331
 21
0.0
 31
0.0
  0
LINE
  5
2EB
330
1F
100
AcDbEntity
  8
4
100
AcDbLine
 10
-8.062923240299995
 20
-8.750001117500005
 30
0.0
 11
3.937076759700005
 21
-8.750001117500005
 31
0.0
  0
LINE
  5
2EC
330
1F
100
AcDbEntity
  8
4
100
AcDbLine
 10
-9.062923240299995
 20
-26.1701084675
 30
0.0
 11
3.937076759700005
 21
-26.1701084675
 31
0.0
  0
LINE
  5
2ED
330
1F
100
AcDbEntity
  8
4
100
AcDbLine
 10
-13.1172257331
 20
-35.03645363749999
 30
0.0
 11
2.071309795600001
 21
-35.03645363749999
 31
0.0
  0
LINE
  5
2F3
330
1F
100
AcDbEntity
  8
4
100
AcDbLine
 10
48.46860228908871
 20
43.84625620714248
 30
0.0
 11
44.64419461491133
 21
44.04668492085752
 31
0.0
  0
LINE
  5
2F4
330
1F
100
AcDbEntity
  8
4
100
AcDbLine
 10
46.65661280885754
 20
45.85867440108869
 30
0.0
 11
46.4561840951425
 21
42.03426672691131
 31
0.0
  0
LINE
  5
2F6
330
1F
100
AcDbEntity
  8
SK4
100
AcDbLine
 10
46.4561840951425
 20
42.03426672691131
 30
0.0
 11
46.65661280885754
 21
45.85867440108869
 31
0.0
  0
LINE
  5
2F7
330
1F
100
AcDbEntity
  8
SK4
100
AcDbLine
 10
44.64419461491133
 20
44.04668492085752
 30
0.0
 11
48.46860228908871
 21
43.84625620714248
 31
0.0
  0
DIMENSION
  5
2F8
330
1F
100
AcDbEntity
  8
2
100
AcDbDimension
280
     0
  2
*D2
 10
49.97914485706216
 20
53.64665214351045
 30
0.0
 11
26.17652594619382
 21
53.64665214351045
 31
0.0
 70
   160
  1
117
 71
     5
 42
49.9791448571
 73
     0
 74
     0
 75
     0
 52
-89.99999999999999
  3
ISO-25
100
AcDbAlignedDimension
 13
-0.0000000000378435
 23
55.63968576959999
 33
0.0
 14
49.97914485706216
 24
48.5385920953
 34
0.0
 50
180.0
100
AcDbRotatedDimension
1001
ACAD
1000
DSTYLE
1002
{
1070
    75
1070
     1
1070
   281
1070
     1
1070
   282
1070
     0
1002
}
  0
ARC
  5
352
330
1F
100
AcDbEntity
  8
NOCUT
100
AcDbCircle
 10
49.0760459791
 20
39.0013847447
 30
0.0
 40
0.4000004909308122
100
AcDbArc
 50
263.6016748043887
 51
287.3731881314092
  0
LINE
  5
353
330
1F
100
AcDbEntity
  8
NOCUT
100
AcDbLine
 10
49.0760459791
 20
39.0013847447
 30
0.0
 11
49.031469971
 21
38.603875786
 31
0.0
  0
LINE
  5
354
330
1F
100
AcDbEntity
  8
NOCUT
100
AcDbLine
 10
49.0760459791
 20
39.0013847447
 30
0.0
 11
49.579144857
 21
48.6010920953
 31
0.0
  0
LINE
  5
355
330
1F
100
AcDbEntity
  8
NOCUT
100
AcDbLine
 10
49.579144857
 20
48.6010920953
 30
0.0
 11
48.388887197
 21
48.443559557
 31
0.0
  0
HATCH
  5
3B3
330
1F
100
AcDbEntity
  8
7
100
AcDbHatch
 10
0.0
 20
0.0
 30
0.0
210
0.0
220
0.0
230
1.0
  2
ANSI37
 70
     0
 71
     0
 91
        2
 92
        7
 72
     1
 73
     1
 93
        6
 10
49.47549826789785
 20
38.98045054935989
 42
0.0
 10
49.97859668165288
 20
48.58015791695791
 42
0.5773498323728049
 10
49.39754894198666
 20
48.95749485019869
 42
0.0
 10
40.83240833389558
 20
44.5933377311599
 42
0.5773500062488691
 10
40.79614865544583
 20
43.90146706662333
 42
0.0
 10
48.85819011207662
 20
38.66591612796767
 42
0.5773504457655251
 97
        0
 92
       22
 72
     1
 73
     1
 93
        2
 10
44.83139845199999
 20
43.94647056399999
 42
-1.000000000000008
 10
48.281398452
 20
43.94647056399999
 42
-1.0
 97
        0
 75
     0
 76
     1
 52
90.0
 41
0.2
 77
     0
 78
     2
 53
135.0
 43
-32.91101424575412
 44
0.8236877224616919
 45
-0.4490128060534577
 46
-0.4490128060534576
 79
     0
 53
225.0
 43
-32.91101424575412
 44
0.8236877224616919
 45
0.4490128060534576
 46
-0.4490128060534578
 79
     0
 47
0.0
 98
        2
 10
49.81652467355782
 20
45.95587818083632
 10
49.81652467355782
 20
45.95587818083632
1001
ACAD
1010
0.0
1020
0.0
1030
0.0
1001
PE_URL
1000

  0
LINE
  5
3C5
330
1F
100
AcDbEntity
  8
SK1
100
AcDbLine
 10
0.0000000005
 20
-39.0000008045
 30
0.0
 11
0.0
 21
12.749996036
 31
0.0
  0
ENDSEC
  0
SECTION
  2
OBJECTS
  0
DICTIONARY
  5
C
330
0
100
AcDbDictionary
281
     1
  3
ACAD_COLOR
350
368
  3
ACAD_DETAILVIEWSTYLE
350
2CA
  3
ACAD_GROUP
350
D
  3
ACAD_LAYOUT
350
1F7
  3
ACAD_MATERIAL
350
20B
  3
ACAD_MLEADERSTYLE
350
21F
  3
ACAD_MLINESTYLE
350
17
  3
ACAD_PLOTSETTINGS
350
261
  3
ACAD_PLOTSTYLENAME
350
262
  3
ACAD_SCALELIST
350
1D5
  3
ACAD_SECTIONVIEWSTYLE
350
2CB
  3
ACAD_TABLESTYLE
350
26E
  3
ACAD_VISUALSTYLE
350
1FA
  3
ACDB_RECOMPOSE_DATA
350
3D1
  3
AcDbVariableDictionary
350
21D
  3
APPDATA
350
271
  3
FX_DICT_DIMENSION_PALETTE
350
30B
  0
SUN
  5
2CC
330
29
100
AcDbSun
 90
        1
290
     0
 63
     7
421
 16777215
 40
1.0
291
     1
 91
  2455826
 92
 54000000
292
     0
 70
     2
 71
   256
280
     1
  0
DICTIONARY
  5
272
330
2
100
AcDbDictionary
280
     1
281
     1
  3
ACAD_LAYERSTATES
360
273
  0
DICTIONARY
  5
376
330
1F
100
AcDbDictionary
280
     1
281
     1
  3
ACAD_SORTENTS
360
377
  0
DICTIONARY
  5
368
102
{ACAD_REACTORS
330
C
102
}
330
C
100
AcDbDictionary
281
     1
  0
DICTIONARY
  5
2CA
102
{ACAD_REACTORS
330
C
102
}
330
C
100
AcDbDictionary
281
     1
  0
DICTIONARY
  5
D
102
{ACAD_REACTORS
330
C
102
}
330
C
100
AcDbDictionary
281
     1
  0
DICTIONARY
  5
1F7
102
{ACAD_REACTORS
330
C
102
}
330
C
100
AcDbDictionary
281
     1
  3
Layout1
350
1F9
  3
Model
350
1F8
  0
DICTIONARY
  5
20B
102
{ACAD_REACTORS
330
C
102
}
330
C
100
AcDbDictionary
281
     1
  3
ByBlock
350
20D
  3
ByLayer
350
20C
  3
Global
350
20E
  0
DICTIONARY
  5
21F
102
{ACAD_REACTORS
330
C
102
}
330
C
100
AcDbDictionary
281
     1
  3
Standard
350
270
  0
DICTIONARY
  5
17
102
{ACAD_REACTORS
330
C
102
}
330
C
100
AcDbDictionary
281
     1
  3
STANDARD
350
18
  0
DICTIONARY
  5
261
102
{ACAD_REACTORS
330
C
102
}
330
C
100
AcDbDictionary
281
     1
  0
ACDBDICTIONARYWDFLT
  5
262
102
{ACAD_REACTORS
330
C
102
}
330
C
100
AcDbDictionary
281
     1
  3
Normal
350
263
100
AcDbDictionaryWithDefault
340
263
  0
DICTIONARY
  5
1D5
102
{ACAD_REACTORS
330
C
102
}
330
C
100
AcDbDictionary
281
     1
  3
A0
350
1D6
  3
A1
350
1D7
  3
A2
350
1D8
  3
A3
350
1D9
  3
A4
350
1DA
  3
A5
350
1DB
  3
A6
350
1DC
  3
A7
350
1DD
  3
A8
350
1DE
  3
A9
350
1DF
  3
B0
350
1E0
  3
B1
350
1E1
  3
B2
350
1E2
  3
B3
350
1E3
  3
B4
350
1E4
  3
B5
350
1E5
  3
B6
350
1E6
  3
B7
350
1E7
  3
B8
350
1E8
  3
B9
350
1E9
  3
C0
350
1EA
  3
C1
350
1EB
  3
C2
350
1EC
  3
C3
350
1ED
  3
C4
350
1EE
  3
C5
350
1EF
  3
C6
350
1F0
  3
C7
350
1F1
  3
C8
350
1F2
  3
C9
350
1F3
  3
D0
350
1F4
  3
D1
350
1F5
  3
D2
350
1F6
  0
DICTIONARY
  5
2CB
102
{ACAD_REACTORS
330
C
102
}
330
C
100
AcDbDictionary
281
     1
  0
DICTIONARY
  5
26E
102
{ACAD_REACTORS
330
C
102
}
330
C
100
AcDbDictionary
281
     1
  3
Standard
350
26F
  0
DICTIONARY
  5
1FA
102
{ACAD_REACTORS
330
C
102
}
330
C
100
AcDbDictionary
281
     1
  3
2dWireframe
350
1FF
  3
3D Hidden
350
201
  3
3dWireframe
350
200
  3
Basic
350
202
  3
Brighten
350
206
  3
ColorChange
350
20A
  3
Conceptual
350
204
  3
Dim
350
205
  3
EdgeColorOff
350
268
  3
Facepattern
350
209
  3
Flat
350
1FB
  3
FlatWithEdges
350
1FC
  3
Gouraud
350
1FD
  3
GouraudWithEdges
350
1FE
  3
Hidden
350
265
  3
JitterOff
350
266
  3
Linepattern
350
208
  3
OverhangOff
350
267
  3
Realistic
350
203
  3
Shaded
350
26D
  3
Shaded with edges
350
26C
  3
Shades of Gray
350
269
  3
Sketchy
350
26A
  3
Thicken
350
207
  3
Wireframe
350
264
  3
X-Ray
350
26B
  0
XRECORD
  5
3D1
102
{ACAD_REACTORS
330
C
102
}
330
C
100
AcDbXrecord
280
     1
 90
        1
330
26F
  0
DICTIONARY
  5
21D
102
{ACAD_REACTORS
330
C
102
}
330
C
100
AcDbDictionary
281
     1
  3
CANNOSCALE
350
2C7
  3
CMLEADERSTYLE
350
2C9
  3
CTABLESTYLE
350
2C8
  3
DIMASSOC
350
221
  3
HIDETEXT
350
222
  3
MSLTSCALE
350
220
  0
DICTIONARY
  5
271
102
{ACAD_REACTORS
330
C
102
}
330
C
100
AcDbDictionary
281
     1
  0
DICTIONARY
  5
30B
102
{ACAD_REACTORS
330
C
102
}
330
C
100
AcDbDictionary
281
     1
1001
FX_DIMP_FAV_VERSION
1071
        1
  0
DICTIONARY
  5
273
102
{ACAD_REACTORS
330
272
102
}
330
272
100
AcDbDictionary
281
     1
  0
SORTENTSTABLE
  5
377
102
{ACAD_REACTORS
330
376
102
}
330
376
100
AcDbSortentsTable
330
1F
331
0
  5
2E0
331
281
  5
28C
331
283
  5
28D
331
284
  5
28E
331
285
  5
28F
331
286
  5
290
331
287
  5
291
331
288
  5
292
331
289
  5
293
331
28A
  5
294
331
28B
  5
295
331
28C
  5
296
331
28D
  5
297
331
28E
  5
298
331
28F
  5
299
331
290
  5
29A
331
291
  5
29B
331
292
  5
29C
331
293
  5
29D
331
294
  5
29E
331
295
  5
29F
331
296
  5
2A0
331
297
  5
2A1
331
298
  5
2A2
331
299
  5
2A3
331
29A
  5
2A4
331
29B
  5
2A5
331
29C
  5
2C6
331
29D
  5
2DB
331
29E
  5
2DC
331
29F
  5
2DD
331
2A0
  5
2DE
331
2A1
  5
2DF
331
2C6
  5
2EA
331
2DB
  5
2EB
331
2DC
  5
2EC
331
2DD
  5
2ED
331
2DE
  5
2F3
331
2DF
  5
2F4
331
2E0
  5
2F6
331
2E7
  5
2F7
331
2E8
  5
2F8
331
2E9
  5
352
331
2EA
  5
353
331
2EB
  5
354
331
2EC
  5
355
331
2ED
  5
373
331
2F3
  5
374
331
2F4
  5
375
331
2F6
  5
378
331
2F7
  5
379
331
2F8
  5
37A
331
352
  5
393
331
353
  5
394
331
354
  5
3AE
331
355
  5
3AF
331
3B3
  5
28B
  0
LAYOUT
  5
1F9
102
{ACAD_REACTORS
330
1F7
102
}
330
1F7
100
AcDbPlotSettings
  1

  2
none_device
  4

  6

 40
0.0
 41
0.0
 42
0.0
 43
0.0
 44
0.0
 45
0.0
 46
0.0
 47
0.0
 48
0.0
 49
0.0
140
0.0
141
0.0
142
1.0
143
1.0
 70
   688
 72
     0
 73
     0
 74
     5
  7

 75
    16
 76
     0
 77
     2
 78
   300
147
1.0
148
0.0
149
0.0
100
AcDbLayout
  1
Layout1
 70
     1
 71
     1
 10
0.0
 20
0.0
 11
420.0
 21
297.0
 12
0.0
 22
0.0
 32
0.0
 14
1.000000000000000E+20
 24
1.000000000000000E+20
 34
1.000000000000000E+20
 15
-1.000000000000000E+20
 25
-1.000000000000000E+20
 35
-1.000000000000000E+20
146
0.0
 13
0.0
 23
0.0
 33
0.0
 16
1.0
 26
0.0
 36
0.0
 17
0.0
 27
1.0
 37
0.0
 76
     0
330
1B
  0
LAYOUT
  5
1F8
102
{ACAD_REACTORS
330
1F7
102
}
330
1F7
100
AcDbPlotSettings
  1

  2
none_device
  4

  6

 40
0.0
 41
0.0
 42
0.0
 43
0.0
 44
0.0
 45
0.0
 46
0.0
 47
0.0
 48
0.0
 49
0.0
140
0.0
141
0.0
142
1.0
143
1.0
 70
  1712
 72
     0
 73
     0
 74
     0
  7

 75
     0
 76
     0
 77
     2
 78
   300
147
1.0
148
-0.0000001562100806
149
0.0
100
AcDbLayout
  1
Model
 70
     1
 71
     0
 10
0.0
 20
0.0
 11
420.0
 21
297.0
 12
0.0
 22
0.0
 32
0.0
 14
-22.24053808512834
 24
-48.44084906757358
 34
0.0
 15
66.39585010943328
 25
60.00000000000003
 35
0.0
146
0.0
 13
0.0
 23
0.0
 33
0.0
 16
1.0
 26
0.0
 36
0.0
 17
0.0
 27
1.0
 37
0.0
 76
     0
330
1F
331
29
  0
MATERIAL
  5
20D
102
{ACAD_REACTORS
330
20B
102
}
330
20B
100
AcDbMaterial
  1
ByBlock
 72
     1
 94
      127
  0
MATERIAL
  5
20C
102
{ACAD_REACTORS
330
20B
102
}
330
20B
100
AcDbMaterial
  1
ByLayer
 72
     1
 94
      127
  0
MATERIAL
  5
20E
102
{ACAD_REACTORS
330
20B
102
}
330
20B
100
AcDbMaterial
  1
Global
 72
     1
 94
      127
  0
MLEADERSTYLE
  5
270
102
{ACAD_REACTORS
330
21F
102
}
330
21F
100
AcDbMLeaderStyle
179
     2
170
     2
171
     1
172
     0
 90
        2
 40
0.0
 41
0.0
173
     1
 91
-1056964608
340
14
 92
       -2
290
     1
 42
2.0
291
     1
 43
8.0
  3
Standard
341
0
 44
4.0
300

342
11
174
     1
178
     1
175
     1
176
     0
 93
-1056964608
 45
4.0
292
     0
297
     0
 46
4.0
343
0
 94
-1056964608
 47
1.0
 49
1.0
140
1.0
293
     1
141
0.0
294
     1
177
     0
142
1.0
295
     0
296
     0
143
3.75
271
     0
272
     9
273
     9
298
     0
  0
MLINESTYLE
  5
18
102
{ACAD_REACTORS
330
17
102
}
330
17
100
AcDbMlineStyle
  2
Standard
 70
     0
  3

 62
   256
 51
90.0
 52
90.0
 71
     2
 49
0.5
 62
   256
  6
BYLAYER
 49
-0.5
 62
   256
  6
BYLAYER
  0
ACDBPLACEHOLDER
  5
263
102
{ACAD_REACTORS
330
262
102
}
330
262
  0
SCALE
  5
1D6
102
{ACAD_REACTORS
330
1D5
102
}
330
1D5
100
AcDbScale
 70
     0
300
1:1
140
1.0
141
1.0
290
     1
  0
SCALE
  5
1D7
102
{ACAD_REACTORS
330
1D5
102
}
330
1D5
100
AcDbScale
 70
     0
300
1:2
140
1.0
141
2.0
290
     0
  0
SCALE
  5
1D8
102
{ACAD_REACTORS
330
1D5
102
}
330
1D5
100
AcDbScale
 70
     0
300
1:4
140
1.0
141
4.0
290
     0
  0
SCALE
  5
1D9
102
{ACAD_REACTORS
330
1D5
102
}
330
1D5
100
AcDbScale
 70
     0
300
1:5
140
1.0
141
5.0
290
     0
  0
SCALE
  5
1DA
102
{ACAD_REACTORS
330
1D5
102
}
330
1D5
100
AcDbScale
 70
     0
300
1:8
140
1.0
141
8.0
290
     0
  0
SCALE
  5
1DB
102
{ACAD_REACTORS
330
1D5
102
}
330
1D5
100
AcDbScale
 70
     0
300
1:10
140
1.0
141
10.0
290
     0
  0
SCALE
  5
1DC
102
{ACAD_REACTORS
330
1D5
102
}
330
1D5
100
AcDbScale
 70
     0
300
1:16
140
1.0
141
16.0
290
     0
  0
SCALE
  5
1DD
102
{ACAD_REACTORS
330
1D5
102
}
330
1D5
100
AcDbScale
 70
     0
300
1:20
140
1.0
141
20.0
290
     0
  0
SCALE
  5
1DE
102
{ACAD_REACTORS
330
1D5
102
}
330
1D5
100
AcDbScale
 70
     0
300
1:30
140
1.0
141
30.0
290
     0
  0
SCALE
  5
1DF
102
{ACAD_REACTORS
330
1D5
102
}
330
1D5
100
AcDbScale
 70
     0
300
1:40
140
1.0
141
40.0
290
     0
  0
SCALE
  5
1E0
102
{ACAD_REACTORS
330
1D5
102
}
330
1D5
100
AcDbScale
 70
     0
300
1:50
140
1.0
141
50.0
290
     0
  0
SCALE
  5
1E1
102
{ACAD_REACTORS
330
1D5
102
}
330
1D5
100
AcDbScale
 70
     0
300
1:100
140
1.0
141
100.0
290
     0
  0
SCALE
  5
1E2
102
{ACAD_REACTORS
330
1D5
102
}
330
1D5
100
AcDbScale
 70
     0
300
2:1
140
2.0
141
1.0
290
     0
  0
SCALE
  5
1E3
102
{ACAD_REACTORS
330
1D5
102
}
330
1D5
100
AcDbScale
 70
     0
300
4:1
140
4.0
141
1.0
290
     0
  0
SCALE
  5
1E4
102
{ACAD_REACTORS
330
1D5
102
}
330
1D5
100
AcDbScale
 70
     0
300
8:1
140
8.0
141
1.0
290
     0
  0
SCALE
  5
1E5
102
{ACAD_REACTORS
330
1D5
102
}
330
1D5
100
AcDbScale
 70
     0
300
10:1
140
10.0
141
1.0
290
     0
  0
SCALE
  5
1E6
102
{ACAD_REACTORS
330
1D5
102
}
330
1D5
100
AcDbScale
 70
     0
300
100:1
140
100.0
141
1.0
290
     0
  0
SCALE
  5
1E7
102
{ACAD_REACTORS
330
1D5
102
}
330
1D5
100
AcDbScale
 70
     0
300
1/128" = 1'-0"
140
0.0078125
141
12.0
290
     0
  0
SCALE
  5
1E8
102
{ACAD_REACTORS
330
1D5
102
}
330
1D5
100
AcDbScale
 70
     0
300
1/64" = 1'-0"
140
0.015625
141
12.0
290
     0
  0
SCALE
  5
1E9
102
{ACAD_REACTORS
330
1D5
102
}
330
1D5
100
AcDbScale
 70
     0
300
1/32" = 1'-0"
140
0.03125
141
12.0
290
     0
  0
SCALE
  5
1EA
102
{ACAD_REACTORS
330
1D5
102
}
330
1D5
100
AcDbScale
 70
     0
300
1/16" = 1'-0"
140
0.0625
141
12.0
290
     0
  0
SCALE
  5
1EB
102
{ACAD_REACTORS
330
1D5
102
}
330
1D5
100
AcDbScale
 70
     0
300
3/32" = 1'-0"
140
0.09375
141
12.0
290
     0
  0
SCALE
  5
1EC
102
{ACAD_REACTORS
330
1D5
102
}
330
1D5
100
AcDbScale
 70
     0
300
1/8" = 1'-0"
140
0.125
141
12.0
290
     0
  0
SCALE
  5
1ED
102
{ACAD_REACTORS
330
1D5
102
}
330
1D5
100
AcDbScale
 70
     0
300
3/16" = 1'-0"
140
0.1875
141
12.0
290
     0
  0
SCALE
  5
1EE
102
{ACAD_REACTORS
330
1D5
102
}
330
1D5
100
AcDbScale
 70
     0
300
1/4" = 1'-0"
140
0.25
141
12.0
290
     0
  0
SCALE
  5
1EF
102
{ACAD_REACTORS
330
1D5
102
}
330
1D5
100
AcDbScale
 70
     0
300
3/8" = 1'-0"
140
0.375
141
12.0
290
     0
  0
SCALE
  5
1F0
102
{ACAD_REACTORS
330
1D5
102
}
330
1D5
100
AcDbScale
 70
     0
300
1/2" = 1'-0"
140
0.5
141
12.0
290
     0
  0
SCALE
  5
1F1
102
{ACAD_REACTORS
330
1D5
102
}
330
1D5
100
AcDbScale
 70
     0
300
3/4" = 1'-0"
140
0.75
141
12.0
290
     0
  0
SCALE
  5
1F2
102
{ACAD_REACTORS
330
1D5
102
}
330
1D5
100
AcDbScale
 70
     0
300
1" = 1'-0"
140
1.0
141
12.0
290
     0
  0
SCALE
  5
1F3
102
{ACAD_REACTORS
330
1D5
102
}
330
1D5
100
AcDbScale
 70
     0
300
1-1/2" = 1'-0"
140
1.5
141
12.0
290
     0
  0
SCALE
  5
1F4
102
{ACAD_REACTORS
330
1D5
102
}
330
1D5
100
AcDbScale
 70
     0
300
3" = 1'-0"
140
3.0
141
12.0
290
     0
  0
SCALE
  5
1F5
102
{ACAD_REACTORS
330
1D5
102
}
330
1D5
100
AcDbScale
 70
     0
300
6" = 1'-0"
140
6.0
141
12.0
290
     0
  0
SCALE
  5
1F6
102
{ACAD_REACTORS
330
1D5
102
}
330
1D5
100
AcDbScale
 70
     0
300
1'-0" = 1'-0"
140
12.0
141
12.0
290
     0
  0
TABLESTYLE
  5
26F
102
{ACAD_REACTORS
330
26E
102
}
102
{ACAD_XDICTIONARY
360
3CF
102
}
330
26E
100
AcDbTableStyle
  3
Standard
 70
     0
 71
     0
 40
1.5
 41
1.5
280
     0
281
     0
  7
STANDARD
140
4.5
170
     2
 62
     0
 63
   257
283
     0
 90
        4
 91
        0
  1

274
    -2
284
     1
 64
     0
275
    -2
285
     1
 65
     0
276
    -2
286
     1
 66
     0
277
    -2
287
     1
 67
     0
278
    -2
288
     1
 68
     0
279
    -2
289
     1
 69
     0
  7
STANDARD
140
6.0
170
     5
 62
     0
 63
   257
283
     0
 90
        4
 91
        0
  1

274
    -2
284
     1
 64
     0
275
    -2
285
     1
 65
     0
276
    -2
286
     1
 66
     0
277
    -2
287
     1
 67
     0
278
    -2
288
     1
 68
     0
279
    -2
289
     1
 69
     0
  7
STANDARD
140
4.5
170
     5
 62
     0
 63
   257
283
     0
 90
        4
 91
        0
  1

274
    -2
284
     1
 64
     0
275
    -2
285
     1
 65
     0
276
    -2
286
     1
 66
     0
277
    -2
287
     1
 67
     0
278
    -2
288
     1
 68
     0
279
    -2
289
     1
 69
     0
  0
VISUALSTYLE
  5
1FF
102
{ACAD_REACTORS
330
1FA
102
}
330
1FA
100
AcDbVisualStyle
  2
2dWireframe
 70
     4
177
     3
291
     0
 70
    58
 90
        0
176
     1
 90
        2
176
     1
 90
        0
176
     1
 90
        0
176
     1
 40
-0.6
176
     1
 40
-30.0
176
     1
 62
     7
176
     1
 90
        1
176
     1
 90
        4
176
     1
 62
     7
176
     1
 62
   257
176
     1
 90
        1
176
     1
 90
        1
176
     1
 40
1.0
176
     1
 90
        0
176
     1
 62
   257
176
     1
 40
1.0
176
     1
 90
        1
176
     1
 90
        6
176
     1
 90
        2
176
     1
 62
     7
176
     1
 90
        5
176
     1
 90
        0
176
     1
 90
        0
176
     1
290
     0
176
     1
 90
        1
176
     1
 40
0.0
176
     1
 90
        0
176
     1
290
     1
176
     1
290
     1
176
     1
290
     0
176
     1
290
     0
176
     1
290
     0
176
     1
290
     0
176
     1
290
     0
176
     1
290
     0
176
     1
290
     0
176
     1
 90
       50
176
     1
 40
0.0
176
     1
 40
1.0
176
     1
 90
        0
176
     1
 62
    18
420
        0
176
     1
 90
       50
176
     1
 90
        3
176
     1
 62
     5
420
      255
176
     1
290
     0
176
     1
 90
       50
176
     1
 90
       50
176
     1
 90
       50
176
     1
290
     0
176
     1
 90
       50
176
     1
 62
   256
176
     0
 40
1.0
176
     0
 90
        2
176
     1
  1
strokes_ogs.tif
176
     1
290
     0
176
     1
 40
1.0
176
     1
 40
1.0
176
     1
  0
VISUALSTYLE
  5
201
102
{ACAD_REACTORS
330
1FA
102
}
330
1FA
100
AcDbVisualStyle
  2
3D Hidden
 70
     6
177
     3
291
     0
 70
    58
 90
        1
176
     1
 90
        2
176
     1
 90
        2
176
     1
 90
        0
176
     1
 40
-0.6
176
     1
 40
-30.0
176
     1
 62
     7
176
     1
 90
        2
176
     1
 90
        2
176
     1
 62
     7
176
     1
 62
   257
176
     1
 90
        2
176
     1
 90
        1
176
     1
 40
40.0
176
     1
 90
        0
176
     1
 62
   257
176
     1
 40
1.0
176
     1
 90
        1
176
     1
 90
        6
176
     1
 90
        2
176
     1
 62
     7
176
     1
 90
        3
176
     1
 90
        0
176
     1
 90
        0
176
     1
290
     0
176
     1
 90
        1
176
     1
 40
0.0
176
     1
 90
        0
176
     1
290
     0
176
     1
290
     1
176
     1
290
     1
176
     1
290
     0
176
     1
290
     0
176
     1
290
     0
176
     1
290
     0
176
     1
290
     0
176
     1
290
     0
176
     1
 90
       50
176
     1
 40
0.0
176
     1
 40
1.0
176
     1
 90
        0
176
     1
 62
    18
420
        0
176
     1
 90
       50
176
     1
 90
        3
176
     1
 62
     5
420
      255
176
     1
290
     0
176
     1
 90
       50
176
     1
 90
       50
176
     1
 90
       50
176
     1
290
     0
176
     1
 90
       50
176
     1
 62
   256
176
     0
 40
1.0
176
     0
 90
        2
176
     1
  1
strokes_ogs.tif
176
     1
290
     0
176
     1
 40
1.0
176
     1
 40
1.0
176
     1
  0
VISUALSTYLE
  5
200
102
{ACAD_REACTORS
330
1FA
102
}
330
1FA
100
AcDbVisualStyle
  2
3dWireframe
 70
     5
177
     3
291
     0
 70
    58
 90
        0
176
     1
 90
        2
176
     1
 90
        0
176
     1
 90
        0
176
     1
 40
-0.6
176
     1
 40
-30.0
176
     1
 62
     7
176
     1
 90
        1
176
     1
 90
        4
176
     1
 62
     7
176
     1
 62
   257
176
     1
 90
        1
176
     1
 90
        1
176
     1
 40
1.0
176
     1
 90
        0
176
     1
 62
   257
176
     1
 40
1.0
176
     1
 90
        1
176
     1
 90
        6
176
     1
 90
        2
176
     1
 62
     7
176
     1
 90
        5
176
     1
 90
        0
176
     1
 90
        0
176
     1
290
     0
176
     1
 90
        1
176
     1
 40
0.0
176
     1
 90
        0
176
     1
290
     0
176
     1
290
     1
176
     1
290
     1
176
     1
290
     0
176
     1
290
     0
176
     1
290
     0
176
     1
290
     0
176
     1
290
     0
176
     1
290
     0
176
     1
 90
       50
176
     1
 40
0.0
176
     1
 40
1.0
176
     1
 90
        0
176
     1
 62
    18
420
        0
176
     1
 90
       50
176
     1
 90
        3
176
     1
 62
     5
420
      255
176
     1
290
     0
176
     1
 90
       50
176
     1
 90
       50
176
     1
 90
       50
176
     1
290
     0
176
     1
 90
       50
176
     1
 62
   256
176
     0
 40
1.0
176
     0
 90
        2
176
     1
  1
strokes_ogs.tif
176
     1
290
     0
176
     1
 40
1.0
176
     1
 40
1.0
176
     1
  0
VISUALSTYLE
  5
202
102
{ACAD_REACTORS
330
1FA
102
}
330
1FA
100
AcDbVisualStyle
  2
Basic
 70
     7
177
     3
291
     1
 70
    58
 90
        1
176
     1
 90
        0
176
     1
 90
        1
176
     1
 90
        0
176
     1
 40
-0.6
176
     1
 40
-30.0
176
     1
 62
     7
176
     1
 90
        0
176
     1
 90
        4
176
     1
 62
     7
176
     1
 62
   257
176
     1
 90
        1
176
     1
 90
        1
176
     1
 40
1.0
176
     1
 90
        8
176
     1
 62
     7
176
     1
 40
1.0
176
     1
 90
        1
176
     1
 90
        6
176
     1
 90
        2
176
     1
 62
     7
176
     1
 90
        5
176
     1
 90
        0
176
     1
 90
        0
176
     1
290
     0
176
     1
 90
        1
176
     1
 40
0.0
176
     1
 90
        0
176
     1
290
     0
176
     1
290
     1
176
     1
290
     1
176
     1
290
     0
176
     1
290
     0
176
     1
290
     0
176
     1
290
     0
176
     1
290
     0
176
     1
290
     0
176
     1
 90
       50
176
     1
 40
0.0
176
     1
 40
1.0
176
     1
 90
        0
176
     1
 62
    18
420
        0
176
     1
 90
       50
176
     1
 90
        3
176
     1
 62
     5
420
      255
176
     1
290
     0
176
     1
 90
       50
176
     1
 90
       50
176
     1
 90
       50
176
     1
290
     0
176
     1
 90
       50
176
     1
 62
   256
176
     0
 40
1.0
176
     0
 90
        2
176
     1
  1
strokes_ogs.tif
176
     1
290
     0
176
     1
 40
1.0
176
     1
 40
1.0
176
     1
  0
VISUALSTYLE
  5
206
102
{ACAD_REACTORS
330
1FA
102
}
330
1FA
100
AcDbVisualStyle
  2
Brighten
 70
    12
177
     3
291
     1
 70
    58
 90
        2
176
     1
 90
        2
176
     1
 90
        0
176
     1
 90
        0
176
     1
 40
-0.6
176
     1
 40
-30.0
176
     1
 62
     7
176
     1
 90
        1
176
     1
 90
        4
176
     1
 62
     7
176
     1
 62
   257
176
     1
 90
        1
176
     1
 90
        1
176
     1
 40
1.0
176
     1
 90
        8
176
     1
 62
     7
176
     1
 40
1.0
176
     1
 90
        1
176
     1
 90
        6
176
     1
 90
        2
176
     1
 62
     7
176
     1
 90
        5
176
     1
 90
        0
176
     1
 90
        0
176
     1
290
     0
176
     1
 90
        1
176
     1
 40
50.0
176
     1
 90
        0
176
     1
290
     0
176
     1
290
     1
176
     1
290
     1
176
     1
290
     0
176
     1
290
     0
176
     1
290
     0
176
     1
290
     0
176
     1
290
     0
176
     1
290
     0
176
     1
 90
       50
176
     1
 40
0.0
176
     1
 40
1.0
176
     1
 90
        0
176
     1
 62
    18
420
        0
176
     1
 90
       50
176
     1
 90
        3
176
     1
 62
     5
420
      255
176
     1
290
     0
176
     1
 90
       50
176
     1
 90
       50
176
     1
 90
       50
176
     1
290
     0
176
     1
 90
       50
176
     1
 62
   256
176
     0
 40
1.0
176
     0
 90
        2
176
     1
  1
strokes_ogs.tif
176
     1
290
     0
176
     1
 40
1.0
176
     1
 40
1.0
176
     1
  0
VISUALSTYLE
  5
20A
102
{ACAD_REACTORS
330
1FA
102
}
330
1FA
100
AcDbVisualStyle
  2
ColorChange
 70
    16
177
     3
291
     1
 70
    58
 90
        2
176
     1
 90
        2
176
     1
 90
        3
176
     1
 90
        0
176
     1
 40
-0.6
176
     1
 40
-30.0
176
     1
 62
     8
176
     1
 90
        1
176
     1
 90
        4
176
     1
 62
     7
176
     1
 62
   257
176
     1
 90
        1
176
     1
 90
        1
176
     1
 40
1.0
176
     1
 90
        8
176
     1
 62
     8
176
     1
 40
1.0
176
     1
 90
        1
176
     1
 90
        6
176
     1
 90
        2
176
     1
 62
     7
176
     1
 90
        5
176
     1
 90
        0
176
     1
 90
        0
176
     1
290
     0
176
     1
 90
        1
176
     1
 40
0.0
176
     1
 90
        0
176
     1
290
     0
176
     1
290
     1
176
     1
290
     1
176
     1
290
     0
176
     1
290
     0
176
     1
290
     0
176
     1
290
     0
176
     1
290
     0
176
     1
290
     0
176
     1
 90
       50
176
     1
 40
0.0
176
     1
 40
1.0
176
     1
 90
        0
176
     1
 62
    18
420
        0
176
     1
 90
       50
176
     1
 90
        3
176
     1
 62
     5
420
      255
176
     1
290
     0
176
     1
 90
       50
176
     1
 90
       50
176
     1
 90
       50
176
     1
290
     0
176
     1
 90
       50
176
     1
 62
   256
176
     0
 40
1.0
176
     0
 90
        2
176
     1
  1
strokes_ogs.tif
176
     1
290
     0
176
     1
 40
1.0
176
     1
 40
1.0
176
     1
  0
VISUALSTYLE
  5
204
102
{ACAD_REACTORS
330
1FA
102
}
330
1FA
100
AcDbVisualStyle
  2
Conceptual
 70
     9
177
     3
291
     0
 70
    58
 90
        3
176
     1
 90
        2
176
     1
 90
        0
176
     1
 90
        0
176
     1
 40
-0.6
176
     1
 40
-30.0
176
     1
 62
     7
176
     1
 90
        2
176
     1
 90
        2
176
     1
 62
     7
176
     1
 62
   257
176
     1
 90
        1
176
     1
 90
        1
176
     1
 40
40.0
176
     1
 90
        8
176
     1
 62
     7
176
     1
 40
1.0
176
     1
 90
        1
176
     1
 90
        6
176
     1
 90
        2
176
     1
 62
     7
176
     1
 90
        3
176
     1
 90
        0
176
     1
 90
        0
176
     1
290
     0
176
     1
 90
        1
176
     1
 40
0.0
176
     1
 90
        0
176
     1
290
     0
176
     1
290
     1
176
     1
290
     1
176
     1
290
     0
176
     1
290
     0
176
     1
290
     0
176
     1
290
     0
176
     1
290
     0
176
     1
290
     0
176
     1
 90
       50
176
     1
 40
0.0
176
     1
 40
1.0
176
     1
 90
        0
176
     1
 62
    18
420
        0
176
     1
 90
       50
176
     1
 90
        3
176
     1
 62
     5
420
      255
176
     1
290
     0
176
     1
 90
       50
176
     1
 90
       50
176
     1
 90
       50
176
     1
290
     0
176
     1
 90
       50
176
     1
 62
   256
176
     0
 40
1.0
176
     0
 90
        2
176
     1
  1
strokes_ogs.tif
176
     1
290
     0
176
     1
 40
1.0
176
     1
 40
1.0
176
     1
  0
VISUALSTYLE
  5
205
102
{ACAD_REACTORS
330
1FA
102
}
330
1FA
100
AcDbVisualStyle
  2
Dim
 70
    11
177
     3
291
     1
 70
    58
 90
        2
176
     1
 90
        2
176
     1
 90
        0
176
     1
 90
        0
176
     1
 40
-0.6
176
     1
 40
-30.0
176
     1
 62
     7
176
     1
 90
        1
176
     1
 90
        4
176
     1
 62
     7
176
     1
 62
   257
176
     1
 90
        1
176
     1
 90
        1
176
     1
 40
1.0
176
     1
 90
        8
176
     1
 62
     7
176
     1
 40
1.0
176
     1
 90
        1
176
     1
 90
        6
176
     1
 90
        2
176
     1
 62
     7
176
     1
 90
        5
176
     1
 90
        0
176
     1
 90
        0
176
     1
290
     0
176
     1
 90
        1
176
     1
 40
-50.0
176
     1
 90
        0
176
     1
290
     0
176
     1
290
     1
176
     1
290
     1
176
     1
290
     0
176
     1
290
     0
176
     1
290
     0
176
     1
290
     0
176
     1
290
     0
176
     1
290
     0
176
     1
 90
       50
176
     1
 40
0.0
176
     1
 40
1.0
176
     1
 90
        0
176
     1
 62
    18
420
        0
176
     1
 90
       50
176
     1
 90
        3
176
     1
 62
     5
420
      255
176
     1
290
     0
176
     1
 90
       50
176
     1
 90
       50
176
     1
 90
       50
176
     1
290
     0
176
     1
 90
       50
176
     1
 62
   256
176
     0
 40
1.0
176
     0
 90
        2
176
     1
  1
strokes_ogs.tif
176
     1
290
     0
176
     1
 40
1.0
176
     1
 40
1.0
176
     1
  0
VISUALSTYLE
  5
268
102
{ACAD_REACTORS
330
1FA
102
}
330
1FA
100
AcDbVisualStyle
  2
EdgeColorOff
 70
    22
177
     3
291
     1
 70
    58
 90
        2
176
     0
 90
        2
176
     0
 90
        0
176
     0
 90
        0
176
     0
 40
0.6
176
     0
 40
30.0
176
     0
 62
     7
420
 16777215
176
     0
 90
        1
176
     0
 90
        4
176
     0
 62
     7
176
     0
 62
   257
176
     0
 90
        1
176
     0
 90
        1
176
     0
 40
1.0
176
     0
 90
        8
176
     2
 62
     7
176
     0
 40
1.0
176
     0
 90
        1
176
     0
 90
        6
176
     0
 90
        2
176
     0
 62
     7
176
     0
 90
        5
176
     0
 90
        0
176
     0
 90
        0
176
     0
290
     0
176
     0
 90
        1
176
     0
 40
0.0
176
     0
 90
        0
176
     0
290
     0
176
     0
290
     1
176
     0
290
     1
176
     0
290
     0
176
     0
290
     0
176
     0
290
     0
176
     0
290
     0
176
     0
290
     0
176
     0
290
     0
176
     0
 90
       50
176
     0
 40
0.0
176
     0
 40
1.0
176
     0
 90
        0
176
     0
 62
    18
420
        0
176
     0
 90
       50
176
     0
 90
        3
176
     0
 62
     5
420
      255
176
     0
290
     0
176
     0
 90
       50
176
     0
 90
       50
176
     0
 90
       50
176
     0
290
     0
176
     0
 90
       50
176
     0
 62
   256
176
     0
 40
1.0
176
     0
 90
        2
176
     0
  1
strokes_ogs.tif
176
     0
290
     0
176
     0
 40
1.0
176
     0
 40
1.0
176
     0
  0
VISUALSTYLE
  5
209
102
{ACAD_REACTORS
330
1FA
102
}
330
1FA
100
AcDbVisualStyle
  2
Facepattern
 70
    15
177
     3
291
     1
 70
    58
 90
        2
176
     1
 90
        2
176
     1
 90
        0
176
     1
 90
        0
176
     1
 40
-0.6
176
     1
 40
-30.0
176
     1
 62
     7
176
     1
 90
        1
176
     1
 90
        4
176
     1
 62
     7
176
     1
 62
   257
176
     1
 90
        1
176
     1
 90
        1
176
     1
 40
1.0
176
     1
 90
        8
176
     1
 62
     7
176
     1
 40
1.0
176
     1
 90
        1
176
     1
 90
        6
176
     1
 90
        2
176
     1
 62
     7
176
     1
 90
        5
176
     1
 90
        0
176
     1
 90
        0
176
     1
290
     0
176
     1
 90
        1
176
     1
 40
0.0
176
     1
 90
        0
176
     1
290
     0
176
     1
290
     1
176
     1
290
     1
176
     1
290
     0
176
     1
290
     0
176
     1
290
     0
176
     1
290
     0
176
     1
290
     0
176
     1
290
     0
176
     1
 90
       50
176
     1
 40
0.0
176
     1
 40
1.0
176
     1
 90
        0
176
     1
 62
    18
420
        0
176
     1
 90
       50
176
     1
 90
        3
176
     1
 62
     5
420
      255
176
     1
290
     0
176
     1
 90
       50
176
     1
 90
       50
176
     1
 90
       50
176
     1
290
     0
176
     1
 90
       50
176
     1
 62
   256
176
     0
 40
1.0
176
     0
 90
        2
176
     1
  1
strokes_ogs.tif
176
     1
290
     0
176
     1
 40
1.0
176
     1
 40
1.0
176
     1
  0
VISUALSTYLE
  5
1FB
102
{ACAD_REACTORS
330
1FA
102
}
330
1FA
100
AcDbVisualStyle
  2
Flat
 70
     0
177
     3
291
     1
 70
    58
 90
        2
176
     1
 90
        1
176
     1
 90
        1
176
     1
 90
        2
176
     1
 40
-0.6
176
     1
 40
30.0
176
     1
 62
     7
176
     1
 90
        0
176
     1
 90
        4
176
     1
 62
     7
176
     1
 62
   257
176
     1
 90
        1
176
     1
 90
        1
176
     1
 40
1.0
176
     1
 90
        8
176
     1
 62
     7
176
     1
 40
1.0
176
     1
 90
        1
176
     1
 90
        6
176
     1
 90
        2
176
     1
 62
     7
176
     1
 90
        5
176
     1
 90
        0
176
     1
 90
        0
176
     1
290
     0
176
     1
 90
       13
176
     1
 40
0.0
176
     1
 90
        0
176
     1
290
     0
176
     1
290
     1
176
     1
290
     1
176
     1
290
     0
176
     1
290
     0
176
     1
290
     0
176
     1
290
     0
176
     1
290
     0
176
     1
290
     0
176
     1
 90
       50
176
     1
 40
0.0
176
     1
 40
1.0
176
     1
 90
        0
176
     1
 62
    18
420
        0
176
     1
 90
       50
176
     1
 90
        3
176
     1
 62
     5
420
      255
176
     1
290
     0
176
     1
 90
       50
176
     1
 90
       50
176
     1
 90
       50
176
     1
290
     0
176
     1
 90
       50
176
     1
 62
   256
176
     0
 40
1.0
176
     0
 90
        2
176
     1
  1
strokes_ogs.tif
176
     1
290
     0
176
     1
 40
1.0
176
     1
 40
1.0
176
     1
  0
VISUALSTYLE
  5
1FC
102
{ACAD_REACTORS
330
1FA
102
}
330
1FA
100
AcDbVisualStyle
  2
FlatWithEdges
 70
     1
177
     3
291
     1
 70
    58
 90
        2
176
     1
 90
        1
176
     1
 90
        1
176
     1
 90
        2
176
     1
 40
-0.6
176
     1
 40
30.0
176
     1
 62
     7
176
     1
 90
        1
176
     1
 90
        4
176
     1
 62
     7
176
     1
 62
   257
176
     1
 90
        1
176
     1
 90
        1
176
     1
 40
1.0
176
     1
 90
        0
176
     1
 62
   257
176
     1
 40
1.0
176
     1
 90
        1
176
     1
 90
        6
176
     1
 90
        2
176
     1
 62
     7
176
     1
 90
        5
176
     1
 90
        0
176
     1
 90
        0
176
     1
290
     0
176
     1
 90
       13
176
     1
 40
0.0
176
     1
 90
        0
176
     1
290
     0
176
     1
290
     1
176
     1
290
     1
176
     1
290
     0
176
     1
290
     0
176
     1
290
     0
176
     1
290
     0
176
     1
290
     0
176
     1
290
     0
176
     1
 90
       50
176
     1
 40
0.0
176
     1
 40
1.0
176
     1
 90
        0
176
     1
 62
    18
420
        0
176
     1
 90
       50
176
     1
 90
        3
176
     1
 62
     5
420
      255
176
     1
290
     0
176
     1
 90
       50
176
     1
 90
       50
176
     1
 90
       50
176
     1
290
     0
176
     1
 90
       50
176
     1
 62
   256
176
     0
 40
1.0
176
     0
 90
        2
176
     1
  1
strokes_ogs.tif
176
     1
290
     0
176
     1
 40
1.0
176
     1
 40
1.0
176
     1
  0
VISUALSTYLE
  5
1FD
102
{ACAD_REACTORS
330
1FA
102
}
330
1FA
100
AcDbVisualStyle
  2
Gouraud
 70
     2
177
     3
291
     1
 70
    58
 90
        2
176
     1
 90
        2
176
     1
 90
        1
176
     1
 90
        2
176
     1
 40
-0.6
176
     1
 40
30.0
176
     1
 62
     7
176
     1
 90
        0
176
     1
 90
        4
176
     1
 62
     7
176
     1
 62
   257
176
     1
 90
        1
176
     1
 90
        1
176
     1
 40
1.0
176
     1
 90
        0
176
     1
 62
     7
176
     1
 40
1.0
176
     1
 90
        1
176
     1
 90
        6
176
     1
 90
        2
176
     1
 62
     7
176
     1
 90
        5
176
     1
 90
        0
176
     1
 90
        0
176
     1
290
     0
176
     1
 90
       13
176
     1
 40
0.0
176
     1
 90
        0
176
     1
290
     0
176
     1
290
     1
176
     1
290
     1
176
     1
290
     0
176
     1
290
     0
176
     1
290
     0
176
     1
290
     0
176
     1
290
     0
176
     1
290
     0
176
     1
 90
       50
176
     1
 40
0.0
176
     1
 40
1.0
176
     1
 90
        0
176
     1
 62
    18
420
        0
176
     1
 90
       50
176
     1
 90
        3
176
     1
 62
     5
420
      255
176
     1
290
     0
176
     1
 90
       50
176
     1
 90
       50
176
     1
 90
       50
176
     1
290
     0
176
     1
 90
       50
176
     1
 62
   256
176
     0
 40
1.0
176
     0
 90
        2
176
     1
  1
strokes_ogs.tif
176
     1
290
     0
176
     1
 40
1.0
176
     1
 40
1.0
176
     1
  0
VISUALSTYLE
  5
1FE
102
{ACAD_REACTORS
330
1FA
102
}
330
1FA
100
AcDbVisualStyle
  2
GouraudWithEdges
 70
     3
177
     3
291
     1
 70
    58
 90
        2
176
     1
 90
        2
176
     1
 90
        1
176
     1
 90
        2
176
     1
 40
-0.6
176
     1
 40
30.0
176
     1
 62
     7
176
     1
 90
        1
176
     1
 90
        4
176
     1
 62
     7
176
     1
 62
   257
176
     1
 90
        1
176
     1
 90
        1
176
     1
 40
1.0
176
     1
 90
        0
176
     1
 62
   257
176
     1
 40
1.0
176
     1
 90
        1
176
     1
 90
        6
176
     1
 90
        2
176
     1
 62
     7
176
     1
 90
        5
176
     1
 90
        0
176
     1
 90
        0
176
     1
290
     0
176
     1
 90
       13
176
     1
 40
0.0
176
     1
 90
        0
176
     1
290
     0
176
     1
290
     1
176
     1
290
     1
176
     1
290
     0
176
     1
290
     0
176
     1
290
     0
176
     1
290
     0
176
     1
290
     0
176
     1
290
     0
176
     1
 90
       50
176
     1
 40
0.0
176
     1
 40
1.0
176
     1
 90
        0
176
     1
 62
    18
420
        0
176
     1
 90
       50
176
     1
 90
        3
176
     1
 62
     5
420
      255
176
     1
290
     0
176
     1
 90
       50
176
     1
 90
       50
176
     1
 90
       50
176
     1
290
     0
176
     1
 90
       50
176
     1
 62
   256
176
     0
 40
1.0
176
     0
 90
        2
176
     1
  1
strokes_ogs.tif
176
     1
290
     0
176
     1
 40
1.0
176
     1
 40
1.0
176
     1
  0
VISUALSTYLE
  5
265
102
{ACAD_REACTORS
330
1FA
102
}
330
1FA
100
AcDbVisualStyle
  2
Hidden
 70
     6
177
     3
291
     0
 70
    58
 90
        1
176
     1
 90
        2
176
     1
 90
        2
176
     1
 90
        0
176
     1
 40
0.6
176
     1
 40
30.0
176
     1
 62
     7
420
 16777215
176
     1
 90
        2
176
     1
 90
        2
176
     1
 62
     7
176
     1
 62
   257
176
     1
 90
        2
176
     1
 90
        1
176
     1
 40
40.0
176
     1
 90
        0
176
     1
 62
   257
176
     1
 40
1.0
176
     1
 90
        1
176
     1
 90
        6
176
     1
 90
        2
176
     1
 62
     7
176
     1
 90
        3
176
     1
 90
        0
176
     1
 90
        0
176
     1
290
     0
176
     1
 90
        1
176
     1
 40
0.0
176
     1
 90
        0
176
     1
290
     0
176
     1
290
     1
176
     1
290
     1
176
     1
290
     0
176
     1
290
     0
176
     1
290
     0
176
     1
290
     0
176
     1
290
     0
176
     1
290
     0
176
     1
 90
       50
176
     1
 40
0.0
176
     1
 40
1.0
176
     1
 90
        0
176
     1
 62
    18
420
        0
176
     1
 90
       50
176
     1
 90
        3
176
     1
 62
     5
420
      255
176
     1
290
     0
176
     1
 90
       50
176
     1
 90
       50
176
     1
 90
       50
176
     1
290
     0
176
     1
 90
       50
176
     1
 62
   256
176
     0
 40
1.0
176
     0
 90
        2
176
     1
  1
strokes_ogs.tif
176
     1
290
     0
176
     1
 40
1.0
176
     1
 40
1.0
176
     1
  0
VISUALSTYLE
  5
266
102
{ACAD_REACTORS
330
1FA
102
}
330
1FA
100
AcDbVisualStyle
  2
JitterOff
 70
    20
177
     3
291
     1
 70
    58
 90
        2
176
     0
 90
        2
176
     0
 90
        0
176
     0
 90
        0
176
     0
 40
0.6
176
     0
 40
30.0
176
     0
 62
     7
420
 16777215
176
     0
 90
        1
176
     0
 90
        4
176
     0
 62
     7
176
     0
 62
   257
176
     0
 90
        1
176
     0
 90
        1
176
     0
 40
1.0
176
     0
 90
       10
176
     2
 62
     7
176
     0
 40
1.0
176
     0
 90
        1
176
     0
 90
        6
176
     0
 90
        2
176
     0
 62
     7
176
     0
 90
        5
176
     0
 90
        0
176
     0
 90
        0
176
     0
290
     0
176
     0
 90
        1
176
     0
 40
0.0
176
     0
 90
        0
176
     0
290
     0
176
     0
290
     1
176
     0
290
     1
176
     0
290
     0
176
     0
290
     0
176
     0
290
     0
176
     0
290
     0
176
     0
290
     0
176
     0
290
     0
176
     0
 90
       50
176
     0
 40
0.0
176
     0
 40
1.0
176
     0
 90
        0
176
     0
 62
    18
420
        0
176
     0
 90
       50
176
     0
 90
        3
176
     0
 62
     5
420
      255
176
     0
290
     0
176
     0
 90
       50
176
     0
 90
       50
176
     0
 90
       50
176
     0
290
     0
176
     0
 90
       50
176
     0
 62
   256
176
     0
 40
1.0
176
     0
 90
        2
176
     0
  1
strokes_ogs.tif
176
     0
290
     0
176
     0
 40
1.0
176
     0
 40
1.0
176
     0
  0
VISUALSTYLE
  5
208
102
{ACAD_REACTORS
330
1FA
102
}
330
1FA
100
AcDbVisualStyle
  2
Linepattern
 70
    14
177
     3
291
     1
 70
    58
 90
        2
176
     1
 90
        2
176
     1
 90
        0
176
     1
 90
        0
176
     1
 40
-0.6
176
     1
 40
-30.0
176
     1
 62
     7
176
     1
 90
        1
176
     1
 90
        4
176
     1
 62
     7
176
     1
 62
   257
176
     1
 90
        7
176
     1
 90
        7
176
     1
 40
1.0
176
     1
 90
        8
176
     1
 62
     7
176
     1
 40
1.0
176
     1
 90
        1
176
     1
 90
        6
176
     1
 90
        2
176
     1
 62
     7
176
     1
 90
        5
176
     1
 90
        0
176
     1
 90
        0
176
     1
290
     0
176
     1
 90
        1
176
     1
 40
0.0
176
     1
 90
        0
176
     1
290
     0
176
     1
290
     1
176
     1
290
     1
176
     1
290
     0
176
     1
290
     0
176
     1
290
     0
176
     1
290
     0
176
     1
290
     0
176
     1
290
     0
176
     1
 90
       50
176
     1
 40
0.0
176
     1
 40
1.0
176
     1
 90
        0
176
     1
 62
    18
420
        0
176
     1
 90
       50
176
     1
 90
        3
176
     1
 62
     5
420
      255
176
     1
290
     0
176
     1
 90
       50
176
     1
 90
       50
176
     1
 90
       50
176
     1
290
     0
176
     1
 90
       50
176
     1
 62
   256
176
     0
 40
1.0
176
     0
 90
        2
176
     1
  1
strokes_ogs.tif
176
     1
290
     0
176
     1
 40
1.0
176
     1
 40
1.0
176
     1
  0
VISUALSTYLE
  5
267
102
{ACAD_REACTORS
330
1FA
102
}
330
1FA
100
AcDbVisualStyle
  2
OverhangOff
 70
    21
177
     3
291
     1
 70
    58
 90
        2
176
     0
 90
        2
176
     0
 90
        0
176
     0
 90
        0
176
     0
 40
0.6
176
     0
 40
30.0
176
     0
 62
     7
420
 16777215
176
     0
 90
        1
176
     0
 90
        4
176
     0
 62
     7
176
     0
 62
   257
176
     0
 90
        1
176
     0
 90
        1
176
     0
 40
1.0
176
     0
 90
        9
176
     2
 62
     7
176
     0
 40
1.0
176
     0
 90
        1
176
     0
 90
        6
176
     0
 90
        2
176
     0
 62
     7
176
     0
 90
        5
176
     0
 90
        0
176
     0
 90
        0
176
     0
290
     0
176
     0
 90
        1
176
     0
 40
0.0
176
     0
 90
        0
176
     0
290
     0
176
     0
290
     1
176
     0
290
     1
176
     0
290
     0
176
     0
290
     0
176
     0
290
     0
176
     0
290
     0
176
     0
290
     0
176
     0
290
     0
176
     0
 90
       50
176
     0
 40
0.0
176
     0
 40
1.0
176
     0
 90
        0
176
     0
 62
    18
420
        0
176
     0
 90
       50
176
     0
 90
        3
176
     0
 62
     5
420
      255
176
     0
290
     0
176
     0
 90
       50
176
     0
 90
       50
176
     0
 90
       50
176
     0
290
     0
176
     0
 90
       50
176
     0
 62
   256
176
     0
 40
1.0
176
     0
 90
        2
176
     0
  1
strokes_ogs.tif
176
     0
290
     0
176
     0
 40
1.0
176
     0
 40
1.0
176
     0
  0
VISUALSTYLE
  5
203
102
{ACAD_REACTORS
330
1FA
102
}
330
1FA
100
AcDbVisualStyle
  2
Realistic
 70
     8
177
     3
291
     0
 70
    58
 90
        2
176
     1
 90
        2
176
     1
 90
        0
176
     1
 90
        0
176
     1
 40
-0.6
176
     1
 40
-30.0
176
     1
 62
     7
176
     1
 90
        1
176
     1
 90
        0
176
     1
 62
     7
176
     1
 62
   257
176
     1
 90
        1
176
     1
 90
        1
176
     1
 40
1.0
176
     1
 90
        8
176
     1
 62
     8
176
     1
 40
1.0
176
     1
 90
        1
176
     1
 90
        6
176
     1
 90
        2
176
     1
 62
     7
176
     1
 90
        5
176
     1
 90
        0
176
     1
 90
        0
176
     1
290
     0
176
     1
 90
       13
176
     1
 40
0.0
176
     1
 90
        0
176
     1
290
     0
176
     1
290
     1
176
     1
290
     1
176
     1
290
     0
176
     1
290
     0
176
     1
290
     0
176
     1
290
     0
176
     1
290
     0
176
     1
290
     0
176
     1
 90
       50
176
     1
 40
0.0
176
     1
 40
1.0
176
     1
 90
        0
176
     1
 62
    18
420
        0
176
     1
 90
       50
176
     1
 90
        3
176
     1
 62
     5
420
      255
176
     1
290
     0
176
     1
 90
       50
176
     1
 90
       50
176
     1
 90
       50
176
     1
290
     0
176
     1
 90
       50
176
     1
 62
   256
176
     0
 40
1.0
176
     0
 90
        2
176
     1
  1
strokes_ogs.tif
176
     1
290
     0
176
     1
 40
1.0
176
     1
 40
1.0
176
     1
  0
VISUALSTYLE
  5
26D
102
{ACAD_REACTORS
330
1FA
102
}
330
1FA
100
AcDbVisualStyle
  2
Shaded
 70
    27
177
     3
291
     0
 70
    58
 90
        2
176
     1
 90
        2
176
     1
 90
        1
176
     1
 90
        2
176
     1
 40
0.6
176
     1
 40
30.0
176
     1
 62
     7
420
 16777215
176
     1
 90
        0
176
     1
 90
        4
176
     1
 62
     7
176
     1
 62
   257
176
     1
 90
        1
176
     1
 90
        1
176
     1
 40
1.0
176
     1
 90
        8
176
     1
 62
   257
176
     1
 40
1.0
176
     1
 90
        1
176
     1
 90
        6
176
     1
 90
        2
176
     1
 62
     8
420
  7895160
176
     1
 90
        3
176
     1
 90
        0
176
     1
 90
        0
176
     1
290
     0
176
     1
 90
        5
176
     1
 40
0.0
176
     1
 90
        0
176
     1
290
     0
176
     1
290
     1
176
     1
290
     1
176
     1
290
     0
176
     1
290
     0
176
     1
290
     0
176
     1
290
     0
176
     1
290
     0
176
     1
290
     0
176
     1
 90
       50
176
     1
 40
0.0
176
     1
 40
1.0
176
     1
 90
        0
176
     1
 62
    18
420
        0
176
     1
 90
       50
176
     1
 90
        3
176
     1
 62
     5
420
      255
176
     1
290
     0
176
     1
 90
       50
176
     1
 90
       50
176
     1
 90
       50
176
     1
290
     0
176
     1
 90
       50
176
     1
 62
   256
176
     0
 40
1.0
176
     0
 90
        2
176
     1
  1
strokes_ogs.tif
176
     1
290
     0
176
     1
 40
1.0
176
     1
 40
1.0
176
     1
  0
VISUALSTYLE
  5
26C
102
{ACAD_REACTORS
330
1FA
102
}
330
1FA
100
AcDbVisualStyle
  2
Shaded with edges
 70
    26
177
     3
291
     0
 70
    58
 90
        2
176
     1
 90
        2
176
     1
 90
        1
176
     1
 90
        2
176
     1
 40
0.6
176
     1
 40
30.0
176
     1
 62
     7
420
 16777215
176
     1
 90
        1
176
     1
 90
       10
176
     1
 62
     7
176
     1
 62
   257
176
     1
 90
        2
176
     1
 90
        1
176
     1
 40
1.0
176
     1
 90
        8
176
     1
 62
   257
176
     1
 40
1.0
176
     1
 90
        1
176
     1
 90
        6
176
     1
 90
        2
176
     1
 62
     7
176
     1
 90
        3
176
     1
 90
        0
176
     1
 90
        0
176
     1
290
     0
176
     1
 90
        5
176
     1
 40
0.0
176
     1
 90
        0
176
     1
290
     0
176
     1
290
     1
176
     1
290
     1
176
     1
290
     0
176
     1
290
     0
176
     1
290
     0
176
     1
290
     0
176
     1
290
     0
176
     1
290
     0
176
     1
 90
       50
176
     1
 40
0.0
176
     1
 40
1.0
176
     1
 90
        0
176
     1
 62
    18
420
        0
176
     1
 90
       50
176
     1
 90
        3
176
     1
 62
     5
420
      255
176
     1
290
     0
176
     1
 90
       50
176
     1
 90
       50
176
     1
 90
       50
176
     1
290
     0
176
     1
 90
       50
176
     1
 62
   256
176
     0
 40
1.0
176
     0
 90
        2
176
     1
  1
strokes_ogs.tif
176
     1
290
     0
176
     1
 40
1.0
176
     1
 40
1.0
176
     1
  0
VISUALSTYLE
  5
269
102
{ACAD_REACTORS
330
1FA
102
}
330
1FA
100
AcDbVisualStyle
  2
Shades of Gray
 70
    23
177
     3
291
     0
 70
    58
 90
        2
176
     1
 90
        2
176
     1
 90
        3
176
     1
 90
        0
176
     1
 40
0.6
176
     1
 40
30.0
176
     1
 62
     7
420
 16777215
176
     1
 90
        2
176
     1
 90
        2
176
     1
 62
     7
176
     1
 62
     7
176
     1
 90
        1
176
     1
 90
        1
176
     1
 40
40.0
176
     1
 90
        8
176
     1
 62
     7
176
     1
 40
1.0
176
     1
 90
        1
176
     1
 90
        6
176
     1
 90
        2
176
     1
 62
     7
176
     1
 90
        3
176
     1
 90
        0
176
     1
 90
        0
176
     1
290
     0
176
     1
 90
        1
176
     1
 40
0.0
176
     1
 90
        0
176
     1
290
     0
176
     1
290
     1
176
     1
290
     1
176
     1
290
     0
176
     1
290
     0
176
     1
290
     0
176
     1
290
     0
176
     1
290
     0
176
     1
290
     0
176
     1
 90
       50
176
     1
 40
0.0
176
     1
 40
1.0
176
     1
 90
        0
176
     1
 62
    18
420
        0
176
     1
 90
       50
176
     1
 90
        3
176
     1
 62
     5
420
      255
176
     1
290
     0
176
     1
 90
       50
176
     1
 90
       50
176
     1
 90
       50
176
     1
290
     0
176
     1
 90
       50
176
     1
 62
   256
176
     0
 40
1.0
176
     0
 90
        2
176
     1
  1
strokes_ogs.tif
176
     1
290
     0
176
     1
 40
1.0
176
     1
 40
1.0
176
     1
  0
VISUALSTYLE
  5
26A
102
{ACAD_REACTORS
330
1FA
102
}
330
1FA
100
AcDbVisualStyle
  2
Sketchy
 70
    24
177
     3
291
     0
 70
    58
 90
        1
176
     1
 90
        2
176
     1
 90
        2
176
     1
 90
        0
176
     1
 40
0.6
176
     1
 40
30.0
176
     1
 62
     7
420
 16777215
176
     1
 90
        2
176
     1
 90
        2
176
     1
 62
     7
176
     1
 62
     7
176
     1
 90
        1
176
     1
 90
        1
176
     1
 40
40.0
176
     1
 90
       11
176
     1
 62
     7
176
     1
 40
1.0
176
     1
 90
        1
176
     1
 90
        6
176
     1
 90
        2
176
     1
 62
     7
176
     1
 90
        6
176
     1
 90
        0
176
     1
 90
        0
176
     1
290
     0
176
     1
 90
        1
176
     1
 40
0.0
176
     1
 90
        0
176
     1
290
     0
176
     1
290
     1
176
     1
290
     1
176
     1
290
     0
176
     1
290
     0
176
     1
290
     0
176
     1
290
     0
176
     1
290
     0
176
     1
290
     0
176
     1
 90
       50
176
     1
 40
0.0
176
     1
 40
1.0
176
     1
 90
        0
176
     1
 62
    18
420
        0
176
     1
 90
       50
176
     1
 90
        3
176
     1
 62
     5
420
      255
176
     1
290
     0
176
     1
 90
       50
176
     1
 90
       50
176
     1
 90
       50
176
     1
290
     0
176
     1
 90
       50
176
     1
 62
   256
176
     0
 40
1.0
176
     0
 90
        2
176
     1
  1
strokes_ogs.tif
176
     1
290
     0
176
     1
 40
1.0
176
     1
 40
1.0
176
     1
  0
VISUALSTYLE
  5
207
102
{ACAD_REACTORS
330
1FA
102
}
330
1FA
100
AcDbVisualStyle
  2
Thicken
 70
    13
177
     3
291
     1
 70
    58
 90
        2
176
     1
 90
        2
176
     1
 90
        0
176
     1
 90
        0
176
     1
 40
-0.6
176
     1
 40
-30.0
176
     1
 62
     7
176
     1
 90
        1
176
     1
 90
        4
176
     1
 62
     7
176
     1
 62
   257
176
     1
 90
        1
176
     1
 90
        1
176
     1
 40
1.0
176
     1
 90
       12
176
     1
 62
     7
176
     1
 40
1.0
176
     1
 90
        1
176
     1
 90
        6
176
     1
 90
        2
176
     1
 62
     7
176
     1
 90
        5
176
     1
 90
        0
176
     1
 90
        0
176
     1
290
     0
176
     1
 90
        1
176
     1
 40
0.0
176
     1
 90
        0
176
     1
290
     0
176
     1
290
     1
176
     1
290
     1
176
     1
290
     0
176
     1
290
     0
176
     1
290
     0
176
     1
290
     0
176
     1
290
     0
176
     1
290
     0
176
     1
 90
       50
176
     1
 40
0.0
176
     1
 40
1.0
176
     1
 90
        0
176
     1
 62
    18
420
        0
176
     1
 90
       50
176
     1
 90
        3
176
     1
 62
     5
420
      255
176
     1
290
     0
176
     1
 90
       50
176
     1
 90
       50
176
     1
 90
       50
176
     1
290
     0
176
     1
 90
       50
176
     1
 62
   256
176
     0
 40
1.0
176
     0
 90
        2
176
     1
  1
strokes_ogs.tif
176
     1
290
     0
176
     1
 40
1.0
176
     1
 40
1.0
176
     1
  0
VISUALSTYLE
  5
264
102
{ACAD_REACTORS
330
1FA
102
}
330
1FA
100
AcDbVisualStyle
  2
Wireframe
 70
     5
177
     3
291
     0
 70
    58
 90
        0
176
     1
 90
        2
176
     1
 90
        0
176
     1
 90
        0
176
     1
 40
0.6
176
     1
 40
30.0
176
     1
 62
     7
420
 16777215
176
     1
 90
        1
176
     1
 90
        4
176
     1
 62
     7
176
     1
 62
   257
176
     1
 90
        1
176
     1
 90
        1
176
     1
 40
1.0
176
     1
 90
        0
176
     1
 62
   257
176
     1
 40
1.0
176
     1
 90
        1
176
     1
 90
        6
176
     1
 90
        2
176
     1
 62
     7
176
     1
 90
        3
176
     1
 90
        0
176
     1
 90
        0
176
     1
290
     0
176
     1
 90
        1
176
     1
 40
0.0
176
     1
 90
        0
176
     1
290
     0
176
     1
290
     1
176
     1
290
     1
176
     1
290
     0
176
     1
290
     0
176
     1
290
     0
176
     1
290
     0
176
     1
290
     0
176
     1
290
     0
176
     1
 90
       50
176
     1
 40
0.0
176
     1
 40
1.0
176
     1
 90
        0
176
     1
 62
    18
420
        0
176
     1
 90
       50
176
     1
 90
        3
176
     1
 62
     5
420
      255
176
     1
290
     0
176
     1
 90
       50
176
     1
 90
       50
176
     1
 90
       50
176
     1
290
     0
176
     1
 90
       50
176
     1
 62
   256
176
     0
 40
1.0
176
     0
 90
        2
176
     1
  1
strokes_ogs.tif
176
     1
290
     0
176
     1
 40
1.0
176
     1
 40
1.0
176
     1
  0
VISUALSTYLE
  5
26B
102
{ACAD_REACTORS
330
1FA
102
}
330
1FA
100
AcDbVisualStyle
  2
X-Ray
 70
    25
177
     3
291
     0
 70
    58
 90
        2
176
     1
 90
        2
176
     1
 90
        1
176
     1
 90
        1
176
     1
 40
0.5
176
     1
 40
30.0
176
     1
 62
     7
420
 16777215
176
     1
 90
        1
176
     1
 90
        0
176
     1
 62
     7
176
     1
 62
   257
176
     1
 90
        1
176
     1
 90
        1
176
     1
 40
1.0
176
     1
 90
        8
176
     1
 62
     7
176
     1
 40
1.0
176
     1
 90
        1
176
     1
 90
        6
176
     1
 90
        2
176
     1
 62
     7
176
     1
 90
        3
176
     1
 90
        0
176
     1
 90
        0
176
     1
290
     0
176
     1
 90
       13
176
     1
 40
0.0
176
     1
 90
        0
176
     1
290
     0
176
     1
290
     1
176
     1
290
     1
176
     1
290
     0
176
     1
290
     0
176
     1
290
     0
176
     1
290
     0
176
     1
290
     0
176
     1
290
     0
176
     1
 90
       50
176
     1
 40
0.0
176
     1
 40
1.0
176
     1
 90
        0
176
     1
 62
    18
420
        0
176
     1
 90
       50
176
     1
 90
        3
176
     1
 62
     5
420
      255
176
     1
290
     0
176
     1
 90
       50
176
     1
 90
       50
176
     1
 90
       50
176
     1
290
     0
176
     1
 90
       50
176
     1
 62
   256
176
     0
 40
1.0
176
     0
 90
        2
176
     1
  1
strokes_ogs.tif
176
     1
290
     0
176
     1
 40
1.0
176
     1
 40
1.0
176
     1
  0
DICTIONARYVAR
  5
2C7
102
{ACAD_REACTORS
330
21D
102
}
330
21D
100
DictionaryVariables
280
     0
  1
1:1
  0
DICTIONARYVAR
  5
2C9
102
{ACAD_REACTORS
330
21D
102
}
330
21D
100
DictionaryVariables
280
     0
  1
Standard
  0
DICTIONARYVAR
  5
2C8
102
{ACAD_REACTORS
330
21D
102
}
330
21D
100
DictionaryVariables
280
     0
  1
Standard
  0
DICTIONARYVAR
  5
221
102
{ACAD_REACTORS
330
21D
102
}
330
21D
100
DictionaryVariables
280
     0
  1
2
  0
DICTIONARYVAR
  5
222
102
{ACAD_REACTORS
330
21D
102
}
330
21D
100
DictionaryVariables
280
     0
  1
1
  0
DICTIONARYVAR
  5
220
102
{ACAD_REACTORS
330
21D
102
}
330
21D
100
DictionaryVariables
280
     0
  1
0
  0
DICTIONARY
  5
3CF
330
26F
100
AcDbDictionary
280
     1
281
     1
  3
ACAD_ROUNDTRIP_2008_TABLESTYLE_CELLSTYLEMAP
360
3D0
  0
CELLSTYLEMAP
  5
3D0
102
{ACAD_REACTORS
330
3CF
102
}
330
3CF
100
AcDbCellStyleMap
 90
        3
300
CELLSTYLE
  1
TABLEFORMAT_BEGIN
 90
        5
170
     1
 91
        0
 92
    32768
 62
   257
 93
        1
300
CONTENTFORMAT
  1
CONTENTFORMAT_BEGIN
 90
        0
 91
        0
 92
        4
 93
        0
300

 40
0.0
140
1.0
 94
        5
 62
     0
340
11
144
6.0
309
CONTENTFORMAT_END
171
     1
301
MARGIN
  1
CELLMARGIN_BEGIN
 40
1.5
 40
1.5
 40
1.5
 40
1.5
 40
1.5
 40
1.5
309
CELLMARGIN_END
 94
        6
 95
        1
302
GRIDFORMAT
  1
GRIDFORMAT_BEGIN
 90
        0
 91
        1
 62
     0
 92
       -2
340
14
 93
        0
 40
0.045
309
GRIDFORMAT_END
 95
        2
302
GRIDFORMAT
  1
GRIDFORMAT_BEGIN
 90
        0
 91
        1
 62
     0
 92
       -2
340
14
 93
        0
 40
0.045
309
GRIDFORMAT_END
 95
        4
302
GRIDFORMAT
  1
GRIDFORMAT_BEGIN
 90
        0
 91
        1
 62
     0
 92
       -2
340
14
 93
        0
 40
0.045
309
GRIDFORMAT_END
 95
        8
302
GRIDFORMAT
  1
GRIDFORMAT_BEGIN
 90
        0
 91
        1
 62
     0
 92
       -2
340
14
 93
        0
 40
0.045
309
GRIDFORMAT_END
 95
       16
302
GRIDFORMAT
  1
GRIDFORMAT_BEGIN
 90
        0
 91
        1
 62
     0
 92
       -2
340
14
 93
        0
 40
0.045
309
GRIDFORMAT_END
 95
       32
302
GRIDFORMAT
  1
GRIDFORMAT_BEGIN
 90
        0
 91
        1
 62
     0
 92
       -2
340
14
 93
        0
 40
0.045
309
GRIDFORMAT_END
309
TABLEFORMAT_END
  1
CELLSTYLE_BEGIN
 90
        1
 91
        1
300
_TITLE
309
CELLSTYLE_END
300
CELLSTYLE
  1
TABLEFORMAT_BEGIN
 90
        5
170
     1
 91
        0
 92
        0
 62
   257
 93
        1
300
CONTENTFORMAT
  1
CONTENTFORMAT_BEGIN
 90
        0
 91
        0
 92
        4
 93
        0
300

 40
0.0
140
1.0
 94
        5
 62
     0
340
11
144
4.5
309
CONTENTFORMAT_END
171
     1
301
MARGIN
  1
CELLMARGIN_BEGIN
 40
1.5
 40
1.5
 40
1.5
 40
1.5
 40
1.5
 40
1.5
309
CELLMARGIN_END
 94
        6
 95
        1
302
GRIDFORMAT
  1
GRIDFORMAT_BEGIN
 90
        0
 91
        1
 62
     0
 92
       -2
340
14
 93
        0
 40
0.045
309
GRIDFORMAT_END
 95
        2
302
GRIDFORMAT
  1
GRIDFORMAT_BEGIN
 90
        0
 91
        1
 62
     0
 92
       -2
340
14
 93
        0
 40
0.045
309
GRIDFORMAT_END
 95
        4
302
GRIDFORMAT
  1
GRIDFORMAT_BEGIN
 90
        0
 91
        1
 62
     0
 92
       -2
340
14
 93
        0
 40
0.045
309
GRIDFORMAT_END
 95
        8
302
GRIDFORMAT
  1
GRIDFORMAT_BEGIN
 90
        0
 91
        1
 62
     0
 92
       -2
340
14
 93
        0
 40
0.045
309
GRIDFORMAT_END
 95
       16
302
GRIDFORMAT
  1
GRIDFORMAT_BEGIN
 90
        0
 91
        1
 62
     0
 92
       -2
340
14
 93
        0
 40
0.045
309
GRIDFORMAT_END
 95
       32
302
GRIDFORMAT
  1
GRIDFORMAT_BEGIN
 90
        0
 91
        1
 62
     0
 92
       -2
340
14
 93
        0
 40
0.045
309
GRIDFORMAT_END
309
TABLEFORMAT_END
  1
CELLSTYLE_BEGIN
 90
        2
 91
        1
300
_HEADER
309
CELLSTYLE_END
300
CELLSTYLE
  1
TABLEFORMAT_BEGIN
 90
        5
170
     1
 91
        0
 92
        0
 62
   257
 93
        1
300
CONTENTFORMAT
  1
CONTENTFORMAT_BEGIN
 90
        0
 91
        0
 92
        4
 93
        0
300

 40
0.0
140
1.0
 94
        2
 62
     0
340
11
144
4.5
309
CONTENTFORMAT_END
171
     1
301
MARGIN
  1
CELLMARGIN_BEGIN
 40
1.5
 40
1.5
 40
1.5
 40
1.5
 40
1.5
 40
1.5
309
CELLMARGIN_END
 94
        6
 95
        1
302
GRIDFORMAT
  1
GRIDFORMAT_BEGIN
 90
        0
 91
        1
 62
     0
 92
       -2
340
14
 93
        0
 40
0.045
309
GRIDFORMAT_END
 95
        2
302
GRIDFORMAT
  1
GRIDFORMAT_BEGIN
 90
        0
 91
        1
 62
     0
 92
       -2
340
14
 93
        0
 40
0.045
309
GRIDFORMAT_END
 95
        4
302
GRIDFORMAT
  1
GRIDFORMAT_BEGIN
 90
        0
 91
        1
 62
     0
 92
       -2
340
14
 93
        0
 40
0.045
309
GRIDFORMAT_END
 95
        8
302
GRIDFORMAT
  1
GRIDFORMAT_BEGIN
 90
        0
 91
        1
 62
     0
 92
       -2
340
14
 93
        0
 40
0.045
309
GRIDFORMAT_END
 95
       16
302
GRIDFORMAT
  1
GRIDFORMAT_BEGIN
 90
        0
 91
        1
 62
     0
 92
       -2
340
14
 93
        0
 40
0.045
309
GRIDFORMAT_END
 95
       32
302
GRIDFORMAT
  1
GRIDFORMAT_BEGIN
 90
        0
 91
        1
 62
     0
 92
       -2
340
14
 93
        0
 40
0.045
309
GRIDFORMAT_END
309
TABLEFORMAT_END
  1
CELLSTYLE_BEGIN
 90
        3
 91
        2
300
_DATA
309
CELLSTYLE_END
  0
ENDSEC
  0
EOF
