  0
SECTION
  2
HEADER
  9
$ACADVER
  1
AC1027
  9
$ACADMAINTVER
 70
   105
  9
$DWGCODEPAGE
  3
ANSI_1252
  9
$REQUIREDVERSIONS
160
                 0
  9
$LASTSAVEDBY
  1
matthias.ochs
  9
$INSBASE
 10
0.0
 20
0.0
 30
0.0
  9
$EXTMIN
 10
-27.65700587342591
 20
-20.62823959961189
 30
0.0
  9
$EXTMAX
 10
94.42513012315081
 20
110.379466755028
 30
0.0
  9
$LIMMIN
 10
-54.271886146
 20
-2.793646027
  9
$LIMMAX
 10
91.243654334
 20
89.90884798
  9
$ORTHOMODE
 70
     1
  9
$REGENMODE
 70
     1
  9
$FILLMODE
 70
     1
  9
$QTEXTMODE
 70
     0
  9
$MIRRTEXT
 70
     1
  9
$LTSCALE
 40
1.0
  9
$ATTMODE
 70
     1
  9
$TEXTSIZE
 40
0.2
  9
$TRACEWID
 40
0.05
  9
$TEXTSTYLE
  7
Standard
  9
$CLAYER
  8
1
  9
$CELTYPE
  6
ByLayer
  9
$CECOLOR
 62
   256
  9
$CELTSCALE
 40
1.0
  9
$DISPSILH
 70
     0
  9
$DIMSCALE
 40
1.0
  9
$DIMASZ
 40
0.18
  9
$DIMEXO
 40
0.0625
  9
$DIMDLI
 40
0.38
  9
$DIMRND
 40
0.0
  9
$DIMDLE
 40
0.0
  9
$DIMEXE
 40
0.18
  9
$DIMTP
 40
0.0
  9
$DIMTM
 40
0.0
  9
$DIMTXT
 40
0.18
  9
$DIMCEN
 40
0.09
  9
$DIMTSZ
 40
0.0
  9
$DIMTOL
 70
     0
  9
$DIMLIM
 70
     0
  9
$DIMTIH
 70
     1
  9
$DIMTOH
 70
     1
  9
$DIMSE1
 70
     0
  9
$DIMSE2
 70
     0
  9
$DIMTAD
 70
     0
  9
$DIMZIN
 70
     0
  9
$DIMBLK
  1

  9
$DIMASO
 70
     1
  9
$DIMSHO
 70
     1
  9
$DIMPOST
  1

  9
$DIMAPOST
  1

  9
$DIMALT
 70
     0
  9
$DIMALTD
 70
     2
  9
$DIMALTF
 40
25.4
  9
$DIMLFAC
 40
1.0
  9
$DIMTOFL
 70
     0
  9
$DIMTVP
 40
0.0
  9
$DIMTIX
 70
     0
  9
$DIMSOXD
 70
     0
  9
$DIMSAH
 70
     0
  9
$DIMBLK1
  1

  9
$DIMBLK2
  1

  9
$DIMSTYLE
  2
Standard
  9
$DIMCLRD
 70
     0
  9
$DIMCLRE
 70
     0
  9
$DIMCLRT
 70
     0
  9
$DIMTFAC
 40
1.0
  9
$DIMGAP
 40
0.09
  9
$DIMJUST
 70
     0
  9
$DIMSD1
 70
     0
  9
$DIMSD2
 70
     0
  9
$DIMTOLJ
 70
     1
  9
$DIMTZIN
 70
     0
  9
$DIMALTZ
 70
     0
  9
$DIMALTTZ
 70
     0
  9
$DIMUPT
 70
     0
  9
$DIMDEC
 70
     4
  9
$DIMTDEC
 70
     4
  9
$DIMALTU
 70
     2
  9
$DIMALTTD
 70
     2
  9
$DIMTXSTY
  7
Standard
  9
$DIMAUNIT
 70
     0
  9
$DIMADEC
 70
     0
  9
$DIMALTRND
 40
0.0
  9
$DIMAZIN
 70
     0
  9
$DIMDSEP
 70
    46
  9
$DIMATFIT
 70
     3
  9
$DIMFRAC
 70
     0
  9
$DIMLDRBLK
  1

  9
$DIMLUNIT
 70
     2
  9
$DIMLWD
 70
    -2
  9
$DIMLWE
 70
    -2
  9
$DIMTMOVE
 70
     2
  9
$DIMFXL
 40
1.0
  9
$DIMFXLON
 70
     0
  9
$DIMJOGANG
 40
0.7853981633974483
  9
$DIMTFILL
 70
     0
  9
$DIMTFILLCLR
 70
     0
  9
$DIMARCSYM
 70
     0
  9
$DIMLTYPE
  6

  9
$DIMLTEX1
  6

  9
$DIMLTEX2
  6

  9
$DIMTXTDIRECTION
 70
     0
  9
$LUNITS
 70
     2
  9
$LUPREC
 70
     4
  9
$SKETCHINC
 40
0.1
  9
$FILLETRAD
 40
0.5
  9
$AUNITS
 70
     2
  9
$AUPREC
 70
     0
  9
$MENU
  1
.
  9
$ELEVATION
 40
0.0
  9
$PELEVATION
 40
0.0
  9
$THICKNESS
 40
0.0
  9
$LIMCHECK
 70
     0
  9
$CHAMFERA
 40
0.5
  9
$CHAMFERB
 40
0.5
  9
$CHAMFERC
 40
1.0
  9
$CHAMFERD
 40
0.0
  9
$SKPOLY
 70
     0
  9
$TDCREATE
 40
2458327.549319676
  9
$TDUCREATE
 40
2458327.465986343
  9
$TDUPDATE
 40
2458673.454884074
  9
$TDUUPDATE
 40
2458673.371550741
  9
$TDINDWG
 40
0.005569537
  9
$TDUSRTIMER
 40
0.0007986574
  9
$USRTIMER
 70
     1
  9
$ANGBASE
 50
0.0
  9
$ANGDIR
 70
     0
  9
$PDMODE
 70
     0
  9
$PDSIZE
 40
0.0
  9
$PLINEWID
 40
0.0
  9
$SPLFRAME
 70
     0
  9
$SPLINETYPE
 70
     6
  9
$SPLINESEGS
 70
     8
  9
$HANDSEED
  5
516
  9
$SURFTAB1
 70
     6
  9
$SURFTAB2
 70
     6
  9
$SURFTYPE
 70
     6
  9
$SURFU
 70
     6
  9
$SURFV
 70
     6
  9
$UCSBASE
  2

  9
$UCSNAME
  2

  9
$UCSORG
 10
0.0
 20
0.0
 30
0.0
  9
$UCSXDIR
 10
1.0
 20
0.0
 30
0.0
  9
$UCSYDIR
 10
0.0
 20
1.0
 30
0.0
  9
$UCSORTHOREF
  2

  9
$UCSORTHOVIEW
 70
     0
  9
$UCSORGTOP
 10
0.0
 20
0.0
 30
0.0
  9
$UCSORGBOTTOM
 10
0.0
 20
0.0
 30
0.0
  9
$UCSORGLEFT
 10
0.0
 20
0.0
 30
0.0
  9
$UCSORGRIGHT
 10
0.0
 20
0.0
 30
0.0
  9
$UCSORGFRONT
 10
0.0
 20
0.0
 30
0.0
  9
$UCSORGBACK
 10
0.0
 20
0.0
 30
0.0
  9
$PUCSBASE
  2

  9
$PUCSNAME
  2

  9
$PUCSORG
 10
0.0
 20
0.0
 30
0.0
  9
$PUCSXDIR
 10
1.0
 20
0.0
 30
0.0
  9
$PUCSYDIR
 10
0.0
 20
1.0
 30
0.0
  9
$PUCSORTHOREF
  2

  9
$PUCSORTHOVIEW
 70
     0
  9
$PUCSORGTOP
 10
0.0
 20
0.0
 30
0.0
  9
$PUCSORGBOTTOM
 10
0.0
 20
0.0
 30
0.0
  9
$PUCSORGLEFT
 10
0.0
 20
0.0
 30
0.0
  9
$PUCSORGRIGHT
 10
0.0
 20
0.0
 30
0.0
  9
$PUCSORGFRONT
 10
0.0
 20
0.0
 30
0.0
  9
$PUCSORGBACK
 10
0.0
 20
0.0
 30
0.0
  9
$USERI1
 70
     0
  9
$USERI2
 70
     0
  9
$USERI3
 70
     0
  9
$USERI4
 70
     0
  9
$USERI5
 70
     0
  9
$USERR1
 40
0.0
  9
$USERR2
 40
0.0
  9
$USERR3
 40
0.0
  9
$USERR4
 40
0.0
  9
$USERR5
 40
0.0
  9
$WORLDVIEW
 70
     1
  9
$SHADEDGE
 70
     3
  9
$SHADEDIF
 70
    70
  9
$TILEMODE
 70
     1
  9
$MAXACTVP
 70
    64
  9
$PINSBASE
 10
0.0
 20
0.0
 30
0.0
  9
$PLIMCHECK
 70
     0
  9
$PEXTMIN
 10
1.000000000000000E+20
 20
1.000000000000000E+20
 30
1.000000000000000E+20
  9
$PEXTMAX
 10
-1.000000000000000E+20
 20
-1.000000000000000E+20
 30
-1.000000000000000E+20
  9
$PLIMMIN
 10
0.0
 20
0.0
  9
$PLIMMAX
 10
0.0
 20
0.0
  9
$UNITMODE
 70
     0
  9
$VISRETAIN
 70
     1
  9
$PLINEGEN
 70
     0
  9
$PSLTSCALE
 70
     1
  9
$TREEDEPTH
 70
  3020
  9
$CMLSTYLE
  2
Standard
  9
$CMLJUST
 70
     0
  9
$CMLSCALE
 40
1.0
  9
$PROXYGRAPHICS
 70
     1
  9
$MEASUREMENT
 70
     0
  9
$CELWEIGHT
370
    -1
  9
$ENDCAPS
280
     0
  9
$JOINSTYLE
280
     0
  9
$LWDISPLAY
290
     0
  9
$INSUNITS
 70
     0
  9
$HYPERLINKBASE
  1

  9
$STYLESHEET
  1

  9
$XEDIT
290
     1
  9
$CEPSNTYPE
380
     0
  9
$PSTYLEMODE
290
     1
  9
$FINGERPRINTGUID
  2
{15456486-79BF-4F53-82E5-4ADE9977EE20}
  9
$VERSIONGUID
  2
{FAEB1C32-E019-11D5-929B-00C0DF256EC4}
  9
$EXTNAMES
290
     1
  9
$PSVPSCALE
 40
0.0
  9
$OLESTARTUP
290
     0
  9
$SORTENTS
280
   127
  9
$INDEXCTL
280
     0
  9
$HIDETEXT
280
     1
  9
$XCLIPFRAME
280
     2
  9
$HALOGAP
280
     0
  9
$OBSCOLOR
 70
   257
  9
$OBSLTYPE
280
     0
  9
$INTERSECTIONDISPLAY
280
     0
  9
$INTERSECTIONCOLOR
 70
   257
  9
$DIMASSOC
280
     2
  9
$PROJECTNAME
  1

  9
$CAMERADISPLAY
290
     0
  9
$LENSLENGTH
 40
50.0
  9
$CAMERAHEIGHT
 40
0.0
  9
$STEPSPERSEC
 40
2.0
  9
$STEPSIZE
 40
6.0
  9
$3DDWFPREC
 40
2.0
  9
$PSOLWIDTH
 40
0.25
  9
$PSOLHEIGHT
 40
4.0
  9
$LOFTANG1
 40
1.570796326794897
  9
$LOFTANG2
 40
1.570796326794897
  9
$LOFTMAG1
 40
0.0
  9
$LOFTMAG2
 40
0.0
  9
$LOFTPARAM
 70
     7
  9
$LOFTNORMALS
280
     1
  9
$LATITUDE
 40
37.795
  9
$LONGITUDE
 40
-122.394
  9
$NORTHDIRECTION
 40
0.0
  9
$TIMEZONE
 70
 -8000
  9
$LIGHTGLYPHDISPLAY
280
     1
  9
$TILEMODELIGHTSYNCH
280
     1
  9
$SOLIDHIST
280
     0
  9
$SHOWHIST
280
     1
  9
$DWFFRAME
280
     2
  9
$DGNFRAME
280
     2
  9
$REALWORLDSCALE
290
     1
  9
$INTERFERECOLOR
 62
   256
  9
$CSHADOW
280
     0
  9
$SHADOWPLANELOCATION
 40
0.0
  0
ENDSEC
  0
SECTION
  2
CLASSES
  0
CLASS
  1
ACDBDICTIONARYWDFLT
  2
AcDbDictionaryWithDefault
  3
ObjectDBX Classes
 90
        0
 91
       86
280
     0
281
     0
  0
CLASS
  1
SCALE
  2
AcDbScale
  3
ObjectDBX Classes
 90
     1153
 91
       86
280
     0
281
     0
  0
CLASS
  1
VISUALSTYLE
  2
AcDbVisualStyle
  3
ObjectDBX Classes
 90
     4095
 91
       86
280
     0
281
     0
  0
CLASS
  1
MATERIAL
  2
AcDbMaterial
  3
ObjectDBX Classes
 90
     1153
 91
       86
280
     0
281
     0
  0
CLASS
  1
DICTIONARYVAR
  2
AcDbDictionaryVar
  3
ObjectDBX Classes
 90
        0
 91
       11
280
     0
281
     0
  0
CLASS
  1
ACDBPLACEHOLDER
  2
AcDbPlaceHolder
  3
ObjectDBX Classes
 90
        0
 91
        1
280
     0
281
     0
  0
CLASS
  1
LAYOUT
  2
AcDbLayout
  3
ObjectDBX Classes
 90
        0
 91
        1
280
     0
281
     0
  0
CLASS
  1
TABLESTYLE
  2
AcDbTableStyle
  3
ObjectDBX Classes
 90
     4095
 91
       86
280
     0
281
     0
  0
CLASS
  1
MLEADERSTYLE
  2
AcDbMLeaderStyle
  3
ACDB_MLEADERSTYLE_CLASS
 90
     4095
 91
       86
280
     0
281
     0
  0
CLASS
  1
SUN
  2
AcDbSun
  3
SCENEOE
 90
     1153
 91
       86
280
     0
281
     0
  0
CLASS
  1
DIMASSOC
  2
AcDbDimAssoc
  3
"AcDbDimAssoc|Product Desc:     AcDim ARX App For Dimension|Company:          Autodesk, Inc.|WEB Address:      www.autodesk.com"
 90
        0
 91
       54
280
     0
281
     0
  0
CLASS
  1
SORTENTSTABLE
  2
AcDbSortentsTable
  3
ObjectDBX Classes
 90
        0
 91
        7
280
     0
281
     0
  0
CLASS
  1
CELLSTYLEMAP
  2
AcDbCellStyleMap
  3
ObjectDBX Classes
 90
     1152
 91
        9
280
     0
281
     0
  0
ENDSEC
  0
SECTION
  2
TABLES
  0
TABLE
  2
VPORT
  5
8
330
0
100
AcDbSymbolTable
 70
     1
  0
VPORT
  5
2F8
330
8
100
AcDbSymbolTableRecord
100
AcDbViewportTableRecord
  2
*Active
 70
     0
 10
0.0
 20
0.0
 11
1.0
 21
1.0
 12
32.57556777228941
 22
59.73996535663696
 13
0.0
 23
0.0
 14
0.5
 24
0.5
 15
0.5
 25
0.5
 16
0.0
 26
0.0
 36
1.0
 17
0.0
 27
0.0
 37
0.0
 40
203.8640954162672
 41
1.831002331002331
 42
50.0
 43
0.0
 44
0.0
 50
0.0
 51
0.0
 71
    16
 72
   100
 73
     1
 74
     3
 75
     0
 76
     0
 77
     0
 78
     0
281
     0
 65
     1
110
0.0
120
0.0
130
0.0
111
1.0
121
0.0
131
0.0
112
0.0
122
1.0
132
0.0
 79
     0
146
0.0
348
328
 60
     3
 61
     5
292
     1
282
     1
141
0.0
142
0.0
 63
   256
361
3D7
  0
ENDTAB
  0
TABLE
  2
LTYPE
  5
5
330
0
100
AcDbSymbolTable
 70
     8
  0
LTYPE
  5
14
330
5
100
AcDbSymbolTableRecord
100
AcDbLinetypeTableRecord
  2
ByBlock
 70
     0
  3

 72
    65
 73
     0
 40
0.0
  0
LTYPE
  5
15
330
5
100
AcDbSymbolTableRecord
100
AcDbLinetypeTableRecord
  2
ByLayer
 70
     0
  3

 72
    65
 73
     0
 40
0.0
  0
LTYPE
  5
16
330
5
100
AcDbSymbolTableRecord
100
AcDbLinetypeTableRecord
  2
Continuous
 70
     0
  3
Solid line
 72
    65
 73
     0
 40
0.0
  0
LTYPE
  5
20
330
5
100
AcDbSymbolTableRecord
100
AcDbLinetypeTableRecord
  2
PUNKT
 70
     0
  3
..............
 72
    65
 73
     2
 40
1.5
 49
0.7
 74
     0
 49
-0.8
 74
     0
  0
LTYPE
  5
21
330
5
100
AcDbSymbolTableRecord
100
AcDbLinetypeTableRecord
  2
GESTRICHELT
 70
     0
  3
-- -- -- -- --
 72
    65
 73
     7
 40
2.8
 49
0.9
 74
     0
 49
0.0
 74
     0
 49
0.9
 74
     0
 49
0.0
 74
     0
 49
0.2
 74
     0
 49
0.0
 74
     0
 49
-0.8
 74
     0
  0
LTYPE
  5
22
330
5
100
AcDbSymbolTableRecord
100
AcDbLinetypeTableRecord
  2
STRICHPUNKT
 70
     0
  3
--.--.--.--.--
 72
    65
 73
     4
 40
8.8
 49
5.5
 74
     0
 49
-1.3
 74
     0
 49
0.7
 74
     0
 49
-1.3
 74
     0
  0
LTYPE
  5
25
330
5
100
AcDbSymbolTableRecord
100
AcDbLinetypeTableRecord
  2
PHANTOM
 70
     0
  3
--..--..--..--
 72
    65
 73
     6
 40
14.2
 49
7.0
 74
     0
 49
-1.8
 74
     0
 49
0.9
 74
     0
 49
-1.8
 74
     0
 49
0.9
 74
     0
 49
-1.8
 74
     0
  0
LTYPE
  5
36E
330
5
100
AcDbSymbolTableRecord
100
AcDbLinetypeTableRecord
  2
DASH
 70
     0
  3
DASH _ _ _ _ _
 72
    65
 73
     2
 40
0.75
 49
0.4
 74
     0
 49
-0.35
 74
     0
  0
LTYPE
  5
36F
330
5
100
AcDbSymbolTableRecord
100
AcDbLinetypeTableRecord
  2
LONGDASH_DASH
 70
     0
  3
LONGDASH_DASH __ . __ . __
 72
    65
 73
     4
 40
0.85
 49
0.4
 74
     0
 49
-0.2
 74
     0
 49
0.05
 74
     0
 49
-0.2
 74
     0
  0
LTYPE
  5
370
330
5
100
AcDbSymbolTableRecord
100
AcDbLinetypeTableRecord
  2
LONGDASH_DASH_DASH
 70
     0
  3
LONGDASH_DASH_DASH __ . . __ . . __
 72
    65
 73
     6
 40
1.1
 49
0.4
 74
     0
 49
-0.2
 74
     0
 49
0.05
 74
     0
 49
-0.2
 74
     0
 49
0.05
 74
     0
 49
-0.2
 74
     0
  0
ENDTAB
  0
TABLE
  2
LAYER
  5
2
102
{ACAD_XDICTIONARY
360
38D
102
}
330
0
100
AcDbSymbolTable
 70
    16
  0
LAYER
  5
339
330
2
100
AcDbSymbolTableRecord
100
AcDbLayerTableRecord
  2
200
 70
     0
 62
     2
  6
Continuous
370
    50
390
F
347
337
348
0
  0
LAYER
  5
371
330
2
100
AcDbSymbolTableRecord
100
AcDbLayerTableRecord
  2
0
 70
     0
 62
     1
  6
Continuous
370
    -3
390
F
347
337
348
0
  0
LAYER
  5
372
330
2
100
AcDbSymbolTableRecord
100
AcDbLayerTableRecord
  2
1
 70
     0
 62
     4
  6
Continuous
370
    50
390
F
347
337
348
0
  0
LAYER
  5
373
330
2
100
AcDbSymbolTableRecord
100
AcDbLayerTableRecord
  2
2
 70
     0
 62
     7
  6
Continuous
370
    25
390
F
347
337
348
0
  0
LAYER
  5
374
330
2
100
AcDbSymbolTableRecord
100
AcDbLayerTableRecord
  2
3
 70
     0
 62
     1
  6
DASH
370
    35
390
F
347
337
348
0
  0
LAYER
  5
375
330
2
100
AcDbSymbolTableRecord
100
AcDbLayerTableRecord
  2
4
 70
     0
 62
     2
  6
LONGDASH_DASH
370
    25
390
F
347
337
348
0
  0
LAYER
  5
376
330
2
100
AcDbSymbolTableRecord
100
AcDbLayerTableRecord
  2
6
 70
     0
 62
     5
  6
Continuous
370
    -3
390
F
347
337
348
0
  0
LAYER
  5
377
330
2
100
AcDbSymbolTableRecord
100
AcDbLayerTableRecord
  2
CUT
 70
     0
 62
     1
  6
Continuous
370
    25
390
F
347
337
348
0
  0
LAYER
  5
378
330
2
100
AcDbSymbolTableRecord
100
AcDbLayerTableRecord
  2
NOCUT
 70
     0
 62
     7
  6
Continuous
370
    25
390
F
347
337
348
0
  0
LAYER
  5
379
330
2
100
AcDbSymbolTableRecord
100
AcDbLayerTableRecord
  2
SK1
 70
     0
 62
     4
  6
Continuous
370
    50
390
F
347
337
348
0
  0
LAYER
  5
37A
330
2
100
AcDbSymbolTableRecord
100
AcDbLayerTableRecord
  2
SK2
 70
     0
 62
     7
  6
Continuous
370
    25
390
F
347
337
348
0
  0
LAYER
  5
37B
330
2
100
AcDbSymbolTableRecord
100
AcDbLayerTableRecord
  2
SK3
 70
     0
 62
     1
  6
DASH
370
    35
390
F
347
337
348
0
  0
LAYER
  5
37C
330
2
100
AcDbSymbolTableRecord
100
AcDbLayerTableRecord
  2
SK4
 70
     0
 62
     2
  6
LONGDASH_DASH
370
    25
390
F
347
337
348
0
  0
LAYER
  5
37D
330
2
100
AcDbSymbolTableRecord
100
AcDbLayerTableRecord
  2
SK6
 70
     0
 62
     5
  6
Continuous
370
    -3
390
F
347
337
348
0
  0
LAYER
  5
37E
330
2
100
AcDbSymbolTableRecord
100
AcDbLayerTableRecord
  2
INFTOTAL
 70
     0
 62
     9
  6
Continuous
370
    18
390
F
347
337
348
0
  0
LAYER
  5
4AE
330
2
100
AcDbSymbolTableRecord
100
AcDbLayerTableRecord
  2
Defpoints
 70
     0
 62
     7
  6
Continuous
290
     0
370
    -3
390
F
347
337
348
0
  0
ENDTAB
  0
TABLE
  2
STYLE
  5
3
330
0
100
AcDbSymbolTable
 70
     3
  0
STYLE
  5
11
330
3
100
AcDbSymbolTableRecord
100
AcDbTextStyleTableRecord
  2
Standard
 70
     0
 40
0.0
 41
1.0
 50
0.0
 71
     0
 42
0.2
  3
txt
  4

  0
STYLE
  5
338
330
3
100
AcDbSymbolTableRecord
100
AcDbTextStyleTableRecord
  2
BMG_Text
 70
     0
 40
3.5
 41
1.0
 50
0.0
 71
     0
 42
0.2
  3
monos.ttf
  4

1001
ACAD
1000
Monospac821 BT
1071
       49
  0
STYLE
  5
4E8
330
3
100
AcDbSymbolTableRecord
100
AcDbTextStyleTableRecord
  2
SLDTEXTSTYLE0
 70
     0
 40
0.0
 41
0.605
 50
0.0
 71
     0
 42
0.2
  3
TXT
  4

  0
ENDTAB
  0
TABLE
  2
VIEW
  5
6
330
0
100
AcDbSymbolTable
 70
     0
  0
ENDTAB
  0
TABLE
  2
UCS
  5
7
330
0
100
AcDbSymbolTable
 70
     0
  0
ENDTAB
  0
TABLE
  2
APPID
  5
9
330
0
100
AcDbSymbolTable
 70
     1
  0
APPID
  5
12
330
9
100
AcDbSymbolTableRecord
100
AcDbRegAppTableRecord
  2
ACAD
 70
     0
  0
ENDTAB
  0
TABLE
  2
DIMSTYLE
  5
A
330
0
100
AcDbSymbolTable
 70
     6
100
AcDbDimStyleTable
  0
DIMSTYLE
105
28
330
A
100
AcDbSymbolTableRecord
100
AcDbDimStyleTableRecord
  2
Standard
 70
     0
178
     0
340
11
  0
DIMSTYLE
105
4E4
330
A
100
AcDbSymbolTableRecord
100
AcDbDimStyleTableRecord
  2
Matthias
 70
     0
 41
3.0
 44
2.0
 73
     0
 77
     1
140
3.0
147
2.0
178
     0
340
11
  0
DIMSTYLE
105
4E6
102
{ACAD_REACTORS
330
4F4
330
4AF
330
4BF
330
4D0
102
}
330
A
100
AcDbSymbolTableRecord
100
AcDbDimStyleTableRecord
  2
ISO-25
 70
     0
 41
2.5
 42
0.625
 43
3.75
 44
1.25
 73
     0
 74
     0
 77
     1
 78
     8
140
2.5
141
2.5
143
0.0393700787
147
0.625
171
     3
172
     1
178
     0
271
     2
272
     2
274
     3
278
    44
283
     0
284
     8
340
11
  0
DIMSTYLE
105
4E7
330
A
100
AcDbSymbolTableRecord
100
AcDbDimStyleTableRecord
  2
SLDDIMSTYLE0
 70
     0
 41
3.5
 44
0.0
 45
0.000000001
 73
     0
 74
     0
 77
     1
 78
    12
 79
     3
140
3.5
144
0.5
147
0.875
173
     1
178
     0
271
     2
272
     1
276
     2
284
    12
340
4E8
  0
DIMSTYLE
105
4E9
330
A
100
AcDbSymbolTableRecord
100
AcDbDimStyleTableRecord
  2
SLDDIMSTYLE1
 70
     0
 41
3.5
 44
0.0
 45
0.000000001
 73
     0
 74
     0
 77
     1
 78
    12
 79
     3
140
3.5
144
0.5
147
0.875
173
     1
178
     0
271
     2
272
     3
276
     2
284
    12
340
4E8
  0
DIMSTYLE
105
4EA
330
A
100
AcDbSymbolTableRecord
100
AcDbDimStyleTableRecord
  2
SLDDIMSTYLE2
 70
     0
 41
3.5
 44
0.0
 45
0.000000001
 73
     0
 74
     0
 77
     1
 78
    12
 79
     3
140
3.5
147
0.875
173
     1
178
     0
271
     2
272
     0
276
     2
284
    12
340
4E8
  0
ENDTAB
  0
TABLE
  2
BLOCK_RECORD
  5
1
330
0
100
AcDbSymbolTable
 70
     6
  0
BLOCK_RECORD
  5
1D
330
1
100
AcDbSymbolTableRecord
100
AcDbBlockTableRecord
  2
*Model_Space
340
1E
 70
     0
280
     1
281
     0
  0
BLOCK_RECORD
  5
1B
330
1
100
AcDbSymbolTableRecord
100
AcDbBlockTableRecord
  2
*Paper_Space
340
1C
 70
     0
280
     1
281
     0
  0
BLOCK_RECORD
  5
4B2
330
1
100
AcDbSymbolTableRecord
100
AcDbBlockTableRecord
  2
*D0
340
0
 70
     0
280
     1
281
     0
  0
BLOCK_RECORD
  5
4C2
330
1
100
AcDbSymbolTableRecord
100
AcDbBlockTableRecord
  2
*D1
340
0
 70
     0
280
     1
281
     0
  0
BLOCK_RECORD
  5
4D3
330
1
100
AcDbSymbolTableRecord
100
AcDbBlockTableRecord
  2
*D2
340
0
 70
     0
280
     1
281
     0
  0
BLOCK_RECORD
  5
4F5
330
1
100
AcDbSymbolTableRecord
100
AcDbBlockTableRecord
  2
*D4
340
0
 70
     0
280
     1
281
     0
  0
BLOCK_RECORD
  5
505
330
1
100
AcDbSymbolTableRecord
100
AcDbBlockTableRecord
  2
*D5
340
0
 70
     0
280
     1
281
     0
  0
ENDTAB
  0
ENDSEC
  0
SECTION
  2
BLOCKS
  0
BLOCK
  5
321
330
1D
100
AcDbEntity
  8
0
100
AcDbBlockBegin
  2
*Model_Space
 70
     0
 10
0.0
 20
0.0
 30
0.0
  3
*Model_Space
  1

  0
ENDBLK
  5
322
330
1D
100
AcDbEntity
  8
0
100
AcDbBlockEnd
  0
BLOCK
  5
31F
330
1B
100
AcDbEntity
 67
     1
  8
0
100
AcDbBlockBegin
  2
*Paper_Space
 70
     0
 10
0.0
 20
0.0
 30
0.0
  3
*Paper_Space
  1

  0
ENDBLK
  5
320
330
1B
100
AcDbEntity
 67
     1
  8
0
100
AcDbBlockEnd
  0
BLOCK
  5
4B3
330
4B2
100
AcDbEntity
  8
0
100
AcDbBlockBegin
  2
*D0
 70
     1
 10
0.0
 20
0.0
 30
0.0
  3
*D0
  1

  0
LINE
  5
4B5
330
4B2
100
AcDbEntity
  8
SK2
 62
     0
370
    -2
100
AcDbLine
 10
-16.4
 20
84.625
 30
0.0
 11
-16.4
 21
103.65
 31
0.0
  0
LINE
  5
4B6
330
4B2
100
AcDbEntity
  8
SK2
 62
     0
370
    -2
100
AcDbLine
 10
44.9
 20
82.625
 30
0.0
 11
44.9
 21
103.65
 31
0.0
  0
LINE
  5
4B7
330
4B2
100
AcDbEntity
  8
SK2
 62
     0
370
    -2
100
AcDbLine
 10
-13.9
 20
102.4
 30
0.0
 11
42.4
 21
102.4
 31
0.0
  0
SOLID
  5
4B8
330
4B2
100
AcDbEntity
  8
SK2
 62
     0
100
AcDbTrace
 10
-13.9
 20
102.8166666666667
 30
0.0
 11
-13.9
 21
101.9833333333333
 31
0.0
 12
-16.4
 22
102.4
 32
0.0
 13
-16.4
 23
102.4
 33
0.0
  0
SOLID
  5
4B9
330
4B2
100
AcDbEntity
  8
SK2
 62
     0
100
AcDbTrace
 10
42.4
 20
101.9833333333333
 30
0.0
 11
42.4
 21
102.8166666666667
 31
0.0
 12
44.9
 22
102.4
 32
0.0
 13
44.9
 23
102.4
 33
0.0
  0
MTEXT
  5
4BA
330
4B2
100
AcDbEntity
  8
SK2
 62
     0
100
AcDbMText
 10
14.25
 20
104.4833333333333
 30
0.0
 40
2.5
 41
0.0
 46
0.0
 71
     5
 72
     1
  1
61,3
 73
     1
 44
1.0
  0
POINT
  5
4BB
330
4B2
100
AcDbEntity
  8
Defpoints
 62
     0
100
AcDbPoint
 10
-16.4
 20
84.0
 30
0.0
  0
POINT
  5
4BC
330
4B2
100
AcDbEntity
  8
Defpoints
 62
     0
100
AcDbPoint
 10
44.9
 20
82.0
 30
0.0
  0
POINT
  5
4BD
330
4B2
100
AcDbEntity
  8
Defpoints
 62
     0
100
AcDbPoint
 10
44.9
 20
102.4
 30
0.0
  0
ENDBLK
  5
4B4
330
4B2
100
AcDbEntity
  8
0
100
AcDbBlockEnd
  0
BLOCK
  5
4C3
330
4C2
100
AcDbEntity
  8
0
100
AcDbBlockBegin
  2
*D1
 70
     1
 10
0.0
 20
0.0
 30
0.0
  3
*D1
  1

  0
LINE
  5
4C5
330
4C2
100
AcDbEntity
  8
SK2
 62
     0
370
    -2
100
AcDbLine
 10
43.525
 20
0.0
 30
0.0
 11
66.30000000000001
 21
0.0
 31
0.0
  0
LINE
  5
4C6
330
4C2
100
AcDbEntity
  8
SK2
 62
     0
370
    -2
100
AcDbLine
 10
43.525
 20
84.0
 30
0.0
 11
66.30000000000001
 21
84.0
 31
0.0
  0
LINE
  5
4C7
330
4C2
100
AcDbEntity
  8
SK2
 62
     0
370
    -2
100
AcDbLine
 10
65.05000000000001
 20
2.5
 30
0.0
 11
65.05000000000001
 21
81.5
 31
0.0
  0
SOLID
  5
4C8
330
4C2
100
AcDbEntity
  8
SK2
 62
     0
100
AcDbTrace
 10
64.63333333333334
 20
2.5
 30
0.0
 11
65.46666666666668
 21
2.5
 31
0.0
 12
65.05000000000001
 22
0.0
 32
0.0
 13
65.05000000000001
 23
0.0
 33
0.0
  0
SOLID
  5
4C9
330
4C2
100
AcDbEntity
  8
SK2
 62
     0
100
AcDbTrace
 10
65.46666666666668
 20
81.5
 30
0.0
 11
64.63333333333334
 21
81.5
 31
0.0
 12
65.05000000000001
 22
84.0
 32
0.0
 13
65.05000000000001
 23
84.0
 33
0.0
  0
MTEXT
  5
4CA
330
4C2
100
AcDbEntity
  8
SK2
 62
     0
100
AcDbMText
 10
63.17500000000001
 20
42.0
 30
0.0
 40
2.5
 41
0.0
 46
0.0
 71
     5
 72
     1
  1
84
 11
0.0
 21
1.0
 31
0.0
 73
     1
 44
1.0
  0
POINT
  5
4CB
330
4C2
100
AcDbEntity
  8
Defpoints
 62
     0
100
AcDbPoint
 10
42.9
 20
0.0
 30
0.0
  0
POINT
  5
4CC
330
4C2
100
AcDbEntity
  8
Defpoints
 62
     0
100
AcDbPoint
 10
42.9
 20
84.0
 30
0.0
  0
POINT
  5
4CD
330
4C2
100
AcDbEntity
  8
Defpoints
 62
     0
100
AcDbPoint
 10
65.05000000000001
 20
84.0
 30
0.0
  0
ENDBLK
  5
4C4
330
4C2
100
AcDbEntity
  8
0
100
AcDbBlockEnd
  0
BLOCK
  5
4D4
330
4D3
100
AcDbEntity
  8
0
100
AcDbBlockBegin
  2
*D2
 70
     1
 10
0.0
 20
0.0
 30
0.0
  3
*D2
  1

  0
LINE
  5
4D6
330
4D3
100
AcDbEntity
  8
2
 62
     0
370
    -2
100
AcDbLine
 10
0.0
 20
0.625
 30
0.0
 11
0.0
 21
96.65
 31
0.0
  0
LINE
  5
4D7
330
4D3
100
AcDbEntity
  8
2
 62
     0
370
    -2
100
AcDbLine
 10
44.9
 20
82.625
 30
0.0
 11
44.9
 21
96.65
 31
0.0
  0
LINE
  5
4D8
330
4D3
100
AcDbEntity
  8
2
 62
     0
370
    -2
100
AcDbLine
 10
2.5
 20
95.4
 30
0.0
 11
42.4
 21
95.4
 31
0.0
  0
SOLID
  5
4D9
330
4D3
100
AcDbEntity
  8
2
 62
     0
100
AcDbTrace
 10
2.5
 20
95.81666666666668
 30
0.0
 11
2.5
 21
94.98333333333333
 31
0.0
 12
0.0
 22
95.4
 32
0.0
 13
0.0
 23
95.4
 33
0.0
  0
SOLID
  5
4DA
330
4D3
100
AcDbEntity
  8
2
 62
     0
100
AcDbTrace
 10
42.4
 20
94.98333333333333
 30
0.0
 11
42.4
 21
95.81666666666668
 31
0.0
 12
44.9
 22
95.4
 32
0.0
 13
44.9
 23
95.4
 33
0.0
  0
MTEXT
  5
4DB
330
4D3
100
AcDbEntity
  8
2
 62
     0
100
AcDbMText
 10
22.45
 20
97.48333333333333
 30
0.0
 40
2.5
 41
0.0
 46
0.0
 71
     5
 72
     1
  1
44,9
 73
     1
 44
1.0
  0
POINT
  5
4DC
330
4D3
100
AcDbEntity
  8
Defpoints
 62
     0
100
AcDbPoint
 10
0.0
 20
0.0
 30
0.0
  0
POINT
  5
4DD
330
4D3
100
AcDbEntity
  8
Defpoints
 62
     0
100
AcDbPoint
 10
44.9
 20
82.0
 30
0.0
  0
POINT
  5
4DE
330
4D3
100
AcDbEntity
  8
Defpoints
 62
     0
100
AcDbPoint
 10
44.9
 20
95.4
 30
0.0
  0
ENDBLK
  5
4D5
330
4D3
100
AcDbEntity
  8
0
100
AcDbBlockEnd
  0
BLOCK
  5
4F6
330
4F5
100
AcDbEntity
  8
0
100
AcDbBlockBegin
  2
*D4
 70
     1
 10
0.0
 20
0.0
 30
0.0
  3
*D4
  1

  0
LINE
  5
4F7
330
4F5
100
AcDbEntity
  8
2
 62
     0
370
    -2
100
AcDbLine
 10
-0.0000000000000018
 20
0.625
 30
0.0
 11
0.0
 21
68.75
 31
0.0
  0
LINE
  5
4F8
330
4F5
100
AcDbEntity
  8
2
 62
     0
370
    -2
100
AcDbLine
 10
27.00274664429999
 20
1.575000002099991
 30
0.0
 11
27.00274664429999
 21
68.75
 31
0.0
  0
LINE
  5
4F9
330
4F5
100
AcDbEntity
  8
2
 62
     0
370
    -2
100
AcDbLine
 10
2.5
 20
67.5
 30
0.0
 11
24.50274664429999
 21
67.5
 31
0.0
  0
SOLID
  5
4FA
330
4F5
100
AcDbEntity
  8
2
 62
     0
100
AcDbTrace
 10
2.5
 20
67.91666666666667
 30
0.0
 11
2.5
 21
67.08333333333333
 31
0.0
 12
0.0
 22
67.5
 32
0.0
 13
0.0
 23
67.5
 33
0.0
  0
SOLID
  5
4FB
330
4F5
100
AcDbEntity
  8
2
 62
     0
100
AcDbTrace
 10
24.50274664429999
 20
67.08333333333333
 30
0.0
 11
24.50274664429999
 21
67.91666666666667
 31
0.0
 12
27.00274664429999
 22
67.5
 32
0.0
 13
27.00274664429999
 23
67.5
 33
0.0
  0
MTEXT
  5
4FC
330
4F5
100
AcDbEntity
  8
2
 62
     0
100
AcDbMText
 10
11.00201883302505
 20
70.625
 30
0.0
 40
2.5
 41
0.0
 46
0.0
 71
     2
 72
     1
  1
27^J
 73
     1
 44
1.0
  0
POINT
  5
4FD
330
4F5
100
AcDbEntity
  8
Defpoints
 62
     0
100
AcDbPoint
 10
-0.0000000000000018
 20
0.0
 30
0.0
  0
POINT
  5
4FE
330
4F5
100
AcDbEntity
  8
Defpoints
 62
     0
100
AcDbPoint
 10
27.00274664429999
 20
0.9500000020999906
 30
0.0
  0
POINT
  5
4FF
330
4F5
100
AcDbEntity
  8
Defpoints
 62
     0
100
AcDbPoint
 10
27.00274664429999
 20
67.5
 30
0.0
  0
ENDBLK
  5
500
330
4F5
100
AcDbEntity
  8
0
100
AcDbBlockEnd
  0
BLOCK
  5
506
330
505
100
AcDbEntity
  8
0
100
AcDbBlockBegin
  2
*D5
 70
     1
 10
0.0
 20
0.0
 30
0.0
  3
*D5
  1

  0
LINE
  5
508
330
505
100
AcDbEntity
  8
2
 62
     0
370
    -2
100
AcDbLine
 10
139.7043777234315
 20
70.6981979858997
 30
0.0
 11
139.7043777234315
 21
138.8231979858997
 31
0.0
  0
LINE
  5
509
330
505
100
AcDbEntity
  8
2
 62
     0
370
    -2
100
AcDbLine
 10
166.7071243677315
 20
71.64819798799968
 30
0.0
 11
166.7071243677315
 21
138.8231979858997
 31
0.0
  0
LINE
  5
50A
330
505
100
AcDbEntity
  8
2
 62
     0
370
    -2
100
AcDbLine
 10
142.2043777234315
 20
137.5731979858997
 30
0.0
 11
164.2071243677315
 21
137.5731979858997
 31
0.0
  0
SOLID
  5
50B
330
505
100
AcDbEntity
  8
2
 62
     0
100
AcDbTrace
 10
142.2043777234315
 20
137.9898646525664
 30
0.0
 11
142.2043777234315
 21
137.156531319233
 31
0.0
 12
139.7043777234315
 22
137.5731979858997
 32
0.0
 13
139.7043777234315
 23
137.5731979858997
 33
0.0
  0
SOLID
  5
50C
330
505
100
AcDbEntity
  8
2
 62
     0
100
AcDbTrace
 10
164.2071243677315
 20
137.156531319233
 30
0.0
 11
164.2071243677315
 21
137.9898646525664
 31
0.0
 12
166.7071243677315
 22
137.5731979858997
 32
0.0
 13
166.7071243677315
 23
137.5731979858997
 33
0.0
  0
MTEXT
  5
50D
330
505
100
AcDbEntity
  8
2
 62
     0
100
AcDbMText
 10
150.7063965564566
 20
140.6981979858997
 30
0.0
 40
2.5
 41
0.0
 46
0.0
 71
     2
 72
     1
  1
27^J
 73
     1
 44
1.0
  0
POINT
  5
50E
330
505
100
AcDbEntity
  8
Defpoints
 62
     0
100
AcDbPoint
 10
139.7043777234315
 20
70.0731979858997
 30
0.0
  0
POINT
  5
50F
330
505
100
AcDbEntity
  8
Defpoints
 62
     0
100
AcDbPoint
 10
166.7071243677315
 20
71.02319798799968
 30
0.0
  0
POINT
  5
510
330
505
100
AcDbEntity
  8
Defpoints
 62
     0
100
AcDbPoint
 10
166.7071243677315
 20
137.5731979858997
 30
0.0
  0
ENDBLK
  5
507
330
505
100
AcDbEntity
  8
0
100
AcDbBlockEnd
  0
ENDSEC
  0
SECTION
  2
ENTITIES
  0
LINE
  5
2F
102
{ACAD_REACTORS
330
4C1
330
4D2
102
}
330
1D
100
AcDbEntity
  8
1
100
AcDbLine
 10
0.0
 20
0.0
 30
0.0
 11
42.9
 21
0.0
 31
0.0
  0
LINE
  5
30
330
1D
100
AcDbEntity
  8
1
100
AcDbLine
 10
42.9
 20
0.0
 30
0.0
 11
44.9
 21
2.0
 31
0.0
  0
LINE
  5
31
330
1D
100
AcDbEntity
  8
1
100
AcDbLine
 10
-10.836029766
 20
64.678
 30
0.0
 11
-10.324315193
 21
64.713692038
 31
0.0
  0
LINE
  5
32
330
1D
100
AcDbEntity
  8
1
100
AcDbLine
 10
-10.324315193
 20
64.713692038
 30
0.0
 11
-9.821356199
 21
64.820157453
 31
0.0
  0
LINE
  5
33
330
1D
100
AcDbEntity
  8
1
100
AcDbLine
 10
-9.821356199
 20
64.820157453
 30
0.0
 11
-9.335758551
 21
64.99557459
 31
0.0
  0
LINE
  5
34
330
1D
100
AcDbEntity
  8
1
100
AcDbLine
 10
-9.335758551
 20
64.99557459
 30
0.0
 11
-8.875830959
 21
65.236942015
 31
0.0
  0
LINE
  5
35
330
1D
100
AcDbEntity
  8
1
100
AcDbLine
 10
-8.875830959
 20
65.236942015
 30
0.0
 11
-8.449442912
 21
65.540129864
 31
0.0
  0
LINE
  5
36
330
1D
100
AcDbEntity
  8
1
100
AcDbLine
 10
-8.449442912
 20
65.540129864
 30
0.0
 11
-8.063890028
 21
65.899950509
 31
0.0
  0
LINE
  5
37
330
1D
100
AcDbEntity
  8
1
100
AcDbLine
 10
-8.063890028
 20
65.899950509
 30
0.0
 11
-7.725769224
 21
66.310247318
 31
0.0
  0
LINE
  5
38
330
1D
100
AcDbEntity
  8
1
100
AcDbLine
 10
-7.725769224
 20
66.310247318
 30
0.0
 11
-7.440865839000001
 21
66.764
 31
0.0
  0
LINE
  5
39
330
1D
100
AcDbEntity
  8
1
100
AcDbLine
 10
-7.440865839000001
 20
66.764
 30
0.0
 11
-7.214054651000001
 21
67.25344472
 31
0.0
  0
LINE
  5
3A
330
1D
100
AcDbEntity
  8
1
100
AcDbLine
 10
-7.214054651000001
 20
67.25344472
 30
0.0
 11
-7.049216461
 21
67.770206944
 31
0.0
  0
LINE
  5
3B
330
1D
100
AcDbEntity
  8
1
100
AcDbLine
 10
-7.049216461
 20
67.770206944
 30
0.0
 11
-6.949171697000001
 21
68.305444726
 31
0.0
  0
LINE
  5
3C
330
1D
100
AcDbEntity
  8
1
100
AcDbLine
 10
-6.949171697000001
 20
68.305444726
 30
0.0
 11
-6.915632152000001
 21
68.85
 31
0.0
  0
LINE
  5
3D
330
1D
100
AcDbEntity
  8
1
100
AcDbLine
 10
-6.915632152000001
 20
68.85
 30
0.0
 11
-6.949171697000001
 21
69.394555274
 31
0.0
  0
LINE
  5
3E
330
1D
100
AcDbEntity
  8
1
100
AcDbLine
 10
-6.949171697000001
 20
69.394555274
 30
0.0
 11
-7.049216461
 21
69.929793056
 31
0.0
  0
LINE
  5
3F
330
1D
100
AcDbEntity
  8
1
100
AcDbLine
 10
-7.049216461
 20
69.929793056
 30
0.0
 11
-7.214054651000001
 21
70.44655528
 31
0.0
  0
LINE
  5
40
330
1D
100
AcDbEntity
  8
1
100
AcDbLine
 10
-7.214054651000001
 20
70.44655528
 30
0.0
 11
-7.440865839000001
 21
70.936
 31
0.0
  0
LINE
  5
41
330
1D
100
AcDbEntity
  8
1
100
AcDbLine
 10
-7.440865839000001
 20
70.936
 30
0.0
 11
-7.725769224
 21
71.389752682
 31
0.0
  0
LINE
  5
42
330
1D
100
AcDbEntity
  8
1
100
AcDbLine
 10
-7.725769224
 20
71.389752682
 30
0.0
 11
-8.063890028
 21
71.800049491
 31
0.0
  0
LINE
  5
43
330
1D
100
AcDbEntity
  8
1
100
AcDbLine
 10
-8.063890028
 20
71.800049491
 30
0.0
 11
-8.449442912
 21
72.159870136
 31
0.0
  0
LINE
  5
44
330
1D
100
AcDbEntity
  8
1
100
AcDbLine
 10
-8.449442912
 20
72.159870136
 30
0.0
 11
-8.875830959
 21
72.463057985
 31
0.0
  0
LINE
  5
45
330
1D
100
AcDbEntity
  8
1
100
AcDbLine
 10
-8.875830959
 20
72.463057985
 30
0.0
 11
-9.335758551
 21
72.70442541
 31
0.0
  0
LINE
  5
46
330
1D
100
AcDbEntity
  8
1
100
AcDbLine
 10
-9.335758551
 20
72.70442541
 30
0.0
 11
-9.821356199
 21
72.879842547
 31
0.0
  0
LINE
  5
47
330
1D
100
AcDbEntity
  8
1
100
AcDbLine
 10
-9.821356199
 20
72.879842547
 30
0.0
 11
-10.324315193
 21
72.986307962
 31
0.0
  0
LINE
  5
48
330
1D
100
AcDbEntity
  8
1
100
AcDbLine
 10
-10.324315193
 20
72.986307962
 30
0.0
 11
-10.836029766
 21
73.022
 31
0.0
  0
LINE
  5
49
330
1D
100
AcDbEntity
  8
1
100
AcDbLine
 10
-10.836029766
 20
73.022
 30
0.0
 11
-11.347744338
 21
72.986307962
 31
0.0
  0
LINE
  5
4A
330
1D
100
AcDbEntity
  8
1
100
AcDbLine
 10
-11.347744338
 20
72.986307962
 30
0.0
 11
-11.850703333
 21
72.879842547
 31
0.0
  0
LINE
  5
4B
330
1D
100
AcDbEntity
  8
1
100
AcDbLine
 10
-11.850703333
 20
72.879842547
 30
0.0
 11
-12.336300981
 21
72.70442541
 31
0.0
  0
LINE
  5
4C
330
1D
100
AcDbEntity
  8
1
100
AcDbLine
 10
-12.336300981
 20
72.70442541
 30
0.0
 11
-12.796228573
 21
72.463057985
 31
0.0
  0
LINE
  5
4D
330
1D
100
AcDbEntity
  8
1
100
AcDbLine
 10
-12.796228573
 20
72.463057985
 30
0.0
 11
-13.222616619
 21
72.159870136
 31
0.0
  0
LINE
  5
4E
330
1D
100
AcDbEntity
  8
1
100
AcDbLine
 10
-13.222616619
 20
72.159870136
 30
0.0
 11
-13.608169504
 21
71.800049491
 31
0.0
  0
LINE
  5
4F
330
1D
100
AcDbEntity
  8
1
100
AcDbLine
 10
-13.608169504
 20
71.800049491
 30
0.0
 11
-13.946290308
 21
71.389752682
 31
0.0
  0
LINE
  5
50
330
1D
100
AcDbEntity
  8
1
100
AcDbLine
 10
-13.946290308
 20
71.389752682
 30
0.0
 11
-14.231193692
 21
70.936
 31
0.0
  0
LINE
  5
51
330
1D
100
AcDbEntity
  8
1
100
AcDbLine
 10
-14.231193692
 20
70.936
 30
0.0
 11
-14.458004881
 21
70.44655528
 31
0.0
  0
LINE
  5
52
330
1D
100
AcDbEntity
  8
1
100
AcDbLine
 10
-14.458004881
 20
70.44655528
 30
0.0
 11
-14.62284307
 21
69.929793056
 31
0.0
  0
LINE
  5
53
330
1D
100
AcDbEntity
  8
1
100
AcDbLine
 10
-14.62284307
 20
69.929793056
 30
0.0
 11
-14.722887835
 21
69.394555274
 31
0.0
  0
LINE
  5
54
330
1D
100
AcDbEntity
  8
1
100
AcDbLine
 10
-14.722887835
 20
69.394555274
 30
0.0
 11
-14.75642738
 21
68.85
 31
0.0
  0
LINE
  5
55
330
1D
100
AcDbEntity
  8
1
100
AcDbLine
 10
-14.75642738
 20
68.85
 30
0.0
 11
-14.722887835
 21
68.305444726
 31
0.0
  0
LINE
  5
56
330
1D
100
AcDbEntity
  8
1
100
AcDbLine
 10
-14.722887835
 20
68.305444726
 30
0.0
 11
-14.62284307
 21
67.770206944
 31
0.0
  0
LINE
  5
57
330
1D
100
AcDbEntity
  8
1
100
AcDbLine
 10
-14.62284307
 20
67.770206944
 30
0.0
 11
-14.458004881
 21
67.25344472
 31
0.0
  0
LINE
  5
58
330
1D
100
AcDbEntity
  8
1
100
AcDbLine
 10
-14.458004881
 20
67.25344472
 30
0.0
 11
-14.231193692
 21
66.764
 31
0.0
  0
LINE
  5
59
330
1D
100
AcDbEntity
  8
1
100
AcDbLine
 10
-14.231193692
 20
66.764
 30
0.0
 11
-13.946290308
 21
66.310247318
 31
0.0
  0
LINE
  5
5A
330
1D
100
AcDbEntity
  8
1
100
AcDbLine
 10
-13.946290308
 20
66.310247318
 30
0.0
 11
-13.608169504
 21
65.899950509
 31
0.0
  0
LINE
  5
5B
330
1D
100
AcDbEntity
  8
1
100
AcDbLine
 10
-13.608169504
 20
65.899950509
 30
0.0
 11
-13.222616619
 21
65.540129864
 31
0.0
  0
LINE
  5
5C
330
1D
100
AcDbEntity
  8
1
100
AcDbLine
 10
-13.222616619
 20
65.540129864
 30
0.0
 11
-12.796228573
 21
65.236942015
 31
0.0
  0
LINE
  5
5D
330
1D
100
AcDbEntity
  8
1
100
AcDbLine
 10
-12.796228573
 20
65.236942015
 30
0.0
 11
-12.336300981
 21
64.99557459
 31
0.0
  0
LINE
  5
5E
330
1D
100
AcDbEntity
  8
1
100
AcDbLine
 10
-12.336300981
 20
64.99557459
 30
0.0
 11
-11.850703333
 21
64.820157453
 31
0.0
  0
LINE
  5
5F
330
1D
100
AcDbEntity
  8
1
100
AcDbLine
 10
-11.850703333
 20
64.820157453
 30
0.0
 11
-11.347744338
 21
64.713692038
 31
0.0
  0
LINE
  5
60
330
1D
100
AcDbEntity
  8
1
100
AcDbLine
 10
-11.347744338
 20
64.713692038
 30
0.0
 11
-10.836029766
 21
64.678
 31
0.0
  0
LINE
  5
61
330
1D
100
AcDbEntity
  8
1
100
AcDbLine
 10
-10.672528397
 20
63.84999999999999
 30
0.0
 11
-10.106191252
 21
63.88645563
 31
0.0
  0
LINE
  5
62
330
1D
100
AcDbEntity
  8
1
100
AcDbLine
 10
-10.106191252
 20
63.88645563
 30
0.0
 11
-9.548112578
 21
63.99529091300001
 31
0.0
  0
LINE
  5
63
330
1D
100
AcDbEntity
  8
1
100
AcDbLine
 10
-9.548112578
 20
63.99529091300001
 30
0.0
 11
-9.006430418
 21
64.174918787
 31
0.0
  0
LINE
  5
64
330
1D
100
AcDbEntity
  8
1
100
AcDbLine
 10
-9.006430418
 20
64.174918787
 30
0.0
 11
-8.489043719
 21
64.422719872
 31
0.0
  0
LINE
  5
65
330
1D
100
AcDbEntity
  8
1
100
AcDbLine
 10
-8.489043719
 20
64.422719872
 30
0.0
 11
-8.003497143
 21
64.735080671
 31
0.0
  0
LINE
  5
66
330
1D
100
AcDbEntity
  8
1
100
AcDbLine
 10
-8.003497143
 20
64.735080671
 30
0.0
 11
-7.556871053
 21
65.107446259
 31
0.0
  0
LINE
  5
67
330
1D
100
AcDbEntity
  8
1
100
AcDbLine
 10
-7.556871053
 20
65.107446259
 30
0.0
 11
-7.155678263
 21
65.534386709
 31
0.0
  0
LINE
  5
68
330
1D
100
AcDbEntity
  8
1
100
AcDbLine
 10
-7.155678263
 20
65.534386709
 30
0.0
 11
-6.805769068
 21
66.009676266
 31
0.0
  0
LINE
  5
69
330
1D
100
AcDbEntity
  8
1
100
AcDbLine
 10
-6.805769068
 20
66.009676266
 30
0.0
 11
-6.512245930000001
 21
66.52638414
 31
0.0
  0
LINE
  5
6A
330
1D
100
AcDbEntity
  8
1
100
AcDbLine
 10
-6.512245930000001
 20
66.52638414
 30
0.0
 11
-6.279389079
 21
67.076975565
 31
0.0
  0
LINE
  5
6B
330
1D
100
AcDbEntity
  8
1
100
AcDbLine
 10
-6.279389079
 20
67.076975565
 30
0.0
 11
-6.110594091
 21
67.653421679
 31
0.0
  0
LINE
  5
6C
330
1D
100
AcDbEntity
  8
1
100
AcDbLine
 10
-6.110594091
 20
67.653421679
 30
0.0
 11
-6.008322379
 21
68.247316599
 31
0.0
  0
LINE
  5
6D
330
1D
100
AcDbEntity
  8
1
100
AcDbLine
 10
-6.008322379
 20
68.247316599
 30
0.0
 11
-5.974065293000001
 21
68.85
 31
0.0
  0
LINE
  5
6E
330
1D
100
AcDbEntity
  8
1
100
AcDbLine
 10
-5.974065293000001
 20
68.85
 30
0.0
 11
-6.008322379
 21
69.452683401
 31
0.0
  0
LINE
  5
6F
330
1D
100
AcDbEntity
  8
1
100
AcDbLine
 10
-6.008322379
 20
69.452683401
 30
0.0
 11
-6.110594091
 21
70.046578321
 31
0.0
  0
LINE
  5
70
330
1D
100
AcDbEntity
  8
1
100
AcDbLine
 10
-6.110594091
 20
70.046578321
 30
0.0
 11
-6.279389079
 21
70.623024435
 31
0.0
  0
LINE
  5
71
330
1D
100
AcDbEntity
  8
1
100
AcDbLine
 10
-6.279389079
 20
70.623024435
 30
0.0
 11
-6.512245930000001
 21
71.17361586
 31
0.0
  0
LINE
  5
72
330
1D
100
AcDbEntity
  8
1
100
AcDbLine
 10
-6.512245930000001
 20
71.17361586
 30
0.0
 11
-6.805769068
 21
71.690323734
 31
0.0
  0
LINE
  5
73
330
1D
100
AcDbEntity
  8
1
100
AcDbLine
 10
-6.805769068
 20
71.690323734
 30
0.0
 11
-7.155678263
 21
72.165613291
 31
0.0
  0
LINE
  5
74
330
1D
100
AcDbEntity
  8
1
100
AcDbLine
 10
-7.155678263
 20
72.165613291
 30
0.0
 11
-7.556871053
 21
72.592553741
 31
0.0
  0
LINE
  5
75
330
1D
100
AcDbEntity
  8
1
100
AcDbLine
 10
-7.556871053
 20
72.592553741
 30
0.0
 11
-8.003497143
 21
72.964919329
 31
0.0
  0
LINE
  5
76
330
1D
100
AcDbEntity
  8
1
100
AcDbLine
 10
-8.003497143
 20
72.964919329
 30
0.0
 11
-8.489043719
 21
73.277280128
 31
0.0
  0
LINE
  5
77
330
1D
100
AcDbEntity
  8
1
100
AcDbLine
 10
-8.489043719
 20
73.277280128
 30
0.0
 11
-9.006430418
 21
73.525081213
 31
0.0
  0
LINE
  5
78
330
1D
100
AcDbEntity
  8
1
100
AcDbLine
 10
-9.006430418
 20
73.525081213
 30
0.0
 11
-9.548112578
 21
73.704709087
 31
0.0
  0
LINE
  5
79
330
1D
100
AcDbEntity
  8
1
100
AcDbLine
 10
-9.548112578
 20
73.704709087
 30
0.0
 11
-10.106191252
 21
73.81354437
 31
0.0
  0
LINE
  5
7A
330
1D
100
AcDbEntity
  8
1
100
AcDbLine
 10
-10.106191252
 20
73.81354437
 30
0.0
 11
-10.672528397
 21
73.85
 31
0.0
  0
LINE
  5
7B
330
1D
100
AcDbEntity
  8
1
100
AcDbLine
 10
-10.672528397
 20
73.85
 30
0.0
 11
-11.238865541
 21
73.81354437
 31
0.0
  0
LINE
  5
7C
330
1D
100
AcDbEntity
  8
1
100
AcDbLine
 10
-11.238865541
 20
73.81354437
 30
0.0
 11
-11.796944215
 21
73.704709087
 31
0.0
  0
LINE
  5
7D
330
1D
100
AcDbEntity
  8
1
100
AcDbLine
 10
-11.796944215
 20
73.704709087
 30
0.0
 11
-12.338626375
 21
73.525081213
 31
0.0
  0
LINE
  5
7E
330
1D
100
AcDbEntity
  8
1
100
AcDbLine
 10
-12.338626375
 20
73.525081213
 30
0.0
 11
-12.856013074
 21
73.277280128
 31
0.0
  0
LINE
  5
7F
330
1D
100
AcDbEntity
  8
1
100
AcDbLine
 10
-12.856013074
 20
73.277280128
 30
0.0
 11
-13.34155965
 21
72.964919329
 31
0.0
  0
LINE
  5
80
330
1D
100
AcDbEntity
  8
1
100
AcDbLine
 10
-13.34155965
 20
72.964919329
 30
0.0
 11
-13.78818574
 21
72.592553741
 31
0.0
  0
LINE
  5
81
330
1D
100
AcDbEntity
  8
1
100
AcDbLine
 10
-13.78818574
 20
72.592553741
 30
0.0
 11
-14.18937853
 21
72.165613291
 31
0.0
  0
LINE
  5
82
330
1D
100
AcDbEntity
  8
1
100
AcDbLine
 10
-14.18937853
 20
72.165613291
 30
0.0
 11
-14.539287725
 21
71.690323734
 31
0.0
  0
LINE
  5
83
330
1D
100
AcDbEntity
  8
1
100
AcDbLine
 10
-14.539287725
 20
71.690323734
 30
0.0
 11
-14.832810863
 21
71.17361586
 31
0.0
  0
LINE
  5
84
330
1D
100
AcDbEntity
  8
1
100
AcDbLine
 10
-14.832810863
 20
71.17361586
 30
0.0
 11
-15.065667714
 21
70.623024435
 31
0.0
  0
LINE
  5
85
330
1D
100
AcDbEntity
  8
1
100
AcDbLine
 10
-15.065667714
 20
70.623024435
 30
0.0
 11
-15.234462702
 21
70.046578321
 31
0.0
  0
LINE
  5
86
330
1D
100
AcDbEntity
  8
1
100
AcDbLine
 10
-15.234462702
 20
70.046578321
 30
0.0
 11
-15.336734414
 21
69.452683401
 31
0.0
  0
LINE
  5
87
330
1D
100
AcDbEntity
  8
1
100
AcDbLine
 10
-15.336734414
 20
69.452683401
 30
0.0
 11
-15.3709915
 21
68.85
 31
0.0
  0
LINE
  5
88
330
1D
100
AcDbEntity
  8
1
100
AcDbLine
 10
-15.3709915
 20
68.85
 30
0.0
 11
-15.336734414
 21
68.247316599
 31
0.0
  0
LINE
  5
89
330
1D
100
AcDbEntity
  8
1
100
AcDbLine
 10
-15.336734414
 20
68.247316599
 30
0.0
 11
-15.234462702
 21
67.653421679
 31
0.0
  0
LINE
  5
8A
330
1D
100
AcDbEntity
  8
1
100
AcDbLine
 10
-15.234462702
 20
67.653421679
 30
0.0
 11
-15.065667714
 21
67.076975565
 31
0.0
  0
LINE
  5
8B
330
1D
100
AcDbEntity
  8
1
100
AcDbLine
 10
-15.065667714
 20
67.076975565
 30
0.0
 11
-14.832810863
 21
66.52638414
 31
0.0
  0
LINE
  5
8C
330
1D
100
AcDbEntity
  8
1
100
AcDbLine
 10
-14.832810863
 20
66.52638414
 30
0.0
 11
-14.539287725
 21
66.009676266
 31
0.0
  0
LINE
  5
8D
330
1D
100
AcDbEntity
  8
1
100
AcDbLine
 10
-14.539287725
 20
66.009676266
 30
0.0
 11
-14.18937853
 21
65.534386709
 31
0.0
  0
LINE
  5
8E
330
1D
100
AcDbEntity
  8
1
100
AcDbLine
 10
-14.18937853
 20
65.534386709
 30
0.0
 11
-13.78818574
 21
65.107446259
 31
0.0
  0
LINE
  5
8F
330
1D
100
AcDbEntity
  8
1
100
AcDbLine
 10
-13.78818574
 20
65.107446259
 30
0.0
 11
-13.34155965
 21
64.735080671
 31
0.0
  0
LINE
  5
90
330
1D
100
AcDbEntity
  8
1
100
AcDbLine
 10
-13.34155965
 20
64.735080671
 30
0.0
 11
-12.856013074
 21
64.422719872
 31
0.0
  0
LINE
  5
91
330
1D
100
AcDbEntity
  8
1
100
AcDbLine
 10
-12.856013074
 20
64.422719872
 30
0.0
 11
-12.338626375
 21
64.174918787
 31
0.0
  0
LINE
  5
92
330
1D
100
AcDbEntity
  8
1
100
AcDbLine
 10
-12.338626375
 20
64.174918787
 30
0.0
 11
-11.796944215
 21
63.99529091300001
 31
0.0
  0
LINE
  5
93
330
1D
100
AcDbEntity
  8
1
100
AcDbLine
 10
-11.796944215
 20
63.99529091300001
 30
0.0
 11
-11.238865541
 21
63.88645563
 31
0.0
  0
LINE
  5
94
330
1D
100
AcDbEntity
  8
1
100
AcDbLine
 10
-11.238865541
 20
63.88645563
 30
0.0
 11
-10.672528397
 21
63.84999999999999
 31
0.0
  0
LINE
  5
95
330
1D
100
AcDbEntity
  8
1
100
AcDbLine
 10
-8.486798214
 20
70.293375673
 30
0.0
 11
-10.836029766
 21
71.736751346
 31
0.0
  0
LINE
  5
96
330
1D
100
AcDbEntity
  8
1
100
AcDbLine
 10
-13.185261318
 20
70.293375673
 30
0.0
 11
-10.836029766
 21
71.736751346
 31
0.0
  0
LINE
  5
97
330
1D
100
AcDbEntity
  8
1
100
AcDbLine
 10
-13.185261318
 20
67.406624327
 30
0.0
 11
-13.185261318
 21
70.293375673
 31
0.0
  0
LINE
  5
98
330
1D
100
AcDbEntity
  8
1
100
AcDbLine
 10
-13.185261318
 20
67.406624327
 30
0.0
 11
-10.836029766
 21
65.963248654
 31
0.0
  0
LINE
  5
99
330
1D
100
AcDbEntity
  8
1
100
AcDbLine
 10
-8.486798214
 20
67.406624327
 30
0.0
 11
-10.836029766
 21
65.963248654
 31
0.0
  0
LINE
  5
9A
330
1D
100
AcDbEntity
  8
1
100
AcDbLine
 10
-8.486798214
 20
67.406624327
 30
0.0
 11
-8.486798214
 21
70.293375673
 31
0.0
  0
LINE
  5
9B
330
1D
100
AcDbEntity
  8
1
100
AcDbLine
 10
-11.133140458
 20
67.406624327
 30
0.0
 11
-13.185261318
 21
67.406624327
 31
0.0
  0
LINE
  5
9C
330
1D
100
AcDbEntity
  8
1
100
AcDbLine
 10
-11.133140458
 20
67.406624327
 30
0.0
 11
-9.809969336
 21
66.593663592
 31
0.0
  0
LINE
  5
9D
330
1D
100
AcDbEntity
  8
1
100
AcDbLine
 10
-11.133140458
 20
70.293375673
 30
0.0
 11
-9.809969336
 21
71.106336408
 31
0.0
  0
LINE
  5
9E
330
1D
100
AcDbEntity
  8
1
100
AcDbLine
 10
-11.133140458
 20
70.293375673
 30
0.0
 11
-13.185261318
 21
70.293375673
 31
0.0
  0
LINE
  5
9F
330
1D
100
AcDbEntity
  8
1
100
AcDbLine
 10
-11.133140458
 20
67.406624327
 30
0.0
 11
-11.133140458
 21
70.293375673
 31
0.0
  0
LINE
  5
A0
330
1D
100
AcDbEntity
  8
1
100
AcDbLine
 10
-14.231193692
 20
44.936
 30
0.0
 11
-14.458004881
 21
44.44655528
 31
0.0
  0
LINE
  5
A1
330
1D
100
AcDbEntity
  8
1
100
AcDbLine
 10
-14.458004881
 20
44.44655528
 30
0.0
 11
-14.62284307
 21
43.929793056
 31
0.0
  0
LINE
  5
A2
330
1D
100
AcDbEntity
  8
1
100
AcDbLine
 10
-14.62284307
 20
43.929793056
 30
0.0
 11
-14.722887835
 21
43.394555274
 31
0.0
  0
LINE
  5
A3
330
1D
100
AcDbEntity
  8
1
100
AcDbLine
 10
-14.722887835
 20
43.394555274
 30
0.0
 11
-14.75642738
 21
42.85
 31
0.0
  0
LINE
  5
A4
330
1D
100
AcDbEntity
  8
1
100
AcDbLine
 10
-14.75642738
 20
42.85
 30
0.0
 11
-14.722887835
 21
42.305444726
 31
0.0
  0
LINE
  5
A5
330
1D
100
AcDbEntity
  8
1
100
AcDbLine
 10
-14.722887835
 20
42.305444726
 30
0.0
 11
-14.62284307
 21
41.770206944
 31
0.0
  0
LINE
  5
A6
330
1D
100
AcDbEntity
  8
1
100
AcDbLine
 10
-14.62284307
 20
41.770206944
 30
0.0
 11
-14.458004881
 21
41.25344472
 31
0.0
  0
LINE
  5
A7
330
1D
100
AcDbEntity
  8
1
100
AcDbLine
 10
-14.458004881
 20
41.25344472
 30
0.0
 11
-14.231193692
 21
40.764
 31
0.0
  0
LINE
  5
A8
330
1D
100
AcDbEntity
  8
1
100
AcDbLine
 10
-14.231193692
 20
40.764
 30
0.0
 11
-13.946290308
 21
40.310247318
 31
0.0
  0
LINE
  5
A9
330
1D
100
AcDbEntity
  8
1
100
AcDbLine
 10
-13.946290308
 20
40.310247318
 30
0.0
 11
-13.608169504
 21
39.899950509
 31
0.0
  0
LINE
  5
AA
330
1D
100
AcDbEntity
  8
1
100
AcDbLine
 10
-13.608169504
 20
39.899950509
 30
0.0
 11
-13.222616619
 21
39.540129864
 31
0.0
  0
LINE
  5
AB
330
1D
100
AcDbEntity
  8
1
100
AcDbLine
 10
-13.222616619
 20
39.540129864
 30
0.0
 11
-12.796228573
 21
39.236942015
 31
0.0
  0
LINE
  5
AC
330
1D
100
AcDbEntity
  8
1
100
AcDbLine
 10
-12.796228573
 20
39.236942015
 30
0.0
 11
-12.336300981
 21
38.99557459
 31
0.0
  0
LINE
  5
AD
330
1D
100
AcDbEntity
  8
1
100
AcDbLine
 10
-12.336300981
 20
38.99557459
 30
0.0
 11
-11.850703333
 21
38.820157453
 31
0.0
  0
LINE
  5
AE
330
1D
100
AcDbEntity
  8
1
100
AcDbLine
 10
-11.850703333
 20
38.820157453
 30
0.0
 11
-11.347744338
 21
38.713692038
 31
0.0
  0
LINE
  5
AF
330
1D
100
AcDbEntity
  8
1
100
AcDbLine
 10
-11.347744338
 20
38.713692038
 30
0.0
 11
-10.836029766
 21
38.678
 31
0.0
  0
LINE
  5
B0
330
1D
100
AcDbEntity
  8
1
100
AcDbLine
 10
-10.836029766
 20
38.678
 30
0.0
 11
-10.324315193
 21
38.713692038
 31
0.0
  0
LINE
  5
B1
330
1D
100
AcDbEntity
  8
1
100
AcDbLine
 10
-10.324315193
 20
38.713692038
 30
0.0
 11
-9.821356199
 21
38.820157453
 31
0.0
  0
LINE
  5
B2
330
1D
100
AcDbEntity
  8
1
100
AcDbLine
 10
-9.821356199
 20
38.820157453
 30
0.0
 11
-9.335758551
 21
38.99557459
 31
0.0
  0
LINE
  5
B3
330
1D
100
AcDbEntity
  8
1
100
AcDbLine
 10
-9.335758551
 20
38.99557459
 30
0.0
 11
-8.875830959
 21
39.236942015
 31
0.0
  0
LINE
  5
B4
330
1D
100
AcDbEntity
  8
1
100
AcDbLine
 10
-8.875830959
 20
39.236942015
 30
0.0
 11
-8.449442912
 21
39.540129864
 31
0.0
  0
LINE
  5
B5
330
1D
100
AcDbEntity
  8
1
100
AcDbLine
 10
-8.449442912
 20
39.540129864
 30
0.0
 11
-8.063890028
 21
39.899950509
 31
0.0
  0
LINE
  5
B6
330
1D
100
AcDbEntity
  8
1
100
AcDbLine
 10
-8.063890028
 20
39.899950509
 30
0.0
 11
-7.725769224
 21
40.310247318
 31
0.0
  0
LINE
  5
B7
330
1D
100
AcDbEntity
  8
1
100
AcDbLine
 10
-7.725769224
 20
40.310247318
 30
0.0
 11
-7.440865839000001
 21
40.764
 31
0.0
  0
LINE
  5
B8
330
1D
100
AcDbEntity
  8
1
100
AcDbLine
 10
-7.440865839000001
 20
40.764
 30
0.0
 11
-7.214054651000001
 21
41.25344472
 31
0.0
  0
LINE
  5
B9
330
1D
100
AcDbEntity
  8
1
100
AcDbLine
 10
-7.214054651000001
 20
41.25344472
 30
0.0
 11
-7.049216461
 21
41.770206944
 31
0.0
  0
LINE
  5
BA
330
1D
100
AcDbEntity
  8
1
100
AcDbLine
 10
-7.049216461
 20
41.770206944
 30
0.0
 11
-6.949171697000001
 21
42.305444726
 31
0.0
  0
LINE
  5
BB
330
1D
100
AcDbEntity
  8
1
100
AcDbLine
 10
-6.949171697000001
 20
42.305444726
 30
0.0
 11
-6.915632152000001
 21
42.85
 31
0.0
  0
LINE
  5
BC
330
1D
100
AcDbEntity
  8
1
100
AcDbLine
 10
-6.915632152000001
 20
42.85
 30
0.0
 11
-6.949171697000001
 21
43.394555274
 31
0.0
  0
LINE
  5
BD
330
1D
100
AcDbEntity
  8
1
100
AcDbLine
 10
-6.949171697000001
 20
43.394555274
 30
0.0
 11
-7.049216461
 21
43.929793056
 31
0.0
  0
LINE
  5
BE
330
1D
100
AcDbEntity
  8
1
100
AcDbLine
 10
-7.049216461
 20
43.929793056
 30
0.0
 11
-7.214054651000001
 21
44.44655528
 31
0.0
  0
LINE
  5
BF
330
1D
100
AcDbEntity
  8
1
100
AcDbLine
 10
-7.214054651000001
 20
44.44655528
 30
0.0
 11
-7.440865839000001
 21
44.936
 31
0.0
  0
LINE
  5
C0
330
1D
100
AcDbEntity
  8
1
100
AcDbLine
 10
-7.440865839000001
 20
44.936
 30
0.0
 11
-7.725769224
 21
45.389752682
 31
0.0
  0
LINE
  5
C1
330
1D
100
AcDbEntity
  8
1
100
AcDbLine
 10
-7.725769224
 20
45.389752682
 30
0.0
 11
-8.063890028
 21
45.800049491
 31
0.0
  0
LINE
  5
C2
330
1D
100
AcDbEntity
  8
1
100
AcDbLine
 10
-8.063890028
 20
45.800049491
 30
0.0
 11
-8.449442912
 21
46.159870136
 31
0.0
  0
LINE
  5
C3
330
1D
100
AcDbEntity
  8
1
100
AcDbLine
 10
-8.449442912
 20
46.159870136
 30
0.0
 11
-8.875830959
 21
46.463057985
 31
0.0
  0
LINE
  5
C4
330
1D
100
AcDbEntity
  8
1
100
AcDbLine
 10
-8.875830959
 20
46.463057985
 30
0.0
 11
-9.335758551
 21
46.70442541
 31
0.0
  0
LINE
  5
C5
330
1D
100
AcDbEntity
  8
1
100
AcDbLine
 10
-9.335758551
 20
46.70442541
 30
0.0
 11
-9.821356199
 21
46.879842547
 31
0.0
  0
LINE
  5
C6
330
1D
100
AcDbEntity
  8
1
100
AcDbLine
 10
-9.821356199
 20
46.879842547
 30
0.0
 11
-10.324315193
 21
46.986307962
 31
0.0
  0
LINE
  5
C7
330
1D
100
AcDbEntity
  8
1
100
AcDbLine
 10
-10.324315193
 20
46.986307962
 30
0.0
 11
-10.836029766
 21
47.022
 31
0.0
  0
LINE
  5
C8
330
1D
100
AcDbEntity
  8
1
100
AcDbLine
 10
-10.836029766
 20
47.022
 30
0.0
 11
-11.347744338
 21
46.986307962
 31
0.0
  0
LINE
  5
C9
330
1D
100
AcDbEntity
  8
1
100
AcDbLine
 10
-11.347744338
 20
46.986307962
 30
0.0
 11
-11.850703333
 21
46.879842547
 31
0.0
  0
LINE
  5
CA
330
1D
100
AcDbEntity
  8
1
100
AcDbLine
 10
-11.850703333
 20
46.879842547
 30
0.0
 11
-12.336300981
 21
46.70442541
 31
0.0
  0
LINE
  5
CB
330
1D
100
AcDbEntity
  8
1
100
AcDbLine
 10
-12.336300981
 20
46.70442541
 30
0.0
 11
-12.796228573
 21
46.463057985
 31
0.0
  0
LINE
  5
CC
330
1D
100
AcDbEntity
  8
1
100
AcDbLine
 10
-12.796228573
 20
46.463057985
 30
0.0
 11
-13.222616619
 21
46.159870136
 31
0.0
  0
LINE
  5
CD
330
1D
100
AcDbEntity
  8
1
100
AcDbLine
 10
-13.222616619
 20
46.159870136
 30
0.0
 11
-13.608169504
 21
45.800049491
 31
0.0
  0
LINE
  5
CE
330
1D
100
AcDbEntity
  8
1
100
AcDbLine
 10
-13.608169504
 20
45.800049491
 30
0.0
 11
-13.946290308
 21
45.389752682
 31
0.0
  0
LINE
  5
CF
330
1D
100
AcDbEntity
  8
1
100
AcDbLine
 10
-13.946290308
 20
45.389752682
 30
0.0
 11
-14.231193692
 21
44.936
 31
0.0
  0
LINE
  5
D0
330
1D
100
AcDbEntity
  8
1
100
AcDbLine
 10
-14.741516803
 20
45.35
 30
0.0
 11
-14.995017869
 21
44.809833049
 31
0.0
  0
LINE
  5
D1
330
1D
100
AcDbEntity
  8
1
100
AcDbLine
 10
-14.995017869
 20
44.809833049
 30
0.0
 11
-15.185487305
 21
44.24108732
 31
0.0
  0
LINE
  5
D2
330
1D
100
AcDbEntity
  8
1
100
AcDbLine
 10
-15.185487305
 20
44.24108732
 30
0.0
 11
-15.310147637
 21
43.652056404
 31
0.0
  0
LINE
  5
D3
330
1D
100
AcDbEntity
  8
1
100
AcDbLine
 10
-15.310147637
 20
43.652056404
 30
0.0
 11
-15.367181038
 21
43.051329701
 31
0.0
  0
LINE
  5
D4
330
1D
100
AcDbEntity
  8
1
100
AcDbLine
 10
-15.367181038
 20
43.051329701
 30
0.0
 11
-15.355755832
 21
42.447667156
 31
0.0
  0
LINE
  5
D5
330
1D
100
AcDbEntity
  8
1
100
AcDbLine
 10
-15.355755832
 20
42.447667156
 30
0.0
 11
-15.276038625
 21
41.849871531
 31
0.0
  0
LINE
  5
D6
330
1D
100
AcDbEntity
  8
1
100
AcDbLine
 10
-15.276038625
 20
41.849871531
 30
0.0
 11
-15.129191872
 21
41.266660031
 31
0.0
  0
LINE
  5
D7
330
1D
100
AcDbEntity
  8
1
100
AcDbLine
 10
-15.129191872
 20
41.266660031
 30
0.0
 11
-14.91735693
 21
40.706537193
 31
0.0
  0
LINE
  5
D8
330
1D
100
AcDbEntity
  8
1
100
AcDbLine
 10
-14.91735693
 20
40.706537193
 30
0.0
 11
-14.643622829
 21
40.177670869
 31
0.0
  0
LINE
  5
D9
330
1D
100
AcDbEntity
  8
1
100
AcDbLine
 10
-14.643622829
 20
40.177670869
 30
0.0
 11
-14.31198123
 21
39.687773122
 31
0.0
  0
LINE
  5
DA
330
1D
100
AcDbEntity
  8
1
100
AcDbLine
 10
-14.31198123
 20
39.687773122
 30
0.0
 11
-13.927268213
 21
39.243987763
 31
0.0
  0
LINE
  5
DB
330
1D
100
AcDbEntity
  8
1
100
AcDbLine
 10
-13.927268213
 20
39.243987763
 30
0.0
 11
-13.49509376
 21
38.852786183
 31
0.0
  0
LINE
  5
DC
330
1D
100
AcDbEntity
  8
1
100
AcDbLine
 10
-13.49509376
 20
38.852786183
 30
0.0
 11
-13.021759948
 21
38.519872981
 31
0.0
  0
LINE
  5
DD
330
1D
100
AcDbEntity
  8
1
100
AcDbLine
 10
-13.021759948
 20
38.519872981
 30
0.0
 11
-12.514169051
 21
38.250102782
 31
0.0
  0
LINE
  5
DE
330
1D
100
AcDbEntity
  8
1
100
AcDbLine
 10
-12.514169051
 20
38.250102782
 30
0.0
 11
-11.979722886
 21
38.047409442
 31
0.0
  0
LINE
  5
DF
330
1D
100
AcDbEntity
  8
1
100
AcDbLine
 10
-11.979722886
 20
38.047409442
 30
0.0
 11
-11.426214881
 21
37.914748687
 31
0.0
  0
LINE
  5
E0
330
1D
100
AcDbEntity
  8
1
100
AcDbLine
 10
-11.426214881
 20
37.914748687
 30
0.0
 11
-10.861716431
 21
37.854055009
 31
0.0
  0
LINE
  5
E1
330
1D
100
AcDbEntity
  8
1
100
AcDbLine
 10
-10.861716431
 20
37.854055009
 30
0.0
 11
-10.294459192
 21
37.866213459
 31
0.0
  0
LINE
  5
E2
330
1D
100
AcDbEntity
  8
1
100
AcDbLine
 10
-10.294459192
 20
37.866213459
 30
0.0
 11
-9.732715054
 21
37.95104674
 31
0.0
  0
LINE
  5
E3
330
1D
100
AcDbEntity
  8
1
100
AcDbLine
 10
-9.732715054
 20
37.95104674
 30
0.0
 11
-9.184675511
 21
38.10731779
 31
0.0
  0
LINE
  5
E4
330
1D
100
AcDbEntity
  8
1
100
AcDbLine
 10
-9.184675511
 20
38.10731779
 30
0.0
 11
-8.658332214
 21
38.332747827
 31
0.0
  0
LINE
  5
E5
330
1D
100
AcDbEntity
  8
1
100
AcDbLine
 10
-8.658332214
 20
38.332747827
 30
0.0
 11
-8.161360432
 21
38.624049572
 31
0.0
  0
LINE
  5
E6
330
1D
100
AcDbEntity
  8
1
100
AcDbLine
 10
-8.161360432
 20
38.624049572
 30
0.0
 11
-7.701007134
 21
38.976975191
 31
0.0
  0
LINE
  5
E7
330
1D
100
AcDbEntity
  8
1
100
AcDbLine
 10
-7.701007134
 20
38.976975191
 30
0.0
 11
-7.283985307
 21
39.386378232
 31
0.0
  0
LINE
  5
E8
330
1D
100
AcDbEntity
  8
1
100
AcDbLine
 10
-7.283985307
 20
39.386378232
 30
0.0
 11
-6.916376069
 21
39.846288679
 31
0.0
  0
LINE
  5
E9
330
1D
100
AcDbEntity
  8
1
100
AcDbLine
 10
-6.916376069
 20
39.846288679
 30
0.0
 11
-6.603539990000001
 21
40.35
 31
0.0
  0
LINE
  5
EA
330
1D
100
AcDbEntity
  8
1
100
AcDbLine
 10
-6.603539990000001
 20
40.35
 30
0.0
 11
-6.350038924000001
 21
40.890166951
 31
0.0
  0
LINE
  5
EB
330
1D
100
AcDbEntity
  8
1
100
AcDbLine
 10
-6.350038924000001
 20
40.890166951
 30
0.0
 11
-6.159569488000001
 21
41.45891268
 31
0.0
  0
LINE
  5
EC
330
1D
100
AcDbEntity
  8
1
100
AcDbLine
 10
-6.159569488000001
 20
41.45891268
 30
0.0
 11
-6.034909156
 21
42.047943596
 31
0.0
  0
LINE
  5
ED
330
1D
100
AcDbEntity
  8
1
100
AcDbLine
 10
-6.034909156
 20
42.047943596
 30
0.0
 11
-5.977875755
 21
42.648670299
 31
0.0
  0
LINE
  5
EE
330
1D
100
AcDbEntity
  8
1
100
AcDbLine
 10
-5.977875755
 20
42.648670299
 30
0.0
 11
-5.989300961000001
 21
43.252332844
 31
0.0
  0
LINE
  5
EF
330
1D
100
AcDbEntity
  8
1
100
AcDbLine
 10
-5.989300961000001
 20
43.252332844
 30
0.0
 11
-6.069018168
 21
43.850128469
 31
0.0
  0
LINE
  5
F0
330
1D
100
AcDbEntity
  8
1
100
AcDbLine
 10
-6.069018168
 20
43.850128469
 30
0.0
 11
-6.215864921000001
 21
44.433339969
 31
0.0
  0
LINE
  5
F1
330
1D
100
AcDbEntity
  8
1
100
AcDbLine
 10
-6.215864921000001
 20
44.433339969
 30
0.0
 11
-6.427699863
 21
44.993462807
 31
0.0
  0
LINE
  5
F2
330
1D
100
AcDbEntity
  8
1
100
AcDbLine
 10
-6.427699863
 20
44.993462807
 30
0.0
 11
-6.701433964
 21
45.522329131
 31
0.0
  0
LINE
  5
F3
330
1D
100
AcDbEntity
  8
1
100
AcDbLine
 10
-6.701433964
 20
45.522329131
 30
0.0
 11
-7.033075563000001
 21
46.012226878
 31
0.0
  0
LINE
  5
F4
330
1D
100
AcDbEntity
  8
1
100
AcDbLine
 10
-7.033075563000001
 20
46.012226878
 30
0.0
 11
-7.417788580000001
 21
46.456012237
 31
0.0
  0
LINE
  5
F5
330
1D
100
AcDbEntity
  8
1
100
AcDbLine
 10
-7.417788580000001
 20
46.456012237
 30
0.0
 11
-7.849963033000001
 21
46.847213817
 31
0.0
  0
LINE
  5
F6
330
1D
100
AcDbEntity
  8
1
100
AcDbLine
 10
-7.849963033000001
 20
46.847213817
 30
0.0
 11
-8.323296845
 21
47.180127019
 31
0.0
  0
LINE
  5
F7
330
1D
100
AcDbEntity
  8
1
100
AcDbLine
 10
-8.323296845
 20
47.180127019
 30
0.0
 11
-8.830887742
 21
47.449897218
 31
0.0
  0
LINE
  5
F8
330
1D
100
AcDbEntity
  8
1
100
AcDbLine
 10
-8.830887742
 20
47.449897218
 30
0.0
 11
-9.365333907
 21
47.652590558
 31
0.0
  0
LINE
  5
F9
330
1D
100
AcDbEntity
  8
1
100
AcDbLine
 10
-9.365333907
 20
47.652590558
 30
0.0
 11
-9.918841912
 21
47.785251313
 31
0.0
  0
LINE
  5
FA
330
1D
100
AcDbEntity
  8
1
100
AcDbLine
 10
-9.918841912
 20
47.785251313
 30
0.0
 11
-10.483340363
 21
47.845944991
 31
0.0
  0
LINE
  5
FB
330
1D
100
AcDbEntity
  8
1
100
AcDbLine
 10
-10.483340363
 20
47.845944991
 30
0.0
 11
-11.050597601
 21
47.833786541
 31
0.0
  0
LINE
  5
FC
330
1D
100
AcDbEntity
  8
1
100
AcDbLine
 10
-11.050597601
 20
47.833786541
 30
0.0
 11
-11.612341739
 21
47.74895326
 31
0.0
  0
LINE
  5
FD
330
1D
100
AcDbEntity
  8
1
100
AcDbLine
 10
-11.612341739
 20
47.74895326
 30
0.0
 11
-12.160381282
 21
47.59268221
 31
0.0
  0
LINE
  5
FE
330
1D
100
AcDbEntity
  8
1
100
AcDbLine
 10
-12.160381282
 20
47.59268221
 30
0.0
 11
-12.686724579
 21
47.367252173
 31
0.0
  0
LINE
  5
FF
330
1D
100
AcDbEntity
  8
1
100
AcDbLine
 10
-12.686724579
 20
47.367252173
 30
0.0
 11
-13.183696361
 21
47.075950428
 31
0.0
  0
LINE
  5
100
330
1D
100
AcDbEntity
  8
1
100
AcDbLine
 10
-13.183696361
 20
47.075950428
 30
0.0
 11
-13.644049659
 21
46.723024809
 31
0.0
  0
LINE
  5
101
330
1D
100
AcDbEntity
  8
1
100
AcDbLine
 10
-13.644049659
 20
46.723024809
 30
0.0
 11
-14.061071486
 21
46.313621768
 31
0.0
  0
LINE
  5
102
330
1D
100
AcDbEntity
  8
1
100
AcDbLine
 10
-14.061071486
 20
46.313621768
 30
0.0
 11
-14.428680724
 21
45.853711321
 31
0.0
  0
LINE
  5
103
330
1D
100
AcDbEntity
  8
1
100
AcDbLine
 10
-14.428680724
 20
45.853711321
 30
0.0
 11
-14.741516803
 21
45.35
 31
0.0
  0
LINE
  5
104
330
1D
100
AcDbEntity
  8
1
100
AcDbLine
 10
-10.836029766
 20
39.963248654
 30
0.0
 11
-8.486798214
 21
41.406624327
 31
0.0
  0
LINE
  5
105
330
1D
100
AcDbEntity
  8
1
100
AcDbLine
 10
-8.486798214
 20
44.293375673
 30
0.0
 11
-8.486798214
 21
41.406624327
 31
0.0
  0
LINE
  5
106
330
1D
100
AcDbEntity
  8
1
100
AcDbLine
 10
-10.836029766
 20
45.736751346
 30
0.0
 11
-8.486798214
 21
44.293375673
 31
0.0
  0
LINE
  5
107
330
1D
100
AcDbEntity
  8
1
100
AcDbLine
 10
-10.836029766
 20
45.736751346
 30
0.0
 11
-13.185261318
 21
44.293375673
 31
0.0
  0
LINE
  5
108
330
1D
100
AcDbEntity
  8
1
100
AcDbLine
 10
-13.185261318
 20
41.406624327
 30
0.0
 11
-13.185261318
 21
44.293375673
 31
0.0
  0
LINE
  5
109
330
1D
100
AcDbEntity
  8
1
100
AcDbLine
 10
-13.185261318
 20
41.406624327
 30
0.0
 11
-10.836029766
 21
39.963248654
 31
0.0
  0
LINE
  5
10A
330
1D
100
AcDbEntity
  8
1
100
AcDbLine
 10
-9.809969336
 20
45.106336408
 30
0.0
 11
-11.133140458
 21
44.293375673
 31
0.0
  0
LINE
  5
10B
330
1D
100
AcDbEntity
  8
1
100
AcDbLine
 10
-11.133140458
 20
44.293375673
 30
0.0
 11
-13.185261318
 21
44.293375673
 31
0.0
  0
LINE
  5
10C
330
1D
100
AcDbEntity
  8
1
100
AcDbLine
 10
-11.133140458
 20
41.406624327
 30
0.0
 11
-13.185261318
 21
41.406624327
 31
0.0
  0
LINE
  5
10D
330
1D
100
AcDbEntity
  8
1
100
AcDbLine
 10
-11.133140458
 20
41.406624327
 30
0.0
 11
-9.809969336
 21
40.593663592
 31
0.0
  0
LINE
  5
10E
330
1D
100
AcDbEntity
  8
1
100
AcDbLine
 10
-11.133140458
 20
41.406624327
 30
0.0
 11
-11.133140458
 21
44.293375673
 31
0.0
  0
LINE
  5
10F
330
1D
100
AcDbEntity
  8
1
100
AcDbLine
 10
-7.440865839000001
 20
53.764
 30
0.0
 11
-7.214054651000001
 21
54.25344472
 31
0.0
  0
LINE
  5
110
330
1D
100
AcDbEntity
  8
1
100
AcDbLine
 10
-7.214054651000001
 20
54.25344472
 30
0.0
 11
-7.049216461
 21
54.770206944
 31
0.0
  0
LINE
  5
111
330
1D
100
AcDbEntity
  8
1
100
AcDbLine
 10
-7.049216461
 20
54.770206944
 30
0.0
 11
-6.949171697000001
 21
55.305444726
 31
0.0
  0
LINE
  5
112
330
1D
100
AcDbEntity
  8
1
100
AcDbLine
 10
-6.949171697000001
 20
55.305444726
 30
0.0
 11
-6.915632152000001
 21
55.85
 31
0.0
  0
LINE
  5
113
330
1D
100
AcDbEntity
  8
1
100
AcDbLine
 10
-6.915632152000001
 20
55.85
 30
0.0
 11
-6.949171697000001
 21
56.394555274
 31
0.0
  0
LINE
  5
114
330
1D
100
AcDbEntity
  8
1
100
AcDbLine
 10
-6.949171697000001
 20
56.394555274
 30
0.0
 11
-7.049216461
 21
56.929793056
 31
0.0
  0
LINE
  5
115
330
1D
100
AcDbEntity
  8
1
100
AcDbLine
 10
-7.049216461
 20
56.929793056
 30
0.0
 11
-7.214054651000001
 21
57.44655528
 31
0.0
  0
LINE
  5
116
330
1D
100
AcDbEntity
  8
1
100
AcDbLine
 10
-7.214054651000001
 20
57.44655528
 30
0.0
 11
-7.440865839000001
 21
57.936
 31
0.0
  0
LINE
  5
117
330
1D
100
AcDbEntity
  8
1
100
AcDbLine
 10
-7.440865839000001
 20
57.936
 30
0.0
 11
-7.725769224
 21
58.389752682
 31
0.0
  0
LINE
  5
118
330
1D
100
AcDbEntity
  8
1
100
AcDbLine
 10
-7.725769224
 20
58.389752682
 30
0.0
 11
-8.063890028
 21
58.800049491
 31
0.0
  0
LINE
  5
119
330
1D
100
AcDbEntity
  8
1
100
AcDbLine
 10
-8.063890028
 20
58.800049491
 30
0.0
 11
-8.449442912
 21
59.159870136
 31
0.0
  0
LINE
  5
11A
330
1D
100
AcDbEntity
  8
1
100
AcDbLine
 10
-8.449442912
 20
59.159870136
 30
0.0
 11
-8.875830959
 21
59.46305798500001
 31
0.0
  0
LINE
  5
11B
330
1D
100
AcDbEntity
  8
1
100
AcDbLine
 10
-8.875830959
 20
59.46305798500001
 30
0.0
 11
-9.335758551
 21
59.70442541
 31
0.0
  0
LINE
  5
11C
330
1D
100
AcDbEntity
  8
1
100
AcDbLine
 10
-9.335758551
 20
59.70442541
 30
0.0
 11
-9.821356199
 21
59.879842547
 31
0.0
  0
LINE
  5
11D
330
1D
100
AcDbEntity
  8
1
100
AcDbLine
 10
-9.821356199
 20
59.879842547
 30
0.0
 11
-10.324315193
 21
59.986307962
 31
0.0
  0
LINE
  5
11E
330
1D
100
AcDbEntity
  8
1
100
AcDbLine
 10
-10.324315193
 20
59.986307962
 30
0.0
 11
-10.836029766
 21
60.02200000000001
 31
0.0
  0
LINE
  5
11F
330
1D
100
AcDbEntity
  8
1
100
AcDbLine
 10
-10.836029766
 20
60.02200000000001
 30
0.0
 11
-11.347744338
 21
59.986307962
 31
0.0
  0
LINE
  5
120
330
1D
100
AcDbEntity
  8
1
100
AcDbLine
 10
-11.347744338
 20
59.986307962
 30
0.0
 11
-11.850703333
 21
59.879842547
 31
0.0
  0
LINE
  5
121
330
1D
100
AcDbEntity
  8
1
100
AcDbLine
 10
-11.850703333
 20
59.879842547
 30
0.0
 11
-12.336300981
 21
59.70442541
 31
0.0
  0
LINE
  5
122
330
1D
100
AcDbEntity
  8
1
100
AcDbLine
 10
-12.336300981
 20
59.70442541
 30
0.0
 11
-12.796228573
 21
59.46305798500001
 31
0.0
  0
LINE
  5
123
330
1D
100
AcDbEntity
  8
1
100
AcDbLine
 10
-12.796228573
 20
59.46305798500001
 30
0.0
 11
-13.222616619
 21
59.159870136
 31
0.0
  0
LINE
  5
124
330
1D
100
AcDbEntity
  8
1
100
AcDbLine
 10
-13.222616619
 20
59.159870136
 30
0.0
 11
-13.608169504
 21
58.800049491
 31
0.0
  0
LINE
  5
125
330
1D
100
AcDbEntity
  8
1
100
AcDbLine
 10
-13.608169504
 20
58.800049491
 30
0.0
 11
-13.946290308
 21
58.389752682
 31
0.0
  0
LINE
  5
126
330
1D
100
AcDbEntity
  8
1
100
AcDbLine
 10
-13.946290308
 20
58.389752682
 30
0.0
 11
-14.231193692
 21
57.936
 31
0.0
  0
LINE
  5
127
330
1D
100
AcDbEntity
  8
1
100
AcDbLine
 10
-14.231193692
 20
57.936
 30
0.0
 11
-14.458004881
 21
57.44655528
 31
0.0
  0
LINE
  5
128
330
1D
100
AcDbEntity
  8
1
100
AcDbLine
 10
-14.458004881
 20
57.44655528
 30
0.0
 11
-14.62284307
 21
56.929793056
 31
0.0
  0
LINE
  5
129
330
1D
100
AcDbEntity
  8
1
100
AcDbLine
 10
-14.62284307
 20
56.929793056
 30
0.0
 11
-14.722887835
 21
56.394555274
 31
0.0
  0
LINE
  5
12A
330
1D
100
AcDbEntity
  8
1
100
AcDbLine
 10
-14.722887835
 20
56.394555274
 30
0.0
 11
-14.75642738
 21
55.85
 31
0.0
  0
LINE
  5
12B
330
1D
100
AcDbEntity
  8
1
100
AcDbLine
 10
-14.75642738
 20
55.85
 30
0.0
 11
-14.722887835
 21
55.305444726
 31
0.0
  0
LINE
  5
12C
330
1D
100
AcDbEntity
  8
1
100
AcDbLine
 10
-14.722887835
 20
55.305444726
 30
0.0
 11
-14.62284307
 21
54.770206944
 31
0.0
  0
LINE
  5
12D
330
1D
100
AcDbEntity
  8
1
100
AcDbLine
 10
-14.62284307
 20
54.770206944
 30
0.0
 11
-14.458004881
 21
54.25344472
 31
0.0
  0
LINE
  5
12E
330
1D
100
AcDbEntity
  8
1
100
AcDbLine
 10
-14.458004881
 20
54.25344472
 30
0.0
 11
-14.231193692
 21
53.764
 31
0.0
  0
LINE
  5
12F
330
1D
100
AcDbEntity
  8
1
100
AcDbLine
 10
-14.231193692
 20
53.764
 30
0.0
 11
-13.946290308
 21
53.310247318
 31
0.0
  0
LINE
  5
130
330
1D
100
AcDbEntity
  8
1
100
AcDbLine
 10
-13.946290308
 20
53.310247318
 30
0.0
 11
-13.608169504
 21
52.899950509
 31
0.0
  0
LINE
  5
131
330
1D
100
AcDbEntity
  8
1
100
AcDbLine
 10
-13.608169504
 20
52.899950509
 30
0.0
 11
-13.222616619
 21
52.540129864
 31
0.0
  0
LINE
  5
132
330
1D
100
AcDbEntity
  8
1
100
AcDbLine
 10
-13.222616619
 20
52.540129864
 30
0.0
 11
-12.796228573
 21
52.236942015
 31
0.0
  0
LINE
  5
133
330
1D
100
AcDbEntity
  8
1
100
AcDbLine
 10
-12.796228573
 20
52.236942015
 30
0.0
 11
-12.336300981
 21
51.99557459
 31
0.0
  0
LINE
  5
134
330
1D
100
AcDbEntity
  8
1
100
AcDbLine
 10
-12.336300981
 20
51.99557459
 30
0.0
 11
-11.850703333
 21
51.820157453
 31
0.0
  0
LINE
  5
135
330
1D
100
AcDbEntity
  8
1
100
AcDbLine
 10
-11.850703333
 20
51.820157453
 30
0.0
 11
-11.347744338
 21
51.713692038
 31
0.0
  0
LINE
  5
136
330
1D
100
AcDbEntity
  8
1
100
AcDbLine
 10
-11.347744338
 20
51.713692038
 30
0.0
 11
-10.836029766
 21
51.678
 31
0.0
  0
LINE
  5
137
330
1D
100
AcDbEntity
  8
1
100
AcDbLine
 10
-10.836029766
 20
51.678
 30
0.0
 11
-10.324315193
 21
51.713692038
 31
0.0
  0
LINE
  5
138
330
1D
100
AcDbEntity
  8
1
100
AcDbLine
 10
-10.324315193
 20
51.713692038
 30
0.0
 11
-9.821356199
 21
51.820157453
 31
0.0
  0
LINE
  5
139
330
1D
100
AcDbEntity
  8
1
100
AcDbLine
 10
-9.821356199
 20
51.820157453
 30
0.0
 11
-9.335758551
 21
51.99557459
 31
0.0
  0
LINE
  5
13A
330
1D
100
AcDbEntity
  8
1
100
AcDbLine
 10
-9.335758551
 20
51.99557459
 30
0.0
 11
-8.875830959
 21
52.236942015
 31
0.0
  0
LINE
  5
13B
330
1D
100
AcDbEntity
  8
1
100
AcDbLine
 10
-8.875830959
 20
52.236942015
 30
0.0
 11
-8.449442912
 21
52.540129864
 31
0.0
  0
LINE
  5
13C
330
1D
100
AcDbEntity
  8
1
100
AcDbLine
 10
-8.449442912
 20
52.540129864
 30
0.0
 11
-8.063890028
 21
52.899950509
 31
0.0
  0
LINE
  5
13D
330
1D
100
AcDbEntity
  8
1
100
AcDbLine
 10
-8.063890028
 20
52.899950509
 30
0.0
 11
-7.725769224
 21
53.310247318
 31
0.0
  0
LINE
  5
13E
330
1D
100
AcDbEntity
  8
1
100
AcDbLine
 10
-7.725769224
 20
53.310247318
 30
0.0
 11
-7.440865839000001
 21
53.764
 31
0.0
  0
LINE
  5
13F
330
1D
100
AcDbEntity
  8
1
100
AcDbLine
 10
-6.603539990000001
 20
53.35
 30
0.0
 11
-6.350038924000001
 21
53.890166951
 31
0.0
  0
LINE
  5
140
330
1D
100
AcDbEntity
  8
1
100
AcDbLine
 10
-6.350038924000001
 20
53.890166951
 30
0.0
 11
-6.159569488000001
 21
54.45891268
 31
0.0
  0
LINE
  5
141
330
1D
100
AcDbEntity
  8
1
100
AcDbLine
 10
-6.159569488000001
 20
54.45891268
 30
0.0
 11
-6.034909156
 21
55.047943596
 31
0.0
  0
LINE
  5
142
330
1D
100
AcDbEntity
  8
1
100
AcDbLine
 10
-6.034909156
 20
55.047943596
 30
0.0
 11
-5.977875755
 21
55.648670299
 31
0.0
  0
LINE
  5
143
330
1D
100
AcDbEntity
  8
1
100
AcDbLine
 10
-5.977875755
 20
55.648670299
 30
0.0
 11
-5.989300961000001
 21
56.252332844
 31
0.0
  0
LINE
  5
144
330
1D
100
AcDbEntity
  8
1
100
AcDbLine
 10
-5.989300961000001
 20
56.252332844
 30
0.0
 11
-6.069018168
 21
56.850128469
 31
0.0
  0
LINE
  5
145
330
1D
100
AcDbEntity
  8
1
100
AcDbLine
 10
-6.069018168
 20
56.850128469
 30
0.0
 11
-6.215864921000001
 21
57.433339969
 31
0.0
  0
LINE
  5
146
330
1D
100
AcDbEntity
  8
1
100
AcDbLine
 10
-6.215864921000001
 20
57.433339969
 30
0.0
 11
-6.427699863
 21
57.993462807
 31
0.0
  0
LINE
  5
147
330
1D
100
AcDbEntity
  8
1
100
AcDbLine
 10
-6.427699863
 20
57.993462807
 30
0.0
 11
-6.701433964
 21
58.522329131
 31
0.0
  0
LINE
  5
148
330
1D
100
AcDbEntity
  8
1
100
AcDbLine
 10
-6.701433964
 20
58.522329131
 30
0.0
 11
-7.033075563000001
 21
59.01222687800001
 31
0.0
  0
LINE
  5
149
330
1D
100
AcDbEntity
  8
1
100
AcDbLine
 10
-7.033075563000001
 20
59.01222687800001
 30
0.0
 11
-7.417788580000001
 21
59.456012237
 31
0.0
  0
LINE
  5
14A
330
1D
100
AcDbEntity
  8
1
100
AcDbLine
 10
-7.417788580000001
 20
59.456012237
 30
0.0
 11
-7.849963033000001
 21
59.847213817
 31
0.0
  0
LINE
  5
14B
330
1D
100
AcDbEntity
  8
1
100
AcDbLine
 10
-7.849963033000001
 20
59.847213817
 30
0.0
 11
-8.323296845
 21
60.180127019
 31
0.0
  0
LINE
  5
14C
330
1D
100
AcDbEntity
  8
1
100
AcDbLine
 10
-8.323296845
 20
60.180127019
 30
0.0
 11
-8.830887742
 21
60.449897218
 31
0.0
  0
LINE
  5
14D
330
1D
100
AcDbEntity
  8
1
100
AcDbLine
 10
-8.830887742
 20
60.449897218
 30
0.0
 11
-9.365333907
 21
60.652590558
 31
0.0
  0
LINE
  5
14E
330
1D
100
AcDbEntity
  8
1
100
AcDbLine
 10
-9.365333907
 20
60.652590558
 30
0.0
 11
-9.918841912
 21
60.785251313
 31
0.0
  0
LINE
  5
14F
330
1D
100
AcDbEntity
  8
1
100
AcDbLine
 10
-9.918841912
 20
60.785251313
 30
0.0
 11
-10.483340363
 21
60.845944991
 31
0.0
  0
LINE
  5
150
330
1D
100
AcDbEntity
  8
1
100
AcDbLine
 10
-10.483340363
 20
60.845944991
 30
0.0
 11
-11.050597601
 21
60.83378654099999
 31
0.0
  0
LINE
  5
151
330
1D
100
AcDbEntity
  8
1
100
AcDbLine
 10
-11.050597601
 20
60.83378654099999
 30
0.0
 11
-11.612341739
 21
60.74895325999999
 31
0.0
  0
LINE
  5
152
330
1D
100
AcDbEntity
  8
1
100
AcDbLine
 10
-11.612341739
 20
60.74895325999999
 30
0.0
 11
-12.160381282
 21
60.59268221000001
 31
0.0
  0
LINE
  5
153
330
1D
100
AcDbEntity
  8
1
100
AcDbLine
 10
-12.160381282
 20
60.59268221000001
 30
0.0
 11
-12.686724579
 21
60.367252173
 31
0.0
  0
LINE
  5
154
330
1D
100
AcDbEntity
  8
1
100
AcDbLine
 10
-12.686724579
 20
60.367252173
 30
0.0
 11
-13.183696361
 21
60.075950428
 31
0.0
  0
LINE
  5
155
330
1D
100
AcDbEntity
  8
1
100
AcDbLine
 10
-13.183696361
 20
60.075950428
 30
0.0
 11
-13.644049659
 21
59.72302480899999
 31
0.0
  0
LINE
  5
156
330
1D
100
AcDbEntity
  8
1
100
AcDbLine
 10
-13.644049659
 20
59.72302480899999
 30
0.0
 11
-14.061071486
 21
59.313621768
 31
0.0
  0
LINE
  5
157
330
1D
100
AcDbEntity
  8
1
100
AcDbLine
 10
-14.061071486
 20
59.313621768
 30
0.0
 11
-14.428680724
 21
58.853711321
 31
0.0
  0
LINE
  5
158
330
1D
100
AcDbEntity
  8
1
100
AcDbLine
 10
-14.428680724
 20
58.853711321
 30
0.0
 11
-14.741516803
 21
58.35
 31
0.0
  0
LINE
  5
159
330
1D
100
AcDbEntity
  8
1
100
AcDbLine
 10
-14.741516803
 20
58.35
 30
0.0
 11
-14.995017869
 21
57.809833049
 31
0.0
  0
LINE
  5
15A
330
1D
100
AcDbEntity
  8
1
100
AcDbLine
 10
-14.995017869
 20
57.809833049
 30
0.0
 11
-15.185487305
 21
57.24108732
 31
0.0
  0
LINE
  5
15B
330
1D
100
AcDbEntity
  8
1
100
AcDbLine
 10
-15.185487305
 20
57.24108732
 30
0.0
 11
-15.310147637
 21
56.652056404
 31
0.0
  0
LINE
  5
15C
330
1D
100
AcDbEntity
  8
1
100
AcDbLine
 10
-15.310147637
 20
56.652056404
 30
0.0
 11
-15.367181038
 21
56.051329701
 31
0.0
  0
LINE
  5
15D
330
1D
100
AcDbEntity
  8
1
100
AcDbLine
 10
-15.367181038
 20
56.051329701
 30
0.0
 11
-15.355755832
 21
55.447667156
 31
0.0
  0
LINE
  5
15E
330
1D
100
AcDbEntity
  8
1
100
AcDbLine
 10
-15.355755832
 20
55.447667156
 30
0.0
 11
-15.276038625
 21
54.849871531
 31
0.0
  0
LINE
  5
15F
330
1D
100
AcDbEntity
  8
1
100
AcDbLine
 10
-15.276038625
 20
54.849871531
 30
0.0
 11
-15.129191872
 21
54.266660031
 31
0.0
  0
LINE
  5
160
330
1D
100
AcDbEntity
  8
1
100
AcDbLine
 10
-15.129191872
 20
54.266660031
 30
0.0
 11
-14.91735693
 21
53.706537193
 31
0.0
  0
LINE
  5
161
330
1D
100
AcDbEntity
  8
1
100
AcDbLine
 10
-14.91735693
 20
53.706537193
 30
0.0
 11
-14.643622829
 21
53.177670869
 31
0.0
  0
LINE
  5
162
330
1D
100
AcDbEntity
  8
1
100
AcDbLine
 10
-14.643622829
 20
53.177670869
 30
0.0
 11
-14.31198123
 21
52.687773122
 31
0.0
  0
LINE
  5
163
330
1D
100
AcDbEntity
  8
1
100
AcDbLine
 10
-14.31198123
 20
52.687773122
 30
0.0
 11
-13.927268213
 21
52.243987763
 31
0.0
  0
LINE
  5
164
330
1D
100
AcDbEntity
  8
1
100
AcDbLine
 10
-13.927268213
 20
52.243987763
 30
0.0
 11
-13.49509376
 21
51.852786183
 31
0.0
  0
LINE
  5
165
330
1D
100
AcDbEntity
  8
1
100
AcDbLine
 10
-13.49509376
 20
51.852786183
 30
0.0
 11
-13.021759948
 21
51.519872981
 31
0.0
  0
LINE
  5
166
330
1D
100
AcDbEntity
  8
1
100
AcDbLine
 10
-13.021759948
 20
51.519872981
 30
0.0
 11
-12.514169051
 21
51.250102782
 31
0.0
  0
LINE
  5
167
330
1D
100
AcDbEntity
  8
1
100
AcDbLine
 10
-12.514169051
 20
51.250102782
 30
0.0
 11
-11.979722886
 21
51.047409442
 31
0.0
  0
LINE
  5
168
330
1D
100
AcDbEntity
  8
1
100
AcDbLine
 10
-11.979722886
 20
51.047409442
 30
0.0
 11
-11.426214881
 21
50.914748687
 31
0.0
  0
LINE
  5
169
330
1D
100
AcDbEntity
  8
1
100
AcDbLine
 10
-11.426214881
 20
50.914748687
 30
0.0
 11
-10.861716431
 21
50.854055009
 31
0.0
  0
LINE
  5
16A
330
1D
100
AcDbEntity
  8
1
100
AcDbLine
 10
-10.861716431
 20
50.854055009
 30
0.0
 11
-10.294459192
 21
50.866213459
 31
0.0
  0
LINE
  5
16B
330
1D
100
AcDbEntity
  8
1
100
AcDbLine
 10
-10.294459192
 20
50.866213459
 30
0.0
 11
-9.732715054
 21
50.95104674
 31
0.0
  0
LINE
  5
16C
330
1D
100
AcDbEntity
  8
1
100
AcDbLine
 10
-9.732715054
 20
50.95104674
 30
0.0
 11
-9.184675511
 21
51.10731779
 31
0.0
  0
LINE
  5
16D
330
1D
100
AcDbEntity
  8
1
100
AcDbLine
 10
-9.184675511
 20
51.10731779
 30
0.0
 11
-8.658332214
 21
51.332747827
 31
0.0
  0
LINE
  5
16E
330
1D
100
AcDbEntity
  8
1
100
AcDbLine
 10
-8.658332214
 20
51.332747827
 30
0.0
 11
-8.161360432
 21
51.624049572
 31
0.0
  0
LINE
  5
16F
330
1D
100
AcDbEntity
  8
1
100
AcDbLine
 10
-8.161360432
 20
51.624049572
 30
0.0
 11
-7.701007134
 21
51.976975191
 31
0.0
  0
LINE
  5
170
330
1D
100
AcDbEntity
  8
1
100
AcDbLine
 10
-7.701007134
 20
51.976975191
 30
0.0
 11
-7.283985307
 21
52.386378232
 31
0.0
  0
LINE
  5
171
330
1D
100
AcDbEntity
  8
1
100
AcDbLine
 10
-7.283985307
 20
52.386378232
 30
0.0
 11
-6.916376069
 21
52.846288679
 31
0.0
  0
LINE
  5
172
330
1D
100
AcDbEntity
  8
1
100
AcDbLine
 10
-6.916376069
 20
52.846288679
 30
0.0
 11
-6.603539990000001
 21
53.35
 31
0.0
  0
LINE
  5
173
330
1D
100
AcDbEntity
  8
1
100
AcDbLine
 10
-10.836029766
 20
58.736751346
 30
0.0
 11
-13.185261318
 21
57.293375673
 31
0.0
  0
LINE
  5
174
330
1D
100
AcDbEntity
  8
1
100
AcDbLine
 10
-13.185261318
 20
54.406624327
 30
0.0
 11
-13.185261318
 21
57.293375673
 31
0.0
  0
LINE
  5
175
330
1D
100
AcDbEntity
  8
1
100
AcDbLine
 10
-10.836029766
 20
52.963248654
 30
0.0
 11
-13.185261318
 21
54.406624327
 31
0.0
  0
LINE
  5
176
330
1D
100
AcDbEntity
  8
1
100
AcDbLine
 10
-10.836029766
 20
52.963248654
 30
0.0
 11
-8.486798214
 21
54.406624327
 31
0.0
  0
LINE
  5
177
330
1D
100
AcDbEntity
  8
1
100
AcDbLine
 10
-8.486798214
 20
57.293375673
 30
0.0
 11
-8.486798214
 21
54.406624327
 31
0.0
  0
LINE
  5
178
330
1D
100
AcDbEntity
  8
1
100
AcDbLine
 10
-8.486798214
 20
57.293375673
 30
0.0
 11
-10.836029766
 21
58.736751346
 31
0.0
  0
LINE
  5
179
330
1D
100
AcDbEntity
  8
1
100
AcDbLine
 10
-11.133140458
 20
54.406624327
 30
0.0
 11
-13.185261318
 21
54.406624327
 31
0.0
  0
LINE
  5
17A
330
1D
100
AcDbEntity
  8
1
100
AcDbLine
 10
-9.809969336
 20
53.593663592
 30
0.0
 11
-11.133140458
 21
54.406624327
 31
0.0
  0
LINE
  5
17B
330
1D
100
AcDbEntity
  8
1
100
AcDbLine
 10
-9.809969336
 20
58.106336408
 30
0.0
 11
-11.133140458
 21
57.293375673
 31
0.0
  0
LINE
  5
17C
330
1D
100
AcDbEntity
  8
1
100
AcDbLine
 10
-11.133140458
 20
57.293375673
 30
0.0
 11
-13.185261318
 21
57.293375673
 31
0.0
  0
LINE
  5
17D
330
1D
100
AcDbEntity
  8
1
100
AcDbLine
 10
-11.133140458
 20
54.406624327
 30
0.0
 11
-11.133140458
 21
57.293375673
 31
0.0
  0
LINE
  5
17E
330
1D
100
AcDbEntity
  8
1
100
AcDbLine
 10
0.0
 20
1.108020844
 30
0.0
 11
0.0
 21
0.0
 31
0.0
  0
LINE
  5
17F
330
1D
100
AcDbEntity
  8
1
100
AcDbLine
 10
-0.4
 20
1.108020844
 30
0.0
 11
0.0
 21
1.108020844
 31
0.0
  0
LINE
  5
180
330
1D
100
AcDbEntity
  8
1
100
AcDbLine
 10
-0.4
 20
2.299423301
 30
0.0
 11
-0.4
 21
1.108020844
 31
0.0
  0
LINE
  5
181
330
1D
100
AcDbEntity
  8
1
100
AcDbLine
 10
-0.540964282
 20
2.370649851
 30
0.0
 11
-0.453900497
 21
2.346158811
 31
0.0
  0
LINE
  5
182
330
1D
100
AcDbEntity
  8
1
100
AcDbLine
 10
-0.453900497
 20
2.346158811
 30
0.0
 11
-0.406951231
 21
2.31666974
 31
0.0
  0
LINE
  5
183
330
1D
100
AcDbEntity
  8
1
100
AcDbLine
 10
-0.406951231
 20
2.31666974
 30
0.0
 11
-0.4
 21
2.299423301
 31
0.0
  0
LINE
  5
184
330
1D
100
AcDbEntity
  8
1
100
AcDbLine
 10
-3.519545323
 20
2.78540663
 30
0.0
 11
-2.799020356
 21
2.82015248
 31
0.0
  0
LINE
  5
185
330
1D
100
AcDbEntity
  8
1
100
AcDbLine
 10
-2.799020356
 20
2.82015248
 30
0.0
 11
-2.072855282
 21
2.79345334
 31
0.0
  0
LINE
  5
186
330
1D
100
AcDbEntity
  8
1
100
AcDbLine
 10
-2.072855282
 20
2.79345334
 30
0.0
 11
-1.422644807
 21
2.709709999
 31
0.0
  0
LINE
  5
187
330
1D
100
AcDbEntity
  8
1
100
AcDbLine
 10
-1.422644807
 20
2.709709999
 30
0.0
 11
-0.907563961
 21
2.57873931
 31
0.0
  0
LINE
  5
188
330
1D
100
AcDbEntity
  8
1
100
AcDbLine
 10
-0.907563961
 20
2.57873931
 30
0.0
 11
-0.585057735
 21
2.41453161
 31
0.0
  0
LINE
  5
189
330
1D
100
AcDbEntity
  8
1
100
AcDbLine
 10
-0.585057735
 20
2.41453161
 30
0.0
 11
-0.540964282
 21
2.370649851
 31
0.0
  0
LINE
  5
18A
330
1D
100
AcDbEntity
  8
1
100
AcDbLine
 10
-13.3
 20
1.950773107
 30
0.0
 11
-8.397995485
 21
2.349807345
 31
0.0
  0
LINE
  5
18B
330
1D
100
AcDbEntity
  8
1
100
AcDbLine
 10
-8.397995485
 20
2.349807345
 30
0.0
 11
-3.519545323
 21
2.78540663
 31
0.0
  0
LINE
  5
18C
330
1D
100
AcDbEntity
  8
1
100
AcDbLine
 10
-16.4
 20
2.351121012
 30
0.0
 11
-13.3
 21
1.950773107
 31
0.0
  0
LINE
  5
18D
330
1D
100
AcDbEntity
  8
1
100
AcDbLine
 10
-16.4
 20
84.0
 30
0.0
 11
-16.4
 21
2.351121011999993
 31
0.0
  0
LINE
  5
18E
330
1D
100
AcDbEntity
  8
1
100
AcDbLine
 10
-14.4
 20
6.75037994
 30
0.0
 11
-16.4
 21
5.951821212
 31
0.0
  0
LINE
  5
190
330
1D
100
AcDbEntity
  8
1
100
AcDbLine
 10
23.488228568
 20
4.975508250000001
 30
0.0
 11
17.651251416
 21
5.538091604
 31
0.0
  0
LINE
  5
191
330
1D
100
AcDbEntity
  8
1
100
AcDbLine
 10
17.651251416
 20
5.538091604
 30
0.0
 11
11.854501308
 21
6.12978429
 31
0.0
  0
LINE
  5
192
330
1D
100
AcDbEntity
  8
1
100
AcDbLine
 10
11.854501308
 20
6.12978429
 30
0.0
 11
6.1
 21
6.75037994
 31
0.0
  0
LINE
  5
193
330
1D
100
AcDbEntity
  8
1
100
AcDbLine
 10
24.6
 20
4.483497733
 30
0.0
 11
24.507600227
 21
4.656320558999999
 31
0.0
  0
LINE
  5
194
330
1D
100
AcDbEntity
  8
1
100
AcDbLine
 10
24.507600227
 20
4.656320558999999
 30
0.0
 11
24.238040667
 21
4.81227004
 31
0.0
  0
LINE
  5
195
330
1D
100
AcDbEntity
  8
1
100
AcDbLine
 10
24.238040667
 20
4.81227004
 30
0.0
 11
23.828361877
 21
4.927586938999999
 31
0.0
  0
LINE
  5
196
330
1D
100
AcDbEntity
  8
1
100
AcDbLine
 10
23.828361877
 20
4.927586938999999
 30
0.0
 11
23.488228568
 21
4.975508250000001
 31
0.0
  0
LINE
  5
197
330
1D
100
AcDbEntity
  8
1
100
AcDbLine
 10
24.6
 20
2.311030113
 30
0.0
 11
24.6
 21
77.0
 31
0.0
  0
LINE
  5
198
330
1D
100
AcDbEntity
  8
1
100
AcDbLine
 10
16.1
 20
2.311030113
 30
0.0
 11
24.6
 21
2.311030113
 31
0.0
  0
LINE
  5
199
330
1D
100
AcDbEntity
  8
1
100
AcDbLine
 10
14.6
 20
1.975994691
 30
0.0
 11
14.68789115
 21
2.08595641
 31
0.0
  0
LINE
  5
19A
330
1D
100
AcDbEntity
  8
1
100
AcDbLine
 10
14.68789115
 20
2.08595641
 30
0.0
 11
14.942671248
 21
2.185983611
 31
0.0
  0
LINE
  5
19B
330
1D
100
AcDbEntity
  8
1
100
AcDbLine
 10
14.942671248
 20
2.185983611
 30
0.0
 11
15.33342691
 21
2.262331053
 31
0.0
  0
LINE
  5
19C
330
1D
100
AcDbEntity
  8
1
100
AcDbLine
 10
15.33342691
 20
2.262331053
 30
0.0
 11
15.806379616
 21
2.304290206
 31
0.0
  0
LINE
  5
19D
330
1D
100
AcDbEntity
  8
1
100
AcDbLine
 10
15.806379616
 20
2.304290206
 30
0.0
 11
16.1
 21
2.311030113
 31
0.0
  0
LINE
  5
19F
330
1D
100
AcDbEntity
  8
1
100
AcDbLine
 10
14.6
 20
65.427568136
 30
0.0
 11
14.6
 21
84.0
 31
0.0
  0
LINE
  5
1A0
330
1D
100
AcDbEntity
  8
1
100
AcDbLine
 10
14.6
 20
65.427568136
 30
0.0
 11
23.488228568
 21
67.809161803
 31
0.0
  0
LINE
  5
1C3
330
1D
100
AcDbEntity
  8
1
100
AcDbLine
 10
6.1
 20
6.75037994
 30
0.0
 11
6.1
 21
77.9
 31
0.0
  0
LINE
  5
1C4
330
1D
100
AcDbEntity
  8
1
100
AcDbLine
 10
6.1
 20
77.9
 30
0.0
 11
14.6
 21
80.177568136
 31
0.0
  0
LINE
  5
1C9
330
1D
100
AcDbEntity
  8
1
100
AcDbLine
 10
-16.4
 20
79.9
 30
0.0
 11
-14.4
 21
77.9
 31
0.0
  0
LINE
  5
1CA
330
1D
100
AcDbEntity
  8
1
100
AcDbLine
 10
-14.4
 20
6.75037994
 30
0.0
 11
-14.4
 21
38.546472092
 31
0.0
  0
LINE
  5
1CB
330
1D
100
AcDbEntity
  8
1
100
AcDbLine
 10
-14.4
 20
38.546472092
 30
0.0
 11
-13.85447581
 21
38.230420811
 31
0.0
  0
LINE
  5
1CC
330
1D
100
AcDbEntity
  8
1
100
AcDbLine
 10
-13.85447581
 20
38.230420811
 30
0.0
 11
-13.2740235
 21
37.975154871
 31
0.0
  0
LINE
  5
1CD
330
1D
100
AcDbEntity
  8
1
100
AcDbLine
 10
-13.2740235
 20
37.975154871
 30
0.0
 11
-12.666280775
 21
37.784033114
 31
0.0
  0
LINE
  5
1CE
330
1D
100
AcDbEntity
  8
1
100
AcDbLine
 10
-12.666280775
 20
37.784033114
 30
0.0
 11
-12.039244436
 21
37.659570357
 31
0.0
  0
LINE
  5
1CF
330
1D
100
AcDbEntity
  8
1
100
AcDbLine
 10
-12.039244436
 20
37.659570357
 30
0.0
 11
-11.401165152
 21
37.603404307
 31
0.0
  0
LINE
  5
1D0
330
1D
100
AcDbEntity
  8
1
100
AcDbLine
 10
-11.401165152
 20
37.603404307
 30
0.0
 11
-10.760438897
 21
37.616274006
 31
0.0
  0
LINE
  5
1D1
330
1D
100
AcDbEntity
  8
1
100
AcDbLine
 10
-10.760438897
 20
37.616274006
 30
0.0
 11
-10.125496474
 21
37.698010114
 31
0.0
  0
LINE
  5
1D2
330
1D
100
AcDbEntity
  8
1
100
AcDbLine
 10
-10.125496474
 20
37.698010114
 30
0.0
 11
-9.504692582
 21
37.847537131
 31
0.0
  0
LINE
  5
1D3
330
1D
100
AcDbEntity
  8
1
100
AcDbLine
 10
-9.504692582
 20
37.847537131
 30
0.0
 11
-8.906195883
 21
38.062887549
 31
0.0
  0
LINE
  5
1D4
330
1D
100
AcDbEntity
  8
1
100
AcDbLine
 10
-8.906195883
 20
38.062887549
 30
0.0
 11
-8.337881515
 21
38.341227745
 31
0.0
  0
LINE
  5
1D5
330
1D
100
AcDbEntity
  8
1
100
AcDbLine
 10
-8.337881515
 20
38.341227745
 30
0.0
 11
-7.807227471
 21
38.678895265
 31
0.0
  0
LINE
  5
1D6
330
1D
100
AcDbEntity
  8
1
100
AcDbLine
 10
-7.807227471
 20
38.678895265
 30
0.0
 11
-7.321216204000001
 21
39.07144701
 31
0.0
  0
LINE
  5
1D7
330
1D
100
AcDbEntity
  8
1
100
AcDbLine
 10
-7.321216204000001
 20
39.07144701
 30
0.0
 11
-6.886242746000001
 21
39.513717708
 31
0.0
  0
LINE
  5
1D8
330
1D
100
AcDbEntity
  8
1
100
AcDbLine
 10
-6.886242746000001
 20
39.513717708
 30
0.0
 11
-6.508030564
 21
39.999887872
 31
0.0
  0
LINE
  5
1D9
330
1D
100
AcDbEntity
  8
1
100
AcDbLine
 10
-6.508030564
 20
39.999887872
 30
0.0
 11
-6.191556250000001
 21
40.523560378
 31
0.0
  0
LINE
  5
1DA
330
1D
100
AcDbEntity
  8
1
100
AcDbLine
 10
-6.191556250000001
 20
40.523560378
 30
0.0
 11
-5.940984035
 21
41.07784464
 31
0.0
  0
LINE
  5
1DB
330
1D
100
AcDbEntity
  8
1
100
AcDbLine
 10
-5.940984035
 20
41.07784464
 30
0.0
 11
-5.759610999
 21
41.655447276
 31
0.0
  0
LINE
  5
1DC
330
1D
100
AcDbEntity
  8
1
100
AcDbLine
 10
-5.759610999
 20
41.655447276
 30
0.0
 11
-5.649823685
 21
42.248768073
 31
0.0
  0
LINE
  5
1DD
330
1D
100
AcDbEntity
  8
1
100
AcDbLine
 10
-5.649823685
 20
42.248768073
 30
0.0
 11
-5.613066695000001
 21
42.85
 31
0.0
  0
LINE
  5
1DE
330
1D
100
AcDbEntity
  8
1
100
AcDbLine
 10
-5.613066695000001
 20
42.85
 30
0.0
 11
-5.649823685
 21
43.451231927
 31
0.0
  0
LINE
  5
1DF
330
1D
100
AcDbEntity
  8
1
100
AcDbLine
 10
-5.649823685
 20
43.451231927
 30
0.0
 11
-5.759610999
 21
44.044552724
 31
0.0
  0
LINE
  5
1E0
330
1D
100
AcDbEntity
  8
1
100
AcDbLine
 10
-5.759610999
 20
44.044552724
 30
0.0
 11
-5.940984035
 21
44.622155359
 31
0.0
  0
LINE
  5
1E1
330
1D
100
AcDbEntity
  8
1
100
AcDbLine
 10
-5.940984035
 20
44.622155359
 30
0.0
 11
-6.191556250000001
 21
45.176439622
 31
0.0
  0
LINE
  5
1E2
330
1D
100
AcDbEntity
  8
1
100
AcDbLine
 10
-6.191556250000001
 20
45.176439622
 30
0.0
 11
-6.508030564
 21
45.700112128
 31
0.0
  0
LINE
  5
1E3
330
1D
100
AcDbEntity
  8
1
100
AcDbLine
 10
-6.508030564
 20
45.700112128
 30
0.0
 11
-6.886242746000001
 21
46.186282292
 31
0.0
  0
LINE
  5
1E4
330
1D
100
AcDbEntity
  8
1
100
AcDbLine
 10
-6.886242746000001
 20
46.186282292
 30
0.0
 11
-7.321216204000001
 21
46.62855299
 31
0.0
  0
LINE
  5
1E5
330
1D
100
AcDbEntity
  8
1
100
AcDbLine
 10
-7.321216204000001
 20
46.62855299
 30
0.0
 11
-7.807227471
 21
47.021104735
 31
0.0
  0
LINE
  5
1E6
330
1D
100
AcDbEntity
  8
1
100
AcDbLine
 10
-7.807227471
 20
47.021104735
 30
0.0
 11
-8.337881515
 21
47.358772255
 31
0.0
  0
LINE
  5
1E7
330
1D
100
AcDbEntity
  8
1
100
AcDbLine
 10
-8.337881515
 20
47.358772255
 30
0.0
 11
-8.906195883
 21
47.637112451
 31
0.0
  0
LINE
  5
1E8
330
1D
100
AcDbEntity
  8
1
100
AcDbLine
 10
-8.906195883
 20
47.637112451
 30
0.0
 11
-9.504692582
 21
47.852462869
 31
0.0
  0
LINE
  5
1E9
330
1D
100
AcDbEntity
  8
1
100
AcDbLine
 10
-9.504692582
 20
47.852462869
 30
0.0
 11
-10.125496474
 21
48.001989886
 31
0.0
  0
LINE
  5
1EA
330
1D
100
AcDbEntity
  8
1
100
AcDbLine
 10
-10.125496474
 20
48.001989886
 30
0.0
 11
-10.760438897
 21
48.083725994
 31
0.0
  0
LINE
  5
1EB
330
1D
100
AcDbEntity
  8
1
100
AcDbLine
 10
-10.760438897
 20
48.083725994
 30
0.0
 11
-11.401165152
 21
48.096595693
 31
0.0
  0
LINE
  5
1EC
330
1D
100
AcDbEntity
  8
1
100
AcDbLine
 10
-11.401165152
 20
48.096595693
 30
0.0
 11
-12.039244436
 21
48.040429643
 31
0.0
  0
LINE
  5
1ED
330
1D
100
AcDbEntity
  8
1
100
AcDbLine
 10
-12.039244436
 20
48.040429643
 30
0.0
 11
-12.666280775
 21
47.915966886
 31
0.0
  0
LINE
  5
1EE
330
1D
100
AcDbEntity
  8
1
100
AcDbLine
 10
-12.666280775
 20
47.915966886
 30
0.0
 11
-13.2740235
 21
47.724845129
 31
0.0
  0
LINE
  5
1EF
330
1D
100
AcDbEntity
  8
1
100
AcDbLine
 10
-13.2740235
 20
47.724845129
 30
0.0
 11
-13.85447581
 21
47.469579189
 31
0.0
  0
LINE
  5
1F0
330
1D
100
AcDbEntity
  8
1
100
AcDbLine
 10
-13.85447581
 20
47.469579189
 30
0.0
 11
-14.4
 21
47.153527908
 31
0.0
  0
LINE
  5
1F1
330
1D
100
AcDbEntity
  8
1
100
AcDbLine
 10
-14.4
 20
47.153527908
 30
0.0
 11
-14.4
 21
51.546472092
 31
0.0
  0
LINE
  5
1F2
330
1D
100
AcDbEntity
  8
1
100
AcDbLine
 10
-14.4
 20
51.546472092
 30
0.0
 11
-13.85447581
 21
51.230420811
 31
0.0
  0
LINE
  5
1F3
330
1D
100
AcDbEntity
  8
1
100
AcDbLine
 10
-13.85447581
 20
51.230420811
 30
0.0
 11
-13.2740235
 21
50.975154871
 31
0.0
  0
LINE
  5
1F4
330
1D
100
AcDbEntity
  8
1
100
AcDbLine
 10
-13.2740235
 20
50.975154871
 30
0.0
 11
-12.666280775
 21
50.784033114
 31
0.0
  0
LINE
  5
1F5
330
1D
100
AcDbEntity
  8
1
100
AcDbLine
 10
-12.666280775
 20
50.784033114
 30
0.0
 11
-12.039244436
 21
50.659570357
 31
0.0
  0
LINE
  5
1F6
330
1D
100
AcDbEntity
  8
1
100
AcDbLine
 10
-12.039244436
 20
50.659570357
 30
0.0
 11
-11.401165152
 21
50.603404307
 31
0.0
  0
LINE
  5
1F7
330
1D
100
AcDbEntity
  8
1
100
AcDbLine
 10
-11.401165152
 20
50.603404307
 30
0.0
 11
-10.760438897
 21
50.616274006
 31
0.0
  0
LINE
  5
1F8
330
1D
100
AcDbEntity
  8
1
100
AcDbLine
 10
-10.760438897
 20
50.616274006
 30
0.0
 11
-10.125496474
 21
50.698010114
 31
0.0
  0
LINE
  5
1F9
330
1D
100
AcDbEntity
  8
1
100
AcDbLine
 10
-10.125496474
 20
50.698010114
 30
0.0
 11
-9.504692582
 21
50.847537131
 31
0.0
  0
LINE
  5
1FA
330
1D
100
AcDbEntity
  8
1
100
AcDbLine
 10
-9.504692582
 20
50.847537131
 30
0.0
 11
-8.906195883
 21
51.062887549
 31
0.0
  0
LINE
  5
1FB
330
1D
100
AcDbEntity
  8
1
100
AcDbLine
 10
-8.906195883
 20
51.062887549
 30
0.0
 11
-8.337881515
 21
51.341227745
 31
0.0
  0
LINE
  5
1FC
330
1D
100
AcDbEntity
  8
1
100
AcDbLine
 10
-8.337881515
 20
51.341227745
 30
0.0
 11
-7.807227471
 21
51.678895265
 31
0.0
  0
LINE
  5
1FD
330
1D
100
AcDbEntity
  8
1
100
AcDbLine
 10
-7.807227471
 20
51.678895265
 30
0.0
 11
-7.321216204000001
 21
52.07144701
 31
0.0
  0
LINE
  5
1FE
330
1D
100
AcDbEntity
  8
1
100
AcDbLine
 10
-7.321216204000001
 20
52.07144701
 30
0.0
 11
-6.886242746000001
 21
52.513717708
 31
0.0
  0
LINE
  5
1FF
330
1D
100
AcDbEntity
  8
1
100
AcDbLine
 10
-6.886242746000001
 20
52.513717708
 30
0.0
 11
-6.508030564
 21
52.999887872
 31
0.0
  0
LINE
  5
200
330
1D
100
AcDbEntity
  8
1
100
AcDbLine
 10
-6.508030564
 20
52.999887872
 30
0.0
 11
-6.191556250000001
 21
53.523560378
 31
0.0
  0
LINE
  5
201
330
1D
100
AcDbEntity
  8
1
100
AcDbLine
 10
-6.191556250000001
 20
53.523560378
 30
0.0
 11
-5.940984035
 21
54.07784464
 31
0.0
  0
LINE
  5
202
330
1D
100
AcDbEntity
  8
1
100
AcDbLine
 10
-5.940984035
 20
54.07784464
 30
0.0
 11
-5.759610999
 21
54.655447276
 31
0.0
  0
LINE
  5
203
330
1D
100
AcDbEntity
  8
1
100
AcDbLine
 10
-5.759610999
 20
54.655447276
 30
0.0
 11
-5.649823685
 21
55.248768073
 31
0.0
  0
LINE
  5
204
330
1D
100
AcDbEntity
  8
1
100
AcDbLine
 10
-5.649823685
 20
55.248768073
 30
0.0
 11
-5.613066695000001
 21
55.85
 31
0.0
  0
LINE
  5
205
330
1D
100
AcDbEntity
  8
1
100
AcDbLine
 10
-5.613066695000001
 20
55.85
 30
0.0
 11
-5.649823685
 21
56.451231927
 31
0.0
  0
LINE
  5
206
330
1D
100
AcDbEntity
  8
1
100
AcDbLine
 10
-5.649823685
 20
56.451231927
 30
0.0
 11
-5.759610999
 21
57.044552724
 31
0.0
  0
LINE
  5
207
330
1D
100
AcDbEntity
  8
1
100
AcDbLine
 10
-5.759610999
 20
57.044552724
 30
0.0
 11
-5.940984035
 21
57.622155359
 31
0.0
  0
LINE
  5
208
330
1D
100
AcDbEntity
  8
1
100
AcDbLine
 10
-5.940984035
 20
57.622155359
 30
0.0
 11
-6.191556250000001
 21
58.176439622
 31
0.0
  0
LINE
  5
209
330
1D
100
AcDbEntity
  8
1
100
AcDbLine
 10
-6.191556250000001
 20
58.176439622
 30
0.0
 11
-6.508030564
 21
58.700112128
 31
0.0
  0
LINE
  5
20A
330
1D
100
AcDbEntity
  8
1
100
AcDbLine
 10
-6.508030564
 20
58.700112128
 30
0.0
 11
-6.886242746000001
 21
59.186282292
 31
0.0
  0
LINE
  5
20B
330
1D
100
AcDbEntity
  8
1
100
AcDbLine
 10
-6.886242746000001
 20
59.186282292
 30
0.0
 11
-7.321216204000001
 21
59.62855299
 31
0.0
  0
LINE
  5
20C
330
1D
100
AcDbEntity
  8
1
100
AcDbLine
 10
-7.321216204000001
 20
59.62855299
 30
0.0
 11
-7.807227471
 21
60.02110473499999
 31
0.0
  0
LINE
  5
20D
330
1D
100
AcDbEntity
  8
1
100
AcDbLine
 10
-7.807227471
 20
60.02110473499999
 30
0.0
 11
-8.337881515
 21
60.35877225500001
 31
0.0
  0
LINE
  5
20E
330
1D
100
AcDbEntity
  8
1
100
AcDbLine
 10
-8.337881515
 20
60.35877225500001
 30
0.0
 11
-8.906195883
 21
60.63711245099999
 31
0.0
  0
LINE
  5
20F
330
1D
100
AcDbEntity
  8
1
100
AcDbLine
 10
-8.906195883
 20
60.63711245099999
 30
0.0
 11
-9.504692582
 21
60.85246287
 31
0.0
  0
LINE
  5
210
330
1D
100
AcDbEntity
  8
1
100
AcDbLine
 10
-9.504692582
 20
60.85246287
 30
0.0
 11
-10.125496474
 21
61.001989886
 31
0.0
  0
LINE
  5
211
330
1D
100
AcDbEntity
  8
1
100
AcDbLine
 10
-10.125496474
 20
61.001989886
 30
0.0
 11
-10.760438897
 21
61.08372599400001
 31
0.0
  0
LINE
  5
212
330
1D
100
AcDbEntity
  8
1
100
AcDbLine
 10
-10.760438897
 20
61.08372599400001
 30
0.0
 11
-11.401165152
 21
61.096595693
 31
0.0
  0
LINE
  5
213
330
1D
100
AcDbEntity
  8
1
100
AcDbLine
 10
-11.401165152
 20
61.096595693
 30
0.0
 11
-12.039244436
 21
61.040429643
 31
0.0
  0
LINE
  5
214
330
1D
100
AcDbEntity
  8
1
100
AcDbLine
 10
-12.039244436
 20
61.040429643
 30
0.0
 11
-12.666280775
 21
60.91596688600001
 31
0.0
  0
LINE
  5
215
330
1D
100
AcDbEntity
  8
1
100
AcDbLine
 10
-12.666280775
 20
60.91596688600001
 30
0.0
 11
-13.2740235
 21
60.724845129
 31
0.0
  0
LINE
  5
216
330
1D
100
AcDbEntity
  8
1
100
AcDbLine
 10
-13.2740235
 20
60.724845129
 30
0.0
 11
-13.85447581
 21
60.469579189
 31
0.0
  0
LINE
  5
217
330
1D
100
AcDbEntity
  8
1
100
AcDbLine
 10
-13.85447581
 20
60.469579189
 30
0.0
 11
-14.4
 21
60.153527908
 31
0.0
  0
LINE
  5
218
330
1D
100
AcDbEntity
  8
1
100
AcDbLine
 10
-14.4
 20
60.153527908
 30
0.0
 11
-14.4
 21
64.546472092
 31
0.0
  0
LINE
  5
219
330
1D
100
AcDbEntity
  8
1
100
AcDbLine
 10
-14.4
 20
64.546472092
 30
0.0
 11
-13.85447581
 21
64.230420811
 31
0.0
  0
LINE
  5
21A
330
1D
100
AcDbEntity
  8
1
100
AcDbLine
 10
-13.85447581
 20
64.230420811
 30
0.0
 11
-13.2740235
 21
63.975154871
 31
0.0
  0
LINE
  5
21B
330
1D
100
AcDbEntity
  8
1
100
AcDbLine
 10
-13.2740235
 20
63.975154871
 30
0.0
 11
-12.666280775
 21
63.784033114
 31
0.0
  0
LINE
  5
21C
330
1D
100
AcDbEntity
  8
1
100
AcDbLine
 10
-12.666280775
 20
63.784033114
 30
0.0
 11
-12.039244436
 21
63.65957035700001
 31
0.0
  0
LINE
  5
21D
330
1D
100
AcDbEntity
  8
1
100
AcDbLine
 10
-12.039244436
 20
63.65957035700001
 30
0.0
 11
-11.401165152
 21
63.60340430700001
 31
0.0
  0
LINE
  5
21E
330
1D
100
AcDbEntity
  8
1
100
AcDbLine
 10
-11.401165152
 20
63.60340430700001
 30
0.0
 11
-10.760438897
 21
63.616274006
 31
0.0
  0
LINE
  5
21F
330
1D
100
AcDbEntity
  8
1
100
AcDbLine
 10
-10.760438897
 20
63.616274006
 30
0.0
 11
-10.125496474
 21
63.698010114
 31
0.0
  0
LINE
  5
220
330
1D
100
AcDbEntity
  8
1
100
AcDbLine
 10
-10.125496474
 20
63.698010114
 30
0.0
 11
-9.504692582
 21
63.847537131
 31
0.0
  0
LINE
  5
221
330
1D
100
AcDbEntity
  8
1
100
AcDbLine
 10
-9.504692582
 20
63.847537131
 30
0.0
 11
-8.906195883
 21
64.062887549
 31
0.0
  0
LINE
  5
222
330
1D
100
AcDbEntity
  8
1
100
AcDbLine
 10
-8.906195883
 20
64.062887549
 30
0.0
 11
-8.337881515
 21
64.341227745
 31
0.0
  0
LINE
  5
223
330
1D
100
AcDbEntity
  8
1
100
AcDbLine
 10
-8.337881515
 20
64.341227745
 30
0.0
 11
-7.807227471
 21
64.678895265
 31
0.0
  0
LINE
  5
224
330
1D
100
AcDbEntity
  8
1
100
AcDbLine
 10
-7.807227471
 20
64.678895265
 30
0.0
 11
-7.321216204000001
 21
65.07144701
 31
0.0
  0
LINE
  5
225
330
1D
100
AcDbEntity
  8
1
100
AcDbLine
 10
-7.321216204000001
 20
65.07144701
 30
0.0
 11
-6.886242746000001
 21
65.513717708
 31
0.0
  0
LINE
  5
226
330
1D
100
AcDbEntity
  8
1
100
AcDbLine
 10
-6.886242746000001
 20
65.513717708
 30
0.0
 11
-6.508030564
 21
65.999887872
 31
0.0
  0
LINE
  5
227
330
1D
100
AcDbEntity
  8
1
100
AcDbLine
 10
-6.508030564
 20
65.999887872
 30
0.0
 11
-6.191556250000001
 21
66.523560378
 31
0.0
  0
LINE
  5
228
330
1D
100
AcDbEntity
  8
1
100
AcDbLine
 10
-6.191556250000001
 20
66.523560378
 30
0.0
 11
-5.940984035
 21
67.07784464
 31
0.0
  0
LINE
  5
229
330
1D
100
AcDbEntity
  8
1
100
AcDbLine
 10
-5.940984035
 20
67.07784464
 30
0.0
 11
-5.759610999
 21
67.655447276
 31
0.0
  0
LINE
  5
22A
330
1D
100
AcDbEntity
  8
1
100
AcDbLine
 10
-5.759610999
 20
67.655447276
 30
0.0
 11
-5.649823685
 21
68.248768073
 31
0.0
  0
LINE
  5
22B
330
1D
100
AcDbEntity
  8
1
100
AcDbLine
 10
-5.649823685
 20
68.248768073
 30
0.0
 11
-5.613066695000001
 21
68.85
 31
0.0
  0
LINE
  5
22C
330
1D
100
AcDbEntity
  8
1
100
AcDbLine
 10
-5.613066695000001
 20
68.85
 30
0.0
 11
-5.649823685
 21
69.451231927
 31
0.0
  0
LINE
  5
22D
330
1D
100
AcDbEntity
  8
1
100
AcDbLine
 10
-5.649823685
 20
69.451231927
 30
0.0
 11
-5.759610999
 21
70.044552724
 31
0.0
  0
LINE
  5
22E
330
1D
100
AcDbEntity
  8
1
100
AcDbLine
 10
-5.759610999
 20
70.044552724
 30
0.0
 11
-5.940984035
 21
70.622155359
 31
0.0
  0
LINE
  5
22F
330
1D
100
AcDbEntity
  8
1
100
AcDbLine
 10
-5.940984035
 20
70.622155359
 30
0.0
 11
-6.191556250000001
 21
71.176439622
 31
0.0
  0
LINE
  5
230
330
1D
100
AcDbEntity
  8
1
100
AcDbLine
 10
-6.191556250000001
 20
71.176439622
 30
0.0
 11
-6.508030564
 21
71.700112128
 31
0.0
  0
LINE
  5
231
330
1D
100
AcDbEntity
  8
1
100
AcDbLine
 10
-6.508030564
 20
71.700112128
 30
0.0
 11
-6.886242746000001
 21
72.186282292
 31
0.0
  0
LINE
  5
232
330
1D
100
AcDbEntity
  8
1
100
AcDbLine
 10
-6.886242746000001
 20
72.186282292
 30
0.0
 11
-7.321216204000001
 21
72.62855299
 31
0.0
  0
LINE
  5
233
330
1D
100
AcDbEntity
  8
1
100
AcDbLine
 10
-7.321216204000001
 20
72.62855299
 30
0.0
 11
-7.807227471
 21
73.021104735
 31
0.0
  0
LINE
  5
234
330
1D
100
AcDbEntity
  8
1
100
AcDbLine
 10
-7.807227471
 20
73.021104735
 30
0.0
 11
-8.337881515
 21
73.358772255
 31
0.0
  0
LINE
  5
235
330
1D
100
AcDbEntity
  8
1
100
AcDbLine
 10
-8.337881515
 20
73.358772255
 30
0.0
 11
-8.906195883
 21
73.637112451
 31
0.0
  0
LINE
  5
236
330
1D
100
AcDbEntity
  8
1
100
AcDbLine
 10
-8.906195883
 20
73.637112451
 30
0.0
 11
-9.504692582
 21
73.852462869
 31
0.0
  0
LINE
  5
237
330
1D
100
AcDbEntity
  8
1
100
AcDbLine
 10
-9.504692582
 20
73.852462869
 30
0.0
 11
-10.125496474
 21
74.001989886
 31
0.0
  0
LINE
  5
238
330
1D
100
AcDbEntity
  8
1
100
AcDbLine
 10
-10.125496474
 20
74.001989886
 30
0.0
 11
-10.760438897
 21
74.083725994
 31
0.0
  0
LINE
  5
239
330
1D
100
AcDbEntity
  8
1
100
AcDbLine
 10
-10.760438897
 20
74.083725994
 30
0.0
 11
-11.401165152
 21
74.096595693
 31
0.0
  0
LINE
  5
23A
330
1D
100
AcDbEntity
  8
1
100
AcDbLine
 10
-11.401165152
 20
74.096595693
 30
0.0
 11
-12.039244436
 21
74.040429643
 31
0.0
  0
LINE
  5
23B
330
1D
100
AcDbEntity
  8
1
100
AcDbLine
 10
-12.039244436
 20
74.040429643
 30
0.0
 11
-12.666280775
 21
73.915966886
 31
0.0
  0
LINE
  5
23C
330
1D
100
AcDbEntity
  8
1
100
AcDbLine
 10
-12.666280775
 20
73.915966886
 30
0.0
 11
-13.2740235
 21
73.724845129
 31
0.0
  0
LINE
  5
23D
330
1D
100
AcDbEntity
  8
1
100
AcDbLine
 10
-13.2740235
 20
73.724845129
 30
0.0
 11
-13.85447581
 21
73.469579189
 31
0.0
  0
LINE
  5
23E
330
1D
100
AcDbEntity
  8
1
100
AcDbLine
 10
-13.85447581
 20
73.469579189
 30
0.0
 11
-14.4
 21
73.153527908
 31
0.0
  0
LINE
  5
23F
330
1D
100
AcDbEntity
  8
1
100
AcDbLine
 10
-14.4
 20
73.153527908
 30
0.0
 11
-14.4
 21
77.9
 31
0.0
  0
LINE
  5
240
330
1D
100
AcDbEntity
  8
1
100
AcDbLine
 10
-10.762109725
 20
74.083849668
 30
0.0
 11
-10.813507332
 21
74.079261674
 31
0.0
  0
LINE
  5
241
330
1D
100
AcDbEntity
  8
1
100
AcDbLine
 10
-10.813507332
 20
74.079261674
 30
0.0
 11
-11.391614969
 21
73.987421585
 31
0.0
  0
LINE
  5
242
330
1D
100
AcDbEntity
  8
1
100
AcDbLine
 10
-11.391614969
 20
73.987421585
 30
0.0
 11
-11.955457778
 21
73.823463358
 31
0.0
  0
LINE
  5
243
330
1D
100
AcDbEntity
  8
1
100
AcDbLine
 10
-11.955457778
 20
73.823463358
 30
0.0
 11
-12.497120641
 21
73.589688607
 31
0.0
  0
LINE
  5
244
330
1D
100
AcDbEntity
  8
1
100
AcDbLine
 10
-12.497120641
 20
73.589688607
 30
0.0
 11
-13.0089998
 21
73.289379018
 31
0.0
  0
LINE
  5
245
330
1D
100
AcDbEntity
  8
1
100
AcDbLine
 10
-13.0089998
 20
73.289379018
 30
0.0
 11
-13.483909592
 21
72.926750279
 31
0.0
  0
LINE
  5
246
330
1D
100
AcDbEntity
  8
1
100
AcDbLine
 10
-13.483909592
 20
72.926750279
 30
0.0
 11
-13.915183325
 21
72.506892903
 31
0.0
  0
LINE
  5
247
330
1D
100
AcDbEntity
  8
1
100
AcDbLine
 10
-13.915183325
 20
72.506892903
 30
0.0
 11
-14.296766861
 21
72.035700766
 31
0.0
  0
LINE
  5
248
330
1D
100
AcDbEntity
  8
1
100
AcDbLine
 10
-14.296766861
 20
72.035700766
 30
0.0
 11
-14.332223221
 21
71.985658871
 31
0.0
  0
LINE
  5
249
330
1D
100
AcDbEntity
  8
1
100
AcDbLine
 10
-14.332223221
 20
65.714341129
 30
0.0
 11
-14.296766861
 21
65.664299234
 31
0.0
  0
LINE
  5
24A
330
1D
100
AcDbEntity
  8
1
100
AcDbLine
 10
-14.296766861
 20
65.664299234
 30
0.0
 11
-13.915183325
 21
65.193107097
 31
0.0
  0
LINE
  5
24B
330
1D
100
AcDbEntity
  8
1
100
AcDbLine
 10
-13.915183325
 20
65.193107097
 30
0.0
 11
-13.483909592
 21
64.773249721
 31
0.0
  0
LINE
  5
24C
330
1D
100
AcDbEntity
  8
1
100
AcDbLine
 10
-13.483909592
 20
64.773249721
 30
0.0
 11
-13.0089998
 21
64.410620982
 31
0.0
  0
LINE
  5
24D
330
1D
100
AcDbEntity
  8
1
100
AcDbLine
 10
-13.0089998
 20
64.410620982
 30
0.0
 11
-12.497120641
 21
64.110311393
 31
0.0
  0
LINE
  5
24E
330
1D
100
AcDbEntity
  8
1
100
AcDbLine
 10
-12.497120641
 20
64.110311393
 30
0.0
 11
-11.955457778
 21
63.876536642
 31
0.0
  0
LINE
  5
24F
330
1D
100
AcDbEntity
  8
1
100
AcDbLine
 10
-11.955457778
 20
63.876536642
 30
0.0
 11
-11.391614969
 21
63.712578415
 31
0.0
  0
LINE
  5
250
330
1D
100
AcDbEntity
  8
1
100
AcDbLine
 10
-11.391614969
 20
63.712578415
 30
0.0
 11
-10.813507332
 21
63.62073832599999
 31
0.0
  0
LINE
  5
251
330
1D
100
AcDbEntity
  8
1
100
AcDbLine
 10
-10.813507332
 20
63.62073832599999
 30
0.0
 11
-10.762109725
 21
63.616150332
 31
0.0
  0
LINE
  5
252
330
1D
100
AcDbEntity
  8
1
100
AcDbLine
 10
-14.4
 20
73.153527908
 30
0.0
 11
-14.76379574
 21
72.786838934
 31
0.0
  0
LINE
  5
253
330
1D
100
AcDbEntity
  8
1
100
AcDbLine
 10
-14.76379574
 20
72.786838934
 30
0.0
 11
-15.092995427
 21
72.369889919
 31
0.0
  0
LINE
  5
254
330
1D
100
AcDbEntity
  8
1
100
AcDbLine
 10
-15.092995427
 20
72.369889919
 30
0.0
 11
-15.383396303
 21
71.908003882
 31
0.0
  0
LINE
  5
255
330
1D
100
AcDbEntity
  8
1
100
AcDbLine
 10
-15.383396303
 20
71.908003882
 30
0.0
 11
-15.631290934
 21
71.407077536
 31
0.0
  0
LINE
  5
256
330
1D
100
AcDbEntity
  8
1
100
AcDbLine
 10
-15.631290934
 20
71.407077536
 30
0.0
 11
-15.83351455
 21
70.873506009
 31
0.0
  0
LINE
  5
257
330
1D
100
AcDbEntity
  8
1
100
AcDbLine
 10
-15.83351455
 20
70.873506009
 30
0.0
 11
-15.987485443
 21
70.314101192
 31
0.0
  0
LINE
  5
258
330
1D
100
AcDbEntity
  8
1
100
AcDbLine
 10
-15.987485443
 20
70.314101192
 30
0.0
 11
-16.091237928
 21
69.736004783
 31
0.0
  0
LINE
  5
259
330
1D
100
AcDbEntity
  8
1
100
AcDbLine
 10
-16.091237928
 20
69.736004783
 30
0.0
 11
-16.14344744
 21
69.146597106
 31
0.0
  0
LINE
  5
25A
330
1D
100
AcDbEntity
  8
1
100
AcDbLine
 10
-16.14344744
 20
69.146597106
 30
0.0
 11
-16.14344744
 21
68.553402894
 31
0.0
  0
LINE
  5
25B
330
1D
100
AcDbEntity
  8
1
100
AcDbLine
 10
-16.14344744
 20
68.553402894
 30
0.0
 11
-16.091237928
 21
67.963995217
 31
0.0
  0
LINE
  5
25C
330
1D
100
AcDbEntity
  8
1
100
AcDbLine
 10
-16.091237928
 20
67.963995217
 30
0.0
 11
-15.987485443
 21
67.385898808
 31
0.0
  0
LINE
  5
25D
330
1D
100
AcDbEntity
  8
1
100
AcDbLine
 10
-15.987485443
 20
67.385898808
 30
0.0
 11
-15.83351455
 21
66.826493991
 31
0.0
  0
LINE
  5
25E
330
1D
100
AcDbEntity
  8
1
100
AcDbLine
 10
-15.83351455
 20
66.826493991
 30
0.0
 11
-15.631290934
 21
66.292922464
 31
0.0
  0
LINE
  5
25F
330
1D
100
AcDbEntity
  8
1
100
AcDbLine
 10
-15.631290934
 20
66.292922464
 30
0.0
 11
-15.383396303
 21
65.791996118
 31
0.0
  0
LINE
  5
260
330
1D
100
AcDbEntity
  8
1
100
AcDbLine
 10
-15.383396303
 20
65.791996118
 30
0.0
 11
-15.092995427
 21
65.330110081
 31
0.0
  0
LINE
  5
261
330
1D
100
AcDbEntity
  8
1
100
AcDbLine
 10
-15.092995427
 20
65.330110081
 30
0.0
 11
-14.76379574
 21
64.913161066
 31
0.0
  0
LINE
  5
262
330
1D
100
AcDbEntity
  8
1
100
AcDbLine
 10
-14.76379574
 20
64.913161066
 30
0.0
 11
-14.4
 21
64.546472092
 31
0.0
  0
LINE
  5
263
330
1D
100
AcDbEntity
  8
1
100
AcDbLine
 10
-10.762109725
 20
48.083849668
 30
0.0
 11
-10.813507332
 21
48.079261674
 31
0.0
  0
LINE
  5
264
330
1D
100
AcDbEntity
  8
1
100
AcDbLine
 10
-10.813507332
 20
48.079261674
 30
0.0
 11
-11.391614969
 21
47.987421585
 31
0.0
  0
LINE
  5
265
330
1D
100
AcDbEntity
  8
1
100
AcDbLine
 10
-11.391614969
 20
47.987421585
 30
0.0
 11
-11.955457778
 21
47.823463358
 31
0.0
  0
LINE
  5
266
330
1D
100
AcDbEntity
  8
1
100
AcDbLine
 10
-11.955457778
 20
47.823463358
 30
0.0
 11
-12.497120641
 21
47.589688607
 31
0.0
  0
LINE
  5
267
330
1D
100
AcDbEntity
  8
1
100
AcDbLine
 10
-12.497120641
 20
47.589688607
 30
0.0
 11
-13.0089998
 21
47.289379018
 31
0.0
  0
LINE
  5
268
330
1D
100
AcDbEntity
  8
1
100
AcDbLine
 10
-13.0089998
 20
47.289379018
 30
0.0
 11
-13.483909592
 21
46.926750279
 31
0.0
  0
LINE
  5
269
330
1D
100
AcDbEntity
  8
1
100
AcDbLine
 10
-13.483909592
 20
46.926750279
 30
0.0
 11
-13.915183325
 21
46.506892903
 31
0.0
  0
LINE
  5
26A
330
1D
100
AcDbEntity
  8
1
100
AcDbLine
 10
-13.915183325
 20
46.506892903
 30
0.0
 11
-14.296766861
 21
46.035700766
 31
0.0
  0
LINE
  5
26B
330
1D
100
AcDbEntity
  8
1
100
AcDbLine
 10
-14.296766861
 20
46.035700766
 30
0.0
 11
-14.332223221
 21
45.985658871
 31
0.0
  0
LINE
  5
26C
330
1D
100
AcDbEntity
  8
1
100
AcDbLine
 10
-14.332223221
 20
39.714341129
 30
0.0
 11
-14.296766861
 21
39.664299234
 31
0.0
  0
LINE
  5
26D
330
1D
100
AcDbEntity
  8
1
100
AcDbLine
 10
-14.296766861
 20
39.664299234
 30
0.0
 11
-13.915183325
 21
39.193107097
 31
0.0
  0
LINE
  5
26E
330
1D
100
AcDbEntity
  8
1
100
AcDbLine
 10
-13.915183325
 20
39.193107097
 30
0.0
 11
-13.483909592
 21
38.773249721
 31
0.0
  0
LINE
  5
26F
330
1D
100
AcDbEntity
  8
1
100
AcDbLine
 10
-13.483909592
 20
38.773249721
 30
0.0
 11
-13.0089998
 21
38.410620982
 31
0.0
  0
LINE
  5
270
330
1D
100
AcDbEntity
  8
1
100
AcDbLine
 10
-13.0089998
 20
38.410620982
 30
0.0
 11
-12.497120641
 21
38.110311393
 31
0.0
  0
LINE
  5
271
330
1D
100
AcDbEntity
  8
1
100
AcDbLine
 10
-12.497120641
 20
38.110311393
 30
0.0
 11
-11.955457778
 21
37.876536642
 31
0.0
  0
LINE
  5
272
330
1D
100
AcDbEntity
  8
1
100
AcDbLine
 10
-11.955457778
 20
37.876536642
 30
0.0
 11
-11.391614969
 21
37.712578415
 31
0.0
  0
LINE
  5
273
330
1D
100
AcDbEntity
  8
1
100
AcDbLine
 10
-11.391614969
 20
37.712578415
 30
0.0
 11
-10.813507332
 21
37.620738326
 31
0.0
  0
LINE
  5
274
330
1D
100
AcDbEntity
  8
1
100
AcDbLine
 10
-10.813507332
 20
37.620738326
 30
0.0
 11
-10.762109725
 21
37.616150332
 31
0.0
  0
LINE
  5
275
330
1D
100
AcDbEntity
  8
1
100
AcDbLine
 10
-14.4
 20
47.153527908
 30
0.0
 11
-14.76379574
 21
46.786838934
 31
0.0
  0
LINE
  5
276
330
1D
100
AcDbEntity
  8
1
100
AcDbLine
 10
-14.76379574
 20
46.786838934
 30
0.0
 11
-15.092995427
 21
46.369889919
 31
0.0
  0
LINE
  5
277
330
1D
100
AcDbEntity
  8
1
100
AcDbLine
 10
-15.092995427
 20
46.369889919
 30
0.0
 11
-15.383396303
 21
45.908003882
 31
0.0
  0
LINE
  5
278
330
1D
100
AcDbEntity
  8
1
100
AcDbLine
 10
-15.383396303
 20
45.908003882
 30
0.0
 11
-15.631290934
 21
45.407077536
 31
0.0
  0
LINE
  5
279
330
1D
100
AcDbEntity
  8
1
100
AcDbLine
 10
-15.631290934
 20
45.407077536
 30
0.0
 11
-15.83351455
 21
44.873506009
 31
0.0
  0
LINE
  5
27A
330
1D
100
AcDbEntity
  8
1
100
AcDbLine
 10
-15.83351455
 20
44.873506009
 30
0.0
 11
-15.987485443
 21
44.314101192
 31
0.0
  0
LINE
  5
27B
330
1D
100
AcDbEntity
  8
1
100
AcDbLine
 10
-15.987485443
 20
44.314101192
 30
0.0
 11
-16.091237928
 21
43.736004783
 31
0.0
  0
LINE
  5
27C
330
1D
100
AcDbEntity
  8
1
100
AcDbLine
 10
-16.091237928
 20
43.736004783
 30
0.0
 11
-16.14344744
 21
43.146597106
 31
0.0
  0
LINE
  5
27D
330
1D
100
AcDbEntity
  8
1
100
AcDbLine
 10
-16.14344744
 20
43.146597106
 30
0.0
 11
-16.14344744
 21
42.553402894
 31
0.0
  0
LINE
  5
27E
330
1D
100
AcDbEntity
  8
1
100
AcDbLine
 10
-16.14344744
 20
42.553402894
 30
0.0
 11
-16.091237928
 21
41.963995217
 31
0.0
  0
LINE
  5
27F
330
1D
100
AcDbEntity
  8
1
100
AcDbLine
 10
-16.091237928
 20
41.963995217
 30
0.0
 11
-15.987485443
 21
41.385898808
 31
0.0
  0
LINE
  5
280
330
1D
100
AcDbEntity
  8
1
100
AcDbLine
 10
-15.987485443
 20
41.385898808
 30
0.0
 11
-15.83351455
 21
40.826493991
 31
0.0
  0
LINE
  5
281
330
1D
100
AcDbEntity
  8
1
100
AcDbLine
 10
-15.83351455
 20
40.826493991
 30
0.0
 11
-15.631290934
 21
40.292922464
 31
0.0
  0
LINE
  5
282
330
1D
100
AcDbEntity
  8
1
100
AcDbLine
 10
-15.631290934
 20
40.292922464
 30
0.0
 11
-15.383396303
 21
39.791996118
 31
0.0
  0
LINE
  5
283
330
1D
100
AcDbEntity
  8
1
100
AcDbLine
 10
-15.383396303
 20
39.791996118
 30
0.0
 11
-15.092995427
 21
39.330110081
 31
0.0
  0
LINE
  5
284
330
1D
100
AcDbEntity
  8
1
100
AcDbLine
 10
-15.092995427
 20
39.330110081
 30
0.0
 11
-14.76379574
 21
38.913161066
 31
0.0
  0
LINE
  5
285
330
1D
100
AcDbEntity
  8
1
100
AcDbLine
 10
-14.76379574
 20
38.913161066
 30
0.0
 11
-14.4
 21
38.546472092
 31
0.0
  0
LINE
  5
286
330
1D
100
AcDbEntity
  8
1
100
AcDbLine
 10
-10.762109725
 20
61.083849668
 30
0.0
 11
-10.813507332
 21
61.07926167399999
 31
0.0
  0
LINE
  5
287
330
1D
100
AcDbEntity
  8
1
100
AcDbLine
 10
-10.813507332
 20
61.07926167399999
 30
0.0
 11
-11.391614969
 21
60.98742158500001
 31
0.0
  0
LINE
  5
288
330
1D
100
AcDbEntity
  8
1
100
AcDbLine
 10
-11.391614969
 20
60.98742158500001
 30
0.0
 11
-11.955457778
 21
60.823463358
 31
0.0
  0
LINE
  5
289
330
1D
100
AcDbEntity
  8
1
100
AcDbLine
 10
-11.955457778
 20
60.823463358
 30
0.0
 11
-12.497120641
 21
60.589688607
 31
0.0
  0
LINE
  5
28A
330
1D
100
AcDbEntity
  8
1
100
AcDbLine
 10
-12.497120641
 20
60.589688607
 30
0.0
 11
-13.0089998
 21
60.28937901800001
 31
0.0
  0
LINE
  5
28B
330
1D
100
AcDbEntity
  8
1
100
AcDbLine
 10
-13.0089998
 20
60.28937901800001
 30
0.0
 11
-13.483909592
 21
59.926750279
 31
0.0
  0
LINE
  5
28C
330
1D
100
AcDbEntity
  8
1
100
AcDbLine
 10
-13.483909592
 20
59.926750279
 30
0.0
 11
-13.915183325
 21
59.50689290299999
 31
0.0
  0
LINE
  5
28D
330
1D
100
AcDbEntity
  8
1
100
AcDbLine
 10
-13.915183325
 20
59.50689290299999
 30
0.0
 11
-14.296766861
 21
59.03570076600001
 31
0.0
  0
LINE
  5
28E
330
1D
100
AcDbEntity
  8
1
100
AcDbLine
 10
-14.296766861
 20
59.03570076600001
 30
0.0
 11
-14.332223221
 21
58.985658871
 31
0.0
  0
LINE
  5
28F
330
1D
100
AcDbEntity
  8
1
100
AcDbLine
 10
-14.332223221
 20
52.714341129
 30
0.0
 11
-14.296766861
 21
52.664299234
 31
0.0
  0
LINE
  5
290
330
1D
100
AcDbEntity
  8
1
100
AcDbLine
 10
-14.296766861
 20
52.664299234
 30
0.0
 11
-13.915183325
 21
52.193107097
 31
0.0
  0
LINE
  5
291
330
1D
100
AcDbEntity
  8
1
100
AcDbLine
 10
-13.915183325
 20
52.193107097
 30
0.0
 11
-13.483909592
 21
51.773249721
 31
0.0
  0
LINE
  5
292
330
1D
100
AcDbEntity
  8
1
100
AcDbLine
 10
-13.483909592
 20
51.773249721
 30
0.0
 11
-13.0089998
 21
51.410620982
 31
0.0
  0
LINE
  5
293
330
1D
100
AcDbEntity
  8
1
100
AcDbLine
 10
-13.0089998
 20
51.410620982
 30
0.0
 11
-12.497120641
 21
51.110311393
 31
0.0
  0
LINE
  5
294
330
1D
100
AcDbEntity
  8
1
100
AcDbLine
 10
-12.497120641
 20
51.110311393
 30
0.0
 11
-11.955457778
 21
50.876536642
 31
0.0
  0
LINE
  5
295
330
1D
100
AcDbEntity
  8
1
100
AcDbLine
 10
-11.955457778
 20
50.876536642
 30
0.0
 11
-11.391614969
 21
50.712578415
 31
0.0
  0
LINE
  5
296
330
1D
100
AcDbEntity
  8
1
100
AcDbLine
 10
-11.391614969
 20
50.712578415
 30
0.0
 11
-10.813507332
 21
50.620738326
 31
0.0
  0
LINE
  5
297
330
1D
100
AcDbEntity
  8
1
100
AcDbLine
 10
-10.813507332
 20
50.620738326
 30
0.0
 11
-10.762109725
 21
50.616150332
 31
0.0
  0
LINE
  5
298
330
1D
100
AcDbEntity
  8
1
100
AcDbLine
 10
-14.4
 20
60.153527908
 30
0.0
 11
-14.76379574
 21
59.786838934
 31
0.0
  0
LINE
  5
299
330
1D
100
AcDbEntity
  8
1
100
AcDbLine
 10
-14.76379574
 20
59.786838934
 30
0.0
 11
-15.092995427
 21
59.369889919
 31
0.0
  0
LINE
  5
29A
330
1D
100
AcDbEntity
  8
1
100
AcDbLine
 10
-15.092995427
 20
59.369889919
 30
0.0
 11
-15.383396303
 21
58.908003882
 31
0.0
  0
LINE
  5
29B
330
1D
100
AcDbEntity
  8
1
100
AcDbLine
 10
-15.383396303
 20
58.908003882
 30
0.0
 11
-15.631290934
 21
58.407077536
 31
0.0
  0
LINE
  5
29C
330
1D
100
AcDbEntity
  8
1
100
AcDbLine
 10
-15.631290934
 20
58.407077536
 30
0.0
 11
-15.83351455
 21
57.873506009
 31
0.0
  0
LINE
  5
29D
330
1D
100
AcDbEntity
  8
1
100
AcDbLine
 10
-15.83351455
 20
57.873506009
 30
0.0
 11
-15.987485443
 21
57.314101192
 31
0.0
  0
LINE
  5
29E
330
1D
100
AcDbEntity
  8
1
100
AcDbLine
 10
-15.987485443
 20
57.314101192
 30
0.0
 11
-16.091237928
 21
56.736004783
 31
0.0
  0
LINE
  5
29F
330
1D
100
AcDbEntity
  8
1
100
AcDbLine
 10
-16.091237928
 20
56.736004783
 30
0.0
 11
-16.14344744
 21
56.146597106
 31
0.0
  0
LINE
  5
2A0
330
1D
100
AcDbEntity
  8
1
100
AcDbLine
 10
-16.14344744
 20
56.146597106
 30
0.0
 11
-16.14344744
 21
55.553402894
 31
0.0
  0
LINE
  5
2A1
330
1D
100
AcDbEntity
  8
1
100
AcDbLine
 10
-16.14344744
 20
55.553402894
 30
0.0
 11
-16.091237928
 21
54.963995217
 31
0.0
  0
LINE
  5
2A2
330
1D
100
AcDbEntity
  8
1
100
AcDbLine
 10
-16.091237928
 20
54.963995217
 30
0.0
 11
-15.987485443
 21
54.385898808
 31
0.0
  0
LINE
  5
2A3
330
1D
100
AcDbEntity
  8
1
100
AcDbLine
 10
-15.987485443
 20
54.385898808
 30
0.0
 11
-15.83351455
 21
53.826493991
 31
0.0
  0
LINE
  5
2A4
330
1D
100
AcDbEntity
  8
1
100
AcDbLine
 10
-15.83351455
 20
53.826493991
 30
0.0
 11
-15.631290934
 21
53.292922464
 31
0.0
  0
LINE
  5
2A5
330
1D
100
AcDbEntity
  8
1
100
AcDbLine
 10
-15.631290934
 20
53.292922464
 30
0.0
 11
-15.383396303
 21
52.791996118
 31
0.0
  0
LINE
  5
2A6
330
1D
100
AcDbEntity
  8
1
100
AcDbLine
 10
-15.383396303
 20
52.791996118
 30
0.0
 11
-15.092995427
 21
52.330110081
 31
0.0
  0
LINE
  5
2A7
330
1D
100
AcDbEntity
  8
1
100
AcDbLine
 10
-15.092995427
 20
52.330110081
 30
0.0
 11
-14.76379574
 21
51.913161066
 31
0.0
  0
LINE
  5
2A8
330
1D
100
AcDbEntity
  8
1
100
AcDbLine
 10
-14.76379574
 20
51.913161066
 30
0.0
 11
-14.4
 21
51.546472092
 31
0.0
  0
LINE
  5
2AA
330
1D
100
AcDbEntity
  8
1
100
AcDbLine
 10
24.6
 20
77.0
 30
0.0
 11
16.1
 21
77.0
 31
0.0
  0
ARC
  5
2AC
330
1D
100
AcDbEntity
  8
1
100
AcDbCircle
 10
23.1
 20
69.258050542
 30
0.0
 40
1.5
100
AcDbArc
 50
285.0000000000001
 51
0.0
  0
ARC
  5
2AD
330
1D
100
AcDbEntity
  8
1
100
AcDbCircle
 10
16.1
 20
78.5
 30
0.0
 40
1.5
100
AcDbArc
 50
180.0
 51
270.0
  0
LINE
  5
2AF
102
{ACAD_REACTORS
330
4B1
330
4D2
102
}
330
1D
100
AcDbEntity
  8
1
100
AcDbLine
 10
44.9
 20
82.0
 30
0.0
 11
44.9
 21
2.0
 31
0.0
  0
LINE
  5
2B0
102
{ACAD_REACTORS
330
4C1
102
}
330
1D
100
AcDbEntity
  8
1
100
AcDbLine
 10
42.9
 20
0.0
 30
0.0
 11
42.9
 21
84.0
 31
0.0
  0
LINE
  5
2B1
330
1D
100
AcDbEntity
  8
1
100
AcDbLine
 10
44.9
 20
6.295707487
 30
0.0
 11
42.9
 21
4.857264128000001
 31
0.0
  0
LINE
  5
2B3
330
1D
100
AcDbEntity
  8
1
100
AcDbLine
 10
42.9
 20
68.0
 30
0.0
 11
44.9
 21
67.171572875
 31
0.0
  0
LINE
  5
2D7
330
1D
100
AcDbEntity
  8
1
100
AcDbLine
 10
24.7
 20
68.0
 30
0.0
 11
42.9
 21
68.0
 31
0.0
  0
LINE
  5
2D8
330
1D
100
AcDbEntity
  8
1
100
AcDbLine
 10
24.7
 20
4.857264128000001
 30
0.0
 11
42.9
 21
4.857264128000001
 31
0.0
  0
LINE
  5
2DA
330
1D
100
AcDbEntity
  8
1
100
AcDbLine
 10
42.9
 20
84.0
 30
0.0
 11
44.9
 21
82.0
 31
0.0
  0
LINE
  5
2DD
330
1D
100
AcDbEntity
  8
1
100
AcDbLine
 10
14.6
 20
0.0
 30
0.0
 11
14.6
 21
1.975994691
 31
0.0
  0
LINE
  5
2DF
330
1D
100
AcDbEntity
  8
SK3
100
AcDbLine
 10
14.6
 20
65.427568136
 30
0.0
 11
14.6
 21
1.975994691
 31
0.0
  0
LINE
  5
2E0
330
1D
100
AcDbEntity
  8
SK3
100
AcDbLine
 10
-0.4
 20
2.299423301
 30
0.0
 11
-0.4
 21
84.0
 31
0.0
  0
TEXT
  5
2E1
330
1D
100
AcDbEntity
  8
SK6
100
AcDbText
 10
68.99809126971526
 20
-14.10783599678044
 30
0.0
 40
3.5
  1
317.105
  7
BMG_Text
100
AcDbText
  0
LINE
  5
2F6
330
1D
100
AcDbEntity
  8
SK3
100
AcDbLine
 10
-8.4
 20
34.8
 30
0.0
 11
-16.4
 21
34.8
 31
0.0
  0
LINE
  5
2F7
330
1D
100
AcDbEntity
  8
SK3
100
AcDbLine
 10
-8.4
 20
17.3
 30
0.0
 11
-16.4
 21
17.3
 31
0.0
  0
LINE
  5
3DF
330
1D
100
AcDbEntity
  8
1
100
AcDbLine
 10
-16.4
 20
84.0
 30
0.0
 11
42.9
 21
84.0
 31
0.0
  0
LINE
  5
3E1
330
1D
100
AcDbEntity
  8
1
100
AcDbLine
 10
-14.4
 20
6.75037994
 30
0.0
 11
6.1
 21
6.75037994
 31
0.0
  0
LINE
  5
3E9
330
1D
100
AcDbEntity
  8
1
100
AcDbLine
 10
-14.4
 20
77.9
 30
0.0
 11
6.1
 21
77.9
 31
0.0
  0
LWPOLYLINE
  5
3FF
330
1D
100
AcDbEntity
  8
INFTOTAL
100
AcDbPolyline
 90
        4
 70
     1
 43
0.0
 10
-27.65700587342591
 20
110.379466755028
 10
-27.65700587342591
 20
-20.62823959961189
 10
94.42513012315081
 20
-20.62823959961186
 10
94.42513012315081
 20
110.379466755028
  0
LINE
  5
491
330
1D
100
AcDbEntity
  8
NOCUT
100
AcDbLine
 10
0.0
 20
0.0
 30
0.0
 11
42.9
 21
0.0
 31
0.0
  0
LINE
  5
492
330
1D
100
AcDbEntity
  8
NOCUT
100
AcDbLine
 10
42.9
 20
0.0
 30
0.0
 11
44.9
 21
2.0
 31
0.0
  0
LINE
  5
493
330
1D
100
AcDbEntity
  8
NOCUT
100
AcDbLine
 10
44.9
 20
2.0
 30
0.0
 11
44.9
 21
82.0
 31
0.0
  0
LINE
  5
494
330
1D
100
AcDbEntity
  8
NOCUT
100
AcDbLine
 10
44.9
 20
82.0
 30
0.0
 11
42.9
 21
84.0
 31
0.0
  0
LINE
  5
495
330
1D
100
AcDbEntity
  8
NOCUT
100
AcDbLine
 10
42.9
 20
84.0
 30
0.0
 11
-16.4
 21
84.0
 31
0.0
  0
LINE
  5
496
102
{ACAD_REACTORS
330
4B1
102
}
330
1D
100
AcDbEntity
  8
NOCUT
100
AcDbLine
 10
-16.4
 20
84.0
 30
0.0
 11
-16.4
 21
2.351121012
 31
0.0
  0
LINE
  5
497
330
1D
100
AcDbEntity
  8
NOCUT
100
AcDbLine
 10
0.0
 20
1.108020844
 30
0.0
 11
0.0
 21
0.0
 31
0.0
  0
LINE
  5
498
330
1D
100
AcDbEntity
  8
NOCUT
100
AcDbLine
 10
-0.3999999999999999
 20
1.108020844
 30
0.0
 11
0.0
 21
1.108020844
 31
0.0
  0
LINE
  5
499
330
1D
100
AcDbEntity
  8
NOCUT
100
AcDbLine
 10
-0.3999999999999999
 20
2.299423301
 30
0.0
 11
-0.3999999999999999
 21
1.108020844
 31
0.0
  0
LINE
  5
49A
330
1D
100
AcDbEntity
  8
NOCUT
100
AcDbLine
 10
-0.540964282
 20
2.370649851
 30
0.0
 11
-0.453900497
 21
2.346158811
 31
0.0
  0
LINE
  5
49B
330
1D
100
AcDbEntity
  8
NOCUT
100
AcDbLine
 10
-0.453900497
 20
2.346158811
 30
0.0
 11
-0.4069512310000001
 21
2.31666974
 31
0.0
  0
LINE
  5
49C
330
1D
100
AcDbEntity
  8
NOCUT
100
AcDbLine
 10
-0.4069512310000001
 20
2.31666974
 30
0.0
 11
-0.3999999999999999
 21
2.299423301
 31
0.0
  0
LINE
  5
49D
330
1D
100
AcDbEntity
  8
NOCUT
100
AcDbLine
 10
-3.519545323
 20
2.78540663
 30
0.0
 11
-2.799020356
 21
2.82015248
 31
0.0
  0
LINE
  5
49E
330
1D
100
AcDbEntity
  8
NOCUT
100
AcDbLine
 10
-2.799020356
 20
2.82015248
 30
0.0
 11
-2.072855282
 21
2.79345334
 31
0.0
  0
LINE
  5
49F
330
1D
100
AcDbEntity
  8
NOCUT
100
AcDbLine
 10
-2.072855282
 20
2.79345334
 30
0.0
 11
-1.422644807
 21
2.709709999
 31
0.0
  0
LINE
  5
4A0
330
1D
100
AcDbEntity
  8
NOCUT
100
AcDbLine
 10
-1.422644807
 20
2.709709999
 30
0.0
 11
-0.9075639610000001
 21
2.57873931
 31
0.0
  0
LINE
  5
4A1
330
1D
100
AcDbEntity
  8
NOCUT
100
AcDbLine
 10
-0.9075639610000001
 20
2.57873931
 30
0.0
 11
-0.5850577349999999
 21
2.41453161
 31
0.0
  0
LINE
  5
4A2
330
1D
100
AcDbEntity
  8
NOCUT
100
AcDbLine
 10
-0.5850577349999999
 20
2.41453161
 30
0.0
 11
-0.540964282
 21
2.370649851
 31
0.0
  0
LINE
  5
4A3
330
1D
100
AcDbEntity
  8
NOCUT
100
AcDbLine
 10
-13.3
 20
1.950773107
 30
0.0
 11
-8.397995485
 21
2.349807345
 31
0.0
  0
LINE
  5
4A4
330
1D
100
AcDbEntity
  8
NOCUT
100
AcDbLine
 10
-8.397995485
 20
2.349807345
 30
0.0
 11
-3.519545323
 21
2.78540663
 31
0.0
  0
LINE
  5
4A5
330
1D
100
AcDbEntity
  8
NOCUT
100
AcDbLine
 10
-16.4
 20
2.351121012
 30
0.0
 11
-13.3
 21
1.950773107
 31
0.0
  0
DIMENSION
  5
4AF
102
{ACAD_REACTORS
330
4B1
102
}
102
{ACAD_XDICTIONARY
360
4B0
102
}
330
1D
100
AcDbEntity
  8
SK2
100
AcDbDimension
280
     0
  2
*D0
 10
44.9
 20
102.4
 30
0.0
 11
14.25
 21
104.4833333333333
 31
0.0
 70
    32
 71
     5
 42
61.3
 73
     0
 74
     0
 75
     0
  3
ISO-25
100
AcDbAlignedDimension
 13
-16.4
 23
84.0
 33
0.0
 14
44.9
 24
82.0
 34
0.0
100
AcDbRotatedDimension
  0
DIMENSION
  5
4BF
102
{ACAD_REACTORS
330
4C1
102
}
102
{ACAD_XDICTIONARY
360
4C0
102
}
330
1D
100
AcDbEntity
  8
SK2
100
AcDbDimension
280
     0
  2
*D1
 10
65.05000000000001
 20
84.0
 30
0.0
 11
63.17500000000001
 21
42.0
 31
0.0
 70
    32
 71
     5
 42
84.0
 73
     0
 74
     0
 75
     0
  3
ISO-25
100
AcDbAlignedDimension
 13
42.9
 23
0.0
 33
0.0
 14
42.9
 24
84.0
 34
0.0
 50
90.0
100
AcDbRotatedDimension
  0
DIMENSION
  5
4D0
102
{ACAD_REACTORS
330
4D2
102
}
102
{ACAD_XDICTIONARY
360
4D1
102
}
330
1D
100
AcDbEntity
  8
2
100
AcDbDimension
280
     0
  2
*D2
 10
44.9
 20
95.4
 30
0.0
 11
22.45
 21
97.48333333333333
 31
0.0
 70
    32
 71
     5
 42
44.9
 73
     0
 74
     0
 75
     0
  3
ISO-25
100
AcDbAlignedDimension
 13
0.0
 23
0.0
 33
0.0
 14
44.9
 24
82.0
 34
0.0
100
AcDbRotatedDimension
  0
ENDSEC
  0
SECTION
  2
OBJECTS
  0
DICTIONARY
  5
C
330
0
100
AcDbDictionary
281
     1
  3
ACAD_COLOR
350
4EC
  3
ACAD_DETAILVIEWSTYLE
350
399
  3
ACAD_GROUP
350
D
  3
ACAD_LAYOUT
350
1A
  3
ACAD_MATERIAL
350
334
  3
ACAD_MLEADERSTYLE
350
340
  3
ACAD_MLINESTYLE
350
17
  3
ACAD_PLOTSETTINGS
350
19
  3
ACAD_PLOTSTYLENAME
350
E
  3
ACAD_SCALELIST
350
2FD
  3
ACAD_SECTIONVIEWSTYLE
350
39A
  3
ACAD_TABLESTYLE
350
389
  3
ACAD_VISUALSTYLE
350
323
  3
ACDB_RECOMPOSE_DATA
350
515
  3
AcDbVariableDictionary
350
33E
  3
APPDATA
350
38C
  0
SUN
  5
3D7
330
2F8
100
AcDbSun
 90
        1
290
     0
 63
     7
421
 16777215
 40
1.0
291
     1
 91
  2455826
 92
 54000000
292
     0
 70
     2
 71
   256
280
     1
  0
DICTIONARY
  5
38D
330
2
100
AcDbDictionary
280
     1
281
     1
  3
ACAD_LAYERSTATES
360
38E
  0
DICTIONARY
  5
4B0
330
4AF
100
AcDbDictionary
280
     1
281
     1
  3
ACAD_DIMASSOC
360
4B1
  0
DICTIONARY
  5
4C0
330
4BF
100
AcDbDictionary
280
     1
281
     1
  3
ACAD_DIMASSOC
360
4C1
  0
DICTIONARY
  5
4D1
330
4D0
100
AcDbDictionary
280
     1
281
     1
  3
ACAD_DIMASSOC
360
4D2
  0
DICTIONARY
  5
4EC
102
{ACAD_REACTORS
330
C
102
}
330
C
100
AcDbDictionary
281
     1
  0
DICTIONARY
  5
399
102
{ACAD_REACTORS
330
C
102
}
330
C
100
AcDbDictionary
281
     1
  0
DICTIONARY
  5
D
102
{ACAD_REACTORS
330
C
102
}
330
C
100
AcDbDictionary
281
     1
  0
DICTIONARY
  5
1A
102
{ACAD_REACTORS
330
C
102
}
330
C
100
AcDbDictionary
281
     1
  3
Layout1
350
1C
  3
Model
350
1E
  0
DICTIONARY
  5
334
102
{ACAD_REACTORS
330
C
102
}
330
C
100
AcDbDictionary
281
     1
  3
ByBlock
350
336
  3
ByLayer
350
335
  3
Global
350
337
  0
DICTIONARY
  5
340
102
{ACAD_REACTORS
330
C
102
}
330
C
100
AcDbDictionary
281
     1
  3
Standard
350
38B
  0
DICTIONARY
  5
17
102
{ACAD_REACTORS
330
C
102
}
330
C
100
AcDbDictionary
281
     1
  3
Standard
350
18
  0
DICTIONARY
  5
19
102
{ACAD_REACTORS
330
C
102
}
330
C
100
AcDbDictionary
281
     1
  0
ACDBDICTIONARYWDFLT
  5
E
102
{ACAD_REACTORS
330
C
102
}
330
C
100
AcDbDictionary
281
     1
  3
Normal
350
F
100
AcDbDictionaryWithDefault
340
F
  0
DICTIONARY
  5
2FD
102
{ACAD_REACTORS
330
C
102
}
330
C
100
AcDbDictionary
281
     1
  3
A0
350
2FE
  3
A1
350
2FF
  3
A2
350
300
  3
A3
350
301
  3
A4
350
302
  3
A5
350
303
  3
A6
350
304
  3
A7
350
305
  3
A8
350
306
  3
A9
350
307
  3
B0
350
308
  3
B1
350
309
  3
B2
350
30A
  3
B3
350
30B
  3
B4
350
30C
  3
B5
350
30D
  3
B6
350
30E
  3
B7
350
30F
  3
B8
350
310
  3
B9
350
311
  3
C0
350
312
  3
C1
350
313
  3
C2
350
314
  3
C3
350
315
  3
C4
350
316
  3
C5
350
317
  3
C6
350
318
  3
C7
350
319
  3
C8
350
31A
  3
C9
350
31B
  3
D0
350
31C
  3
D1
350
31D
  3
D2
350
31E
  0
DICTIONARY
  5
39A
102
{ACAD_REACTORS
330
C
102
}
330
C
100
AcDbDictionary
281
     1
  0
DICTIONARY
  5
389
102
{ACAD_REACTORS
330
C
102
}
330
C
100
AcDbDictionary
281
     1
  3
Standard
350
38A
  0
DICTIONARY
  5
323
102
{ACAD_REACTORS
330
C
102
}
330
C
100
AcDbDictionary
281
     1
  3
2dWireframe
350
328
  3
3D Hidden
350
32A
  3
3dWireframe
350
329
  3
Basic
350
32B
  3
Brighten
350
32F
  3
ColorChange
350
333
  3
Conceptual
350
32D
  3
Dim
350
32E
  3
EdgeColorOff
350
383
  3
Facepattern
350
332
  3
Flat
350
324
  3
FlatWithEdges
350
325
  3
Gouraud
350
326
  3
GouraudWithEdges
350
327
  3
Hidden
350
380
  3
JitterOff
350
381
  3
Linepattern
350
331
  3
OverhangOff
350
382
  3
Realistic
350
32C
  3
Shaded
350
388
  3
Shaded with edges
350
387
  3
Shades of Gray
350
384
  3
Sketchy
350
385
  3
Thicken
350
330
  3
Wireframe
350
37F
  3
X-Ray
350
386
  0
XRECORD
  5
515
102
{ACAD_REACTORS
330
C
102
}
330
C
100
AcDbXrecord
280
     1
 90
        1
330
38A
  0
DICTIONARY
  5
33E
102
{ACAD_REACTORS
330
C
102
}
330
C
100
AcDbDictionary
281
     1
  3
CANNOSCALE
350
396
  3
CMLEADERSTYLE
350
398
  3
CTABLESTYLE
350
397
  3
DIMASSOC
350
342
  3
HIDETEXT
350
343
  3
MSLTSCALE
350
341
  0
DICTIONARY
  5
38C
102
{ACAD_REACTORS
330
C
102
}
330
C
100
AcDbDictionary
281
     1
  0
DICTIONARY
  5
38E
102
{ACAD_REACTORS
330
38D
102
}
330
38D
100
AcDbDictionary
281
     1
  0
DIMASSOC
  5
4B1
102
{ACAD_REACTORS
330
4B0
102
}
330
4B0
100
AcDbDimAssoc
330
4AF
 90
        3
 70
     0
 71
     1
  1
AcDbOsnapPointRef
 72
    13
331
496
 73
     0
 91
        0
 40
0.0
 10
0.0
 20
0.0
 30
0.0
 75
     0
  1
AcDbOsnapPointRef
 72
    13
331
2AF
 73
     0
 91
        0
 40
0.0
 10
0.0
 20
0.0
 30
0.0
 75
     0
  0
DIMASSOC
  5
4C1
102
{ACAD_REACTORS
330
4C0
102
}
330
4C0
100
AcDbDimAssoc
330
4BF
 90
        3
 70
     0
 71
     1
  1
AcDbOsnapPointRef
 72
     1
331
2F
 73
     0
 91
        0
 40
0.0
 10
0.0
 20
0.0
 30
0.0
 75
     0
  1
AcDbOsnapPointRef
 72
     1
331
2B0
 73
     0
 91
        0
 40
0.0
 10
0.0
 20
0.0
 30
0.0
 75
     0
  0
DIMASSOC
  5
4D2
102
{ACAD_REACTORS
330
4D1
102
}
330
4D1
100
AcDbDimAssoc
330
4D0
 90
        3
 70
     0
 71
     1
  1
AcDbOsnapPointRef
 72
    13
331
2F
 73
     0
 91
        0
 40
0.0
 10
0.0
 20
0.0
 30
0.0
 75
     0
  1
AcDbOsnapPointRef
 72
    13
331
2AF
 73
     0
 91
        0
 40
0.0
 10
0.0
 20
0.0
 30
0.0
 75
     0
  0
LAYOUT
  5
1C
102
{ACAD_REACTORS
330
1A
102
}
330
1A
100
AcDbPlotSettings
  1

  2
none_device
  4

  6

 40
0.0
 41
0.0
 42
0.0
 43
0.0
 44
0.0
 45
0.0
 46
0.0
 47
0.0
 48
0.0
 49
0.0
140
0.0
141
0.0
142
1.0
143
1.0
 70
   688
 72
     0
 73
     0
 74
     5
  7

 75
    16
 76
     0
 77
     2
 78
   300
147
1.0
148
0.0
149
0.0
100
AcDbLayout
  1
Layout1
 70
     1
 71
     1
 10
0.0
 20
0.0
 11
12.0
 21
9.0
 12
0.0
 22
0.0
 32
0.0
 14
1.000000000000000E+20
 24
1.000000000000000E+20
 34
1.000000000000000E+20
 15
-1.000000000000000E+20
 25
-1.000000000000000E+20
 35
-1.000000000000000E+20
146
0.0
 13
0.0
 23
0.0
 33
0.0
 16
1.0
 26
0.0
 36
0.0
 17
0.0
 27
1.0
 37
0.0
 76
     0
330
1B
  0
LAYOUT
  5
1E
102
{ACAD_REACTORS
330
1A
102
}
330
1A
100
AcDbPlotSettings
  1

  2
none_device
  4

  6

 40
0.0
 41
0.0
 42
0.0
 43
0.0
 44
0.0
 45
0.0
 46
0.0
 47
0.0
 48
0.0
 49
0.0
140
0.0
141
0.0
142
1.0
143
1.0
 70
  1712
 72
     0
 73
     0
 74
     0
  7

 75
     0
 76
     0
 77
     2
 78
   300
147
1.0
148
0.0
149
0.0
100
AcDbLayout
  1
Model
 70
     1
 71
     0
 10
0.0
 20
0.0
 11
12.0
 21
9.0
 12
0.0
 22
0.0
 32
0.0
 14
-27.65700587342591
 24
-20.62823959961189
 34
0.0
 15
94.42513012315081
 25
110.379466755028
 35
0.0
146
0.0
 13
0.0
 23
0.0
 33
0.0
 16
1.0
 26
0.0
 36
0.0
 17
0.0
 27
1.0
 37
0.0
 76
     0
330
1D
331
2F8
  0
MATERIAL
  5
336
102
{ACAD_REACTORS
330
334
102
}
330
334
100
AcDbMaterial
  1
ByBlock
 72
     1
 94
      127
  0
MATERIAL
  5
335
102
{ACAD_REACTORS
330
334
102
}
330
334
100
AcDbMaterial
  1
ByLayer
 72
     1
 94
      127
  0
MATERIAL
  5
337
102
{ACAD_REACTORS
330
334
102
}
330
334
100
AcDbMaterial
  1
Global
 72
     1
 94
      127
  0
MLEADERSTYLE
  5
38B
102
{ACAD_REACTORS
330
340
102
}
330
340
100
AcDbMLeaderStyle
179
     2
170
     2
171
     1
172
     0
 90
        2
 40
0.0
 41
0.0
173
     1
 91
-1056964608
340
14
 92
       -2
290
     1
 42
0.09
291
     1
 43
0.36
  3
Standard
341
0
 44
0.18
300

342
11
174
     1
178
     1
175
     1
176
     0
 93
-1056964608
 45
0.18
292
     0
297
     0
 46
0.18
343
0
 94
-1056964608
 47
1.0
 49
1.0
140
1.0
293
     1
141
0.0
294
     1
177
     0
142
1.0
295
     0
296
     0
143
0.125
271
     0
272
     9
273
     9
298
     0
  0
MLINESTYLE
  5
18
102
{ACAD_REACTORS
330
17
102
}
330
17
100
AcDbMlineStyle
  2
Standard
 70
     0
  3

 62
   256
 51
90.0
 52
90.0
 71
     2
 49
0.5
 62
   256
  6
BYLAYER
 49
-0.5
 62
   256
  6
BYLAYER
  0
ACDBPLACEHOLDER
  5
F
102
{ACAD_REACTORS
330
E
102
}
330
E
  0
SCALE
  5
2FE
102
{ACAD_REACTORS
330
2FD
102
}
330
2FD
100
AcDbScale
 70
     0
300
1:1
140
1.0
141
1.0
290
     1
  0
SCALE
  5
2FF
102
{ACAD_REACTORS
330
2FD
102
}
330
2FD
100
AcDbScale
 70
     0
300
1:2
140
1.0
141
2.0
290
     0
  0
SCALE
  5
300
102
{ACAD_REACTORS
330
2FD
102
}
330
2FD
100
AcDbScale
 70
     0
300
1:4
140
1.0
141
4.0
290
     0
  0
SCALE
  5
301
102
{ACAD_REACTORS
330
2FD
102
}
330
2FD
100
AcDbScale
 70
     0
300
1:5
140
1.0
141
5.0
290
     0
  0
SCALE
  5
302
102
{ACAD_REACTORS
330
2FD
102
}
330
2FD
100
AcDbScale
 70
     0
300
1:8
140
1.0
141
8.0
290
     0
  0
SCALE
  5
303
102
{ACAD_REACTORS
330
2FD
102
}
330
2FD
100
AcDbScale
 70
     0
300
1:10
140
1.0
141
10.0
290
     0
  0
SCALE
  5
304
102
{ACAD_REACTORS
330
2FD
102
}
330
2FD
100
AcDbScale
 70
     0
300
1:16
140
1.0
141
16.0
290
     0
  0
SCALE
  5
305
102
{ACAD_REACTORS
330
2FD
102
}
330
2FD
100
AcDbScale
 70
     0
300
1:20
140
1.0
141
20.0
290
     0
  0
SCALE
  5
306
102
{ACAD_REACTORS
330
2FD
102
}
330
2FD
100
AcDbScale
 70
     0
300
1:30
140
1.0
141
30.0
290
     0
  0
SCALE
  5
307
102
{ACAD_REACTORS
330
2FD
102
}
330
2FD
100
AcDbScale
 70
     0
300
1:40
140
1.0
141
40.0
290
     0
  0
SCALE
  5
308
102
{ACAD_REACTORS
330
2FD
102
}
330
2FD
100
AcDbScale
 70
     0
300
1:50
140
1.0
141
50.0
290
     0
  0
SCALE
  5
309
102
{ACAD_REACTORS
330
2FD
102
}
330
2FD
100
AcDbScale
 70
     0
300
1:100
140
1.0
141
100.0
290
     0
  0
SCALE
  5
30A
102
{ACAD_REACTORS
330
2FD
102
}
330
2FD
100
AcDbScale
 70
     0
300
2:1
140
2.0
141
1.0
290
     0
  0
SCALE
  5
30B
102
{ACAD_REACTORS
330
2FD
102
}
330
2FD
100
AcDbScale
 70
     0
300
4:1
140
4.0
141
1.0
290
     0
  0
SCALE
  5
30C
102
{ACAD_REACTORS
330
2FD
102
}
330
2FD
100
AcDbScale
 70
     0
300
8:1
140
8.0
141
1.0
290
     0
  0
SCALE
  5
30D
102
{ACAD_REACTORS
330
2FD
102
}
330
2FD
100
AcDbScale
 70
     0
300
10:1
140
10.0
141
1.0
290
     0
  0
SCALE
  5
30E
102
{ACAD_REACTORS
330
2FD
102
}
330
2FD
100
AcDbScale
 70
     0
300
100:1
140
100.0
141
1.0
290
     0
  0
SCALE
  5
30F
102
{ACAD_REACTORS
330
2FD
102
}
330
2FD
100
AcDbScale
 70
     0
300
1/128" = 1'-0"
140
0.0078125
141
12.0
290
     0
  0
SCALE
  5
310
102
{ACAD_REACTORS
330
2FD
102
}
330
2FD
100
AcDbScale
 70
     0
300
1/64" = 1'-0"
140
0.015625
141
12.0
290
     0
  0
SCALE
  5
311
102
{ACAD_REACTORS
330
2FD
102
}
330
2FD
100
AcDbScale
 70
     0
300
1/32" = 1'-0"
140
0.03125
141
12.0
290
     0
  0
SCALE
  5
312
102
{ACAD_REACTORS
330
2FD
102
}
330
2FD
100
AcDbScale
 70
     0
300
1/16" = 1'-0"
140
0.0625
141
12.0
290
     0
  0
SCALE
  5
313
102
{ACAD_REACTORS
330
2FD
102
}
330
2FD
100
AcDbScale
 70
     0
300
3/32" = 1'-0"
140
0.09375
141
12.0
290
     0
  0
SCALE
  5
314
102
{ACAD_REACTORS
330
2FD
102
}
330
2FD
100
AcDbScale
 70
     0
300
1/8" = 1'-0"
140
0.125
141
12.0
290
     0
  0
SCALE
  5
315
102
{ACAD_REACTORS
330
2FD
102
}
330
2FD
100
AcDbScale
 70
     0
300
3/16" = 1'-0"
140
0.1875
141
12.0
290
     0
  0
SCALE
  5
316
102
{ACAD_REACTORS
330
2FD
102
}
330
2FD
100
AcDbScale
 70
     0
300
1/4" = 1'-0"
140
0.25
141
12.0
290
     0
  0
SCALE
  5
317
102
{ACAD_REACTORS
330
2FD
102
}
330
2FD
100
AcDbScale
 70
     0
300
3/8" = 1'-0"
140
0.375
141
12.0
290
     0
  0
SCALE
  5
318
102
{ACAD_REACTORS
330
2FD
102
}
330
2FD
100
AcDbScale
 70
     0
300
1/2" = 1'-0"
140
0.5
141
12.0
290
     0
  0
SCALE
  5
319
102
{ACAD_REACTORS
330
2FD
102
}
330
2FD
100
AcDbScale
 70
     0
300
3/4" = 1'-0"
140
0.75
141
12.0
290
     0
  0
SCALE
  5
31A
102
{ACAD_REACTORS
330
2FD
102
}
330
2FD
100
AcDbScale
 70
     0
300
1" = 1'-0"
140
1.0
141
12.0
290
     0
  0
SCALE
  5
31B
102
{ACAD_REACTORS
330
2FD
102
}
330
2FD
100
AcDbScale
 70
     0
300
1-1/2" = 1'-0"
140
1.5
141
12.0
290
     0
  0
SCALE
  5
31C
102
{ACAD_REACTORS
330
2FD
102
}
330
2FD
100
AcDbScale
 70
     0
300
3" = 1'-0"
140
3.0
141
12.0
290
     0
  0
SCALE
  5
31D
102
{ACAD_REACTORS
330
2FD
102
}
330
2FD
100
AcDbScale
 70
     0
300
6" = 1'-0"
140
6.0
141
12.0
290
     0
  0
SCALE
  5
31E
102
{ACAD_REACTORS
330
2FD
102
}
330
2FD
100
AcDbScale
 70
     0
300
1'-0" = 1'-0"
140
12.0
141
12.0
290
     0
  0
TABLESTYLE
  5
38A
102
{ACAD_REACTORS
330
389
102
}
102
{ACAD_XDICTIONARY
360
513
102
}
330
389
100
AcDbTableStyle
  3
Standard
 70
     0
 71
     0
 40
0.06
 41
0.06
280
     0
281
     0
  7
Standard
140
0.18
170
     2
 62
     0
 63
   257
283
     0
 90
        4
 91
        0
  1

274
    -2
284
     1
 64
     0
275
    -2
285
     1
 65
     0
276
    -2
286
     1
 66
     0
277
    -2
287
     1
 67
     0
278
    -2
288
     1
 68
     0
279
    -2
289
     1
 69
     0
  7
Standard
140
0.25
170
     5
 62
     0
 63
   257
283
     0
 90
        4
 91
        0
  1

274
    -2
284
     1
 64
     0
275
    -2
285
     1
 65
     0
276
    -2
286
     1
 66
     0
277
    -2
287
     1
 67
     0
278
    -2
288
     1
 68
     0
279
    -2
289
     1
 69
     0
  7
Standard
140
0.18
170
     5
 62
     0
 63
   257
283
     0
 90
        4
 91
        0
  1

274
    -2
284
     1
 64
     0
275
    -2
285
     1
 65
     0
276
    -2
286
     1
 66
     0
277
    -2
287
     1
 67
     0
278
    -2
288
     1
 68
     0
279
    -2
289
     1
 69
     0
  0
VISUALSTYLE
  5
328
102
{ACAD_REACTORS
330
323
102
}
330
323
100
AcDbVisualStyle
  2
2dWireframe
 70
     4
177
     3
291
     0
 70
    58
 90
        0
176
     1
 90
        2
176
     1
 90
        0
176
     1
 90
        0
176
     1
 40
-0.6
176
     1
 40
-30.0
176
     1
 62
     7
176
     1
 90
        1
176
     1
 90
        4
176
     1
 62
     7
176
     1
 62
   257
176
     1
 90
        1
176
     1
 90
        1
176
     1
 40
1.0
176
     1
 90
        0
176
     1
 62
   257
176
     1
 40
1.0
176
     1
 90
        1
176
     1
 90
        6
176
     1
 90
        2
176
     1
 62
     7
176
     1
 90
        5
176
     1
 90
        0
176
     1
 90
        0
176
     1
290
     0
176
     1
 90
        1
176
     1
 40
0.0
176
     1
 90
        0
176
     1
290
     1
176
     1
290
     1
176
     1
290
     0
176
     1
290
     0
176
     1
290
     0
176
     1
290
     0
176
     1
290
     0
176
     1
290
     0
176
     1
290
     0
176
     1
 90
       50
176
     1
 40
0.0
176
     1
 40
1.0
176
     1
 90
        0
176
     1
 62
    18
420
        0
176
     1
 90
       50
176
     1
 90
        3
176
     1
 62
     5
420
      255
176
     1
290
     0
176
     1
 90
       50
176
     1
 90
       50
176
     1
 90
       50
176
     1
290
     0
176
     1
 90
       50
176
     1
 62
   256
176
     0
 40
1.0
176
     0
 90
        2
176
     1
  1
strokes_ogs.tif
176
     1
290
     0
176
     1
 40
1.0
176
     1
 40
1.0
176
     1
  0
VISUALSTYLE
  5
32A
102
{ACAD_REACTORS
330
323
102
}
330
323
100
AcDbVisualStyle
  2
3D Hidden
 70
     6
177
     3
291
     0
 70
    58
 90
        1
176
     1
 90
        2
176
     1
 90
        2
176
     1
 90
        0
176
     1
 40
-0.6
176
     1
 40
-30.0
176
     1
 62
     7
176
     1
 90
        2
176
     1
 90
        2
176
     1
 62
     7
176
     1
 62
   257
176
     1
 90
        2
176
     1
 90
        1
176
     1
 40
40.0
176
     1
 90
        0
176
     1
 62
   257
176
     1
 40
1.0
176
     1
 90
        1
176
     1
 90
        6
176
     1
 90
        2
176
     1
 62
     7
176
     1
 90
        3
176
     1
 90
        0
176
     1
 90
        0
176
     1
290
     0
176
     1
 90
        1
176
     1
 40
0.0
176
     1
 90
        0
176
     1
290
     0
176
     1
290
     1
176
     1
290
     1
176
     1
290
     0
176
     1
290
     0
176
     1
290
     0
176
     1
290
     0
176
     1
290
     0
176
     1
290
     0
176
     1
 90
       50
176
     1
 40
0.0
176
     1
 40
1.0
176
     1
 90
        0
176
     1
 62
    18
420
        0
176
     1
 90
       50
176
     1
 90
        3
176
     1
 62
     5
420
      255
176
     1
290
     0
176
     1
 90
       50
176
     1
 90
       50
176
     1
 90
       50
176
     1
290
     0
176
     1
 90
       50
176
     1
 62
   256
176
     0
 40
1.0
176
     0
 90
        2
176
     1
  1
strokes_ogs.tif
176
     1
290
     0
176
     1
 40
1.0
176
     1
 40
1.0
176
     1
  0
VISUALSTYLE
  5
329
102
{ACAD_REACTORS
330
323
102
}
330
323
100
AcDbVisualStyle
  2
3dWireframe
 70
     5
177
     3
291
     0
 70
    58
 90
        0
176
     1
 90
        2
176
     1
 90
        0
176
     1
 90
        0
176
     1
 40
-0.6
176
     1
 40
-30.0
176
     1
 62
     7
176
     1
 90
        1
176
     1
 90
        4
176
     1
 62
     7
176
     1
 62
   257
176
     1
 90
        1
176
     1
 90
        1
176
     1
 40
1.0
176
     1
 90
        0
176
     1
 62
   257
176
     1
 40
1.0
176
     1
 90
        1
176
     1
 90
        6
176
     1
 90
        2
176
     1
 62
     7
176
     1
 90
        5
176
     1
 90
        0
176
     1
 90
        0
176
     1
290
     0
176
     1
 90
        1
176
     1
 40
0.0
176
     1
 90
        0
176
     1
290
     0
176
     1
290
     1
176
     1
290
     1
176
     1
290
     0
176
     1
290
     0
176
     1
290
     0
176
     1
290
     0
176
     1
290
     0
176
     1
290
     0
176
     1
 90
       50
176
     1
 40
0.0
176
     1
 40
1.0
176
     1
 90
        0
176
     1
 62
    18
420
        0
176
     1
 90
       50
176
     1
 90
        3
176
     1
 62
     5
420
      255
176
     1
290
     0
176
     1
 90
       50
176
     1
 90
       50
176
     1
 90
       50
176
     1
290
     0
176
     1
 90
       50
176
     1
 62
   256
176
     0
 40
1.0
176
     0
 90
        2
176
     1
  1
strokes_ogs.tif
176
     1
290
     0
176
     1
 40
1.0
176
     1
 40
1.0
176
     1
  0
VISUALSTYLE
  5
32B
102
{ACAD_REACTORS
330
323
102
}
330
323
100
AcDbVisualStyle
  2
Basic
 70
     7
177
     3
291
     1
 70
    58
 90
        1
176
     1
 90
        0
176
     1
 90
        1
176
     1
 90
        0
176
     1
 40
-0.6
176
     1
 40
-30.0
176
     1
 62
     7
176
     1
 90
        0
176
     1
 90
        4
176
     1
 62
     7
176
     1
 62
   257
176
     1
 90
        1
176
     1
 90
        1
176
     1
 40
1.0
176
     1
 90
        8
176
     1
 62
     7
176
     1
 40
1.0
176
     1
 90
        1
176
     1
 90
        6
176
     1
 90
        2
176
     1
 62
     7
176
     1
 90
        5
176
     1
 90
        0
176
     1
 90
        0
176
     1
290
     0
176
     1
 90
        1
176
     1
 40
0.0
176
     1
 90
        0
176
     1
290
     0
176
     1
290
     1
176
     1
290
     1
176
     1
290
     0
176
     1
290
     0
176
     1
290
     0
176
     1
290
     0
176
     1
290
     0
176
     1
290
     0
176
     1
 90
       50
176
     1
 40
0.0
176
     1
 40
1.0
176
     1
 90
        0
176
     1
 62
    18
420
        0
176
     1
 90
       50
176
     1
 90
        3
176
     1
 62
     5
420
      255
176
     1
290
     0
176
     1
 90
       50
176
     1
 90
       50
176
     1
 90
       50
176
     1
290
     0
176
     1
 90
       50
176
     1
 62
   256
176
     0
 40
1.0
176
     0
 90
        2
176
     1
  1
strokes_ogs.tif
176
     1
290
     0
176
     1
 40
1.0
176
     1
 40
1.0
176
     1
  0
VISUALSTYLE
  5
32F
102
{ACAD_REACTORS
330
323
102
}
330
323
100
AcDbVisualStyle
  2
Brighten
 70
    12
177
     3
291
     1
 70
    58
 90
        2
176
     1
 90
        2
176
     1
 90
        0
176
     1
 90
        0
176
     1
 40
-0.6
176
     1
 40
-30.0
176
     1
 62
     7
176
     1
 90
        1
176
     1
 90
        4
176
     1
 62
     7
176
     1
 62
   257
176
     1
 90
        1
176
     1
 90
        1
176
     1
 40
1.0
176
     1
 90
        8
176
     1
 62
     7
176
     1
 40
1.0
176
     1
 90
        1
176
     1
 90
        6
176
     1
 90
        2
176
     1
 62
     7
176
     1
 90
        5
176
     1
 90
        0
176
     1
 90
        0
176
     1
290
     0
176
     1
 90
        1
176
     1
 40
50.0
176
     1
 90
        0
176
     1
290
     0
176
     1
290
     1
176
     1
290
     1
176
     1
290
     0
176
     1
290
     0
176
     1
290
     0
176
     1
290
     0
176
     1
290
     0
176
     1
290
     0
176
     1
 90
       50
176
     1
 40
0.0
176
     1
 40
1.0
176
     1
 90
        0
176
     1
 62
    18
420
        0
176
     1
 90
       50
176
     1
 90
        3
176
     1
 62
     5
420
      255
176
     1
290
     0
176
     1
 90
       50
176
     1
 90
       50
176
     1
 90
       50
176
     1
290
     0
176
     1
 90
       50
176
     1
 62
   256
176
     0
 40
1.0
176
     0
 90
        2
176
     1
  1
strokes_ogs.tif
176
     1
290
     0
176
     1
 40
1.0
176
     1
 40
1.0
176
     1
  0
VISUALSTYLE
  5
333
102
{ACAD_REACTORS
330
323
102
}
330
323
100
AcDbVisualStyle
  2
ColorChange
 70
    16
177
     3
291
     1
 70
    58
 90
        2
176
     1
 90
        2
176
     1
 90
        3
176
     1
 90
        0
176
     1
 40
-0.6
176
     1
 40
-30.0
176
     1
 62
     8
176
     1
 90
        1
176
     1
 90
        4
176
     1
 62
     7
176
     1
 62
   257
176
     1
 90
        1
176
     1
 90
        1
176
     1
 40
1.0
176
     1
 90
        8
176
     1
 62
     8
176
     1
 40
1.0
176
     1
 90
        1
176
     1
 90
        6
176
     1
 90
        2
176
     1
 62
     7
176
     1
 90
        5
176
     1
 90
        0
176
     1
 90
        0
176
     1
290
     0
176
     1
 90
        1
176
     1
 40
0.0
176
     1
 90
        0
176
     1
290
     0
176
     1
290
     1
176
     1
290
     1
176
     1
290
     0
176
     1
290
     0
176
     1
290
     0
176
     1
290
     0
176
     1
290
     0
176
     1
290
     0
176
     1
 90
       50
176
     1
 40
0.0
176
     1
 40
1.0
176
     1
 90
        0
176
     1
 62
    18
420
        0
176
     1
 90
       50
176
     1
 90
        3
176
     1
 62
     5
420
      255
176
     1
290
     0
176
     1
 90
       50
176
     1
 90
       50
176
     1
 90
       50
176
     1
290
     0
176
     1
 90
       50
176
     1
 62
   256
176
     0
 40
1.0
176
     0
 90
        2
176
     1
  1
strokes_ogs.tif
176
     1
290
     0
176
     1
 40
1.0
176
     1
 40
1.0
176
     1
  0
VISUALSTYLE
  5
32D
102
{ACAD_REACTORS
330
323
102
}
330
323
100
AcDbVisualStyle
  2
Conceptual
 70
     9
177
     3
291
     0
 70
    58
 90
        3
176
     1
 90
        2
176
     1
 90
        0
176
     1
 90
        0
176
     1
 40
-0.6
176
     1
 40
-30.0
176
     1
 62
     7
176
     1
 90
        2
176
     1
 90
        2
176
     1
 62
     7
176
     1
 62
   257
176
     1
 90
        1
176
     1
 90
        1
176
     1
 40
40.0
176
     1
 90
        8
176
     1
 62
     7
176
     1
 40
1.0
176
     1
 90
        1
176
     1
 90
        6
176
     1
 90
        2
176
     1
 62
     7
176
     1
 90
        3
176
     1
 90
        0
176
     1
 90
        0
176
     1
290
     0
176
     1
 90
        1
176
     1
 40
0.0
176
     1
 90
        0
176
     1
290
     0
176
     1
290
     1
176
     1
290
     1
176
     1
290
     0
176
     1
290
     0
176
     1
290
     0
176
     1
290
     0
176
     1
290
     0
176
     1
290
     0
176
     1
 90
       50
176
     1
 40
0.0
176
     1
 40
1.0
176
     1
 90
        0
176
     1
 62
    18
420
        0
176
     1
 90
       50
176
     1
 90
        3
176
     1
 62
     5
420
      255
176
     1
290
     0
176
     1
 90
       50
176
     1
 90
       50
176
     1
 90
       50
176
     1
290
     0
176
     1
 90
       50
176
     1
 62
   256
176
     0
 40
1.0
176
     0
 90
        2
176
     1
  1
strokes_ogs.tif
176
     1
290
     0
176
     1
 40
1.0
176
     1
 40
1.0
176
     1
  0
VISUALSTYLE
  5
32E
102
{ACAD_REACTORS
330
323
102
}
330
323
100
AcDbVisualStyle
  2
Dim
 70
    11
177
     3
291
     1
 70
    58
 90
        2
176
     1
 90
        2
176
     1
 90
        0
176
     1
 90
        0
176
     1
 40
-0.6
176
     1
 40
-30.0
176
     1
 62
     7
176
     1
 90
        1
176
     1
 90
        4
176
     1
 62
     7
176
     1
 62
   257
176
     1
 90
        1
176
     1
 90
        1
176
     1
 40
1.0
176
     1
 90
        8
176
     1
 62
     7
176
     1
 40
1.0
176
     1
 90
        1
176
     1
 90
        6
176
     1
 90
        2
176
     1
 62
     7
176
     1
 90
        5
176
     1
 90
        0
176
     1
 90
        0
176
     1
290
     0
176
     1
 90
        1
176
     1
 40
-50.0
176
     1
 90
        0
176
     1
290
     0
176
     1
290
     1
176
     1
290
     1
176
     1
290
     0
176
     1
290
     0
176
     1
290
     0
176
     1
290
     0
176
     1
290
     0
176
     1
290
     0
176
     1
 90
       50
176
     1
 40
0.0
176
     1
 40
1.0
176
     1
 90
        0
176
     1
 62
    18
420
        0
176
     1
 90
       50
176
     1
 90
        3
176
     1
 62
     5
420
      255
176
     1
290
     0
176
     1
 90
       50
176
     1
 90
       50
176
     1
 90
       50
176
     1
290
     0
176
     1
 90
       50
176
     1
 62
   256
176
     0
 40
1.0
176
     0
 90
        2
176
     1
  1
strokes_ogs.tif
176
     1
290
     0
176
     1
 40
1.0
176
     1
 40
1.0
176
     1
  0
VISUALSTYLE
  5
383
102
{ACAD_REACTORS
330
323
102
}
330
323
100
AcDbVisualStyle
  2
EdgeColorOff
 70
    22
177
     3
291
     1
 70
    58
 90
        2
176
     0
 90
        2
176
     0
 90
        0
176
     0
 90
        0
176
     0
 40
0.6
176
     0
 40
30.0
176
     0
 62
     7
420
 16777215
176
     0
 90
        1
176
     0
 90
        4
176
     0
 62
     7
176
     0
 62
   257
176
     0
 90
        1
176
     0
 90
        1
176
     0
 40
1.0
176
     0
 90
        8
176
     2
 62
     7
176
     0
 40
1.0
176
     0
 90
        1
176
     0
 90
        6
176
     0
 90
        2
176
     0
 62
     7
176
     0
 90
        5
176
     0
 90
        0
176
     0
 90
        0
176
     0
290
     0
176
     0
 90
        1
176
     0
 40
0.0
176
     0
 90
        0
176
     0
290
     0
176
     0
290
     1
176
     0
290
     1
176
     0
290
     0
176
     0
290
     0
176
     0
290
     0
176
     0
290
     0
176
     0
290
     0
176
     0
290
     0
176
     0
 90
       50
176
     0
 40
0.0
176
     0
 40
1.0
176
     0
 90
        0
176
     0
 62
    18
420
        0
176
     0
 90
       50
176
     0
 90
        3
176
     0
 62
     5
420
      255
176
     0
290
     0
176
     0
 90
       50
176
     0
 90
       50
176
     0
 90
       50
176
     0
290
     0
176
     0
 90
       50
176
     0
 62
   256
176
     0
 40
1.0
176
     0
 90
        2
176
     0
  1
strokes_ogs.tif
176
     0
290
     0
176
     0
 40
1.0
176
     0
 40
1.0
176
     0
  0
VISUALSTYLE
  5
332
102
{ACAD_REACTORS
330
323
102
}
330
323
100
AcDbVisualStyle
  2
Facepattern
 70
    15
177
     3
291
     1
 70
    58
 90
        2
176
     1
 90
        2
176
     1
 90
        0
176
     1
 90
        0
176
     1
 40
-0.6
176
     1
 40
-30.0
176
     1
 62
     7
176
     1
 90
        1
176
     1
 90
        4
176
     1
 62
     7
176
     1
 62
   257
176
     1
 90
        1
176
     1
 90
        1
176
     1
 40
1.0
176
     1
 90
        8
176
     1
 62
     7
176
     1
 40
1.0
176
     1
 90
        1
176
     1
 90
        6
176
     1
 90
        2
176
     1
 62
     7
176
     1
 90
        5
176
     1
 90
        0
176
     1
 90
        0
176
     1
290
     0
176
     1
 90
        1
176
     1
 40
0.0
176
     1
 90
        0
176
     1
290
     0
176
     1
290
     1
176
     1
290
     1
176
     1
290
     0
176
     1
290
     0
176
     1
290
     0
176
     1
290
     0
176
     1
290
     0
176
     1
290
     0
176
     1
 90
       50
176
     1
 40
0.0
176
     1
 40
1.0
176
     1
 90
        0
176
     1
 62
    18
420
        0
176
     1
 90
       50
176
     1
 90
        3
176
     1
 62
     5
420
      255
176
     1
290
     0
176
     1
 90
       50
176
     1
 90
       50
176
     1
 90
       50
176
     1
290
     0
176
     1
 90
       50
176
     1
 62
   256
176
     0
 40
1.0
176
     0
 90
        2
176
     1
  1
strokes_ogs.tif
176
     1
290
     0
176
     1
 40
1.0
176
     1
 40
1.0
176
     1
  0
VISUALSTYLE
  5
324
102
{ACAD_REACTORS
330
323
102
}
330
323
100
AcDbVisualStyle
  2
Flat
 70
     0
177
     3
291
     1
 70
    58
 90
        2
176
     1
 90
        1
176
     1
 90
        1
176
     1
 90
        2
176
     1
 40
-0.6
176
     1
 40
30.0
176
     1
 62
     7
176
     1
 90
        0
176
     1
 90
        4
176
     1
 62
     7
176
     1
 62
   257
176
     1
 90
        1
176
     1
 90
        1
176
     1
 40
1.0
176
     1
 90
        8
176
     1
 62
     7
176
     1
 40
1.0
176
     1
 90
        1
176
     1
 90
        6
176
     1
 90
        2
176
     1
 62
     7
176
     1
 90
        5
176
     1
 90
        0
176
     1
 90
        0
176
     1
290
     0
176
     1
 90
       13
176
     1
 40
0.0
176
     1
 90
        0
176
     1
290
     0
176
     1
290
     1
176
     1
290
     1
176
     1
290
     0
176
     1
290
     0
176
     1
290
     0
176
     1
290
     0
176
     1
290
     0
176
     1
290
     0
176
     1
 90
       50
176
     1
 40
0.0
176
     1
 40
1.0
176
     1
 90
        0
176
     1
 62
    18
420
        0
176
     1
 90
       50
176
     1
 90
        3
176
     1
 62
     5
420
      255
176
     1
290
     0
176
     1
 90
       50
176
     1
 90
       50
176
     1
 90
       50
176
     1
290
     0
176
     1
 90
       50
176
     1
 62
   256
176
     0
 40
1.0
176
     0
 90
        2
176
     1
  1
strokes_ogs.tif
176
     1
290
     0
176
     1
 40
1.0
176
     1
 40
1.0
176
     1
  0
VISUALSTYLE
  5
325
102
{ACAD_REACTORS
330
323
102
}
330
323
100
AcDbVisualStyle
  2
FlatWithEdges
 70
     1
177
     3
291
     1
 70
    58
 90
        2
176
     1
 90
        1
176
     1
 90
        1
176
     1
 90
        2
176
     1
 40
-0.6
176
     1
 40
30.0
176
     1
 62
     7
176
     1
 90
        1
176
     1
 90
        4
176
     1
 62
     7
176
     1
 62
   257
176
     1
 90
        1
176
     1
 90
        1
176
     1
 40
1.0
176
     1
 90
        0
176
     1
 62
   257
176
     1
 40
1.0
176
     1
 90
        1
176
     1
 90
        6
176
     1
 90
        2
176
     1
 62
     7
176
     1
 90
        5
176
     1
 90
        0
176
     1
 90
        0
176
     1
290
     0
176
     1
 90
       13
176
     1
 40
0.0
176
     1
 90
        0
176
     1
290
     0
176
     1
290
     1
176
     1
290
     1
176
     1
290
     0
176
     1
290
     0
176
     1
290
     0
176
     1
290
     0
176
     1
290
     0
176
     1
290
     0
176
     1
 90
       50
176
     1
 40
0.0
176
     1
 40
1.0
176
     1
 90
        0
176
     1
 62
    18
420
        0
176
     1
 90
       50
176
     1
 90
        3
176
     1
 62
     5
420
      255
176
     1
290
     0
176
     1
 90
       50
176
     1
 90
       50
176
     1
 90
       50
176
     1
290
     0
176
     1
 90
       50
176
     1
 62
   256
176
     0
 40
1.0
176
     0
 90
        2
176
     1
  1
strokes_ogs.tif
176
     1
290
     0
176
     1
 40
1.0
176
     1
 40
1.0
176
     1
  0
VISUALSTYLE
  5
326
102
{ACAD_REACTORS
330
323
102
}
330
323
100
AcDbVisualStyle
  2
Gouraud
 70
     2
177
     3
291
     1
 70
    58
 90
        2
176
     1
 90
        2
176
     1
 90
        1
176
     1
 90
        2
176
     1
 40
-0.6
176
     1
 40
30.0
176
     1
 62
     7
176
     1
 90
        0
176
     1
 90
        4
176
     1
 62
     7
176
     1
 62
   257
176
     1
 90
        1
176
     1
 90
        1
176
     1
 40
1.0
176
     1
 90
        0
176
     1
 62
     7
176
     1
 40
1.0
176
     1
 90
        1
176
     1
 90
        6
176
     1
 90
        2
176
     1
 62
     7
176
     1
 90
        5
176
     1
 90
        0
176
     1
 90
        0
176
     1
290
     0
176
     1
 90
       13
176
     1
 40
0.0
176
     1
 90
        0
176
     1
290
     0
176
     1
290
     1
176
     1
290
     1
176
     1
290
     0
176
     1
290
     0
176
     1
290
     0
176
     1
290
     0
176
     1
290
     0
176
     1
290
     0
176
     1
 90
       50
176
     1
 40
0.0
176
     1
 40
1.0
176
     1
 90
        0
176
     1
 62
    18
420
        0
176
     1
 90
       50
176
     1
 90
        3
176
     1
 62
     5
420
      255
176
     1
290
     0
176
     1
 90
       50
176
     1
 90
       50
176
     1
 90
       50
176
     1
290
     0
176
     1
 90
       50
176
     1
 62
   256
176
     0
 40
1.0
176
     0
 90
        2
176
     1
  1
strokes_ogs.tif
176
     1
290
     0
176
     1
 40
1.0
176
     1
 40
1.0
176
     1
  0
VISUALSTYLE
  5
327
102
{ACAD_REACTORS
330
323
102
}
330
323
100
AcDbVisualStyle
  2
GouraudWithEdges
 70
     3
177
     3
291
     1
 70
    58
 90
        2
176
     1
 90
        2
176
     1
 90
        1
176
     1
 90
        2
176
     1
 40
-0.6
176
     1
 40
30.0
176
     1
 62
     7
176
     1
 90
        1
176
     1
 90
        4
176
     1
 62
     7
176
     1
 62
   257
176
     1
 90
        1
176
     1
 90
        1
176
     1
 40
1.0
176
     1
 90
        0
176
     1
 62
   257
176
     1
 40
1.0
176
     1
 90
        1
176
     1
 90
        6
176
     1
 90
        2
176
     1
 62
     7
176
     1
 90
        5
176
     1
 90
        0
176
     1
 90
        0
176
     1
290
     0
176
     1
 90
       13
176
     1
 40
0.0
176
     1
 90
        0
176
     1
290
     0
176
     1
290
     1
176
     1
290
     1
176
     1
290
     0
176
     1
290
     0
176
     1
290
     0
176
     1
290
     0
176
     1
290
     0
176
     1
290
     0
176
     1
 90
       50
176
     1
 40
0.0
176
     1
 40
1.0
176
     1
 90
        0
176
     1
 62
    18
420
        0
176
     1
 90
       50
176
     1
 90
        3
176
     1
 62
     5
420
      255
176
     1
290
     0
176
     1
 90
       50
176
     1
 90
       50
176
     1
 90
       50
176
     1
290
     0
176
     1
 90
       50
176
     1
 62
   256
176
     0
 40
1.0
176
     0
 90
        2
176
     1
  1
strokes_ogs.tif
176
     1
290
     0
176
     1
 40
1.0
176
     1
 40
1.0
176
     1
  0
VISUALSTYLE
  5
380
102
{ACAD_REACTORS
330
323
102
}
330
323
100
AcDbVisualStyle
  2
Hidden
 70
     6
177
     3
291
     0
 70
    58
 90
        1
176
     1
 90
        2
176
     1
 90
        2
176
     1
 90
        0
176
     1
 40
0.6
176
     1
 40
30.0
176
     1
 62
     7
420
 16777215
176
     1
 90
        2
176
     1
 90
        2
176
     1
 62
     7
176
     1
 62
   257
176
     1
 90
        2
176
     1
 90
        1
176
     1
 40
40.0
176
     1
 90
        0
176
     1
 62
   257
176
     1
 40
1.0
176
     1
 90
        1
176
     1
 90
        6
176
     1
 90
        2
176
     1
 62
     7
176
     1
 90
        3
176
     1
 90
        0
176
     1
 90
        0
176
     1
290
     0
176
     1
 90
        1
176
     1
 40
0.0
176
     1
 90
        0
176
     1
290
     0
176
     1
290
     1
176
     1
290
     1
176
     1
290
     0
176
     1
290
     0
176
     1
290
     0
176
     1
290
     0
176
     1
290
     0
176
     1
290
     0
176
     1
 90
       50
176
     1
 40
0.0
176
     1
 40
1.0
176
     1
 90
        0
176
     1
 62
    18
420
        0
176
     1
 90
       50
176
     1
 90
        3
176
     1
 62
     5
420
      255
176
     1
290
     0
176
     1
 90
       50
176
     1
 90
       50
176
     1
 90
       50
176
     1
290
     0
176
     1
 90
       50
176
     1
 62
   256
176
     0
 40
1.0
176
     0
 90
        2
176
     1
  1
strokes_ogs.tif
176
     1
290
     0
176
     1
 40
1.0
176
     1
 40
1.0
176
     1
  0
VISUALSTYLE
  5
381
102
{ACAD_REACTORS
330
323
102
}
330
323
100
AcDbVisualStyle
  2
JitterOff
 70
    20
177
     3
291
     1
 70
    58
 90
        2
176
     0
 90
        2
176
     0
 90
        0
176
     0
 90
        0
176
     0
 40
0.6
176
     0
 40
30.0
176
     0
 62
     7
420
 16777215
176
     0
 90
        1
176
     0
 90
        4
176
     0
 62
     7
176
     0
 62
   257
176
     0
 90
        1
176
     0
 90
        1
176
     0
 40
1.0
176
     0
 90
       10
176
     2
 62
     7
176
     0
 40
1.0
176
     0
 90
        1
176
     0
 90
        6
176
     0
 90
        2
176
     0
 62
     7
176
     0
 90
        5
176
     0
 90
        0
176
     0
 90
        0
176
     0
290
     0
176
     0
 90
        1
176
     0
 40
0.0
176
     0
 90
        0
176
     0
290
     0
176
     0
290
     1
176
     0
290
     1
176
     0
290
     0
176
     0
290
     0
176
     0
290
     0
176
     0
290
     0
176
     0
290
     0
176
     0
290
     0
176
     0
 90
       50
176
     0
 40
0.0
176
     0
 40
1.0
176
     0
 90
        0
176
     0
 62
    18
420
        0
176
     0
 90
       50
176
     0
 90
        3
176
     0
 62
     5
420
      255
176
     0
290
     0
176
     0
 90
       50
176
     0
 90
       50
176
     0
 90
       50
176
     0
290
     0
176
     0
 90
       50
176
     0
 62
   256
176
     0
 40
1.0
176
     0
 90
        2
176
     0
  1
strokes_ogs.tif
176
     0
290
     0
176
     0
 40
1.0
176
     0
 40
1.0
176
     0
  0
VISUALSTYLE
  5
331
102
{ACAD_REACTORS
330
323
102
}
330
323
100
AcDbVisualStyle
  2
Linepattern
 70
    14
177
     3
291
     1
 70
    58
 90
        2
176
     1
 90
        2
176
     1
 90
        0
176
     1
 90
        0
176
     1
 40
-0.6
176
     1
 40
-30.0
176
     1
 62
     7
176
     1
 90
        1
176
     1
 90
        4
176
     1
 62
     7
176
     1
 62
   257
176
     1
 90
        7
176
     1
 90
        7
176
     1
 40
1.0
176
     1
 90
        8
176
     1
 62
     7
176
     1
 40
1.0
176
     1
 90
        1
176
     1
 90
        6
176
     1
 90
        2
176
     1
 62
     7
176
     1
 90
        5
176
     1
 90
        0
176
     1
 90
        0
176
     1
290
     0
176
     1
 90
        1
176
     1
 40
0.0
176
     1
 90
        0
176
     1
290
     0
176
     1
290
     1
176
     1
290
     1
176
     1
290
     0
176
     1
290
     0
176
     1
290
     0
176
     1
290
     0
176
     1
290
     0
176
     1
290
     0
176
     1
 90
       50
176
     1
 40
0.0
176
     1
 40
1.0
176
     1
 90
        0
176
     1
 62
    18
420
        0
176
     1
 90
       50
176
     1
 90
        3
176
     1
 62
     5
420
      255
176
     1
290
     0
176
     1
 90
       50
176
     1
 90
       50
176
     1
 90
       50
176
     1
290
     0
176
     1
 90
       50
176
     1
 62
   256
176
     0
 40
1.0
176
     0
 90
        2
176
     1
  1
strokes_ogs.tif
176
     1
290
     0
176
     1
 40
1.0
176
     1
 40
1.0
176
     1
  0
VISUALSTYLE
  5
382
102
{ACAD_REACTORS
330
323
102
}
330
323
100
AcDbVisualStyle
  2
OverhangOff
 70
    21
177
     3
291
     1
 70
    58
 90
        2
176
     0
 90
        2
176
     0
 90
        0
176
     0
 90
        0
176
     0
 40
0.6
176
     0
 40
30.0
176
     0
 62
     7
420
 16777215
176
     0
 90
        1
176
     0
 90
        4
176
     0
 62
     7
176
     0
 62
   257
176
     0
 90
        1
176
     0
 90
        1
176
     0
 40
1.0
176
     0
 90
        9
176
     2
 62
     7
176
     0
 40
1.0
176
     0
 90
        1
176
     0
 90
        6
176
     0
 90
        2
176
     0
 62
     7
176
     0
 90
        5
176
     0
 90
        0
176
     0
 90
        0
176
     0
290
     0
176
     0
 90
        1
176
     0
 40
0.0
176
     0
 90
        0
176
     0
290
     0
176
     0
290
     1
176
     0
290
     1
176
     0
290
     0
176
     0
290
     0
176
     0
290
     0
176
     0
290
     0
176
     0
290
     0
176
     0
290
     0
176
     0
 90
       50
176
     0
 40
0.0
176
     0
 40
1.0
176
     0
 90
        0
176
     0
 62
    18
420
        0
176
     0
 90
       50
176
     0
 90
        3
176
     0
 62
     5
420
      255
176
     0
290
     0
176
     0
 90
       50
176
     0
 90
       50
176
     0
 90
       50
176
     0
290
     0
176
     0
 90
       50
176
     0
 62
   256
176
     0
 40
1.0
176
     0
 90
        2
176
     0
  1
strokes_ogs.tif
176
     0
290
     0
176
     0
 40
1.0
176
     0
 40
1.0
176
     0
  0
VISUALSTYLE
  5
32C
102
{ACAD_REACTORS
330
323
102
}
330
323
100
AcDbVisualStyle
  2
Realistic
 70
     8
177
     3
291
     0
 70
    58
 90
        2
176
     1
 90
        2
176
     1
 90
        0
176
     1
 90
        0
176
     1
 40
-0.6
176
     1
 40
-30.0
176
     1
 62
     7
176
     1
 90
        1
176
     1
 90
        0
176
     1
 62
     7
176
     1
 62
   257
176
     1
 90
        1
176
     1
 90
        1
176
     1
 40
1.0
176
     1
 90
        8
176
     1
 62
     8
176
     1
 40
1.0
176
     1
 90
        1
176
     1
 90
        6
176
     1
 90
        2
176
     1
 62
     7
176
     1
 90
        5
176
     1
 90
        0
176
     1
 90
        0
176
     1
290
     0
176
     1
 90
       13
176
     1
 40
0.0
176
     1
 90
        0
176
     1
290
     0
176
     1
290
     1
176
     1
290
     1
176
     1
290
     0
176
     1
290
     0
176
     1
290
     0
176
     1
290
     0
176
     1
290
     0
176
     1
290
     0
176
     1
 90
       50
176
     1
 40
0.0
176
     1
 40
1.0
176
     1
 90
        0
176
     1
 62
    18
420
        0
176
     1
 90
       50
176
     1
 90
        3
176
     1
 62
     5
420
      255
176
     1
290
     0
176
     1
 90
       50
176
     1
 90
       50
176
     1
 90
       50
176
     1
290
     0
176
     1
 90
       50
176
     1
 62
   256
176
     0
 40
1.0
176
     0
 90
        2
176
     1
  1
strokes_ogs.tif
176
     1
290
     0
176
     1
 40
1.0
176
     1
 40
1.0
176
     1
  0
VISUALSTYLE
  5
388
102
{ACAD_REACTORS
330
323
102
}
330
323
100
AcDbVisualStyle
  2
Shaded
 70
    27
177
     3
291
     0
 70
    58
 90
        2
176
     1
 90
        2
176
     1
 90
        1
176
     1
 90
        2
176
     1
 40
0.6
176
     1
 40
30.0
176
     1
 62
     7
420
 16777215
176
     1
 90
        0
176
     1
 90
        4
176
     1
 62
     7
176
     1
 62
   257
176
     1
 90
        1
176
     1
 90
        1
176
     1
 40
1.0
176
     1
 90
        8
176
     1
 62
   257
176
     1
 40
1.0
176
     1
 90
        1
176
     1
 90
        6
176
     1
 90
        2
176
     1
 62
     8
420
  7895160
176
     1
 90
        3
176
     1
 90
        0
176
     1
 90
        0
176
     1
290
     0
176
     1
 90
        5
176
     1
 40
0.0
176
     1
 90
        0
176
     1
290
     0
176
     1
290
     1
176
     1
290
     1
176
     1
290
     0
176
     1
290
     0
176
     1
290
     0
176
     1
290
     0
176
     1
290
     0
176
     1
290
     0
176
     1
 90
       50
176
     1
 40
0.0
176
     1
 40
1.0
176
     1
 90
        0
176
     1
 62
    18
420
        0
176
     1
 90
       50
176
     1
 90
        3
176
     1
 62
     5
420
      255
176
     1
290
     0
176
     1
 90
       50
176
     1
 90
       50
176
     1
 90
       50
176
     1
290
     0
176
     1
 90
       50
176
     1
 62
   256
176
     0
 40
1.0
176
     0
 90
        2
176
     1
  1
strokes_ogs.tif
176
     1
290
     0
176
     1
 40
1.0
176
     1
 40
1.0
176
     1
  0
VISUALSTYLE
  5
387
102
{ACAD_REACTORS
330
323
102
}
330
323
100
AcDbVisualStyle
  2
Shaded with edges
 70
    26
177
     3
291
     0
 70
    58
 90
        2
176
     1
 90
        2
176
     1
 90
        1
176
     1
 90
        2
176
     1
 40
0.6
176
     1
 40
30.0
176
     1
 62
     7
420
 16777215
176
     1
 90
        1
176
     1
 90
       10
176
     1
 62
     7
176
     1
 62
   257
176
     1
 90
        2
176
     1
 90
        1
176
     1
 40
1.0
176
     1
 90
        8
176
     1
 62
   257
176
     1
 40
1.0
176
     1
 90
        1
176
     1
 90
        6
176
     1
 90
        2
176
     1
 62
     7
176
     1
 90
        3
176
     1
 90
        0
176
     1
 90
        0
176
     1
290
     0
176
     1
 90
        5
176
     1
 40
0.0
176
     1
 90
        0
176
     1
290
     0
176
     1
290
     1
176
     1
290
     1
176
     1
290
     0
176
     1
290
     0
176
     1
290
     0
176
     1
290
     0
176
     1
290
     0
176
     1
290
     0
176
     1
 90
       50
176
     1
 40
0.0
176
     1
 40
1.0
176
     1
 90
        0
176
     1
 62
    18
420
        0
176
     1
 90
       50
176
     1
 90
        3
176
     1
 62
     5
420
      255
176
     1
290
     0
176
     1
 90
       50
176
     1
 90
       50
176
     1
 90
       50
176
     1
290
     0
176
     1
 90
       50
176
     1
 62
   256
176
     0
 40
1.0
176
     0
 90
        2
176
     1
  1
strokes_ogs.tif
176
     1
290
     0
176
     1
 40
1.0
176
     1
 40
1.0
176
     1
  0
VISUALSTYLE
  5
384
102
{ACAD_REACTORS
330
323
102
}
330
323
100
AcDbVisualStyle
  2
Shades of Gray
 70
    23
177
     3
291
     0
 70
    58
 90
        2
176
     1
 90
        2
176
     1
 90
        3
176
     1
 90
        0
176
     1
 40
0.6
176
     1
 40
30.0
176
     1
 62
     7
420
 16777215
176
     1
 90
        2
176
     1
 90
        2
176
     1
 62
     7
176
     1
 62
     7
176
     1
 90
        1
176
     1
 90
        1
176
     1
 40
40.0
176
     1
 90
        8
176
     1
 62
     7
176
     1
 40
1.0
176
     1
 90
        1
176
     1
 90
        6
176
     1
 90
        2
176
     1
 62
     7
176
     1
 90
        3
176
     1
 90
        0
176
     1
 90
        0
176
     1
290
     0
176
     1
 90
        1
176
     1
 40
0.0
176
     1
 90
        0
176
     1
290
     0
176
     1
290
     1
176
     1
290
     1
176
     1
290
     0
176
     1
290
     0
176
     1
290
     0
176
     1
290
     0
176
     1
290
     0
176
     1
290
     0
176
     1
 90
       50
176
     1
 40
0.0
176
     1
 40
1.0
176
     1
 90
        0
176
     1
 62
    18
420
        0
176
     1
 90
       50
176
     1
 90
        3
176
     1
 62
     5
420
      255
176
     1
290
     0
176
     1
 90
       50
176
     1
 90
       50
176
     1
 90
       50
176
     1
290
     0
176
     1
 90
       50
176
     1
 62
   256
176
     0
 40
1.0
176
     0
 90
        2
176
     1
  1
strokes_ogs.tif
176
     1
290
     0
176
     1
 40
1.0
176
     1
 40
1.0
176
     1
  0
VISUALSTYLE
  5
385
102
{ACAD_REACTORS
330
323
102
}
330
323
100
AcDbVisualStyle
  2
Sketchy
 70
    24
177
     3
291
     0
 70
    58
 90
        1
176
     1
 90
        2
176
     1
 90
        2
176
     1
 90
        0
176
     1
 40
0.6
176
     1
 40
30.0
176
     1
 62
     7
420
 16777215
176
     1
 90
        2
176
     1
 90
        2
176
     1
 62
     7
176
     1
 62
     7
176
     1
 90
        1
176
     1
 90
        1
176
     1
 40
40.0
176
     1
 90
       11
176
     1
 62
     7
176
     1
 40
1.0
176
     1
 90
        1
176
     1
 90
        6
176
     1
 90
        2
176
     1
 62
     7
176
     1
 90
        6
176
     1
 90
        0
176
     1
 90
        0
176
     1
290
     0
176
     1
 90
        1
176
     1
 40
0.0
176
     1
 90
        0
176
     1
290
     0
176
     1
290
     1
176
     1
290
     1
176
     1
290
     0
176
     1
290
     0
176
     1
290
     0
176
     1
290
     0
176
     1
290
     0
176
     1
290
     0
176
     1
 90
       50
176
     1
 40
0.0
176
     1
 40
1.0
176
     1
 90
        0
176
     1
 62
    18
420
        0
176
     1
 90
       50
176
     1
 90
        3
176
     1
 62
     5
420
      255
176
     1
290
     0
176
     1
 90
       50
176
     1
 90
       50
176
     1
 90
       50
176
     1
290
     0
176
     1
 90
       50
176
     1
 62
   256
176
     0
 40
1.0
176
     0
 90
        2
176
     1
  1
strokes_ogs.tif
176
     1
290
     0
176
     1
 40
1.0
176
     1
 40
1.0
176
     1
  0
VISUALSTYLE
  5
330
102
{ACAD_REACTORS
330
323
102
}
330
323
100
AcDbVisualStyle
  2
Thicken
 70
    13
177
     3
291
     1
 70
    58
 90
        2
176
     1
 90
        2
176
     1
 90
        0
176
     1
 90
        0
176
     1
 40
-0.6
176
     1
 40
-30.0
176
     1
 62
     7
176
     1
 90
        1
176
     1
 90
        4
176
     1
 62
     7
176
     1
 62
   257
176
     1
 90
        1
176
     1
 90
        1
176
     1
 40
1.0
176
     1
 90
       12
176
     1
 62
     7
176
     1
 40
1.0
176
     1
 90
        1
176
     1
 90
        6
176
     1
 90
        2
176
     1
 62
     7
176
     1
 90
        5
176
     1
 90
        0
176
     1
 90
        0
176
     1
290
     0
176
     1
 90
        1
176
     1
 40
0.0
176
     1
 90
        0
176
     1
290
     0
176
     1
290
     1
176
     1
290
     1
176
     1
290
     0
176
     1
290
     0
176
     1
290
     0
176
     1
290
     0
176
     1
290
     0
176
     1
290
     0
176
     1
 90
       50
176
     1
 40
0.0
176
     1
 40
1.0
176
     1
 90
        0
176
     1
 62
    18
420
        0
176
     1
 90
       50
176
     1
 90
        3
176
     1
 62
     5
420
      255
176
     1
290
     0
176
     1
 90
       50
176
     1
 90
       50
176
     1
 90
       50
176
     1
290
     0
176
     1
 90
       50
176
     1
 62
   256
176
     0
 40
1.0
176
     0
 90
        2
176
     1
  1
strokes_ogs.tif
176
     1
290
     0
176
     1
 40
1.0
176
     1
 40
1.0
176
     1
  0
VISUALSTYLE
  5
37F
102
{ACAD_REACTORS
330
323
102
}
330
323
100
AcDbVisualStyle
  2
Wireframe
 70
     5
177
     3
291
     0
 70
    58
 90
        0
176
     1
 90
        2
176
     1
 90
        0
176
     1
 90
        0
176
     1
 40
0.6
176
     1
 40
30.0
176
     1
 62
     7
420
 16777215
176
     1
 90
        1
176
     1
 90
        4
176
     1
 62
     7
176
     1
 62
   257
176
     1
 90
        1
176
     1
 90
        1
176
     1
 40
1.0
176
     1
 90
        0
176
     1
 62
   257
176
     1
 40
1.0
176
     1
 90
        1
176
     1
 90
        6
176
     1
 90
        2
176
     1
 62
     7
176
     1
 90
        3
176
     1
 90
        0
176
     1
 90
        0
176
     1
290
     0
176
     1
 90
        1
176
     1
 40
0.0
176
     1
 90
        0
176
     1
290
     0
176
     1
290
     1
176
     1
290
     1
176
     1
290
     0
176
     1
290
     0
176
     1
290
     0
176
     1
290
     0
176
     1
290
     0
176
     1
290
     0
176
     1
 90
       50
176
     1
 40
0.0
176
     1
 40
1.0
176
     1
 90
        0
176
     1
 62
    18
420
        0
176
     1
 90
       50
176
     1
 90
        3
176
     1
 62
     5
420
      255
176
     1
290
     0
176
     1
 90
       50
176
     1
 90
       50
176
     1
 90
       50
176
     1
290
     0
176
     1
 90
       50
176
     1
 62
   256
176
     0
 40
1.0
176
     0
 90
        2
176
     1
  1
strokes_ogs.tif
176
     1
290
     0
176
     1
 40
1.0
176
     1
 40
1.0
176
     1
  0
VISUALSTYLE
  5
386
102
{ACAD_REACTORS
330
323
102
}
330
323
100
AcDbVisualStyle
  2
X-Ray
 70
    25
177
     3
291
     0
 70
    58
 90
        2
176
     1
 90
        2
176
     1
 90
        1
176
     1
 90
        1
176
     1
 40
0.5
176
     1
 40
30.0
176
     1
 62
     7
420
 16777215
176
     1
 90
        1
176
     1
 90
        0
176
     1
 62
     7
176
     1
 62
   257
176
     1
 90
        1
176
     1
 90
        1
176
     1
 40
1.0
176
     1
 90
        8
176
     1
 62
     7
176
     1
 40
1.0
176
     1
 90
        1
176
     1
 90
        6
176
     1
 90
        2
176
     1
 62
     7
176
     1
 90
        3
176
     1
 90
        0
176
     1
 90
        0
176
     1
290
     0
176
     1
 90
       13
176
     1
 40
0.0
176
     1
 90
        0
176
     1
290
     0
176
     1
290
     1
176
     1
290
     1
176
     1
290
     0
176
     1
290
     0
176
     1
290
     0
176
     1
290
     0
176
     1
290
     0
176
     1
290
     0
176
     1
 90
       50
176
     1
 40
0.0
176
     1
 40
1.0
176
     1
 90
        0
176
     1
 62
    18
420
        0
176
     1
 90
       50
176
     1
 90
        3
176
     1
 62
     5
420
      255
176
     1
290
     0
176
     1
 90
       50
176
     1
 90
       50
176
     1
 90
       50
176
     1
290
     0
176
     1
 90
       50
176
     1
 62
   256
176
     0
 40
1.0
176
     0
 90
        2
176
     1
  1
strokes_ogs.tif
176
     1
290
     0
176
     1
 40
1.0
176
     1
 40
1.0
176
     1
  0
DICTIONARYVAR
  5
396
102
{ACAD_REACTORS
330
33E
102
}
330
33E
100
DictionaryVariables
280
     0
  1
1:1
  0
DICTIONARYVAR
  5
398
102
{ACAD_REACTORS
330
33E
102
}
330
33E
100
DictionaryVariables
280
     0
  1
Standard
  0
DICTIONARYVAR
  5
397
102
{ACAD_REACTORS
330
33E
102
}
330
33E
100
DictionaryVariables
280
     0
  1
Standard
  0
DICTIONARYVAR
  5
342
102
{ACAD_REACTORS
330
33E
102
}
330
33E
100
DictionaryVariables
280
     0
  1
2
  0
DICTIONARYVAR
  5
343
102
{ACAD_REACTORS
330
33E
102
}
330
33E
100
DictionaryVariables
280
     0
  1
1
  0
DICTIONARYVAR
  5
341
102
{ACAD_REACTORS
330
33E
102
}
330
33E
100
DictionaryVariables
280
     0
  1
0
  0
DICTIONARY
  5
513
330
38A
100
AcDbDictionary
280
     1
281
     1
  3
ACAD_ROUNDTRIP_2008_TABLESTYLE_CELLSTYLEMAP
360
514
  0
CELLSTYLEMAP
  5
514
102
{ACAD_REACTORS
330
513
102
}
330
513
100
AcDbCellStyleMap
 90
        3
300
CELLSTYLE
  1
TABLEFORMAT_BEGIN
 90
        5
170
     1
 91
        0
 92
    32768
 62
   257
 93
        1
300
CONTENTFORMAT
  1
CONTENTFORMAT_BEGIN
 90
        0
 91
        0
 92
        4
 93
        0
300

 40
0.0
140
1.0
 94
        5
 62
     0
340
11
144
0.25
309
CONTENTFORMAT_END
171
     1
301
MARGIN
  1
CELLMARGIN_BEGIN
 40
0.06
 40
0.06
 40
0.06
 40
0.06
 40
0.06
 40
0.06
309
CELLMARGIN_END
 94
        6
 95
        1
302
GRIDFORMAT
  1
GRIDFORMAT_BEGIN
 90
        0
 91
        1
 62
     0
 92
       -2
340
14
 93
        0
 40
0.045
309
GRIDFORMAT_END
 95
        2
302
GRIDFORMAT
  1
GRIDFORMAT_BEGIN
 90
        0
 91
        1
 62
     0
 92
       -2
340
14
 93
        0
 40
0.045
309
GRIDFORMAT_END
 95
        4
302
GRIDFORMAT
  1
GRIDFORMAT_BEGIN
 90
        0
 91
        1
 62
     0
 92
       -2
340
14
 93
        0
 40
0.045
309
GRIDFORMAT_END
 95
        8
302
GRIDFORMAT
  1
GRIDFORMAT_BEGIN
 90
        0
 91
        1
 62
     0
 92
       -2
340
14
 93
        0
 40
0.045
309
GRIDFORMAT_END
 95
       16
302
GRIDFORMAT
  1
GRIDFORMAT_BEGIN
 90
        0
 91
        1
 62
     0
 92
       -2
340
14
 93
        0
 40
0.045
309
GRIDFORMAT_END
 95
       32
302
GRIDFORMAT
  1
GRIDFORMAT_BEGIN
 90
        0
 91
        1
 62
     0
 92
       -2
340
14
 93
        0
 40
0.045
309
GRIDFORMAT_END
309
TABLEFORMAT_END
  1
CELLSTYLE_BEGIN
 90
        1
 91
        1
300
_TITLE
309
CELLSTYLE_END
300
CELLSTYLE
  1
TABLEFORMAT_BEGIN
 90
        5
170
     1
 91
        0
 92
        0
 62
   257
 93
        1
300
CONTENTFORMAT
  1
CONTENTFORMAT_BEGIN
 90
        0
 91
        0
 92
        4
 93
        0
300

 40
0.0
140
1.0
 94
        5
 62
     0
340
11
144
0.18
309
CONTENTFORMAT_END
171
     1
301
MARGIN
  1
CELLMARGIN_BEGIN
 40
0.06
 40
0.06
 40
0.06
 40
0.06
 40
0.06
 40
0.06
309
CELLMARGIN_END
 94
        6
 95
        1
302
GRIDFORMAT
  1
GRIDFORMAT_BEGIN
 90
        0
 91
        1
 62
     0
 92
       -2
340
14
 93
        0
 40
0.045
309
GRIDFORMAT_END
 95
        2
302
GRIDFORMAT
  1
GRIDFORMAT_BEGIN
 90
        0
 91
        1
 62
     0
 92
       -2
340
14
 93
        0
 40
0.045
309
GRIDFORMAT_END
 95
        4
302
GRIDFORMAT
  1
GRIDFORMAT_BEGIN
 90
        0
 91
        1
 62
     0
 92
       -2
340
14
 93
        0
 40
0.045
309
GRIDFORMAT_END
 95
        8
302
GRIDFORMAT
  1
GRIDFORMAT_BEGIN
 90
        0
 91
        1
 62
     0
 92
       -2
340
14
 93
        0
 40
0.045
309
GRIDFORMAT_END
 95
       16
302
GRIDFORMAT
  1
GRIDFORMAT_BEGIN
 90
        0
 91
        1
 62
     0
 92
       -2
340
14
 93
        0
 40
0.045
309
GRIDFORMAT_END
 95
       32
302
GRIDFORMAT
  1
GRIDFORMAT_BEGIN
 90
        0
 91
        1
 62
     0
 92
       -2
340
14
 93
        0
 40
0.045
309
GRIDFORMAT_END
309
TABLEFORMAT_END
  1
CELLSTYLE_BEGIN
 90
        2
 91
        1
300
_HEADER
309
CELLSTYLE_END
300
CELLSTYLE
  1
TABLEFORMAT_BEGIN
 90
        5
170
     1
 91
        0
 92
        0
 62
   257
 93
        1
300
CONTENTFORMAT
  1
CONTENTFORMAT_BEGIN
 90
        0
 91
        0
 92
        4
 93
        0
300

 40
0.0
140
1.0
 94
        2
 62
     0
340
11
144
0.18
309
CONTENTFORMAT_END
171
     1
301
MARGIN
  1
CELLMARGIN_BEGIN
 40
0.06
 40
0.06
 40
0.06
 40
0.06
 40
0.06
 40
0.06
309
CELLMARGIN_END
 94
        6
 95
        1
302
GRIDFORMAT
  1
GRIDFORMAT_BEGIN
 90
        0
 91
        1
 62
     0
 92
       -2
340
14
 93
        0
 40
0.045
309
GRIDFORMAT_END
 95
        2
302
GRIDFORMAT
  1
GRIDFORMAT_BEGIN
 90
        0
 91
        1
 62
     0
 92
       -2
340
14
 93
        0
 40
0.045
309
GRIDFORMAT_END
 95
        4
302
GRIDFORMAT
  1
GRIDFORMAT_BEGIN
 90
        0
 91
        1
 62
     0
 92
       -2
340
14
 93
        0
 40
0.045
309
GRIDFORMAT_END
 95
        8
302
GRIDFORMAT
  1
GRIDFORMAT_BEGIN
 90
        0
 91
        1
 62
     0
 92
       -2
340
14
 93
        0
 40
0.045
309
GRIDFORMAT_END
 95
       16
302
GRIDFORMAT
  1
GRIDFORMAT_BEGIN
 90
        0
 91
        1
 62
     0
 92
       -2
340
14
 93
        0
 40
0.045
309
GRIDFORMAT_END
 95
       32
302
GRIDFORMAT
  1
GRIDFORMAT_BEGIN
 90
        0
 91
        1
 62
     0
 92
       -2
340
14
 93
        0
 40
0.045
309
GRIDFORMAT_END
309
TABLEFORMAT_END
  1
CELLSTYLE_BEGIN
 90
        3
 91
        2
300
_DATA
309
CELLSTYLE_END
  0
ENDSEC
  0
EOF
