  0
SECTION
  2
HEADER
  9
$ACADVER
  1
AC1015
  9
$ACADMAINTVER
 70
     6
  9
$DWGCODEPAGE
  3
ANSI_1252
  9
$INSBASE
 10
0.0
 20
0.0
 30
0.0
  9
$EXTMIN
 10
0.0
 20
0.0
 30
0.0
  9
$EXTMAX
 10
420.0
 20
297.0
 30
0.0
  9
$LIMMIN
 10
0.0
 20
0.0
  9
$LIMMAX
 10
420.0
 20
297.0
  9
$ORTHOMODE
 70
     0
  9
$REGENMODE
 70
     1
  9
$FILLMODE
 70
     1
  9
$QTEXTMODE
 70
     0
  9
$MIRRTEXT
 70
     1
  9
$LTSCALE
 40
1.0
  9
$ATTMODE
 70
     1
  9
$TEXTSIZE
 40
3.5
  9
$TRACEWID
 40
1.0
  9
$TEXTSTYLE
  7
STANDARD
  9
$CLAYER
  8
0
  9
$CELTYPE
  6
BYLAYER
  9
$CECOLOR
 62
   256
  9
$CELTSCALE
 40
1.0
  9
$DISPSILH
 70
     0
  9
$DIMSCALE
 40
1.0
  9
$DIMASZ
 40
3.5
  9
$DIMEXO
 40
0.0
  9
$DIMDLI
 40
3.75
  9
$DIMRND
 40
0.0
  9
$DIMDLE
 40
0.0
  9
$DIMEXE
 40
1.0
  9
$DIMTP
 40
0.0
  9
$DIMTM
 40
0.0
  9
$DIMTXT
 40
3.5
  9
$DIMCEN
 40
2.5
  9
$DIMTSZ
 40
0.0
  9
$DIMTOL
 70
     0
  9
$DIMLIM
 70
     0
  9
$DIMTIH
 70
     1
  9
$DIMTOH
 70
     1
  9
$DIMSE1
 70
     0
  9
$DIMSE2
 70
     0
  9
$DIMTAD
 70
     1
  9
$DIMZIN
 70
     0
  9
$DIMBLK
  1

  9
$DIMASO
 70
     1
  9
$DIMSHO
 70
     1
  9
$DIMPOST
  1

  9
$DIMAPOST
  1

  9
$DIMALT
 70
     0
  9
$DIMALTD
 70
     3
  9
$DIMALTF
 40
0.0393700787
  9
$DIMLFAC
 40
1.0
  9
$DIMTOFL
 70
     1
  9
$DIMTVP
 40
0.0
  9
$DIMTIX
 70
     0
  9
$DIMSOXD
 70
     0
  9
$DIMSAH
 70
     0
  9
$DIMBLK1
  1

  9
$DIMBLK2
  1

  9
$DIMSTYLE
  2
ISO-25
  9
$DIMCLRD
 70
     0
  9
$DIMCLRE
 70
     0
  9
$DIMCLRT
 70
     0
  9
$DIMTFAC
 40
1.0
  9
$DIMGAP
 40
1.5
  9
$DIMJUST
 70
     0
  9
$DIMSD1
 70
     0
  9
$DIMSD2
 70
     0
  9
$DIMTOLJ
 70
     0
  9
$DIMTZIN
 70
     0
  9
$DIMALTZ
 70
     0
  9
$DIMALTTZ
 70
     0
  9
$DIMUPT
 70
     0
  9
$DIMDEC
 70
     2
  9
$DIMTDEC
 70
     3
  9
$DIMALTU
 70
     2
  9
$DIMALTTD
 70
     3
  9
$DIMTXSTY
  7
STANDARD
  9
$DIMAUNIT
 70
     0
  9
$DIMADEC
 70
     0
  9
$DIMALTRND
 40
0.0
  9
$DIMAZIN
 70
     0
  9
$DIMDSEP
 70
    46
  9
$DIMATFIT
 70
     3
  9
$DIMFRAC
 70
     0
  9
$DIMLDRBLK
  1

  9
$DIMLUNIT
 70
     2
  9
$DIMLWD
 70
    -2
  9
$DIMLWE
 70
    -2
  9
$DIMTMOVE
 70
     2
  9
$LUNITS
 70
     2
  9
$LUPREC
 70
     2
  9
$SKETCHINC
 40
1.0
  9
$FILLETRAD
 40
10.0
  9
$AUNITS
 70
     0
  9
$AUPREC
 70
     2
  9
$MENU
  1
.
  9
$ELEVATION
 40
0.0
  9
$PELEVATION
 40
0.0
  9
$THICKNESS
 40
0.0
  9
$LIMCHECK
 70
     0
  9
$CHAMFERA
 40
0.0
  9
$CHAMFERB
 40
0.0
  9
$CHAMFERC
 40
0.0
  9
$CHAMFERD
 40
0.0
  9
$SKPOLY
 70
     0
  9
$TDCREATE
 40
2458059.532049213
  9
$TDUCREATE
 40
2458059.44871588
  9
$TDUPDATE
 40
2458327.546871505
  9
$TDUUPDATE
 40
2458327.463538171
  9
$TDINDWG
 40
0.0000000116
  9
$TDUSRTIMER
 40
0.0000000116
  9
$USRTIMER
 70
     1
  9
$ANGBASE
 50
0.0
  9
$ANGDIR
 70
     0
  9
$PDMODE
 70
     0
  9
$PDSIZE
 40
-1.0
  9
$PLINEWID
 40
0.0
  9
$SPLFRAME
 70
     0
  9
$SPLINETYPE
 70
     6
  9
$SPLINESEGS
 70
     8
  9
$HANDSEED
  5
283
  9
$SURFTAB1
 70
     6
  9
$SURFTAB2
 70
     6
  9
$SURFTYPE
 70
     6
  9
$SURFU
 70
     6
  9
$SURFV
 70
     6
  9
$UCSBASE
  2

  9
$UCSNAME
  2

  9
$UCSORG
 10
0.0
 20
0.0
 30
0.0
  9
$UCSXDIR
 10
1.0
 20
0.0
 30
0.0
  9
$UCSYDIR
 10
0.0
 20
1.0
 30
0.0
  9
$UCSORTHOREF
  2

  9
$UCSORTHOVIEW
 70
     0
  9
$UCSORGTOP
 10
0.0
 20
0.0
 30
0.0
  9
$UCSORGBOTTOM
 10
0.0
 20
0.0
 30
0.0
  9
$UCSORGLEFT
 10
0.0
 20
0.0
 30
0.0
  9
$UCSORGRIGHT
 10
0.0
 20
0.0
 30
0.0
  9
$UCSORGFRONT
 10
0.0
 20
0.0
 30
0.0
  9
$UCSORGBACK
 10
0.0
 20
0.0
 30
0.0
  9
$PUCSBASE
  2

  9
$PUCSNAME
  2

  9
$PUCSORG
 10
0.0
 20
0.0
 30
0.0
  9
$PUCSXDIR
 10
1.0
 20
0.0
 30
0.0
  9
$PUCSYDIR
 10
0.0
 20
1.0
 30
0.0
  9
$PUCSORTHOREF
  2

  9
$PUCSORTHOVIEW
 70
     0
  9
$PUCSORGTOP
 10
0.0
 20
0.0
 30
0.0
  9
$PUCSORGBOTTOM
 10
0.0
 20
0.0
 30
0.0
  9
$PUCSORGLEFT
 10
0.0
 20
0.0
 30
0.0
  9
$PUCSORGRIGHT
 10
0.0
 20
0.0
 30
0.0
  9
$PUCSORGFRONT
 10
0.0
 20
0.0
 30
0.0
  9
$PUCSORGBACK
 10
0.0
 20
0.0
 30
0.0
  9
$USERI1
 70
     0
  9
$USERI2
 70
     0
  9
$USERI3
 70
     0
  9
$USERI4
 70
     0
  9
$USERI5
 70
     0
  9
$USERR1
 40
0.0
  9
$USERR2
 40
0.0
  9
$USERR3
 40
0.0
  9
$USERR4
 40
0.0
  9
$USERR5
 40
0.0
  9
$WORLDVIEW
 70
     1
  9
$SHADEDGE
 70
     3
  9
$SHADEDIF
 70
    70
  9
$TILEMODE
 70
     1
  9
$MAXACTVP
 70
    64
  9
$PINSBASE
 10
0.0
 20
0.0
 30
0.0
  9
$PLIMCHECK
 70
     0
  9
$PEXTMIN
 10
1.000000000000000E+20
 20
1.000000000000000E+20
 30
1.000000000000000E+20
  9
$PEXTMAX
 10
-1.000000000000000E+20
 20
-1.000000000000000E+20
 30
-1.000000000000000E+20
  9
$PLIMMIN
 10
0.0
 20
0.0
  9
$PLIMMAX
 10
420.0
 20
297.0
  9
$UNITMODE
 70
     0
  9
$VISRETAIN
 70
     1
  9
$PLINEGEN
 70
     0
  9
$PSLTSCALE
 70
     1
  9
$TREEDEPTH
 70
  3020
  9
$CMLSTYLE
  2
STANDARD
  9
$CMLJUST
 70
     0
  9
$CMLSCALE
 40
20.0
  9
$PROXYGRAPHICS
 70
     1
  9
$MEASUREMENT
 70
     1
  9
$CELWEIGHT
370
    -1
  9
$ENDCAPS
280
     0
  9
$JOINSTYLE
280
     0
  9
$LWDISPLAY
290
     0
  9
$INSUNITS
 70
     0
  9
$HYPERLINKBASE
  1

  9
$STYLESHEET
  1

  9
$XEDIT
290
     1
  9
$CEPSNTYPE
380
     0
  9
$PSTYLEMODE
290
     1
  9
$FINGERPRINTGUID
  2
{B35D6D8A-9087-4CE5-A3C8-8BAF6B1702F9}
  9
$VERSIONGUID
  2
{FAEB1C32-E019-11D5-929B-00C0DF256EC4}
  9
$EXTNAMES
290
     1
  9
$PSVPSCALE
 40
0.0
  9
$OLESTARTUP
290
     0
  0
ENDSEC
  0
SECTION
  2
CLASSES
  0
CLASS
  1
ACDBDICTIONARYWDFLT
  2
AcDbDictionaryWithDefault
  3
ObjectDBX Classes
 90
        0
280
     0
281
     0
  0
CLASS
  1
VISUALSTYLE
  2
AcDbVisualStyle
  3
ObjectDBX Classes
 90
     4095
280
     0
281
     0
  0
CLASS
  1
MATERIAL
  2
AcDbMaterial
  3
ObjectDBX Classes
 90
     1153
280
     0
281
     0
  0
CLASS
  1
SCALE
  2
AcDbScale
  3
ObjectDBX Classes
 90
     1153
280
     0
281
     0
  0
CLASS
  1
TABLESTYLE
  2
AcDbTableStyle
  3
ObjectDBX Classes
 90
     4095
280
     0
281
     0
  0
CLASS
  1
MLEADERSTYLE
  2
AcDbMLeaderStyle
  3
ACDB_MLEADERSTYLE_CLASS
 90
     4095
280
     0
281
     0
  0
CLASS
  1
SUN
  2
AcDbSun
  3
SCENEOE
 90
     1153
280
     0
281
     0
  0
CLASS
  1
XRECORD
  2
AcDbXrecord
  3
ObjectDBX Classes
 90
        0
280
     0
281
     0
  0
CLASS
  1
LWPOLYLINE
  2
AcDbPolyline
  3
ObjectDBX Classes
 90
        0
280
     0
281
     1
  0
CLASS
  1
HATCH
  2
AcDbHatch
  3
ObjectDBX Classes
 90
        0
280
     0
281
     1
  0
CLASS
  1
DICTIONARYVAR
  2
AcDbDictionaryVar
  3
ObjectDBX Classes
 90
        0
280
     0
281
     0
  0
CLASS
  1
ACDBPLACEHOLDER
  2
AcDbPlaceHolder
  3
ObjectDBX Classes
 90
        0
280
     0
281
     0
  0
CLASS
  1
LAYOUT
  2
AcDbLayout
  3
ObjectDBX Classes
 90
        0
280
     0
281
     0
  0
ENDSEC
  0
SECTION
  2
TABLES
  0
TABLE
  2
VPORT
  5
8
102
{ACAD_XDICTIONARY
360
248
102
}
330
0
100
AcDbSymbolTable
 70
     1
  0
VPORT
  5
29
330
8
100
AcDbSymbolTableRecord
100
AcDbViewportTableRecord
  2
*ACTIVE
 70
     0
 10
0.0
 20
0.0
 11
1.0
 21
1.0
 12
210.0
 22
148.5
 13
0.0
 23
0.0
 14
10.0
 24
10.0
 15
10.0
 25
10.0
 16
0.0
 26
0.0
 36
1.0
 17
0.0
 27
0.0
 37
0.0
 40
297.0
 41
1.4141414141
 42
50.0
 43
0.0
 44
0.0
 50
0.0
 51
0.0
 71
     0
 72
  2000
 73
     1
 74
     3
 75
     0
 76
     0
 77
     0
 78
     0
281
     0
 65
     1
110
0.0
120
0.0
130
0.0
111
1.0
121
0.0
131
0.0
112
0.0
122
1.0
132
0.0
 79
     0
146
0.0
  0
ENDTAB
  0
TABLE
  2
LTYPE
  5
5
330
0
100
AcDbSymbolTable
 70
     6
  0
LTYPE
  5
14
330
5
100
AcDbSymbolTableRecord
100
AcDbLinetypeTableRecord
  2
BYBLOCK
 70
     0
  3

 72
    65
 73
     0
 40
0.0
  0
LTYPE
  5
15
330
5
100
AcDbSymbolTableRecord
100
AcDbLinetypeTableRecord
  2
BYLAYER
 70
     0
  3

 72
    65
 73
     0
 40
0.0
  0
LTYPE
  5
16
330
5
100
AcDbSymbolTableRecord
100
AcDbLinetypeTableRecord
  2
CONTINUOUS
 70
     0
  3
Solid line
 72
    65
 73
     0
 40
0.0
  0
LTYPE
  5
6E
330
5
100
AcDbSymbolTableRecord
100
AcDbLinetypeTableRecord
  2
HIDDEN
 70
     0
  3
Hidden __ __ __ __ __ __ __ __ __ __ __ __ __ __
 72
    65
 73
     2
 40
1.905
 49
1.27
 74
     0
 49
-0.635
 74
     0
  0
LTYPE
  5
6F
330
5
100
AcDbSymbolTableRecord
100
AcDbLinetypeTableRecord
  2
PHANTOM
 70
     0
  3
Phantom ______  __  __  ______  __  __  ______
 72
    65
 73
     6
 40
12.7
 49
6.35
 74
     0
 49
-1.27
 74
     0
 49
1.27
 74
     0
 49
-1.27
 74
     0
 49
1.27
 74
     0
 49
-1.27
 74
     0
  0
LTYPE
  5
70
330
5
100
AcDbSymbolTableRecord
100
AcDbLinetypeTableRecord
  2
CENTER
 70
     0
  3
Center ____ _ ____ _ ____ _ ____ _ ____ _ ____
 72
    65
 73
     4
 40
10.16
 49
6.35
 74
     0
 49
-1.27
 74
     0
 49
1.27
 74
     0
 49
-1.27
 74
     0
  0
LTYPE
  5
71
330
5
100
AcDbSymbolTableRecord
100
AcDbLinetypeTableRecord
  2
CENTERX2
 70
     0
  3
Center (2x) ________  __  ________  __  _____
 72
    65
 73
     4
 40
20.32
 49
12.7
 74
     0
 49
-2.54
 74
     0
 49
2.54
 74
     0
 49
-2.54
 74
     0
  0
LTYPE
  5
72
330
5
100
AcDbSymbolTableRecord
100
AcDbLinetypeTableRecord
  2
DOT2
 70
     0
  3
Dot (.5x) ........................................
 72
    65
 73
     2
 40
0.635
 49
0.0
 74
     0
 49
-0.635
 74
     0
  0
LTYPE
  5
272
330
5
100
AcDbSymbolTableRecord
100
AcDbLinetypeTableRecord
  2
DASH
 70
     0
  3
DASH _ _ _ _ _
 72
    65
 73
     2
 40
0.75
 49
0.40
 74
     0
 49
-0.35
 74
     0
  0
LTYPE
  5
273
330
5
100
AcDbSymbolTableRecord
100
AcDbLinetypeTableRecord
  2
LONGDASH_DASH
 70
     0
  3
LONGDASH_DASH __ . __ . __
 72
    65
 73
     4
 40
0.85
 49
0.40
 74
     0
 49
-0.20
 74
     0
 49
0.05
 74
     0
 49
-0.20
 74
     0
  0
LTYPE
  5
274
330
5
100
AcDbSymbolTableRecord
100
AcDbLinetypeTableRecord
  2
LONGDASH_DASH_DASH
 70
     0
  3
LONGDASH_DASH_DASH __ . . __ . . __
 72
    65
 73
     6
 40
1.10
 49
0.40
 74
     0
 49
-0.20
 74
     0
 49
0.05
 74
     0
 49
-0.20
 74
     0
 49
0.05
 74
     0
 49
-0.20
 74
     0
  0
ENDTAB
  0
TABLE
  2
LAYER
  5
2
330
0
100
AcDbSymbolTable
 70
    15
  0
LAYER
  5
22B
330
2
100
AcDbSymbolTableRecord
100
AcDbLayerTableRecord
  2
200
 70
     0
 62
     2
  6
CONTINUOUS
370
    50
390
0
  0
LAYER
  5
22E
330
2
100
AcDbSymbolTableRecord
100
AcDbLayerTableRecord
  2
Defpoints
 70
     0
 62
     7
  6
CONTINUOUS
290
     0
370
    -3
390
0
  0
LAYER
  5
275
330
2
100
AcDbSymbolTableRecord
100
AcDbLayerTableRecord
  2
0
 70
     0
 62
     -1
  6
CONTINUOUS
370
    -3
390
F
  0
LAYER
  5
276
330
2
100
AcDbSymbolTableRecord
100
AcDbLayerTableRecord
  2
1
 70
     0
 62
     4
  6
CONTINUOUS
370
    50
390
F
  0
LAYER
  5
277
330
2
100
AcDbSymbolTableRecord
100
AcDbLayerTableRecord
  2
2
 70
     0
 62
     7
  6
CONTINUOUS
370
    25
390
F
  0
LAYER
  5
278
330
2
100
AcDbSymbolTableRecord
100
AcDbLayerTableRecord
  2
3
 70
     0
 62
     1
  6
DASH
370
    35
390
F
  0
LAYER
  5
279
330
2
100
AcDbSymbolTableRecord
100
AcDbLayerTableRecord
  2
4
 70
     0
 62
     2
  6
LONGDASH_DASH
370
    25
390
F
  0
LAYER
  5
27A
330
2
100
AcDbSymbolTableRecord
100
AcDbLayerTableRecord
  2
6
 70
     0
 62
     5
  6
CONTINUOUS
370
    -3
390
F
  0
LAYER
  5
27B
330
2
100
AcDbSymbolTableRecord
100
AcDbLayerTableRecord
  2
CUT
 70
     0
 62
     1
  6
CONTINUOUS
370
    25
390
F
  0
LAYER
  5
27C
330
2
100
AcDbSymbolTableRecord
100
AcDbLayerTableRecord
  2
NOCUT
 70
     0
 62
     7
  6
CONTINUOUS
370
    25
390
F
  0
LAYER
  5
27D
330
2
100
AcDbSymbolTableRecord
100
AcDbLayerTableRecord
  2
SK1
 70
     0
 62
     4
  6
CONTINUOUS
370
    50
390
F
  0
LAYER
  5
27E
330
2
100
AcDbSymbolTableRecord
100
AcDbLayerTableRecord
  2
SK2
 70
     0
 62
     7
  6
CONTINUOUS
370
    25
390
F
  0
LAYER
  5
27F
330
2
100
AcDbSymbolTableRecord
100
AcDbLayerTableRecord
  2
SK3
 70
     0
 62
     1
  6
DASH
370
    35
390
F
  0
LAYER
  5
280
330
2
100
AcDbSymbolTableRecord
100
AcDbLayerTableRecord
  2
SK4
 70
     0
 62
     2
  6
LONGDASH_DASH
370
    25
390
F
  0
LAYER
  5
281
330
2
100
AcDbSymbolTableRecord
100
AcDbLayerTableRecord
  2
SK6
 70
     0
 62
     5
  6
CONTINUOUS
370
    -3
390
F
  0
LAYER
  5
282
330
2
100
AcDbSymbolTableRecord
100
AcDbLayerTableRecord
  2
INFTOTAL
 70
     0
 62
     9
  6
CONTINUOUS
370
    18
390
F
  0
ENDTAB
  0
TABLE
  2
STYLE
  5
3
330
0
100
AcDbSymbolTable
 70
     4
  0
STYLE
  5
11
330
3
100
AcDbSymbolTableRecord
100
AcDbTextStyleTableRecord
  2
STANDARD
 70
     0
 40
0.0
 41
1.0
 50
0.0
 71
     0
 42
3.5
  3
txt
  4

  0
STYLE
  5
1B9
330
3
100
AcDbSymbolTableRecord
100
AcDbTextStyleTableRecord
  2
SLDTEXTSTYLE0
 70
     0
 40
0.0
 41
0.605
 50
0.0
 71
     0
 42
3.5
  3
TXT
  4

  0
STYLE
  5
1CD
330
3
100
AcDbSymbolTableRecord
100
AcDbTextStyleTableRecord
  2
SLDTEXTSTYLE1
 70
     0
 40
0.0
 41
0.575
 50
0.0
 71
     0
 42
3.5
  3
TXT
  4

  0
STYLE
  5
22A
330
3
100
AcDbSymbolTableRecord
100
AcDbTextStyleTableRecord
  2
BMG_Text
 70
     0
 40
3.5
 41
1.0
 50
0.0
 71
     0
 42
3.5
  3
monos.ttf
  4

1001
ACAD
1000
Monospac821 BT
1071
       49
  0
ENDTAB
  0
TABLE
  2
VIEW
  5
6
330
0
100
AcDbSymbolTable
 70
     0
  0
ENDTAB
  0
TABLE
  2
UCS
  5
7
330
0
100
AcDbSymbolTable
 70
     0
  0
ENDTAB
  0
TABLE
  2
APPID
  5
9
330
0
100
AcDbSymbolTable
 70
     4
  0
APPID
  5
12
330
9
100
AcDbSymbolTableRecord
100
AcDbRegAppTableRecord
  2
ACAD
 70
     0
  0
APPID
  5
245
330
9
100
AcDbSymbolTableRecord
100
AcDbRegAppTableRecord
  2
ACAD_DSTYLE_DIM_LINETYPE
 70
     0
  0
APPID
  5
246
330
9
100
AcDbSymbolTableRecord
100
AcDbRegAppTableRecord
  2
ACAD_DSTYLE_DIM_EXT1_LINETYPE
 70
     0
  0
APPID
  5
247
330
9
100
AcDbSymbolTableRecord
100
AcDbRegAppTableRecord
  2
ACAD_DSTYLE_DIM_EXT2_LINETYPE
 70
     0
  0
ENDTAB
  0
TABLE
  2
DIMSTYLE
  5
A
330
0
100
AcDbSymbolTable
 70
     3
100
AcDbDimStyleTable
  0
DIMSTYLE
105
27
330
A
100
AcDbSymbolTableRecord
100
AcDbDimStyleTableRecord
  2
ISO-25
 70
     0
 41
2.5
 42
0.625
 43
3.75
 44
1.25
 73
     0
 74
     0
 77
     1
 78
     8
140
2.5
141
2.5
143
0.0393700787
147
0.625
171
     3
172
     1
178
     0
271
     2
272
     2
274
     3
283
     0
284
     8
340
11
  0
DIMSTYLE
105
1BA
102
{ACAD_REACTORS
330
1B8
330
1CF
330
1D9
330
1E4
102
}
330
A
100
AcDbSymbolTableRecord
100
AcDbDimStyleTableRecord
  2
SLDDIMSTYLE0
 70
     0
 41
3.5
 44
0.0
 45
0.000000001
 73
     0
 74
     0
 77
     1
 78
    12
140
3.5
147
0.875
173
     1
178
     0
271
     2
272
     3
284
    12
340
1B9
  0
DIMSTYLE
105
1C5
102
{ACAD_REACTORS
330
1C4
102
}
330
A
100
AcDbSymbolTableRecord
100
AcDbDimStyleTableRecord
  2
SLDDIMSTYLE1
 70
     0
 41
3.5
 44
0.0
 45
0.000000001
 73
     0
 74
     0
 76
     1
 77
     1
 78
    12
140
3.5
147
0.875
173
     1
178
     0
271
     2
272
     3
282
     1
284
    12
340
1B9
  0
ENDTAB
  0
TABLE
  2
BLOCK_RECORD
  5
1
330
0
100
AcDbSymbolTable
 70
     6
  0
BLOCK_RECORD
  5
1F
330
1
100
AcDbSymbolTableRecord
100
AcDbBlockTableRecord
  2
*MODEL_SPACE
340
213
  0
BLOCK_RECORD
  5
1B
330
1
100
AcDbSymbolTableRecord
100
AcDbBlockTableRecord
  2
*PAPER_SPACE
340
214
  0
BLOCK_RECORD
  5
1BB
330
1
100
AcDbSymbolTableRecord
100
AcDbBlockTableRecord
  2
_D
340
0
  0
BLOCK_RECORD
  5
1C6
330
1
100
AcDbSymbolTableRecord
100
AcDbBlockTableRecord
  2
_D_1
340
0
  0
BLOCK_RECORD
  5
1D0
330
1
100
AcDbSymbolTableRecord
100
AcDbBlockTableRecord
  2
_D_2
340
0
  0
BLOCK_RECORD
  5
1DA
330
1
100
AcDbSymbolTableRecord
100
AcDbBlockTableRecord
  2
_D_3
340
0
  0
BLOCK_RECORD
  5
1E5
330
1
100
AcDbSymbolTableRecord
100
AcDbBlockTableRecord
  2
_D_4
340
0
  0
ENDTAB
  0
ENDSEC
  0
SECTION
  2
BLOCKS
  0
BLOCK
  5
20
330
1F
100
AcDbEntity
  8
0
100
AcDbBlockBegin
  2
*MODEL_SPACE
 70
     0
 10
0.0
 20
0.0
 30
0.0
  3
*MODEL_SPACE
  1

  0
ENDBLK
  5
21
330
1F
100
AcDbEntity
  8
0
100
AcDbBlockEnd
  0
BLOCK
  5
1C
330
1B
100
AcDbEntity
 67
     1
  8
0
100
AcDbBlockBegin
  2
*PAPER_SPACE
 70
     0
 10
0.0
 20
0.0
 30
0.0
  3
*PAPER_SPACE
  1

  0
ENDBLK
  5
1D
330
1B
100
AcDbEntity
 67
     1
  8
0
100
AcDbBlockEnd
  0
BLOCK
  5
1BC
330
1BB
100
AcDbEntity
  8
0
100
AcDbBlockBegin
  2
_D
 70
     0
 10
0.0
 20
0.0
 30
0.0
  3
_D
  1

  0
LINE
  5
1BE
330
1BB
100
AcDbEntity
  8
2
  6
CONTINUOUS
370
    -2
100
AcDbLine
 10
57.0021550687
 20
26.1461895436
 30
0.0
 11
57.0021550687
 21
33.1831609755
 31
0.0
  0
LINE
  5
1BF
330
1BB
100
AcDbEntity
  8
2
  6
CONTINUOUS
370
    -2
100
AcDbLine
 10
0.0
 20
24.0625
 30
0.0
 11
0.0
 21
33.1831609755
 31
0.0
  0
LINE
  5
1C0
330
1BB
100
AcDbEntity
  8
2
  6
CONTINUOUS
370
    -2
100
AcDbLine
 10
53.5021550687
 20
33.1831609755
 30
0.0
 11
3.5
 21
33.1831609755
 31
0.0
  0
SOLID
  5
1C1
330
1BB
100
AcDbEntity
  8
2
100
AcDbTrace
 10
53.5021550687
 20
32.59982764216667
 30
0.0
 11
53.5021550687
 21
33.76649430883334
 31
0.0
 12
57.0021550687
 22
33.1831609755
 32
0.0
 13
57.0021550687
 23
33.1831609755
 33
0.0
  0
SOLID
  5
1C2
330
1BB
100
AcDbEntity
  8
2
100
AcDbTrace
 10
3.5
 20
33.76649430883334
 30
0.0
 11
3.5
 21
32.59982764216667
 31
0.0
 12
0.0
 22
33.1831609755
 32
0.0
 13
0.0
 23
33.1831609755
 33
0.0
  0
MTEXT
  5
1C3
330
1BB
100
AcDbEntity
  8
2
370
    25
100
AcDbMText
 10
28.5010775344
 20
35.8589109755
 30
0.0
 40
3.5
 41
0.0
 71
     5
 72
     1
  1
\A1;57
  7
BMG_Text
 73
     1
 44
1.0
  0
POINT
  5
22F
330
1BB
100
AcDbEntity
  8
Defpoints
 62
     0
100
AcDbPoint
 10
57.0021550687
 20
26.0836895436
 30
0.0
  0
POINT
  5
230
330
1BB
100
AcDbEntity
  8
Defpoints
 62
     0
100
AcDbPoint
 10
0.0
 20
24.0
 30
0.0
  0
POINT
  5
231
330
1BB
100
AcDbEntity
  8
Defpoints
 62
     0
100
AcDbPoint
 10
0.0
 20
33.1831609755
 30
0.0
  0
ENDBLK
  5
1BD
330
1BB
100
AcDbEntity
  8
0
100
AcDbBlockEnd
  0
BLOCK
  5
1C7
330
1C6
100
AcDbEntity
  8
0
100
AcDbBlockBegin
  2
_D_1
 70
     0
 10
0.0
 20
0.0
 30
0.0
  3
_D_1
  1

  0
LINE
  5
1C9
330
1C6
100
AcDbEntity
  8
2
  6
CONTINUOUS
370
    -2
100
AcDbLine
 10
56.6652032548
 20
26.504623926
 30
0.0
 11
64.2010772372
 21
26.504623926
 31
0.0
  0
LINE
  5
1CA
330
1C6
100
AcDbEntity
  8
2
  6
CONTINUOUS
370
    -2
100
AcDbLine
 10
64.2010772372
 20
23.004623926
 30
0.0
 11
64.2010772372
 21
-0.6645708874000054
 31
0.0
  0
SOLID
  5
1CB
330
1C6
100
AcDbEntity
  8
2
100
AcDbTrace
 10
64.78441057053332
 20
23.004623926
 30
0.0
 11
63.61774390386666
 21
23.004623926
 31
0.0
 12
64.2010772372
 22
26.504623926
 32
0.0
 13
64.2010772372
 23
26.504623926
 33
0.0
  0
MTEXT
  5
1CC
330
1C6
100
AcDbEntity
  8
2
370
    25
100
AcDbMText
 10
61.46407723719999
 20
13.6206791126
 30
0.0
 40
3.5
 41
0.0
 71
     5
 72
     1
  1
\A1;%%c 53 - 95
  7
BMG_Text
 11
0.0
 21
1.0
 31
0.0
 73
     1
 44
1.0
  0
POINT
  5
1CE
330
1C6
100
AcDbEntity
  8
Defpoints
 62
     0
100
AcDbPoint
 10
56.6027032548
 20
26.504623926
 30
0.0
  0
POINT
  5
232
330
1C6
100
AcDbEntity
  8
Defpoints
 62
     0
100
AcDbPoint
 10
56.6027032548
 20
-26.504623926
 30
0.0
  0
POINT
  5
233
330
1C6
100
AcDbEntity
  8
Defpoints
 62
     0
100
AcDbPoint
 10
64.2010772372
 20
-26.504623926
 30
0.0
  0
ENDBLK
  5
1C8
330
1C6
100
AcDbEntity
  8
0
100
AcDbBlockEnd
  0
BLOCK
  5
1D1
330
1D0
100
AcDbEntity
  8
0
100
AcDbBlockBegin
  2
_D_2
 70
     0
 10
0.0
 20
0.0
 30
0.0
  3
_D_2
  1

  0
LINE
  5
1D3
330
1D0
100
AcDbEntity
  8
2
  6
CONTINUOUS
370
    -2
100
AcDbLine
 10
53.0
 20
-20.0625
 30
0.0
 11
53.0
 21
-32.9364089574
 31
0.0
  0
LINE
  5
1D4
330
1D0
100
AcDbEntity
  8
2
  6
CONTINUOUS
370
    -2
100
AcDbLine
 10
0.0
 20
-24.0625
 30
0.0
 11
0.0
 21
-32.9364089574
 31
0.0
  0
LINE
  5
1D5
330
1D0
100
AcDbEntity
  8
2
  6
CONTINUOUS
370
    -2
100
AcDbLine
 10
49.5
 20
-32.9364089574
 30
0.0
 11
3.5
 21
-32.9364089574
 31
0.0
  0
SOLID
  5
1D6
330
1D0
100
AcDbEntity
  8
2
100
AcDbTrace
 10
49.5
 20
-33.51974229073333
 30
0.0
 11
49.5
 21
-32.35307562406666
 31
0.0
 12
53.0
 22
-32.9364089574
 32
0.0
 13
53.0
 23
-32.9364089574
 33
0.0
  0
SOLID
  5
1D7
330
1D0
100
AcDbEntity
  8
2
100
AcDbTrace
 10
3.5
 20
-32.35307562406666
 30
0.0
 11
3.5
 21
-33.51974229073333
 31
0.0
 12
0.0
 22
-32.9364089574
 32
0.0
 13
0.0
 23
-32.9364089574
 33
0.0
  0
MTEXT
  5
1D8
330
1D0
100
AcDbEntity
  8
2
370
    25
100
AcDbMText
 10
26.5
 20
-30.2501589574
 30
0.0
 40
3.5
 41
0.0
 71
     5
 72
     1
  1
\A1;53
  7
BMG_Text
 73
     1
 44
1.0
  0
POINT
  5
234
330
1D0
100
AcDbEntity
  8
Defpoints
 62
     0
100
AcDbPoint
 10
53.0
 20
-20.0
 30
0.0
  0
POINT
  5
235
330
1D0
100
AcDbEntity
  8
Defpoints
 62
     0
100
AcDbPoint
 10
0.0
 20
-24.0
 30
0.0
  0
POINT
  5
236
330
1D0
100
AcDbEntity
  8
Defpoints
 62
     0
100
AcDbPoint
 10
0.0
 20
-32.9364089574
 30
0.0
  0
ENDBLK
  5
1D2
330
1D0
100
AcDbEntity
  8
0
100
AcDbBlockEnd
  0
BLOCK
  5
1DB
330
1DA
100
AcDbEntity
  8
0
100
AcDbBlockBegin
  2
_D_3
 70
     0
 10
0.0
 20
0.0
 30
0.0
  3
_D_3
  1

  0
LINE
  5
1DD
330
1DA
100
AcDbEntity
  8
2
  6
CONTINUOUS
370
    -2
100
AcDbLine
 10
0.4375
 20
24.5
 30
0.0
 11
-42.1278676537
 21
24.5
 31
0.0
  0
LINE
  5
1DE
330
1DA
100
AcDbEntity
  8
2
  6
CONTINUOUS
370
    -2
100
AcDbLine
 10
0.4375
 20
-24.5
 30
0.0
 11
-42.1278676537
 21
-24.5
 31
0.0
  0
LINE
  5
1DF
330
1DA
100
AcDbEntity
  8
2
  6
CONTINUOUS
370
    -2
100
AcDbLine
 10
-42.1278676537
 20
21.0
 30
0.0
 11
-42.1278676537
 21
-21.0
 31
0.0
  0
SOLID
  5
1E0
330
1DA
100
AcDbEntity
  8
2
100
AcDbTrace
 10
-41.54453432036667
 20
21.0
 30
0.0
 11
-42.71120098703334
 21
21.0
 31
0.0
 12
-42.1278676537
 22
24.5
 32
0.0
 13
-42.1278676537
 23
24.5
 33
0.0
  0
SOLID
  5
1E1
330
1DA
100
AcDbEntity
  8
2
100
AcDbTrace
 10
-42.71120098703334
 20
-21.0
 30
0.0
 11
-41.54453432036667
 21
-21.0
 31
0.0
 12
-42.1278676537
 22
-24.5
 32
0.0
 13
-42.1278676537
 23
-24.5
 33
0.0
  0
MTEXT
  5
1E2
330
1DA
100
AcDbEntity
  8
2
370
    25
100
AcDbMText
 10
-44.8648676537
 20
0.0
 30
0.0
 40
3.5
 41
0.0
 71
     5
 72
     1
  1
\A1;%%c49
  7
BMG_Text
 11
0.0
 21
1.0
 31
0.0
 73
     1
 44
1.0
  0
POINT
  5
1E3
330
1DA
100
AcDbEntity
  8
Defpoints
 62
     0
100
AcDbPoint
 10
0.5
 20
24.5
 30
0.0
  0
POINT
  5
237
330
1DA
100
AcDbEntity
  8
Defpoints
 62
     0
100
AcDbPoint
 10
0.5
 20
-24.5
 30
0.0
  0
POINT
  5
238
330
1DA
100
AcDbEntity
  8
Defpoints
 62
     0
100
AcDbPoint
 10
-42.1278676537
 20
-24.5
 30
0.0
  0
ENDBLK
  5
1DC
330
1DA
100
AcDbEntity
  8
0
100
AcDbBlockEnd
  0
BLOCK
  5
1E6
330
1E5
100
AcDbEntity
  8
0
100
AcDbBlockBegin
  2
_D_4
 70
     0
 10
0.0
 20
0.0
 30
0.0
  3
_D_4
  1

  0
LINE
  5
1E8
330
1E5
100
AcDbEntity
  8
2
  6
CONTINUOUS
370
    -2
100
AcDbLine
 10
-25.5625
 20
14.0
 30
0.0
 11
-35.1436499533
 21
14.0
 31
0.0
  0
LINE
  5
1E9
330
1E5
100
AcDbEntity
  8
2
  6
CONTINUOUS
370
    -2
100
AcDbLine
 10
-25.5625
 20
-14.0
 30
0.0
 11
-35.1436499533
 21
-14.0
 31
0.0
  0
LINE
  5
1EA
330
1E5
100
AcDbEntity
  8
2
  6
CONTINUOUS
370
    -2
100
AcDbLine
 10
-35.1436499533
 20
10.5
 30
0.0
 11
-35.1436499533
 21
-10.5
 31
0.0
  0
SOLID
  5
1EB
330
1E5
100
AcDbEntity
  8
2
100
AcDbTrace
 10
-34.56031661996666
 20
10.5
 30
0.0
 11
-35.72698328663333
 21
10.5
 31
0.0
 12
-35.1436499533
 22
14.0
 32
0.0
 13
-35.1436499533
 23
14.0
 33
0.0
  0
SOLID
  5
1EC
330
1E5
100
AcDbEntity
  8
2
100
AcDbTrace
 10
-35.72698328663333
 20
-10.5
 30
0.0
 11
-34.56031661996666
 21
-10.5
 31
0.0
 12
-35.1436499533
 22
-14.0
 32
0.0
 13
-35.1436499533
 23
-14.0
 33
0.0
  0
MTEXT
  5
1ED
330
1E5
100
AcDbEntity
  8
2
370
    25
100
AcDbMText
 10
-37.8806499533
 20
0.0
 30
0.0
 40
3.5
 41
0.0
 71
     5
 72
     1
  1
\A1;%%c28
  7
BMG_Text
 11
0.0
 21
1.0
 31
0.0
 73
     1
 44
1.0
  0
POINT
  5
1EE
330
1E5
100
AcDbEntity
  8
Defpoints
 62
     0
100
AcDbPoint
 10
-25.5
 20
14.0
 30
0.0
  0
POINT
  5
239
330
1E5
100
AcDbEntity
  8
Defpoints
 62
     0
100
AcDbPoint
 10
-25.5
 20
-14.0
 30
0.0
  0
POINT
  5
23A
330
1E5
100
AcDbEntity
  8
Defpoints
 62
     0
100
AcDbPoint
 10
-35.1436499533
 20
-14.0
 30
0.0
  0
ENDBLK
  5
1E7
330
1E5
100
AcDbEntity
  8
0
100
AcDbBlockEnd
  0
ENDSEC
  0
SECTION
  2
ENTITIES
  0
LINE
  5
79
330
1F
100
AcDbEntity
  8
SK1
  6
CONTINUOUS
370
    50
100
AcDbLine
 10
28.5
 20
21.9998712789
 30
0.0
 11
28.5
 21
20.0025
 31
0.0
  0
LINE
  5
7A
330
1F
100
AcDbEntity
  8
SK1
  6
CONTINUOUS
370
    50
100
AcDbLine
 10
33.5
 20
24.0
 30
0.0
 11
30.5004972738
 21
24.0
 31
0.0
  0
LINE
  5
7B
330
1F
100
AcDbEntity
  8
SK1
  6
CONTINUOUS
370
    50
100
AcDbLine
 10
45.5
 20
24.0
 30
0.0
 11
42.4958470341
 21
24.0
 31
0.0
  0
LINE
  5
7C
330
1F
100
AcDbEntity
  8
4
  6
LONGDASH_DASH
370
    25
100
AcDbLine
 10
-32.2573050033
 20
0.0
 30
0.0
 11
55.3727425763
 21
0.0
 31
0.0
  0
LINE
  5
7D
330
1F
100
AcDbEntity
  8
SK1
  6
CONTINUOUS
370
    50
100
AcDbLine
 10
-2.0
 20
-13.8320508076
 30
0.0
 11
-2.0
 21
-13.6542014256
 31
0.0
  0
LINE
  5
7E
330
1F
100
AcDbEntity
  8
SK1
  6
CONTINUOUS
370
    50
100
AcDbLine
 10
-13.0
 20
-13.6543448565
 30
0.0
 11
-13.0
 21
-13.8320508075
 31
0.0
  0
LINE
  5
7F
330
1F
100
AcDbEntity
  8
SK1
  6
CONTINUOUS
370
    50
100
AcDbLine
 10
-25.5
 20
6.8847433564
 30
0.0
 11
-25.5
 21
-6.8847433564
 31
0.0
  0
LINE
  5
80
330
1F
100
AcDbEntity
  8
SK1
  6
CONTINUOUS
370
    50
100
AcDbLine
 10
-2.0000000001
 20
13.6548913595
 30
0.0
 11
-2.0000000001
 21
13.8320508077
 31
0.0
  0
LINE
  5
81
330
1F
100
AcDbEntity
  8
SK1
  6
CONTINUOUS
370
    50
100
AcDbLine
 10
-13.0
 20
13.8320508076
 30
0.0
 11
-13.0
 21
13.6550969351
 31
0.0
  0
LINE
  5
82
330
1F
100
AcDbEntity
  8
4
  6
LONGDASH_DASH
370
    25
100
AcDbLine
 10
38.0
 20
-24.9708266154
 30
0.0
 11
38.0
 21
25.9349183435
 31
0.0
  0
LINE
  5
83
330
1F
100
AcDbEntity
  8
SK1
  6
CONTINUOUS
370
    50
100
AcDbLine
 10
-12.8660254038
 20
-14.3320508075
 30
0.0
 11
-11.9030344885
 21
-16.0
 31
0.0
  0
LINE
  5
84
330
1F
100
AcDbEntity
  8
SK1
  6
CONTINUOUS
370
    50
100
AcDbLine
 10
-3.0969655115
 20
-16.0000000001
 30
0.0
 11
-2.1339745962
 21
-14.3320508076
 31
0.0
  0
LINE
  5
85
330
1F
100
AcDbEntity
  8
SK1
  6
CONTINUOUS
370
    50
100
AcDbLine
 10
-2.1339745963
 20
14.3320508077
 30
0.0
 11
-3.0969655115
 21
16.0000000001
 31
0.0
  0
LINE
  5
86
330
1F
100
AcDbEntity
  8
SK1
  6
CONTINUOUS
370
    50
100
AcDbLine
 10
-11.9030344885
 20
16.0
 30
0.0
 11
-12.8660254038
 21
14.3320508076
 31
0.0
  0
LINE
  5
87
330
1F
100
AcDbEntity
  8
4
  6
LONGDASH_DASH
370
    25
100
AcDbLine
 10
-12.5
 20
0.0
 30
0.0
 11
-12.5
 21
6.8847433564
 31
0.0
  0
LINE
  5
88
330
1F
100
AcDbEntity
  8
4
  6
LONGDASH_DASH
370
    25
100
AcDbLine
 10
-12.5
 20
6.8847433564
 30
0.0
 11
-12.5
 21
-5.2952996671
 31
0.0
  0
LINE
  5
89
330
1F
100
AcDbEntity
  8
SK1
  6
CONTINUOUS
370
    50
100
AcDbLine
 10
41.2579289053
 20
23.7969135619
 30
0.0
 11
40.5
 21
24.0
 31
0.0
  0
LINE
  5
8A
330
1F
100
AcDbEntity
  8
SK1
  6
CONTINUOUS
370
    50
100
AcDbLine
 10
35.5
 20
24.0
 30
0.0
 11
34.7418236568
 21
23.7968472611
 31
0.0
  0
LINE
  5
8B
330
1F
100
AcDbEntity
  8
1
  6
CONTINUOUS
370
    50
100
AcDbLine
 10
25.6225
 20
-21.0
 30
0.0
 11
25.6308012702
 21
-21.0083012702
 31
0.0
  0
LINE
  5
8C
330
1F
100
AcDbEntity
  8
1
  6
CONTINUOUS
370
    50
100
AcDbLine
 10
25.6308012702
 20
-21.0083012702
 30
0.0
 11
33.959614317
 21
-23.24
 31
0.0
  0
LINE
  5
8D
330
1F
100
AcDbEntity
  8
1
  6
CONTINUOUS
370
    50
100
AcDbLine
 10
42.040385683
 20
-23.24
 30
0.0
 11
50.3691987298
 21
-21.0083012702
 31
0.0
  0
LINE
  5
8E
330
1F
100
AcDbEntity
  8
1
  6
CONTINUOUS
370
    50
100
AcDbLine
 10
0.5
 20
-24.5
 30
0.0
 11
21.6792740578
 21
-24.5
 31
0.0
  0
LINE
  5
8F
330
1F
100
AcDbEntity
  8
1
  6
CONTINUOUS
370
    50
100
AcDbLine
 10
4.8033671643
 20
24.5
 30
0.0
 11
0.5
 21
24.5
 31
0.0
  0
LINE
  5
90
330
1F
100
AcDbEntity
  8
1
  6
CONTINUOUS
370
    50
100
AcDbLine
 10
0.5
 20
24.5
 30
0.0
 11
0.0
 21
24.0
 31
0.0
  0
LINE
  5
91
330
1F
100
AcDbEntity
  8
1
  6
CONTINUOUS
370
    50
100
AcDbLine
 10
0.0
 20
-24.0
 30
0.0
 11
0.5
 21
-24.5
 31
0.0
  0
LINE
  5
92
330
1F
100
AcDbEntity
  8
1
  6
CONTINUOUS
370
    50
100
AcDbLine
 10
52.4226497308
 20
-21.0
 30
0.0
 11
53.0
 21
-20.0
 31
0.0
  0
LINE
  5
93
330
1F
100
AcDbEntity
  8
SK1
  6
CONTINUOUS
370
    50
100
AcDbLine
 10
-25.5
 20
-14.0
 30
0.0
 11
-13.9978644821
 21
-14.0
 31
0.0
  0
LINE
  5
94
330
1F
100
AcDbEntity
  8
SK1
  6
CONTINUOUS
370
    50
100
AcDbLine
 10
-13.9940025377
 20
14.0
 30
0.0
 11
-25.5
 21
14.0
 31
0.0
  0
LINE
  5
95
330
1F
100
AcDbEntity
  8
SK1
  6
CONTINUOUS
370
    50
100
AcDbLine
 10
-1.0069246735
 20
-13.9717818051
 30
0.0
 11
-0.4294095226
 21
-13.8170370869
 31
0.0
  0
LINE
  5
96
330
1F
100
AcDbEntity
  8
SK1
  6
CONTINUOUS
370
    50
100
AcDbLine
 10
-0.4294095226
 20
13.8170370869
 30
0.0
 11
-1.0069246735
 21
13.9717818052
 31
0.0
  0
LINE
  5
97
330
1F
100
AcDbEntity
  8
SK1
  6
CONTINUOUS
370
    50
100
AcDbLine
 10
-29.0610814579
 20
-13.9878462024
 30
0.0
 11
-27.5199859625
 21
-13.7161094867
 31
0.0
  0
LINE
  5
98
330
1F
100
AcDbEntity
  8
SK1
  6
CONTINUOUS
370
    50
100
AcDbLine
 10
-27.5199859625
 20
13.7161094868
 30
0.0
 11
-29.0610814579
 21
13.9878462024
 31
0.0
  0
LINE
  5
99
330
1F
100
AcDbEntity
  8
SK1
  6
CONTINUOUS
370
    50
100
AcDbLine
 10
-25.5
 20
14.0
 30
0.0
 11
-27.5199859625
 21
13.7161094868
 31
0.0
  0
LINE
  5
9A
330
1F
100
AcDbEntity
  8
SK1
  6
CONTINUOUS
370
    50
100
AcDbLine
 10
-27.5199859625
 20
-13.7161094867
 30
0.0
 11
-25.5
 21
-14.0
 31
0.0
  0
LINE
  5
9B
330
1F
100
AcDbEntity
  8
SK1
  6
CONTINUOUS
370
    50
100
AcDbLine
 10
56.4211070549
 20
26.4610265357
 30
0.0
 11
47.8559664927
 21
22.0968694408
 31
0.0
  0
LINE
  5
9C
330
1F
100
AcDbEntity
  8
SK1
  6
CONTINUOUS
370
    50
100
AcDbLine
 10
56.499055698
 20
16.4839816822
 30
0.0
 11
57.0021550687
 21
26.0836895436
 31
0.0
  0
LINE
  5
9D
330
1F
100
AcDbEntity
  8
SK1
  6
CONTINUOUS
370
    50
100
AcDbLine
 10
47.8197070786
 20
21.4049986039
 30
0.0
 11
55.8817482701
 21
16.1694478375
 31
0.0
  0
LINE
  5
9E
330
1F
100
AcDbEntity
  8
SK1
  6
CONTINUOUS
370
    50
100
AcDbLine
 10
28.5012758423
 20
21.9996531759
 30
0.0
 11
28.5000032556
 21
21.9999991137
 31
0.0
  0
LINE
  5
9F
330
1F
100
AcDbEntity
  8
SK1
  6
CONTINUOUS
370
    50
100
AcDbLine
 10
28.5000032556
 20
21.9999991137
 30
0.0
 11
28.5004743522
 21
21.9998712789
 31
0.0
  0
LINE
  5
A0
330
1F
100
AcDbEntity
  8
SK1
  6
CONTINUOUS
370
    50
100
AcDbLine
 10
30.5004972738
 20
23.9998130242
 30
0.0
 11
30.5044111441
 21
23.9983414448
 31
0.0
  0
LINE
  5
A1
330
1F
100
AcDbEntity
  8
SK1
  6
CONTINUOUS
370
    50
100
AcDbLine
 10
47.3701552264
 20
22.7088860481
 30
0.0
 11
47.3591506332
 21
22.6949597801
 31
0.0
  0
LINE
  5
A2
330
1F
100
AcDbEntity
  8
SK1
  6
CONTINUOUS
370
    50
100
AcDbLine
 10
47.3591506332
 20
22.6949597801
 30
0.0
 11
47.2608064692
 21
22.8524916724
 31
0.0
  0
LINE
  5
A3
330
1F
100
AcDbEntity
  8
SK1
  6
CONTINUOUS
370
    50
100
AcDbLine
 10
47.2608064692
 20
22.8524916724
 30
0.0
 11
47.1150518137
 21
22.9774617498
 31
0.0
  0
LINE
  5
A4
330
1F
100
AcDbEntity
  8
SK1
  6
CONTINUOUS
370
    50
100
AcDbLine
 10
47.1150518137
 20
22.9774617498
 30
0.0
 11
46.9624155758
 21
23.0191046368
 31
0.0
  0
LINE
  5
A5
330
1F
100
AcDbEntity
  8
SK1
  6
CONTINUOUS
370
    50
100
AcDbLine
 10
46.9624155758
 20
23.0191046368
 30
0.0
 11
46.7465987751
 21
22.9564536912
 31
0.0
  0
LINE
  5
A6
330
1F
100
AcDbEntity
  8
SK1
  6
CONTINUOUS
370
    50
100
AcDbLine
 10
46.7465987751
 20
22.9564536912
 30
0.0
 11
46.5305130278
 21
22.7462540057
 31
0.0
  0
LINE
  5
A7
330
1F
100
AcDbEntity
  8
SK1
  6
CONTINUOUS
370
    50
100
AcDbLine
 10
46.5305130278
 20
22.7462540057
 30
0.0
 11
46.4083560731
 21
22.5343292824
 31
0.0
  0
LINE
  5
A8
330
1F
100
AcDbEntity
  8
SK1
  6
CONTINUOUS
370
    50
100
AcDbLine
 10
46.4083560731
 20
22.5343292824
 30
0.0
 11
46.3368137387
 21
22.354589878
 31
0.0
  0
LINE
  5
A9
330
1F
100
AcDbEntity
  8
SK1
  6
CONTINUOUS
370
    50
100
AcDbLine
 10
46.3368137387
 20
22.354589878
 30
0.0
 11
46.2754126505
 21
22.1279179599
 31
0.0
  0
LINE
  5
AA
330
1F
100
AcDbEntity
  8
SK1
  6
CONTINUOUS
370
    50
100
AcDbLine
 10
46.2754126505
 20
22.1279179599
 30
0.0
 11
46.2414352457
 21
21.9193287181
 31
0.0
  0
LINE
  5
AB
330
1F
100
AcDbEntity
  8
SK1
  6
CONTINUOUS
370
    50
100
AcDbLine
 10
46.2414352457
 20
21.9193287181
 30
0.0
 11
46.2278016877
 21
21.7222927762
 31
0.0
  0
LINE
  5
AC
330
1F
100
AcDbEntity
  8
SK1
  6
CONTINUOUS
370
    50
100
AcDbLine
 10
46.2278016877
 20
21.7222927762
 30
0.0
 11
46.227241336
 21
21.6742852856
 31
0.0
  0
LINE
  5
AD
330
1F
100
AcDbEntity
  8
SK1
  6
CONTINUOUS
370
    50
100
AcDbLine
 10
46.227241336
 20
21.6742852856
 30
0.0
 11
46.227241336
 21
17.6172552146
 31
0.0
  0
LINE
  5
AE
330
1F
100
AcDbEntity
  8
SK1
  6
CONTINUOUS
370
    50
100
AcDbLine
 10
47.8
 20
24.0
 30
0.0
 11
45.5
 21
24.0
 31
0.0
  0
LINE
  5
AF
330
1F
100
AcDbEntity
  8
SK1
  6
CONTINUOUS
370
    50
100
AcDbLine
 10
47.5
 20
17.2762205584
 30
0.0
 11
47.5
 21
20.5673140367
 31
0.0
  0
LINE
  5
B0
330
1F
100
AcDbEntity
  8
SK1
  6
CONTINUOUS
370
    50
100
AcDbLine
 10
54.9688609054
 20
25.856037086
 30
0.0
 11
55.374642646
 21
25.9278262874
 31
0.0
  0
LINE
  5
B1
330
1F
100
AcDbEntity
  8
SK1
  6
CONTINUOUS
370
    50
100
AcDbLine
 10
54.9286688972
 20
25.9349183435
 30
0.0
 11
48.6230713699
 21
24.8230713699
 31
0.0
  0
LINE
  5
B2
330
1F
100
AcDbEntity
  8
SK1
  6
CONTINUOUS
370
    50
100
AcDbLine
 10
48.6230713699
 20
24.8230713699
 30
0.0
 11
47.8
 21
24.0
 31
0.0
  0
LINE
  5
B3
330
1F
100
AcDbEntity
  8
SK1
  6
CONTINUOUS
370
    50
100
AcDbLine
 10
54.9286688972
 20
25.9349183435
 30
0.0
 11
55.0234561723
 21
25.7488878415
 31
0.0
  0
LINE
  5
B4
330
1F
100
AcDbEntity
  8
SK1
  6
CONTINUOUS
370
    50
100
AcDbLine
 10
50.0898799422
 20
23.2351051953
 30
0.0
 11
48.70373753
 21
23.3077498409
 31
0.0
  0
LINE
  5
B5
330
1F
100
AcDbEntity
  8
SK1
  6
CONTINUOUS
370
    50
100
AcDbLine
 10
48.53626247
 20
20.1121353297
 30
0.0
 11
49.9224048822
 21
20.0394906841
 31
0.0
  0
LINE
  5
B6
330
1F
100
AcDbEntity
  8
SK1
  6
CONTINUOUS
370
    50
100
AcDbLine
 10
50.3968945617
 20
16.5
 30
0.0
 11
55.3727425763
 21
16.5
 31
0.0
  0
LINE
  5
B7
330
1F
100
AcDbEntity
  8
1
  6
CONTINUOUS
370
    50
100
AcDbLine
 10
27.25
 20
-7.8
 30
0.0
 11
27.25
 21
7.8
 31
0.0
  0
LINE
  5
B8
330
1F
100
AcDbEntity
  8
1
  6
CONTINUOUS
370
    50
100
AcDbLine
 10
7.95
 20
-10.0
 30
0.0
 11
25.05
 21
-10.0
 31
0.0
  0
LINE
  5
B9
330
1F
100
AcDbEntity
  8
1
  6
CONTINUOUS
370
    50
100
AcDbLine
 10
5.75
 20
7.8
 30
0.0
 11
5.75
 21
-7.8
 31
0.0
  0
LINE
  5
BA
330
1F
100
AcDbEntity
  8
1
  6
CONTINUOUS
370
    50
100
AcDbLine
 10
25.05
 20
10.0
 30
0.0
 11
7.95
 21
10.0
 31
0.0
  0
LINE
  5
BB
330
1F
100
AcDbEntity
  8
SK1
  6
CONTINUOUS
370
    50
100
AcDbLine
 10
-3.9629909152
 20
-16.5
 30
0.0
 11
-11.0370090847
 21
-16.5
 31
0.0
  0
LINE
  5
BC
330
1F
100
AcDbEntity
  8
SK1
  6
CONTINUOUS
370
    50
100
AcDbLine
 10
-3.9629909152
 20
16.5
 30
0.0
 11
-11.0370090847
 21
16.5
 31
0.0
  0
LINE
  5
BD
330
1F
100
AcDbEntity
  8
1
  6
CONTINUOUS
370
    50
100
AcDbLine
 10
36.8452994616
 20
2.0
 30
0.0
 11
35.6905989232
 21
0.0
 31
0.0
  0
LINE
  5
BE
330
1F
100
AcDbEntity
  8
1
  6
CONTINUOUS
370
    50
100
AcDbLine
 10
39.1547005384
 20
-2.0
 30
0.0
 11
40.3094010768
 21
0.0
 31
0.0
  0
LINE
  5
BF
330
1F
100
AcDbEntity
  8
1
  6
CONTINUOUS
370
    50
100
AcDbLine
 10
40.3094010768
 20
0.0
 30
0.0
 11
39.1547005384
 21
2.0
 31
0.0
  0
LINE
  5
C0
330
1F
100
AcDbEntity
  8
1
  6
CONTINUOUS
370
    50
100
AcDbLine
 10
39.1547005384
 20
2.0
 30
0.0
 11
36.8452994616
 21
2.0
 31
0.0
  0
LINE
  5
C1
330
1F
100
AcDbEntity
  8
1
  6
CONTINUOUS
370
    50
100
AcDbLine
 10
35.6905989232
 20
0.0
 30
0.0
 11
36.8452994616
 21
-2.0
 31
0.0
  0
LINE
  5
C2
330
1F
100
AcDbEntity
  8
1
  6
CONTINUOUS
370
    50
100
AcDbLine
 10
36.8452994616
 20
-2.0
 30
0.0
 11
39.1547005384
 21
-2.0
 31
0.0
  0
LINE
  5
C3
330
1F
100
AcDbEntity
  8
SK1
  6
CONTINUOUS
370
    50
100
AcDbLine
 10
40.5
 20
24.0
 30
0.0
 11
35.5
 21
24.0
 31
0.0
  0
LINE
  5
C4
330
1F
100
AcDbEntity
  8
1
  6
CONTINUOUS
370
    50
100
AcDbLine
 10
49.4995895575
 20
-21.0083012702
 30
0.0
 11
25.6308012702
 21
-21.0083012702
 31
0.0
  0
LINE
  5
C5
330
1F
100
AcDbEntity
  8
1
  6
CONTINUOUS
370
    50
100
AcDbLine
 10
42.040385683
 20
-23.24
 30
0.0
 11
33.959614317
 21
-23.24
 31
0.0
  0
LINE
  5
C6
330
1F
100
AcDbEntity
  8
1
  6
CONTINUOUS
370
    50
100
AcDbLine
 10
27.75
 20
12.0177992997
 30
0.0
 11
27.75
 21
-12.0177992994
 31
0.0
  0
LINE
  5
C7
330
1F
100
AcDbEntity
  8
1
  6
CONTINUOUS
370
    50
100
AcDbLine
 10
43.6592791105
 20
18.3053386191
 30
0.0
 11
49.5358983849
 21
16.7307032303
 31
0.0
  0
LINE
  5
C8
330
1F
100
AcDbEntity
  8
1
  6
CONTINUOUS
370
    50
100
AcDbLine
 10
49.5358983849
 20
-21.0
 30
0.0
 11
23.7
 21
-21.0
 31
0.0
  0
LINE
  5
C9
330
1F
100
AcDbEntity
  8
1
  6
CONTINUOUS
370
    50
100
AcDbLine
 10
23.7
 20
-21.0
 30
0.0
 11
21.6792740578
 21
-24.5
 31
0.0
  0
LINE
  5
CA
330
1F
100
AcDbEntity
  8
1
  6
CONTINUOUS
370
    50
100
AcDbLine
 10
4.8033671643
 20
24.5
 30
0.0
 11
7.4
 21
20.0025
 31
0.0
  0
LINE
  5
CB
330
1F
100
AcDbEntity
  8
1
  6
CONTINUOUS
370
    50
100
AcDbLine
 10
7.4
 20
20.0025
 30
0.0
 11
27.6724669098
 21
20.0025
 31
0.0
  0
LINE
  5
CC
330
1F
100
AcDbEntity
  8
1
  6
CONTINUOUS
370
    50
100
AcDbLine
 10
27.6724669098
 20
20.0025
 30
0.0
 11
27.3507433174
 21
19.773494151
 31
0.0
  0
LINE
  5
CD
330
1F
100
AcDbEntity
  8
1
  6
CONTINUOUS
370
    50
100
AcDbLine
 10
27.3507433174
 20
19.773494151
 30
0.0
 11
27.0954951145
 21
19.5227643389
 31
0.0
  0
LINE
  5
CE
330
1F
100
AcDbEntity
  8
1
  6
CONTINUOUS
370
    50
100
AcDbLine
 10
27.0954951145
 20
19.5227643389
 30
0.0
 11
26.9912740313
 21
19.3837606847
 31
0.0
  0
LINE
  5
CF
330
1F
100
AcDbEntity
  8
1
  6
CONTINUOUS
370
    50
100
AcDbLine
 10
26.9912740313
 20
19.3837606847
 30
0.0
 11
26.906935905
 21
19.2368068971
 31
0.0
  0
LINE
  5
D0
330
1F
100
AcDbEntity
  8
1
  6
CONTINUOUS
370
    50
100
AcDbLine
 10
26.906935905
 20
19.2368068971
 30
0.0
 11
26.8468583709
 21
19.0886626561
 31
0.0
  0
LINE
  5
D1
330
1F
100
AcDbEntity
  8
1
  6
CONTINUOUS
370
    50
100
AcDbLine
 10
26.8468583709
 20
19.0886626561
 30
0.0
 11
26.8092407314
 21
18.9343981334
 31
0.0
  0
LINE
  5
D2
330
1F
100
AcDbEntity
  8
1
  6
CONTINUOUS
370
    50
100
AcDbLine
 10
26.8092407314
 20
18.9343981334
 30
0.0
 11
26.7956767521
 21
18.7718586368
 31
0.0
  0
LINE
  5
D3
330
1F
100
AcDbEntity
  8
1
  6
CONTINUOUS
370
    50
100
AcDbLine
 10
26.7956767521
 20
18.7718586368
 30
0.0
 11
26.8083210916
 21
18.60549583
 31
0.0
  0
LINE
  5
D4
330
1F
100
AcDbEntity
  8
1
  6
CONTINUOUS
370
    50
100
AcDbLine
 10
26.8083210916
 20
18.60549583
 30
0.0
 11
26.8850621459
 21
18.3329114417
 31
0.0
  0
LINE
  5
D5
330
1F
100
AcDbEntity
  8
1
  6
CONTINUOUS
370
    50
100
AcDbLine
 10
26.8850621459
 20
18.3329114417
 30
0.0
 11
27.0307643948
 21
18.0596874445
 31
0.0
  0
LINE
  5
D6
330
1F
100
AcDbEntity
  8
1
  6
CONTINUOUS
370
    50
100
AcDbLine
 10
27.0307643948
 20
18.0596874445
 30
0.0
 11
27.1540582417
 21
17.8927745278
 31
0.0
  0
LINE
  5
D7
330
1F
100
AcDbEntity
  8
1
  6
CONTINUOUS
370
    50
100
AcDbLine
 10
27.1540582417
 20
17.8927745278
 30
0.0
 11
27.2993805405
 21
17.7308275225
 31
0.0
  0
LINE
  5
D8
330
1F
100
AcDbEntity
  8
1
  6
CONTINUOUS
370
    50
100
AcDbLine
 10
27.2993805405
 20
17.7308275225
 30
0.0
 11
27.6520621246
 21
17.4213860323
 31
0.0
  0
LINE
  5
D9
330
1F
100
AcDbEntity
  8
1
  6
CONTINUOUS
370
    50
100
AcDbLine
 10
27.6520621246
 20
17.4213860323
 30
0.0
 11
27.9421733903
 21
17.2185348801
 31
0.0
  0
LINE
  5
DA
330
1F
100
AcDbEntity
  8
1
  6
CONTINUOUS
370
    50
100
AcDbLine
 10
27.9421733903
 20
17.2185348801
 30
0.0
 11
28.2585554111
 21
17.0306911603
 31
0.0
  0
LINE
  5
DB
330
1F
100
AcDbEntity
  8
1
  6
CONTINUOUS
370
    50
100
AcDbLine
 10
28.2585554111
 20
17.0306911603
 30
0.0
 11
28.6010038056
 21
16.8557653632
 31
0.0
  0
LINE
  5
DC
330
1F
100
AcDbEntity
  8
1
  6
CONTINUOUS
370
    50
100
AcDbLine
 10
28.6010038056
 20
16.8557653632
 30
0.0
 11
28.9611874204
 21
16.6961547009
 31
0.0
  0
LINE
  5
DD
330
1F
100
AcDbEntity
  8
1
  6
CONTINUOUS
370
    50
100
AcDbLine
 10
28.9611874204
 20
16.6961547009
 30
0.0
 11
29.5814150968
 21
16.4662739874
 31
0.0
  0
LINE
  5
DE
330
1F
100
AcDbEntity
  8
1
  6
CONTINUOUS
370
    50
100
AcDbLine
 10
29.5814150968
 20
16.4662739874
 30
0.0
 11
31.6070666928
 21
15.9829966937
 31
0.0
  0
LINE
  5
DF
330
1F
100
AcDbEntity
  8
1
  6
CONTINUOUS
370
    50
100
AcDbLine
 10
31.6070666928
 20
15.9829966937
 30
0.0
 11
32.2018160692
 21
15.898137109
 31
0.0
  0
LINE
  5
E0
330
1F
100
AcDbEntity
  8
1
  6
CONTINUOUS
370
    50
100
AcDbLine
 10
32.2018160692
 20
15.898137109
 30
0.0
 11
32.802306269
 21
15.8335380738
 31
0.0
  0
LINE
  5
E1
330
1F
100
AcDbEntity
  8
1
  6
CONTINUOUS
370
    50
100
AcDbLine
 10
32.802306269
 20
15.8335380738
 30
0.0
 11
33.4092943072
 21
15.7880216107
 31
0.0
  0
LINE
  5
E2
330
1F
100
AcDbEntity
  8
1
  6
CONTINUOUS
370
    50
100
AcDbLine
 10
33.4092943072
 20
15.7880216107
 30
0.0
 11
34.0191733645
 21
15.7609894821
 31
0.0
  0
LINE
  5
E3
330
1F
100
AcDbEntity
  8
1
  6
CONTINUOUS
370
    50
100
AcDbLine
 10
34.0191733645
 20
15.7609894821
 30
0.0
 11
34.6411178675
 21
15.751706304
 31
0.0
  0
LINE
  5
E4
330
1F
100
AcDbEntity
  8
1
  6
CONTINUOUS
370
    50
100
AcDbLine
 10
34.6411178675
 20
15.751706304
 30
0.0
 11
35.2639567935
 21
15.7601768756
 31
0.0
  0
LINE
  5
E5
330
1F
100
AcDbEntity
  8
1
  6
CONTINUOUS
370
    50
100
AcDbLine
 10
35.2639567935
 20
15.7601768756
 30
0.0
 11
36.512256664
 21
15.8290443408
 31
0.0
  0
LINE
  5
E6
330
1F
100
AcDbEntity
  8
1
  6
CONTINUOUS
370
    50
100
AcDbLine
 10
36.512256664
 20
15.8290443408
 30
0.0
 11
37.148538477
 21
15.8906047492
 31
0.0
  0
LINE
  5
E7
330
1F
100
AcDbEntity
  8
1
  6
CONTINUOUS
370
    50
100
AcDbLine
 10
37.148538477
 20
15.8906047492
 30
0.0
 11
37.7822464894
 21
15.9700257293
 31
0.0
  0
LINE
  5
E8
330
1F
100
AcDbEntity
  8
1
  6
CONTINUOUS
370
    50
100
AcDbLine
 10
37.7822464894
 20
15.9700257293
 30
0.0
 11
38.4142429724
 21
16.0679217125
 31
0.0
  0
LINE
  5
E9
330
1F
100
AcDbEntity
  8
1
  6
CONTINUOUS
370
    50
100
AcDbLine
 10
38.4142429724
 20
16.0679217125
 30
0.0
 11
39.0415025169
 21
16.1846597011
 31
0.0
  0
LINE
  5
EA
330
1F
100
AcDbEntity
  8
1
  6
CONTINUOUS
370
    50
100
AcDbLine
 10
39.0415025169
 20
16.1846597011
 30
0.0
 11
39.6746569
 21
16.3240215678
 31
0.0
  0
LINE
  5
EB
330
1F
100
AcDbEntity
  8
1
  6
CONTINUOUS
370
    50
100
AcDbLine
 10
39.6746569
 20
16.3240215678
 30
0.0
 11
40.2994638233
 21
16.4853608743
 31
0.0
  0
LINE
  5
EC
330
1F
100
AcDbEntity
  8
1
  6
CONTINUOUS
370
    50
100
AcDbLine
 10
40.2994638233
 20
16.4853608743
 30
0.0
 11
40.9167071734
 21
16.6719071314
 31
0.0
  0
LINE
  5
ED
330
1F
100
AcDbEntity
  8
1
  6
CONTINUOUS
370
    50
100
AcDbLine
 10
40.9167071734
 20
16.6719071314
 30
0.0
 11
41.5187687573
 21
16.8858804982
 31
0.0
  0
LINE
  5
EE
330
1F
100
AcDbEntity
  8
1
  6
CONTINUOUS
370
    50
100
AcDbLine
 10
41.5187687573
 20
16.8858804982
 30
0.0
 11
41.8967307384
 21
17.0406774079
 31
0.0
  0
LINE
  5
EF
330
1F
100
AcDbEntity
  8
1
  6
CONTINUOUS
370
    50
100
AcDbLine
 10
41.8967307384
 20
17.0406774079
 30
0.0
 11
42.2627480885
 21
17.2101275202
 31
0.0
  0
LINE
  5
F0
330
1F
100
AcDbEntity
  8
1
  6
CONTINUOUS
370
    50
100
AcDbLine
 10
42.2627480885
 20
17.2101275202
 30
0.0
 11
42.616170471
 21
17.3979642985
 31
0.0
  0
LINE
  5
F1
330
1F
100
AcDbEntity
  8
1
  6
CONTINUOUS
370
    50
100
AcDbLine
 10
42.616170471
 20
17.3979642985
 30
0.0
 11
42.9480551861
 21
17.605370981
 31
0.0
  0
LINE
  5
F2
330
1F
100
AcDbEntity
  8
1
  6
CONTINUOUS
370
    50
100
AcDbLine
 10
42.9480551861
 20
17.605370981
 30
0.0
 11
43.2378994803
 21
17.8255211449
 31
0.0
  0
LINE
  5
F3
330
1F
100
AcDbEntity
  8
1
  6
CONTINUOUS
370
    50
100
AcDbLine
 10
43.2378994803
 20
17.8255211449
 30
0.0
 11
43.488013208
 21
18.0699621164
 31
0.0
  0
LINE
  5
F4
330
1F
100
AcDbEntity
  8
1
  6
CONTINUOUS
370
    50
100
AcDbLine
 10
43.488013208
 20
18.0699621164
 30
0.0
 11
43.6592791105
 21
18.3053386191
 31
0.0
  0
LINE
  5
F5
330
1F
100
AcDbEntity
  8
1
  6
CONTINUOUS
370
    50
100
AcDbLine
 10
0.5
 20
-24.5
 30
0.0
 11
0.5
 21
24.5
 31
0.0
  0
LINE
  5
F6
330
1F
100
AcDbEntity
  8
1
  6
CONTINUOUS
370
    50
100
AcDbLine
 10
27.75
 20
12.0177992997
 30
0.0
 11
5.2499999993
 21
12.0177992995
 31
0.0
  0
LINE
  5
F7
330
1F
100
AcDbEntity
  8
1
  6
CONTINUOUS
370
    50
100
AcDbLine
 10
5.2499999993
 20
-12.0177992994
 30
0.0
 11
27.75
 21
-12.0177992994
 31
0.0
  0
LINE
  5
F8
330
1F
100
AcDbEntity
  8
1
  6
CONTINUOUS
370
    50
100
AcDbLine
 10
5.2499999993
 20
12.0177992995
 30
0.0
 11
5.2499999993
 21
-12.0177992994
 31
0.0
  0
LINE
  5
F9
330
1F
100
AcDbEntity
  8
1
  6
CONTINUOUS
370
    50
100
AcDbLine
 10
50.8349364905
 20
-21.0
 30
0.0
 11
49.5358983849
 21
-21.0
 31
0.0
  0
LINE
  5
FA
330
1F
100
AcDbEntity
  8
1
  6
CONTINUOUS
370
    50
100
AcDbLine
 10
49.5358983849
 20
16.7307032303
 30
0.0
 11
50.8349364905
 21
16.3826270189
 31
0.0
  0
LINE
  5
FB
330
1F
100
AcDbEntity
  8
1
  6
CONTINUOUS
370
    50
100
AcDbLine
 10
0.0
 20
-24.0
 30
0.0
 11
0.0
 21
24.0
 31
0.0
  0
LINE
  5
FC
330
1F
100
AcDbEntity
  8
1
  6
CONTINUOUS
370
    50
100
AcDbLine
 10
52.3984983043
 20
-21.0
 30
0.0
 11
50.8349364905
 21
-21.0
 31
0.0
  0
LINE
  5
FD
330
1F
100
AcDbEntity
  8
1
  6
CONTINUOUS
370
    50
100
AcDbLine
 10
50.8349364905
 20
16.3826270189
 30
0.0
 11
53.0
 21
15.8025
 31
0.0
  0
LINE
  5
FE
330
1F
100
AcDbEntity
  8
1
  6
CONTINUOUS
370
    50
100
AcDbLine
 10
53.0
 20
-20.0
 30
0.0
 11
53.0
 21
15.8025
 31
0.0
  0
LINE
  5
FF
330
1F
100
AcDbEntity
  8
1
  6
CONTINUOUS
370
    50
100
AcDbLine
 10
27.35
 20
7.9
 30
0.0
 11
27.35
 21
-7.9
 31
0.0
  0
LINE
  5
100
330
1F
100
AcDbEntity
  8
1
  6
CONTINUOUS
370
    50
100
AcDbLine
 10
5.65
 20
7.9
 30
0.0
 11
5.65
 21
-7.9
 31
0.0
  0
LINE
  5
101
330
1F
100
AcDbEntity
  8
1
  6
CONTINUOUS
370
    50
100
AcDbLine
 10
7.85
 20
10.1
 30
0.0
 11
25.15
 21
10.1
 31
0.0
  0
LINE
  5
102
330
1F
100
AcDbEntity
  8
1
  6
CONTINUOUS
370
    50
100
AcDbLine
 10
7.85
 20
-10.1
 30
0.0
 11
25.15
 21
-10.1
 31
0.0
  0
LINE
  5
103
330
1F
100
AcDbEntity
  8
1
  6
CONTINUOUS
370
    50
100
AcDbLine
 10
37.3253866082
 20
20.0025
 30
0.0
 11
43.6592791105
 21
18.3053386191
 31
0.0
  0
LINE
  5
104
330
1F
100
AcDbEntity
  8
1
  6
CONTINUOUS
370
    50
100
AcDbLine
 10
27.6724669098
 20
20.0025
 30
0.0
 11
37.3253866082
 21
20.0025
 31
0.0
  0
LINE
  5
105
330
1F
100
AcDbEntity
  8
SK1
  6
CONTINUOUS
370
    50
100
AcDbLine
 10
-1.1122364103
 20
-13.9554035827
 30
0.0
 11
-1.1122364103
 21
13.9554035828
 31
0.0
  0
LINE
  5
106
330
1F
100
AcDbEntity
  8
SK1
  6
CONTINUOUS
370
    50
100
AcDbLine
 10
-25.5
 20
6.8847433564
 30
0.0
 11
-25.5
 21
14.0
 31
0.0
  0
LINE
  5
107
330
1F
100
AcDbEntity
  8
SK1
  6
CONTINUOUS
370
    50
100
AcDbLine
 10
-25.5
 20
-14.0
 30
0.0
 11
-25.5
 21
-6.8847433564
 31
0.0
  0
LINE
  5
108
330
1F
100
AcDbEntity
  8
SK1
  6
CONTINUOUS
370
    50
100
AcDbLine
 10
-7.5
 20
-0.3632010898
 30
0.0
 11
-7.5
 21
-0.6044431292
 31
0.0
  0
LINE
  5
109
330
1F
100
AcDbEntity
  8
SK1
  6
CONTINUOUS
370
    50
100
AcDbLine
 10
-7.5
 20
-0.3632010898
 30
0.0
 11
-7.6229634697
 21
-1.1111937514
 31
0.0
  0
LINE
  5
10A
330
1F
100
AcDbEntity
  8
SK1
  6
CONTINUOUS
370
    50
100
AcDbLine
 10
-7.6229634697
 20
-1.1111937514
 30
0.0
 11
-7.8648965628
 21
-1.8269127119
 31
0.0
  0
LINE
  5
10B
330
1F
100
AcDbEntity
  8
SK1
  6
CONTINUOUS
370
    50
100
AcDbLine
 10
-7.8648965628
 20
-1.8269127119
 30
0.0
 11
-8.2175092254
 21
-2.4901715358
 31
0.0
  0
LINE
  5
10C
330
1F
100
AcDbEntity
  8
SK1
  6
CONTINUOUS
370
    50
100
AcDbLine
 10
-8.2175092254
 20
-2.4901715358
 30
0.0
 11
-8.6680739594
 21
-3.0881246223
 31
0.0
  0
LINE
  5
10D
330
1F
100
AcDbEntity
  8
SK1
  6
CONTINUOUS
370
    50
100
AcDbLine
 10
-8.6680739594
 20
-3.0881246223
 30
0.0
 11
-9.2417828357
 21
-3.6386840197
 31
0.0
  0
LINE
  5
10E
330
1F
100
AcDbEntity
  8
SK1
  6
CONTINUOUS
370
    50
100
AcDbLine
 10
-9.2417828357
 20
-3.6386840197
 30
0.0
 11
-9.896767836
 21
-4.0915521974
 31
0.0
  0
LINE
  5
10F
330
1F
100
AcDbEntity
  8
SK1
  6
CONTINUOUS
370
    50
100
AcDbLine
 10
-9.896767836
 20
-4.0915521974
 30
0.0
 11
-10.663957214
 21
-4.4540413756
 31
0.0
  0
LINE
  5
110
330
1F
100
AcDbEntity
  8
SK1
  6
CONTINUOUS
370
    50
100
AcDbLine
 10
-10.663957214
 20
-4.4540413756
 30
0.0
 11
-11.4839155
 21
-4.6874949263
 31
0.0
  0
LINE
  5
111
330
1F
100
AcDbEntity
  8
SK1
  6
CONTINUOUS
370
    50
100
AcDbLine
 10
-11.4839155
 20
-4.6874949263
 30
0.0
 11
-12.3313440366
 21
-4.7834880786
 31
0.0
  0
LINE
  5
112
330
1F
100
AcDbEntity
  8
SK1
  6
CONTINUOUS
370
    50
100
AcDbLine
 10
-12.3313440366
 20
-4.7834880786
 30
0.0
 11
-13.1837333746
 21
-4.7420494246
 31
0.0
  0
LINE
  5
113
330
1F
100
AcDbEntity
  8
SK1
  6
CONTINUOUS
370
    50
100
AcDbLine
 10
-13.1837333746
 20
-4.7420494246
 30
0.0
 11
-13.9963314221
 21
-4.5683393223
 31
0.0
  0
LINE
  5
114
330
1F
100
AcDbEntity
  8
SK1
  6
CONTINUOUS
370
    50
100
AcDbLine
 10
-13.9963314221
 20
-4.5683393223
 30
0.0
 11
-14.7678356841
 21
-4.2695371653
 31
0.0
  0
LINE
  5
115
330
1F
100
AcDbEntity
  8
SK1
  6
CONTINUOUS
370
    50
100
AcDbLine
 10
-14.7678356841
 20
-4.2695371653
 30
0.0
 11
-15.4883232621
 21
-3.843878236
 31
0.0
  0
LINE
  5
116
330
1F
100
AcDbEntity
  8
SK1
  6
CONTINUOUS
370
    50
100
AcDbLine
 10
-15.4883232621
 20
-3.843878236
 30
0.0
 11
-16.1267216912
 21
-3.3062557971
 31
0.0
  0
LINE
  5
117
330
1F
100
AcDbEntity
  8
SK1
  6
CONTINUOUS
370
    50
100
AcDbLine
 10
-16.1267216912
 20
-3.3062557971
 30
0.0
 11
-16.6723222361
 21
-2.6548262968
 31
0.0
  0
LINE
  5
118
330
1F
100
AcDbEntity
  8
SK1
  6
CONTINUOUS
370
    50
100
AcDbLine
 10
-16.6723222361
 20
-2.6548262968
 30
0.0
 11
-17.095873001
 21
-1.9151416275
 31
0.0
  0
LINE
  5
119
330
1F
100
AcDbEntity
  8
SK1
  6
CONTINUOUS
370
    50
100
AcDbLine
 10
-17.095873001
 20
-1.9151416275
 30
0.0
 11
-17.3678563881
 21
-1.1466113194
 31
0.0
  0
LINE
  5
11A
330
1F
100
AcDbEntity
  8
SK1
  6
CONTINUOUS
370
    50
100
AcDbLine
 10
-17.3678563881
 20
-1.1466113194
 30
0.0
 11
-17.501828681
 21
-0.3394651921
 31
0.0
  0
LINE
  5
11B
330
1F
100
AcDbEntity
  8
SK1
  6
CONTINUOUS
370
    50
100
AcDbLine
 10
-17.501828681
 20
-0.3394651921
 30
0.0
 11
-17.495152469
 21
0.413773881
 31
0.0
  0
LINE
  5
11C
330
1F
100
AcDbEntity
  8
SK1
  6
CONTINUOUS
370
    50
100
AcDbLine
 10
-17.495152469
 20
0.413773881
 30
0.0
 11
-17.3664123511
 21
1.1548840373
 31
0.0
  0
LINE
  5
11D
330
1F
100
AcDbEntity
  8
SK1
  6
CONTINUOUS
370
    50
100
AcDbLine
 10
-17.3664123511
 20
1.1548840373
 30
0.0
 11
-17.126397859
 21
1.8459894611
 31
0.0
  0
LINE
  5
11E
330
1F
100
AcDbEntity
  8
SK1
  6
CONTINUOUS
370
    50
100
AcDbLine
 10
-17.126397859
 20
1.8459894611
 30
0.0
 11
-16.7836384881
 21
2.4890194419
 31
0.0
  0
LINE
  5
11F
330
1F
100
AcDbEntity
  8
SK1
  6
CONTINUOUS
370
    50
100
AcDbLine
 10
-16.7836384881
 20
2.4890194419
 30
0.0
 11
-16.3213784558
 21
3.0995330656
 31
0.0
  0
LINE
  5
120
330
1F
100
AcDbEntity
  8
SK1
  6
CONTINUOUS
370
    50
100
AcDbLine
 10
-16.3213784558
 20
3.0995330656
 30
0.0
 11
-15.7699455266
 21
3.6295210283
 31
0.0
  0
LINE
  5
121
330
1F
100
AcDbEntity
  8
SK1
  6
CONTINUOUS
370
    50
100
AcDbLine
 10
-15.7699455266
 20
3.6295210283
 30
0.0
 11
-15.0903595438
 21
4.0985382393
 31
0.0
  0
LINE
  5
122
330
1F
100
AcDbEntity
  8
SK1
  6
CONTINUOUS
370
    50
100
AcDbLine
 10
-15.0903595438
 20
4.0985382393
 30
0.0
 11
-14.3409333548
 21
4.452697123
 31
0.0
  0
LINE
  5
123
330
1F
100
AcDbEntity
  8
SK1
  6
CONTINUOUS
370
    50
100
AcDbLine
 10
-14.3409333548
 20
4.452697123
 30
0.0
 11
-13.5158386583
 21
4.6870122579
 31
0.0
  0
LINE
  5
124
330
1F
100
AcDbEntity
  8
SK1
  6
CONTINUOUS
370
    50
100
AcDbLine
 10
-13.5158386583
 20
4.6870122579
 30
0.0
 11
-12.6606226903
 21
4.7842678371
 31
0.0
  0
LINE
  5
125
330
1F
100
AcDbEntity
  8
SK1
  6
CONTINUOUS
370
    50
100
AcDbLine
 10
-12.6606226903
 20
4.7842678371
 30
0.0
 11
-11.8209842838
 21
4.7421761448
 31
0.0
  0
LINE
  5
126
330
1F
100
AcDbEntity
  8
SK1
  6
CONTINUOUS
370
    50
100
AcDbLine
 10
-11.8209842838
 20
4.7421761448
 30
0.0
 11
-11.0006499446
 21
4.5678895346
 31
0.0
  0
LINE
  5
127
330
1F
100
AcDbEntity
  8
SK1
  6
CONTINUOUS
370
    50
100
AcDbLine
 10
-11.0006499446
 20
4.5678895346
 30
0.0
 11
-10.2274473127
 21
4.2668087696
 31
0.0
  0
LINE
  5
128
330
1F
100
AcDbEntity
  8
SK1
  6
CONTINUOUS
370
    50
100
AcDbLine
 10
-10.2274473127
 20
4.2668087696
 30
0.0
 11
-9.5158015817
 21
3.8472908497
 31
0.0
  0
LINE
  5
129
330
1F
100
AcDbEntity
  8
SK1
  6
CONTINUOUS
370
    50
100
AcDbLine
 10
-9.5158015817
 20
3.8472908497
 30
0.0
 11
-8.8690312443
 21
3.3013582313
 31
0.0
  0
LINE
  5
12A
330
1F
100
AcDbEntity
  8
SK1
  6
CONTINUOUS
370
    50
100
AcDbLine
 10
-8.8690312443
 20
3.3013582313
 30
0.0
 11
-8.3253160802
 21
2.6524051675
 31
0.0
  0
LINE
  5
12B
330
1F
100
AcDbEntity
  8
SK1
  6
CONTINUOUS
370
    50
100
AcDbLine
 10
-8.3253160802
 20
2.6524051675
 30
0.0
 11
-7.9086219855
 21
1.9233980894
 31
0.0
  0
LINE
  5
12C
330
1F
100
AcDbEntity
  8
SK1
  6
CONTINUOUS
370
    50
100
AcDbLine
 10
-7.9086219855
 20
1.9233980894
 30
0.0
 11
-7.626795214
 21
1.1284659044
 31
0.0
  0
LINE
  5
12D
330
1F
100
AcDbEntity
  8
SK1
  6
CONTINUOUS
370
    50
100
AcDbLine
 10
-7.626795214
 20
1.1284659044
 30
0.0
 11
-7.5
 21
0.3632010899
 31
0.0
  0
LINE
  5
12E
330
1F
100
AcDbEntity
  8
SK1
  6
CONTINUOUS
370
    50
100
AcDbLine
 10
-7.5
 20
0.6044431292
 30
0.0
 11
-7.5
 21
0.3632010899
 31
0.0
  0
LINE
  5
12F
330
1F
100
AcDbEntity
  8
SK1
  6
CONTINUOUS
370
    50
100
AcDbLine
 10
-1.1122364103
 20
13.9554035828
 30
0.0
 11
-1.0339402938
 21
13.9672468461
 31
0.0
  0
LINE
  5
130
330
1F
100
AcDbEntity
  8
SK1
  6
CONTINUOUS
370
    50
100
AcDbLine
 10
-1.0339402938
 20
13.9672468461
 30
0.0
 11
-1.0060987781
 21
13.9715450426
 31
0.0
  0
LINE
  5
131
330
1F
100
AcDbEntity
  8
SK1
  6
CONTINUOUS
370
    50
100
AcDbLine
 10
-1.0060987781
 20
13.9715450426
 30
0.0
 11
-1.0070265085
 21
13.9714017518
 31
0.0
  0
LINE
  5
132
330
1F
100
AcDbEntity
  8
SK1
  6
CONTINUOUS
370
    50
100
AcDbLine
 10
-1.0070265085
 20
-13.9714017518
 30
0.0
 11
-1.0314823542
 21
-13.9676244734
 31
0.0
  0
LINE
  5
133
330
1F
100
AcDbEntity
  8
SK1
  6
CONTINUOUS
370
    50
100
AcDbLine
 10
-1.0314823542
 20
-13.9676244734
 30
0.0
 11
-1.1122364103
 21
-13.9554035827
 31
0.0
  0
LINE
  5
134
330
1F
100
AcDbEntity
  8
SK1
  6
CONTINUOUS
370
    50
100
AcDbLine
 10
-27.5199859625
 20
-13.7161094867
 30
0.0
 11
-27.5199859625
 21
13.7161094868
 31
0.0
  0
LINE
  5
135
330
1F
100
AcDbEntity
  8
SK1
  6
CONTINUOUS
370
    50
100
AcDbLine
 10
-30.0
 20
-13.2
 30
0.0
 11
-30.0
 21
13.2
 31
0.0
  0
LINE
  5
136
330
1F
100
AcDbEntity
  8
SK3
  6
DASH
370
    35
100
AcDbLine
 10
0.0
 20
6.25
 30
0.0
 11
-30.0
 21
6.25
 31
0.0
  0
LINE
  5
137
330
1F
100
AcDbEntity
  8
SK3
  6
DASH
370
    35
100
AcDbLine
 10
0.0
 20
6.25
 30
0.0
 11
2.2748139642
 21
0.0
 31
0.0
  0
LINE
  5
138
330
1F
100
AcDbEntity
  8
SK3
  6
DASH
370
    35
100
AcDbLine
 10
2.2748139642
 20
0.0
 30
0.0
 11
0.0
 21
-6.25
 31
0.0
  0
LINE
  5
139
330
1F
100
AcDbEntity
  8
SK3
  6
DASH
370
    35
100
AcDbLine
 10
0.0
 20
-6.25
 30
0.0
 11
-30.0
 21
-6.25
 31
0.0
  0
LINE
  5
13A
330
1F
100
AcDbEntity
  8
SK3
  6
DASH
370
    35
100
AcDbLine
 10
0.1131840359
 20
5.5039420814
 30
0.0
 11
27.4448714199
 21
17.5920905064
 31
0.0
  0
LINE
  5
13B
330
1F
100
AcDbEntity
  8
SK3
  6
DASH
370
    35
100
AcDbLine
 10
1.5529324041
 20
1.5482659502
 30
0.0
 11
30.3081728636
 21
14.2660176861
 31
0.0
  0
LINE
  5
13C
330
1F
100
AcDbEntity
  8
SK3
  6
DASH
370
    35
100
AcDbLine
 10
28.5
 20
20.0025
 30
0.0
 11
28.5
 21
-17.2
 31
0.0
  0
LINE
  5
13D
330
1F
100
AcDbEntity
  8
SK3
  6
DASH
370
    35
100
AcDbLine
 10
28.5
 20
-17.2
 30
0.0
 11
25.825
 21
-17.2
 31
0.0
  0
LINE
  5
13E
330
1F
100
AcDbEntity
  8
SK3
  6
DASH
370
    35
100
AcDbLine
 10
25.825
 20
-17.2
 30
0.0
 11
25.825
 21
-21.0
 31
0.0
  0
LINE
  5
13F
330
1F
100
AcDbEntity
  8
SK3
  6
DASH
370
    35
100
AcDbLine
 10
48.0
 20
17.1422459622
 30
0.0
 11
48.0
 21
-17.2
 31
0.0
  0
LINE
  5
140
330
1F
100
AcDbEntity
  8
SK3
  6
DASH
370
    35
100
AcDbLine
 10
48.0
 20
-17.2
 30
0.0
 11
50.51
 21
-17.2
 31
0.0
  0
LINE
  5
141
330
1F
100
AcDbEntity
  8
SK3
  6
DASH
370
    35
100
AcDbLine
 10
50.51
 20
-17.2
 30
0.0
 11
50.51
 21
-21.0
 31
0.0
  0
LINE
  5
142
330
1F
100
AcDbEntity
  8
SK3
  6
DASH
370
    35
100
AcDbLine
 10
28.5
 20
-17.2
 30
0.0
 11
48.0
 21
-17.2
 31
0.0
  0
ARC
  5
143
330
1F
100
AcDbEntity
  8
SK1
  6
CONTINUOUS
370
    50
100
AcDbCircle
 10
30.4880457976
 20
22.0149686212
 30
0.0
 40
1.977782797770838
100
AcDbArc
 50
89.5242247618
 51
180.4456555639
  0
ARC
  5
144
330
1F
100
AcDbEntity
  8
SK1
  6
CONTINUOUS
370
    50
100
AcDbCircle
 10
-3.0
 20
-13.8320508076
 30
0.0
 40
1.000000000000004
100
AcDbArc
 50
330.0
 51
0.0
  0
ARC
  5
145
330
1F
100
AcDbEntity
  8
SK1
  6
CONTINUOUS
370
    50
100
AcDbCircle
 10
-12.0
 20
-13.8320508075
 30
0.0
 40
1.000000000000028
100
AcDbArc
 50
180.0
 51
210.0
  0
ARC
  5
146
330
1F
100
AcDbEntity
  8
SK1
  6
CONTINUOUS
370
    50
100
AcDbCircle
 10
-3.0000000001
 20
13.8320508077
 30
0.0
 40
1.000000000000004
100
AcDbArc
 50
0.0
 51
30.0
  0
ARC
  5
147
330
1F
100
AcDbEntity
  8
SK1
  6
CONTINUOUS
370
    50
100
AcDbCircle
 10
-12.0
 20
13.8320508076
 30
0.0
 40
1.000000000000028
100
AcDbArc
 50
150.0
 51
180.0
  0
ARC
  5
148
330
1F
100
AcDbEntity
  8
SK1
  6
CONTINUOUS
370
    50
100
AcDbCircle
 10
-3.9629909152
 20
-15.5
 30
0.0
 40
0.9999999999634746
100
AcDbArc
 50
270.0
 51
329.9999999976
  0
ARC
  5
149
330
1F
100
AcDbEntity
  8
SK1
  6
CONTINUOUS
370
    50
100
AcDbCircle
 10
-11.0370090847
 20
-15.5
 30
0.0
 40
1.00000000000676
100
AcDbArc
 50
209.9999999996
 51
270.0
  0
ARC
  5
14A
330
1F
100
AcDbEntity
  8
SK1
  6
CONTINUOUS
370
    50
100
AcDbCircle
 10
-3.9629909152
 20
15.5000000001
 30
0.0
 40
0.9999999999634416
100
AcDbArc
 50
30.0000000024
 51
90.0
  0
ARC
  5
14B
330
1F
100
AcDbEntity
  8
SK1
  6
CONTINUOUS
370
    50
100
AcDbCircle
 10
-11.0370090847
 20
15.5
 30
0.0
 40
1.000000000006723
100
AcDbArc
 50
90.0
 51
150.0000000004
  0
ARC
  5
14C
330
1F
100
AcDbEntity
  8
SK1
  6
CONTINUOUS
370
    50
100
AcDbCircle
 10
-0.3
 20
-14.3
 30
0.0
 40
0.5000000000000168
100
AcDbArc
 50
53.1301023542
 51
105.0
  0
ARC
  5
14D
330
1F
100
AcDbEntity
  8
SK1
  6
CONTINUOUS
370
    50
100
AcDbCircle
 10
-0.3
 20
14.3
 30
0.0
 40
0.5000000000000182
100
AcDbArc
 50
255.0
 51
306.8698976458
  0
ARC
  5
14E
330
1F
100
AcDbEntity
  8
SK1
  6
CONTINUOUS
370
    50
100
AcDbCircle
 10
-29.2
 20
-13.2
 30
0.0
 40
0.7999999999922807
100
AcDbArc
 50
180.0
 51
279.9999999978
  0
ARC
  5
14F
330
1F
100
AcDbEntity
  8
SK1
  6
CONTINUOUS
370
    50
100
AcDbCircle
 10
-29.2
 20
13.2
 30
0.0
 40
0.7999999999922807
100
AcDbArc
 50
80.00000000220001
 51
179.9999999989
  0
ARC
  5
150
330
1F
100
AcDbEntity
  8
SK1
  6
CONTINUOUS
370
    50
100
AcDbCircle
 10
56.0996038841
 20
16.5049160647
 30
0.0
 40
0.3999999999996147
100
AcDbArc
 50
236.9999999986
 51
356.9999999995999
  0
ARC
  5
151
330
1F
100
AcDbEntity
  8
SK1
  6
CONTINUOUS
370
    50
100
AcDbCircle
 10
48.0375626926
 20
21.7404668311
 30
0.0
 40
0.4000000000194486
100
AcDbArc
 50
116.9999999989
 51
237.0000000018
  0
CIRCLE
  5
152
330
1F
100
AcDbEntity
  8
SK1
  6
CONTINUOUS
370
    50
100
AcDbCircle
 10
53.5799566105
 20
21.450002274
 30
0.0
 40
1.9773502691896
  0
ARC
  5
153
330
1F
100
AcDbEntity
  8
SK1
  6
CONTINUOUS
370
    50
100
AcDbCircle
 10
56.6027032548
 20
26.1046239261
 30
0.0
 40
0.3999999999665776
100
AcDbArc
 50
357.0000000027
 51
117.0000000074
  0
ARC
  5
154
330
1F
100
AcDbEntity
  8
SK1
  6
CONTINUOUS
370
    50
100
AcDbCircle
 10
45.5
 20
22.0
 30
0.0
 40
2.0
100
AcDbArc
 50
20.7593124786
 51
90.0
  0
ARC
  5
155
330
1F
100
AcDbEntity
  8
SK1
  6
CONTINUOUS
370
    50
100
AcDbCircle
 10
37.9999691673
 20
47.4621434169
 30
0.0
 40
23.88978644153876
100
AcDbArc
 50
259.1426915506
 51
280.8473174469
  0
ARC
  5
156
330
1F
100
AcDbEntity
  8
SK1
  6
CONTINUOUS
370
    50
100
AcDbCircle
 10
48.62
 20
21.7099425853
 30
0.0
 40
1.59999999997056
100
AcDbArc
 50
142.0018706835
 51
225.5729959992
  0
ARC
  5
157
330
1F
100
AcDbEntity
  8
SK1
  6
CONTINUOUS
370
    50
100
AcDbCircle
 10
48.62
 20
21.7099425853
 30
0.0
 40
1.599999999995293
100
AcDbArc
 50
86.9999999996
 51
141.3662630383
  0
ARC
  5
158
330
1F
100
AcDbEntity
  8
SK1
  6
CONTINUOUS
370
    50
100
AcDbCircle
 10
48.62
 20
21.7099425853
 30
0.0
 40
1.599999999970567
100
AcDbArc
 50
225.5729959992
 51
266.9999999996
  0
ARC
  5
159
330
1F
100
AcDbEntity
  8
1
  6
CONTINUOUS
370
    50
100
AcDbCircle
 10
7.375
 20
7.8
 30
0.0
 40
0.1750000000000106
100
AcDbArc
 50
180.0
 51
272.204227504
  0
ARC
  5
15A
330
1F
100
AcDbEntity
  8
1
  6
CONTINUOUS
370
    50
100
AcDbCircle
 10
7.3875
 20
7.4752404736
 30
0.0
 40
0.1499999999904366
100
AcDbArc
 50
327.795772496
 51
92.2042275042
  0
ARC
  5
15B
330
1F
100
AcDbEntity
  8
1
  6
CONTINUOUS
370
    50
100
AcDbCircle
 10
7.6625
 20
7.3020353928
 30
0.0
 40
0.1750000000011183
100
AcDbArc
 50
147.7957724841
 51
239.9999999961
  0
CIRCLE
  5
15C
330
1F
100
AcDbEntity
  8
1
  6
CONTINUOUS
370
    50
100
AcDbCircle
 10
7.95
 20
7.8
 30
0.0
 40
1.250000000000001
  0
ARC
  5
15D
330
1F
100
AcDbEntity
  8
1
  6
CONTINUOUS
370
    50
100
AcDbCircle
 10
8.2375
 20
7.3020353928
 30
0.0
 40
0.1749999999896683
100
AcDbArc
 50
207.7957724881
 51
300.000000001
  0
ARC
  5
15E
330
1F
100
AcDbEntity
  8
1
  6
CONTINUOUS
370
    50
100
AcDbCircle
 10
7.95
 20
7.1504809472
 30
0.0
 40
0.1499999999854968
100
AcDbArc
 50
27.795772475
 51
152.204227504
  0
ARC
  5
15F
330
1F
100
AcDbEntity
  8
1
  6
CONTINUOUS
370
    50
100
AcDbCircle
 10
7.6625
 20
7.3020353928
 30
0.0
 40
0.1750000000010937
100
AcDbArc
 50
239.9999999961
 51
332.204227522
  0
ARC
  5
160
330
1F
100
AcDbEntity
  8
1
  6
CONTINUOUS
370
    50
100
AcDbCircle
 10
8.2375
 20
7.3020353928
 30
0.0
 40
0.1749999999896535
100
AcDbArc
 50
300.000000001
 51
32.204227504
  0
ARC
  5
161
330
1F
100
AcDbEntity
  8
1
  6
CONTINUOUS
370
    50
100
AcDbCircle
 10
8.5125
 20
7.4752404736
 30
0.0
 40
0.150000000011469
100
AcDbArc
 50
87.795772496
 51
212.2042275179
  0
ARC
  5
162
330
1F
100
AcDbEntity
  8
1
  6
CONTINUOUS
370
    50
100
AcDbCircle
 10
8.525
 20
7.8
 30
0.0
 40
0.1750000000000096
100
AcDbArc
 50
267.795772491
 51
359.9999999896
  0
ARC
  5
163
330
1F
100
AcDbEntity
  8
1
  6
CONTINUOUS
370
    50
100
AcDbCircle
 10
7.6625
 20
8.2979646072
 30
0.0
 40
0.1749999999896533
100
AcDbArc
 50
120.0000000035
 51
212.2042274857
  0
ARC
  5
164
330
1F
100
AcDbEntity
  8
1
  6
CONTINUOUS
370
    50
100
AcDbCircle
 10
7.375
 20
7.8
 30
0.0
 40
0.1750000000000106
100
AcDbArc
 50
87.795772496
 51
180.0
  0
ARC
  5
165
330
1F
100
AcDbEntity
  8
1
  6
CONTINUOUS
370
    50
100
AcDbCircle
 10
7.3875
 20
8.1247595264
 30
0.0
 40
0.1500000000019347
100
AcDbArc
 50
267.7957724958
 51
32.2042275179
  0
ARC
  5
166
330
1F
100
AcDbEntity
  8
1
  6
CONTINUOUS
370
    50
100
AcDbCircle
 10
7.6625
 20
8.2979646072
 30
0.0
 40
0.1749999999896533
100
AcDbArc
 50
27.795772496
 51
120.0000000035
  0
ARC
  5
167
330
1F
100
AcDbEntity
  8
1
  6
CONTINUOUS
370
    50
100
AcDbCircle
 10
8.2375
 20
8.2979646072
 30
0.0
 40
0.1749999999896616
100
AcDbArc
 50
59.9999999935
 51
152.2042275057
  0
ARC
  5
168
330
1F
100
AcDbEntity
  8
1
  6
CONTINUOUS
370
    50
100
AcDbCircle
 10
7.95
 20
8.4495190529
 30
0.0
 40
0.1500000000175911
100
AcDbArc
 50
207.7957725088
 51
332.2042274912
  0
ARC
  5
169
330
1F
100
AcDbEntity
  8
1
  6
CONTINUOUS
370
    50
100
AcDbCircle
 10
8.525
 20
7.8
 30
0.0
 40
0.1750000000000106
100
AcDbArc
 50
359.9999999896
 51
92.20422750399999
  0
ARC
  5
16A
330
1F
100
AcDbEntity
  8
1
  6
CONTINUOUS
370
    50
100
AcDbCircle
 10
8.2375
 20
8.2979646072
 30
0.0
 40
0.1749999999896616
100
AcDbArc
 50
327.795772496
 51
59.9999999935
  0
ARC
  5
16B
330
1F
100
AcDbEntity
  8
1
  6
CONTINUOUS
370
    50
100
AcDbCircle
 10
8.5125
 20
8.1247595264
 30
0.0
 40
0.1500000000019003
100
AcDbArc
 50
147.7957725005
 51
272.2042275088
  0
ARC
  5
16C
330
1F
100
AcDbEntity
  8
1
  6
CONTINUOUS
370
    50
100
AcDbCircle
 10
25.3375
 20
-5.2020353929
 30
0.0
 40
0.1750000000088125
100
AcDbArc
 50
327.795772496
 51
59.999999999
  0
ARC
  5
16D
330
1F
100
AcDbEntity
  8
1
  6
CONTINUOUS
370
    50
100
AcDbCircle
 10
25.625
 20
-5.7
 30
0.0
 40
0.1750000000000381
100
AcDbArc
 50
0.0000000006
 51
92.20422750399999
  0
ARC
  5
16E
330
1F
100
AcDbEntity
  8
1
  6
CONTINUOUS
370
    50
100
AcDbCircle
 10
25.6125
 20
-5.3752404736
 30
0.0
 40
0.1500000000019064
100
AcDbArc
 50
147.7957724986
 51
272.2042275057
  0
ARC
  5
16F
330
1F
100
AcDbEntity
  8
1
  6
CONTINUOUS
370
    50
100
AcDbCircle
 10
25.05
 20
-5.0504809472
 30
0.0
 40
0.1500000000000208
100
AcDbArc
 50
207.795772496
 51
332.204227504
  0
ARC
  5
170
330
1F
100
AcDbEntity
  8
1
  6
CONTINUOUS
370
    50
100
AcDbCircle
 10
24.7625
 20
-5.2020353929
 30
0.0
 40
0.1750000000010883
100
AcDbArc
 50
27.795772507
 51
120.0000000011
  0
ARC
  5
171
330
1F
100
AcDbEntity
  8
1
  6
CONTINUOUS
370
    50
100
AcDbCircle
 10
25.3375
 20
-5.2020353929
 30
0.0
 40
0.175000000008804
100
AcDbArc
 50
59.999999999
 51
152.2042274941
  0
ARC
  5
172
330
1F
100
AcDbEntity
  8
1
  6
CONTINUOUS
370
    50
100
AcDbCircle
 10
25.625
 20
-5.7
 30
0.0
 40
0.1750000000000189
100
AcDbArc
 50
267.7957724784
 51
0.0000000006
  0
ARC
  5
173
330
1F
100
AcDbEntity
  8
1
  6
CONTINUOUS
370
    50
100
AcDbCircle
 10
25.3375
 20
-6.1979646072
 30
0.0
 40
0.1749999999896533
100
AcDbArc
 50
300.0000000124999
 51
32.204227504
  0
ARC
  5
174
330
1F
100
AcDbEntity
  8
1
  6
CONTINUOUS
370
    50
100
AcDbCircle
 10
25.6124999999
 20
-6.0247595265
 30
0.0
 40
0.1500000000019196
100
AcDbArc
 50
87.7957724958
 51
212.2042275179
  0
ARC
  5
175
330
1F
100
AcDbEntity
  8
1
  6
CONTINUOUS
370
    50
100
AcDbCircle
 10
24.475
 20
-5.7
 30
0.0
 40
0.1750000000000096
100
AcDbArc
 50
87.795772496
 51
180.0
  0
ARC
  5
176
330
1F
100
AcDbEntity
  8
1
  6
CONTINUOUS
370
    50
100
AcDbCircle
 10
24.4875
 20
-5.3752404736
 30
0.0
 40
0.1499999999904131
100
AcDbArc
 50
267.7957724958
 51
32.204227504
  0
ARC
  5
177
330
1F
100
AcDbEntity
  8
1
  6
CONTINUOUS
370
    50
100
AcDbCircle
 10
24.7625
 20
-5.2020353929
 30
0.0
 40
0.1750000000011101
100
AcDbArc
 50
120.0000000011
 51
212.2042274976
  0
CIRCLE
  5
178
330
1F
100
AcDbEntity
  8
1
  6
CONTINUOUS
370
    50
100
AcDbCircle
 10
25.05
 20
-5.7
 30
0.0
 40
1.250000000000032
  0
ARC
  5
179
330
1F
100
AcDbEntity
  8
1
  6
CONTINUOUS
370
    50
100
AcDbCircle
 10
25.3375
 20
-6.1979646072
 30
0.0
 40
0.1749999999896533
100
AcDbArc
 50
207.7957724846
 51
300.0000000124999
  0
ARC
  5
17A
330
1F
100
AcDbEntity
  8
1
  6
CONTINUOUS
370
    50
100
AcDbCircle
 10
24.7625
 20
-6.1979646072
 30
0.0
 40
0.1749999999896261
100
AcDbArc
 50
239.9999999961
 51
332.204227504
  0
ARC
  5
17B
330
1F
100
AcDbEntity
  8
1
  6
CONTINUOUS
370
    50
100
AcDbCircle
 10
25.05
 20
-6.3495190528
 30
0.0
 40
0.1499999999709694
100
AcDbArc
 50
27.795772475
 51
152.204227525
  0
ARC
  5
17C
330
1F
100
AcDbEntity
  8
1
  6
CONTINUOUS
370
    50
100
AcDbCircle
 10
24.7625
 20
-6.1979646072
 30
0.0
 40
0.1749999999896261
100
AcDbArc
 50
147.795772496
 51
239.9999999961
  0
ARC
  5
17D
330
1F
100
AcDbEntity
  8
1
  6
CONTINUOUS
370
    50
100
AcDbCircle
 10
24.475
 20
-5.7
 30
0.0
 40
0.1750000000000078
100
AcDbArc
 50
180.0
 51
272.204227504
  0
ARC
  5
17E
330
1F
100
AcDbEntity
  8
1
  6
CONTINUOUS
370
    50
100
AcDbCircle
 10
24.4875
 20
-6.0247595264
 30
0.0
 40
0.1500000000019377
100
AcDbArc
 50
327.7957724821
 51
92.2042275042
  0
ARC
  5
17F
330
1F
100
AcDbEntity
  8
1
  6
CONTINUOUS
370
    50
100
AcDbCircle
 10
7.375
 20
-7.8
 30
0.0
 40
0.1750000000000106
100
AcDbArc
 50
180.0
 51
272.204227504
  0
ARC
  5
180
330
1F
100
AcDbEntity
  8
1
  6
CONTINUOUS
370
    50
100
AcDbCircle
 10
7.3875
 20
-8.1247595264
 30
0.0
 40
0.1499999999904389
100
AcDbArc
 50
327.795772496
 51
92.2042275042
  0
ARC
  5
181
330
1F
100
AcDbEntity
  8
1
  6
CONTINUOUS
370
    50
100
AcDbCircle
 10
7.6625
 20
-8.2979646072
 30
0.0
 40
0.1750000000010955
100
AcDbArc
 50
147.7957724841
 51
239.9999999961
  0
ARC
  5
182
330
1F
100
AcDbEntity
  8
1
  6
CONTINUOUS
370
    50
100
AcDbCircle
 10
8.2375
 20
-8.2979646072
 30
0.0
 40
0.1750000000000193
100
AcDbArc
 50
207.7957724916
 51
299.9999999935
  0
ARC
  5
183
330
1F
100
AcDbEntity
  8
1
  6
CONTINUOUS
370
    50
100
AcDbCircle
 10
7.95
 20
-8.4495190528
 30
0.0
 40
0.1499999999855212
100
AcDbArc
 50
27.795772475
 51
152.204227504
  0
ARC
  5
184
330
1F
100
AcDbEntity
  8
1
  6
CONTINUOUS
370
    50
100
AcDbCircle
 10
7.6625
 20
-8.2979646072
 30
0.0
 40
0.1750000000010937
100
AcDbArc
 50
239.9999999961
 51
332.204227522
  0
ARC
  5
185
330
1F
100
AcDbEntity
  8
1
  6
CONTINUOUS
370
    50
100
AcDbCircle
 10
7.6625
 20
-7.3020353928
 30
0.0
 40
0.1749999999984602
100
AcDbArc
 50
120.0000000065
 51
212.2042274827
  0
ARC
  5
186
330
1F
100
AcDbEntity
  8
1
  6
CONTINUOUS
370
    50
100
AcDbCircle
 10
7.375
 20
-7.8
 30
0.0
 40
0.1750000000000381
100
AcDbArc
 50
87.795772496
 51
180.0
  0
ARC
  5
187
330
1F
100
AcDbEntity
  8
1
  6
CONTINUOUS
370
    50
100
AcDbCircle
 10
7.3875
 20
-7.4752404736
 30
0.0
 40
0.1500000000019081
100
AcDbArc
 50
267.7957724958
 51
32.2042275179
  0
ARC
  5
188
330
1F
100
AcDbEntity
  8
1
  6
CONTINUOUS
370
    50
100
AcDbCircle
 10
8.2375
 20
-8.2979646072
 30
0.0
 40
0.1750000000000194
100
AcDbArc
 50
299.9999999935
 51
32.204227504
  0
ARC
  5
189
330
1F
100
AcDbEntity
  8
1
  6
CONTINUOUS
370
    50
100
AcDbCircle
 10
8.525
 20
-7.8
 30
0.0
 40
0.1750000000000136
100
AcDbArc
 50
267.7957724927
 51
359.9999999878
  0
ARC
  5
18A
330
1F
100
AcDbEntity
  8
1
  6
CONTINUOUS
370
    50
100
AcDbCircle
 10
8.5125
 20
-8.1247595264
 30
0.0
 40
0.1500000000018816
100
AcDbArc
 50
87.7957724958
 51
212.2042275179
  0
CIRCLE
  5
18B
330
1F
100
AcDbEntity
  8
1
  6
CONTINUOUS
370
    50
100
AcDbCircle
 10
7.95
 20
-7.8
 30
0.0
 40
1.250000000000001
  0
ARC
  5
18C
330
1F
100
AcDbEntity
  8
1
  6
CONTINUOUS
370
    50
100
AcDbCircle
 10
8.2375
 20
-7.3020353928
 30
0.0
 40
0.1749999999896612
100
AcDbArc
 50
59.9999999947
 51
152.2042275047
  0
ARC
  5
18D
330
1F
100
AcDbEntity
  8
1
  6
CONTINUOUS
370
    50
100
AcDbCircle
 10
7.95
 20
-7.1504809472
 30
0.0
 40
0.1500000000088128
100
AcDbArc
 50
207.795772496
 51
332.2042274912
  0
ARC
  5
18E
330
1F
100
AcDbEntity
  8
1
  6
CONTINUOUS
370
    50
100
AcDbCircle
 10
7.6625
 20
-7.3020353928
 30
0.0
 40
0.1749999999984357
100
AcDbArc
 50
27.795772507
 51
120.0000000065
  0
ARC
  5
18F
330
1F
100
AcDbEntity
  8
1
  6
CONTINUOUS
370
    50
100
AcDbCircle
 10
8.2375
 20
-7.3020353928
 30
0.0
 40
0.1749999999896535
100
AcDbArc
 50
327.795772496
 51
59.9999999947
  0
ARC
  5
190
330
1F
100
AcDbEntity
  8
1
  6
CONTINUOUS
370
    50
100
AcDbCircle
 10
8.525
 20
-7.8
 30
0.0
 40
0.1750000000000096
100
AcDbArc
 50
359.9999999878
 51
92.20422750399999
  0
ARC
  5
191
330
1F
100
AcDbEntity
  8
1
  6
CONTINUOUS
370
    50
100
AcDbCircle
 10
8.5125
 20
-7.4752404736
 30
0.0
 40
0.1500000000018887
100
AcDbArc
 50
147.7957725039
 51
272.2042275059
  0
ARC
  5
192
330
1F
100
AcDbEntity
  8
1
  6
CONTINUOUS
370
    50
100
AcDbCircle
 10
24.7625
 20
5.2020353928
 30
0.0
 40
0.1749999999999939
100
AcDbArc
 50
147.795772496
 51
240.0
  0
ARC
  5
193
330
1F
100
AcDbEntity
  8
1
  6
CONTINUOUS
370
    50
100
AcDbCircle
 10
24.475
 20
5.7
 30
0.0
 40
0.1750000000000096
100
AcDbArc
 50
180.0
 51
272.204227504
  0
ARC
  5
194
330
1F
100
AcDbEntity
  8
1
  6
CONTINUOUS
370
    50
100
AcDbCircle
 10
24.4875
 20
5.3752404736
 30
0.0
 40
0.1500000000018956
100
AcDbArc
 50
327.7957724821
 51
92.2042275042
  0
ARC
  5
195
330
1F
100
AcDbEntity
  8
1
  6
CONTINUOUS
370
    50
100
AcDbCircle
 10
25.3375
 20
5.2020353928
 30
0.0
 40
0.1750000000000073
100
AcDbArc
 50
207.7957724946
 51
299.9999999921
  0
ARC
  5
196
330
1F
100
AcDbEntity
  8
1
  6
CONTINUOUS
370
    50
100
AcDbCircle
 10
25.05
 20
5.0504809472
 30
0.0
 40
0.1499999999854698
100
AcDbArc
 50
27.795772475
 51
152.204227504
  0
ARC
  5
197
330
1F
100
AcDbEntity
  8
1
  6
CONTINUOUS
370
    50
100
AcDbCircle
 10
24.7625
 20
5.2020353928
 30
0.0
 40
0.1750000000000088
100
AcDbArc
 50
240.0
 51
332.204227522
  0
ARC
  5
198
330
1F
100
AcDbEntity
  8
1
  6
CONTINUOUS
370
    50
100
AcDbCircle
 10
25.3375
 20
5.2020353928
 30
0.0
 40
0.1750000000000326
100
AcDbArc
 50
299.9999999921
 51
32.204227504
  0
ARC
  5
199
330
1F
100
AcDbEntity
  8
1
  6
CONTINUOUS
370
    50
100
AcDbCircle
 10
25.6125
 20
5.3752404736
 30
0.0
 40
0.1500000000115249
100
AcDbArc
 50
87.795772496
 51
212.2042275179
  0
ARC
  5
19A
330
1F
100
AcDbEntity
  8
1
  6
CONTINUOUS
370
    50
100
AcDbCircle
 10
25.625
 20
5.7
 30
0.0
 40
0.1750000000000114
100
AcDbArc
 50
267.7957724965
 51
359.9999999821
  0
ARC
  5
19B
330
1F
100
AcDbEntity
  8
1
  6
CONTINUOUS
370
    50
100
AcDbCircle
 10
24.475
 20
5.7
 30
0.0
 40
0.1750000000000096
100
AcDbArc
 50
87.795772496
 51
180.0
  0
ARC
  5
19C
330
1F
100
AcDbEntity
  8
1
  6
CONTINUOUS
370
    50
100
AcDbCircle
 10
24.7625
 20
6.1979646071
 30
0.0
 40
0.1749999999896455
100
AcDbArc
 50
120.0000000053
 51
212.2042274828
  0
ARC
  5
19D
330
1F
100
AcDbEntity
  8
1
  6
CONTINUOUS
370
    50
100
AcDbCircle
 10
24.4875
 20
6.0247595264
 30
0.0
 40
0.1500000000018956
100
AcDbArc
 50
267.7957724958
 51
32.2042275179
  0
CIRCLE
  5
19E
330
1F
100
AcDbEntity
  8
1
  6
CONTINUOUS
370
    50
100
AcDbCircle
 10
25.05
 20
5.7
 30
0.0
 40
1.250000000000032
  0
ARC
  5
19F
330
1F
100
AcDbEntity
  8
1
  6
CONTINUOUS
370
    50
100
AcDbCircle
 10
24.7625
 20
6.1979646071
 30
0.0
 40
0.1749999999896383
100
AcDbArc
 50
27.795772496
 51
120.0000000053
  0
ARC
  5
1A0
330
1F
100
AcDbEntity
  8
1
  6
CONTINUOUS
370
    50
100
AcDbCircle
 10
25.3375
 20
6.1979646071
 30
0.0
 40
0.1749999999896822
100
AcDbArc
 50
59.99999999450001
 51
152.2042275041
  0
ARC
  5
1A1
330
1F
100
AcDbEntity
  8
1
  6
CONTINUOUS
370
    50
100
AcDbCircle
 10
25.05
 20
6.3495190528
 30
0.0
 40
0.1500000000175808
100
AcDbArc
 50
207.7957725088
 51
332.2042274912
  0
ARC
  5
1A2
330
1F
100
AcDbEntity
  8
1
  6
CONTINUOUS
370
    50
100
AcDbCircle
 10
25.3375
 20
6.1979646071
 30
0.0
 40
0.1749999999896582
100
AcDbArc
 50
327.795772496
 51
59.99999999450001
  0
ARC
  5
1A3
330
1F
100
AcDbEntity
  8
1
  6
CONTINUOUS
370
    50
100
AcDbCircle
 10
25.625
 20
5.7
 30
0.0
 40
0.1750000000000114
100
AcDbArc
 50
359.9999999821
 51
92.20422750399999
  0
ARC
  5
1A4
330
1F
100
AcDbEntity
  8
1
  6
CONTINUOUS
370
    50
100
AcDbCircle
 10
25.6125
 20
6.0247595264
 30
0.0
 40
0.1500000000019161
100
AcDbArc
 50
147.7957725119
 51
272.2042275018
  0
ARC
  5
1A5
330
1F
100
AcDbEntity
  8
1
  6
CONTINUOUS
370
    50
100
AcDbCircle
 10
25.05
 20
-7.8
 30
0.0
 40
2.20000000000001
100
AcDbArc
 50
270.0
 51
0.0
  0
ARC
  5
1A6
330
1F
100
AcDbEntity
  8
1
  6
CONTINUOUS
370
    50
100
AcDbCircle
 10
7.95
 20
-7.8
 30
0.0
 40
2.200000000000007
100
AcDbArc
 50
180.0
 51
270.0
  0
ARC
  5
1A7
330
1F
100
AcDbEntity
  8
1
  6
CONTINUOUS
370
    50
100
AcDbCircle
 10
7.95
 20
7.8
 30
0.0
 40
2.200000000000008
100
AcDbArc
 50
90.0
 51
180.0
  0
ARC
  5
1A8
330
1F
100
AcDbEntity
  8
1
  6
CONTINUOUS
370
    50
100
AcDbCircle
 10
25.05
 20
7.8
 30
0.0
 40
2.20000000000001
100
AcDbArc
 50
360.0
 51
90.0
  0
CIRCLE
  5
1A9
330
1F
100
AcDbEntity
  8
1
  6
CONTINUOUS
370
    50
100
AcDbCircle
 10
7.95
 20
7.8
 30
0.0
 40
1.810085294906894
  0
CIRCLE
  5
1AA
330
1F
100
AcDbEntity
  8
1
  6
CONTINUOUS
370
    50
100
AcDbCircle
 10
25.05
 20
5.7
 30
0.0
 40
1.810085294906894
  0
CIRCLE
  5
1AB
330
1F
100
AcDbEntity
  8
1
  6
CONTINUOUS
370
    50
100
AcDbCircle
 10
7.95
 20
-7.8
 30
0.0
 40
1.810085294906894
  0
CIRCLE
  5
1AC
330
1F
100
AcDbEntity
  8
1
  6
CONTINUOUS
370
    50
100
AcDbCircle
 10
25.05
 20
-5.7
 30
0.0
 40
1.810085294906894
  0
CIRCLE
  5
1AD
330
1F
100
AcDbEntity
  8
1
  6
CONTINUOUS
370
    50
100
AcDbCircle
 10
38.0
 20
0.0
 30
0.0
 40
3.249999999999972
  0
ARC
  5
1AE
330
1F
100
AcDbEntity
  8
1
  6
CONTINUOUS
370
    50
100
AcDbCircle
 10
7.85
 20
7.9
 30
0.0
 40
2.200000000000007
100
AcDbArc
 50
90.0
 51
180.0
  0
ARC
  5
1AF
330
1F
100
AcDbEntity
  8
1
  6
CONTINUOUS
370
    50
100
AcDbCircle
 10
25.15
 20
-7.9
 30
0.0
 40
2.200000000000036
100
AcDbArc
 50
270.0
 51
0.0
  0
ARC
  5
1B0
330
1F
100
AcDbEntity
  8
1
  6
CONTINUOUS
370
    50
100
AcDbCircle
 10
7.85
 20
-7.9
 30
0.0
 40
2.200000000000036
100
AcDbArc
 50
180.0
 51
270.0
  0
ARC
  5
1B1
330
1F
100
AcDbEntity
  8
1
  6
CONTINUOUS
370
    50
100
AcDbCircle
 10
25.15
 20
7.9
 30
0.0
 40
2.200000000000007
100
AcDbArc
 50
0.0
 51
90.0
  0
ARC
  5
1B2
330
1F
100
AcDbEntity
  8
SK1
  6
CONTINUOUS
370
    50
100
AcDbCircle
 10
-7.5028370206
 20
30.7515427797
 30
0.0
 40
17.9708115587968
100
AcDbArc
 50
248.8257190001
 51
290.83083556
  0
ARC
  5
1B3
330
1F
100
AcDbEntity
  8
SK1
  6
CONTINUOUS
370
    50
100
AcDbCircle
 10
-7.5028786753
 20
-30.7713544335
 30
0.0
 40
17.98934438979543
100
AcDbArc
 50
69.1914793664
 51
111.1644653452
  0
ARC
  5
1B4
330
1F
100
AcDbEntity
  8
SK1
  6
CONTINUOUS
370
    50
100
AcDbCircle
 10
-12.0589319283
 20
0.0
 30
0.0
 40
4.598827222623424
100
AcDbArc
 50
352.4475234936
 51
7.5524765064
  0
CIRCLE
  5
1B5
330
1F
100
AcDbEntity
  8
SK1
  6
CONTINUOUS
370
    50
100
AcDbCircle
 10
-12.5
 20
0.0
 30
0.0
 40
4.000000000000004
  0
ELLIPSE
  5
1B6
330
1F
100
AcDbEntity
  8
1
  6
CONTINUOUS
370
    50
100
AcDbEllipse
 10
19.9792354977
 20
0.0000000002
 30
0.0
 11
0.0
 21
24.50000000000002
 31
0.0
210
0.0
220
0.0
230
1.0
 40
0.3639702343
 41
4.199699829724995
 42
5.225078131044411
  0
ELLIPSE
  5
1B7
330
1F
100
AcDbEntity
  8
1
  6
CONTINUOUS
370
    50
100
AcDbEllipse
 10
13.0207645016
 20
0.0
 30
0.0
 11
0.0
 21
24.49999999999999
 31
0.0
210
0.0
220
0.0
230
1.0
 40
0.3639702343
 41
1.058107176135189
 42
2.08348547744688
  0
DIMENSION
  5
1B8
330
1F
100
AcDbEntity
  8
2
  6
CONTINUOUS
370
    25
100
AcDbDimension
  2
_D
 10
0.0
 20
33.1831609755
 30
0.0
 11
28.5010775344
 21
33.1831609755
 31
0.0
 70
   160
  1
<>
 71
     5
 42
57.00215506870001
  3
SLDDIMSTYLE0
100
AcDbAlignedDimension
 13
57.0021550687
 23
26.0836895436
 33
0.0
 14
0.0
 24
24.0
 34
0.0
100
AcDbRotatedDimension
1001
ACAD
1000
DSTYLE
1002
{
1070
   140
1040
3.5
1070
   340
1005
22A
1070
   177
1070
   256
1070
   176
1070
   256
1070
   178
1070
   256
1070
   347
1005
14
1070
   346
1005
14
1070
   345
1005
14
1002
}
1001
ACAD_DSTYLE_DIM_LINETYPE
1070
   380
1005
14
1001
ACAD_DSTYLE_DIM_EXT1_LINETYPE
1070
   381
1005
14
1001
ACAD_DSTYLE_DIM_EXT2_LINETYPE
1070
   382
1005
14
  0
DIMENSION
  5
1C4
330
1F
100
AcDbEntity
  8
2
  6
CONTINUOUS
370
    25
100
AcDbDimension
  2
_D_1
 10
64.2010772372
 20
-26.504623926
 30
0.0
 11
64.2010772372
 21
13.6206791126
 31
0.0
 70
   160
  1
%%c 53 - 95
 71
     5
 42
53.009247852
  3
SLDDIMSTYLE1
100
AcDbAlignedDimension
 13
56.6027032548
 23
26.504623926
 33
0.0
 14
56.6027032548
 24
-26.504623926
 34
0.0
 50
90.0
100
AcDbRotatedDimension
1001
ACAD
1000
DSTYLE
1002
{
1070
   140
1040
3.5
1070
   340
1005
22A
1070
   177
1070
   256
1070
   176
1070
   256
1070
   178
1070
   256
1070
   347
1005
14
1070
   346
1005
14
1070
   345
1005
14
1002
}
1001
ACAD_DSTYLE_DIM_LINETYPE
1070
   380
1005
14
1001
ACAD_DSTYLE_DIM_EXT1_LINETYPE
1070
   381
1005
14
1001
ACAD_DSTYLE_DIM_EXT2_LINETYPE
1070
   382
1005
14
  0
DIMENSION
  5
1CF
330
1F
100
AcDbEntity
  8
2
  6
CONTINUOUS
370
    25
100
AcDbDimension
  2
_D_2
 10
0.0
 20
-32.9364089574
 30
0.0
 11
26.5
 21
-32.9364089574
 31
0.0
 70
   160
  1
<>
 71
     5
 42
53.0
  3
SLDDIMSTYLE0
100
AcDbAlignedDimension
 13
53.0
 23
-20.0
 33
0.0
 14
0.0
 24
-24.0
 34
0.0
100
AcDbRotatedDimension
1001
ACAD
1000
DSTYLE
1002
{
1070
   140
1040
3.5
1070
   340
1005
22A
1070
   177
1070
   256
1070
   176
1070
   256
1070
   178
1070
   256
1070
   347
1005
14
1070
   346
1005
14
1070
   345
1005
14
1002
}
1001
ACAD_DSTYLE_DIM_LINETYPE
1070
   380
1005
14
1001
ACAD_DSTYLE_DIM_EXT1_LINETYPE
1070
   381
1005
14
1001
ACAD_DSTYLE_DIM_EXT2_LINETYPE
1070
   382
1005
14
  0
DIMENSION
  5
1D9
330
1F
100
AcDbEntity
  8
2
  6
CONTINUOUS
370
    25
100
AcDbDimension
  2
_D_3
 10
-42.1278676537
 20
-24.5
 30
0.0
 11
-42.1278676537
 21
0.0
 31
0.0
 70
   160
  1
%%c<>
 71
     5
 42
48.99999999999999
  3
SLDDIMSTYLE0
100
AcDbAlignedDimension
 13
0.5
 23
24.5
 33
0.0
 14
0.5
 24
-24.5
 34
0.0
 50
90.0
100
AcDbRotatedDimension
1001
ACAD
1000
DSTYLE
1002
{
1070
   140
1040
3.5
1070
   340
1005
22A
1070
   177
1070
   256
1070
   176
1070
   256
1070
   178
1070
   256
1070
   347
1005
14
1070
   346
1005
14
1070
   345
1005
14
1002
}
1001
ACAD_DSTYLE_DIM_LINETYPE
1070
   380
1005
14
1001
ACAD_DSTYLE_DIM_EXT1_LINETYPE
1070
   381
1005
14
1001
ACAD_DSTYLE_DIM_EXT2_LINETYPE
1070
   382
1005
14
  0
DIMENSION
  5
1E4
330
1F
100
AcDbEntity
  8
2
  6
CONTINUOUS
370
    25
100
AcDbDimension
  2
_D_4
 10
-35.1436499533
 20
-14.0
 30
0.0
 11
-35.1436499533
 21
0.0
 31
0.0
 70
   160
  1
%%c<>
 71
     5
 42
28.0
  3
SLDDIMSTYLE0
100
AcDbAlignedDimension
 13
-25.5
 23
14.0
 33
0.0
 14
-25.5
 24
-14.0
 34
0.0
 50
90.0
100
AcDbRotatedDimension
1001
ACAD
1000
DSTYLE
1002
{
1070
   140
1040
3.5
1070
   340
1005
22A
1070
   177
1070
   256
1070
   176
1070
   256
1070
   178
1070
   256
1070
   347
1005
14
1070
   346
1005
14
1070
   345
1005
14
1002
}
1001
ACAD_DSTYLE_DIM_LINETYPE
1070
   380
1005
14
1001
ACAD_DSTYLE_DIM_EXT1_LINETYPE
1070
   381
1005
14
1001
ACAD_DSTYLE_DIM_EXT2_LINETYPE
1070
   382
1005
14
  0
MTEXT
  5
1EF
330
1F
100
AcDbEntity
  8
SK6
  6
CONTINUOUS
370
    35
100
AcDbMText
 10
3.2817227993
 20
-17.4263882773
 30
0.0
 40
3.5
 41
0.0
 71
     1
 72
     1
  1
310.850
  7
BMG_Text
 73
     1
 44
1.0
  0
ENDSEC
  0
SECTION
  2
OBJECTS
  0
DICTIONARY
  5
C
330
0
100
AcDbDictionary
281
     1
  3
ACAD_GROUP
350
D
  3
ACAD_LAYOUT
350
212
  3
ACAD_MATERIAL
350
226
  3
ACAD_MLEADERSTYLE
350
241
  3
ACAD_MLINESTYLE
350
17
  3
ACAD_SCALELIST
350
1F0
  3
ACAD_VISUALSTYLE
350
215
  3
ACDB_RECOMPOSE_DATA
350
271
  3
AcDbVariableDictionary
350
23F
  0
DICTIONARY
  5
248
330
8
100
AcDbDictionary
280
     1
281
     1
  3
ACAD_XREC_ROUNDTRIP
360
249
  0
DICTIONARY
  5
D
102
{ACAD_REACTORS
330
C
102
}
330
C
100
AcDbDictionary
281
     1
  0
DICTIONARY
  5
212
102
{ACAD_REACTORS
330
C
102
}
330
C
100
AcDbDictionary
281
     1
  3
Layout1
350
214
  3
Model
350
213
  0
DICTIONARY
  5
226
102
{ACAD_REACTORS
330
C
102
}
330
C
100
AcDbDictionary
281
     1
  3
ByBlock
350
228
  3
ByLayer
350
227
  3
Global
350
229
  0
DICTIONARY
  5
241
102
{ACAD_REACTORS
330
C
102
}
330
C
100
AcDbDictionary
281
     1
  0
DICTIONARY
  5
17
102
{ACAD_REACTORS
330
C
102
}
330
C
100
AcDbDictionary
281
     1
  3
STANDARD
350
18
  0
DICTIONARY
  5
1F0
102
{ACAD_REACTORS
330
C
102
}
330
C
100
AcDbDictionary
281
     1
  3
A0
350
1F1
  3
A1
350
1F2
  3
A2
350
1F3
  3
A3
350
1F4
  3
A4
350
1F5
  3
A5
350
1F6
  3
A6
350
1F7
  3
A7
350
1F8
  3
A8
350
1F9
  3
A9
350
1FA
  3
B0
350
1FB
  3
B1
350
1FC
  3
B2
350
1FD
  3
B3
350
1FE
  3
B4
350
1FF
  3
B5
350
200
  3
B6
350
201
  3
B7
350
202
  3
B8
350
203
  3
B9
350
204
  3
C0
350
205
  3
C1
350
206
  3
C2
350
207
  3
C3
350
208
  3
C4
350
209
  3
C5
350
20A
  3
C6
350
20B
  3
C7
350
20C
  3
C8
350
20D
  3
C9
350
20E
  3
D0
350
20F
  3
D1
350
210
  3
D2
350
211
  0
DICTIONARY
  5
215
102
{ACAD_REACTORS
330
C
102
}
330
C
100
AcDbDictionary
281
     1
  3
2dWireframe
350
21A
  3
3D Hidden
350
21C
  3
3dWireframe
350
21B
  3
Basic
350
21D
  3
Brighten
350
221
  3
ColorChange
350
225
  3
Conceptual
350
21F
  3
Dim
350
220
  3
Facepattern
350
224
  3
Flat
350
216
  3
FlatWithEdges
350
217
  3
Gouraud
350
218
  3
GouraudWithEdges
350
219
  3
Linepattern
350
223
  3
Realistic
350
21E
  3
Thicken
350
222
  0
XRECORD
  5
271
102
{ACAD_REACTORS
330
C
102
}
330
C
100
AcDbXrecord
280
     1
  0
DICTIONARY
  5
23F
102
{ACAD_REACTORS
330
C
102
}
330
C
100
AcDbDictionary
281
     1
  3
CANNOSCALE
350
24A
  3
DIMASSOC
350
243
  3
HIDETEXT
350
244
  3
MSLTSCALE
350
242
  0
XRECORD
  5
249
102
{ACAD_REACTORS
330
248
102
}
330
248
100
AcDbXrecord
280
     1
102
VTR_0.000_0.000_1.000_1.000_VISUALSTYLE
340
21A
102
VTR_0.000_0.000_1.000_1.000_GRIDDISPLAY
 70
     3
102
VTR_0.000_0.000_1.000_1.000_GRIDMAJOR
 70
     5
102
VTR_0.000_0.000_1.000_1.000_DEFAULTLIGHTING
280
     1
102
VTR_0.000_0.000_1.000_1.000_DEFAULTLIGHTINGTYPE
 70
     1
102
VTR_0.000_0.000_1.000_1.000_BRIGHTNESS
141
0.0
102
VTR_0.000_0.000_1.000_1.000_CONTRAST
142
0.0
  0
LAYOUT
  5
214
102
{ACAD_REACTORS
330
212
102
}
330
212
100
AcDbPlotSettings
  1

  2
none_device
  4

  6

 40
0.0
 41
0.0
 42
0.0
 43
0.0
 44
0.0
 45
0.0
 46
0.0
 47
0.0
 48
0.0
 49
0.0
140
0.0
141
0.0
142
1.0
143
1.0
 70
   688
 72
     0
 73
     0
 74
     5
  7

 75
    16
147
1.0
148
0.0
149
0.0
100
AcDbLayout
  1
Layout1
 70
     1
 71
     1
 10
0.0
 20
0.0
 11
420.0
 21
297.0
 12
0.0
 22
0.0
 32
0.0
 14
1.000000000000000E+20
 24
1.000000000000000E+20
 34
1.000000000000000E+20
 15
-1.000000000000000E+20
 25
-1.000000000000000E+20
 35
-1.000000000000000E+20
146
0.0
 13
0.0
 23
0.0
 33
0.0
 16
1.0
 26
0.0
 36
0.0
 17
0.0
 27
1.0
 37
0.0
 76
     0
330
1B
  0
LAYOUT
  5
213
102
{ACAD_REACTORS
330
212
102
}
330
212
100
AcDbPlotSettings
  1

  2
none_device
  4

  6

 40
0.0
 41
0.0
 42
0.0
 43
0.0
 44
0.0
 45
0.0
 46
0.0
 47
0.0
 48
0.0
 49
0.0
140
0.0
141
0.0
142
1.0
143
1.0
 70
  1712
 72
     0
 73
     0
 74
     0
  7

 75
     0
147
1.0
148
-0.0000001562100806
149
0.0
100
AcDbLayout
  1
Model
 70
     1
 71
     0
 10
0.0
 20
0.0
 11
420.0
 21
297.0
 12
0.0
 22
0.0
 32
0.0
 14
0.0
 24
0.0
 34
0.0
 15
420.0
 25
297.0
 35
0.0
146
0.0
 13
0.0
 23
0.0
 33
0.0
 16
1.0
 26
0.0
 36
0.0
 17
0.0
 27
1.0
 37
0.0
 76
     0
330
1F
331
29
  0
MATERIAL
  5
228
102
{ACAD_REACTORS
330
226
102
}
102
{ACAD_XDICTIONARY
360
26D
102
}
330
226
100
AcDbMaterial
  1
ByBlock
  0
MATERIAL
  5
227
102
{ACAD_REACTORS
330
226
102
}
102
{ACAD_XDICTIONARY
360
26B
102
}
330
226
100
AcDbMaterial
  1
ByLayer
  0
MATERIAL
  5
229
102
{ACAD_REACTORS
330
226
102
}
102
{ACAD_XDICTIONARY
360
26F
102
}
330
226
100
AcDbMaterial
  1
Global
  0
MLINESTYLE
  5
18
102
{ACAD_REACTORS
330
17
102
}
330
17
100
AcDbMlineStyle
  2
Standard
 70
     0
  3

 62
   256
 51
90.0
 52
90.0
 71
     2
 49
0.5
 62
   256
  6
BYLAYER
 49
-0.5
 62
   256
  6
BYLAYER
  0
SCALE
  5
1F1
102
{ACAD_REACTORS
330
1F0
102
}
330
1F0
100
AcDbScale
 70
     0
300
1:1
140
1.0
141
1.0
290
     1
  0
SCALE
  5
1F2
102
{ACAD_REACTORS
330
1F0
102
}
330
1F0
100
AcDbScale
 70
     0
300
1:2
140
1.0
141
2.0
290
     0
  0
SCALE
  5
1F3
102
{ACAD_REACTORS
330
1F0
102
}
330
1F0
100
AcDbScale
 70
     0
300
1:4
140
1.0
141
4.0
290
     0
  0
SCALE
  5
1F4
102
{ACAD_REACTORS
330
1F0
102
}
330
1F0
100
AcDbScale
 70
     0
300
1:5
140
1.0
141
5.0
290
     0
  0
SCALE
  5
1F5
102
{ACAD_REACTORS
330
1F0
102
}
330
1F0
100
AcDbScale
 70
     0
300
1:8
140
1.0
141
8.0
290
     0
  0
SCALE
  5
1F6
102
{ACAD_REACTORS
330
1F0
102
}
330
1F0
100
AcDbScale
 70
     0
300
1:10
140
1.0
141
10.0
290
     0
  0
SCALE
  5
1F7
102
{ACAD_REACTORS
330
1F0
102
}
330
1F0
100
AcDbScale
 70
     0
300
1:16
140
1.0
141
16.0
290
     0
  0
SCALE
  5
1F8
102
{ACAD_REACTORS
330
1F0
102
}
330
1F0
100
AcDbScale
 70
     0
300
1:20
140
1.0
141
20.0
290
     0
  0
SCALE
  5
1F9
102
{ACAD_REACTORS
330
1F0
102
}
330
1F0
100
AcDbScale
 70
     0
300
1:30
140
1.0
141
30.0
290
     0
  0
SCALE
  5
1FA
102
{ACAD_REACTORS
330
1F0
102
}
330
1F0
100
AcDbScale
 70
     0
300
1:40
140
1.0
141
40.0
290
     0
  0
SCALE
  5
1FB
102
{ACAD_REACTORS
330
1F0
102
}
330
1F0
100
AcDbScale
 70
     0
300
1:50
140
1.0
141
50.0
290
     0
  0
SCALE
  5
1FC
102
{ACAD_REACTORS
330
1F0
102
}
330
1F0
100
AcDbScale
 70
     0
300
1:100
140
1.0
141
100.0
290
     0
  0
SCALE
  5
1FD
102
{ACAD_REACTORS
330
1F0
102
}
330
1F0
100
AcDbScale
 70
     0
300
2:1
140
2.0
141
1.0
290
     0
  0
SCALE
  5
1FE
102
{ACAD_REACTORS
330
1F0
102
}
330
1F0
100
AcDbScale
 70
     0
300
4:1
140
4.0
141
1.0
290
     0
  0
SCALE
  5
1FF
102
{ACAD_REACTORS
330
1F0
102
}
330
1F0
100
AcDbScale
 70
     0
300
8:1
140
8.0
141
1.0
290
     0
  0
SCALE
  5
200
102
{ACAD_REACTORS
330
1F0
102
}
330
1F0
100
AcDbScale
 70
     0
300
10:1
140
10.0
141
1.0
290
     0
  0
SCALE
  5
201
102
{ACAD_REACTORS
330
1F0
102
}
330
1F0
100
AcDbScale
 70
     0
300
100:1
140
100.0
141
1.0
290
     0
  0
SCALE
  5
202
102
{ACAD_REACTORS
330
1F0
102
}
330
1F0
100
AcDbScale
 70
     0
300
1/128" = 1'-0"
140
0.0078125
141
12.0
290
     0
  0
SCALE
  5
203
102
{ACAD_REACTORS
330
1F0
102
}
330
1F0
100
AcDbScale
 70
     0
300
1/64" = 1'-0"
140
0.015625
141
12.0
290
     0
  0
SCALE
  5
204
102
{ACAD_REACTORS
330
1F0
102
}
330
1F0
100
AcDbScale
 70
     0
300
1/32" = 1'-0"
140
0.03125
141
12.0
290
     0
  0
SCALE
  5
205
102
{ACAD_REACTORS
330
1F0
102
}
330
1F0
100
AcDbScale
 70
     0
300
1/16" = 1'-0"
140
0.0625
141
12.0
290
     0
  0
SCALE
  5
206
102
{ACAD_REACTORS
330
1F0
102
}
330
1F0
100
AcDbScale
 70
     0
300
3/32" = 1'-0"
140
0.09375
141
12.0
290
     0
  0
SCALE
  5
207
102
{ACAD_REACTORS
330
1F0
102
}
330
1F0
100
AcDbScale
 70
     0
300
1/8" = 1'-0"
140
0.125
141
12.0
290
     0
  0
SCALE
  5
208
102
{ACAD_REACTORS
330
1F0
102
}
330
1F0
100
AcDbScale
 70
     0
300
3/16" = 1'-0"
140
0.1875
141
12.0
290
     0
  0
SCALE
  5
209
102
{ACAD_REACTORS
330
1F0
102
}
330
1F0
100
AcDbScale
 70
     0
300
1/4" = 1'-0"
140
0.25
141
12.0
290
     0
  0
SCALE
  5
20A
102
{ACAD_REACTORS
330
1F0
102
}
330
1F0
100
AcDbScale
 70
     0
300
3/8" = 1'-0"
140
0.375
141
12.0
290
     0
  0
SCALE
  5
20B
102
{ACAD_REACTORS
330
1F0
102
}
330
1F0
100
AcDbScale
 70
     0
300
1/2" = 1'-0"
140
0.5
141
12.0
290
     0
  0
SCALE
  5
20C
102
{ACAD_REACTORS
330
1F0
102
}
330
1F0
100
AcDbScale
 70
     0
300
3/4" = 1'-0"
140
0.75
141
12.0
290
     0
  0
SCALE
  5
20D
102
{ACAD_REACTORS
330
1F0
102
}
330
1F0
100
AcDbScale
 70
     0
300
1" = 1'-0"
140
1.0
141
12.0
290
     0
  0
SCALE
  5
20E
102
{ACAD_REACTORS
330
1F0
102
}
330
1F0
100
AcDbScale
 70
     0
300
1-1/2" = 1'-0"
140
1.5
141
12.0
290
     0
  0
SCALE
  5
20F
102
{ACAD_REACTORS
330
1F0
102
}
330
1F0
100
AcDbScale
 70
     0
300
3" = 1'-0"
140
3.0
141
12.0
290
     0
  0
SCALE
  5
210
102
{ACAD_REACTORS
330
1F0
102
}
330
1F0
100
AcDbScale
 70
     0
300
6" = 1'-0"
140
6.0
141
12.0
290
     0
  0
SCALE
  5
211
102
{ACAD_REACTORS
330
1F0
102
}
330
1F0
100
AcDbScale
 70
     0
300
1'-0" = 1'-0"
140
12.0
141
12.0
290
     0
  0
VISUALSTYLE
  5
21A
102
{ACAD_REACTORS
330
215
102
}
102
{ACAD_XDICTIONARY
360
253
102
}
330
215
100
AcDbVisualStyle
  2
2dWireframe
 70
     4
 71
     0
 72
     2
 73
     0
 90
        0
 40
-0.6
 41
-30.0
 62
     5
 63
     7
 74
     1
 91
        4
 64
     7
 65
   257
 75
     1
175
     1
 42
1.0
 92
        0
 66
   257
 43
1.0
 76
     1
 77
     6
 78
     2
 67
     7
 79
     5
170
     0
171
     0
290
     0
174
     0
 93
        1
 44
0.0
173
     0
291
     0
 45
0.0
1001
ACAD
1000
AcDbSavedByObjectVersion
1070
     0
  0
VISUALSTYLE
  5
21C
102
{ACAD_REACTORS
330
215
102
}
102
{ACAD_XDICTIONARY
360
257
102
}
330
215
100
AcDbVisualStyle
  2
3D Hidden
 70
     6
 71
     1
 72
     2
 73
     2
 90
        0
 40
-0.6
 41
-30.0
 62
     5
 63
     7
 74
     2
 91
        2
 64
     7
 65
   257
 75
     2
175
     1
 42
40.0
 92
        0
 66
   257
 43
1.0
 76
     1
 77
     6
 78
     2
 67
     7
 79
     3
170
     0
171
     0
290
     0
174
     0
 93
        1
 44
0.0
173
     0
291
     0
 45
0.0
1001
ACAD
1000
AcDbSavedByObjectVersion
1070
     0
  0
VISUALSTYLE
  5
21B
102
{ACAD_REACTORS
330
215
102
}
102
{ACAD_XDICTIONARY
360
255
102
}
330
215
100
AcDbVisualStyle
  2
3dWireframe
 70
     5
 71
     0
 72
     2
 73
     0
 90
        0
 40
-0.6
 41
-30.0
 62
     5
 63
     7
 74
     1
 91
        4
 64
     7
 65
   257
 75
     1
175
     1
 42
1.0
 92
        0
 66
   257
 43
1.0
 76
     1
 77
     6
 78
     2
 67
     7
 79
     5
170
     0
171
     0
290
     0
174
     0
 93
        1
 44
0.0
173
     0
291
     0
 45
0.0
1001
ACAD
1000
AcDbSavedByObjectVersion
1070
     0
  0
VISUALSTYLE
  5
21D
102
{ACAD_REACTORS
330
215
102
}
102
{ACAD_XDICTIONARY
360
259
102
}
330
215
100
AcDbVisualStyle
  2
Basic
 70
     7
 71
     1
 72
     0
 73
     1
 90
        0
 40
-0.6
 41
-30.0
 62
     5
 63
     7
 74
     0
 91
        4
 64
     7
 65
   257
 75
     1
175
     1
 42
1.0
 92
        8
 66
     7
 43
1.0
 76
     1
 77
     6
 78
     2
 67
     7
 79
     5
170
     0
171
     0
290
     0
174
     0
 93
        1
 44
0.0
173
     0
291
     1
 45
0.0
1001
ACAD
1000
AcDbSavedByObjectVersion
1070
     0
  0
VISUALSTYLE
  5
221
102
{ACAD_REACTORS
330
215
102
}
102
{ACAD_XDICTIONARY
360
261
102
}
330
215
100
AcDbVisualStyle
  2
Brighten
 70
    12
 71
     2
 72
     2
 73
     0
 90
        0
 40
-0.6
 41
-30.0
 62
     5
 63
     7
 74
     1
 91
        4
 64
     7
 65
   257
 75
     1
175
     1
 42
1.0
 92
        8
 66
     7
 43
1.0
 76
     1
 77
     6
 78
     2
 67
     7
 79
     5
170
     0
171
     0
290
     0
174
     0
 93
        1
 44
50.0
173
     0
291
     1
 45
0.0
1001
ACAD
1000
AcDbSavedByObjectVersion
1070
     0
  0
VISUALSTYLE
  5
225
102
{ACAD_REACTORS
330
215
102
}
102
{ACAD_XDICTIONARY
360
269
102
}
330
215
100
AcDbVisualStyle
  2
ColorChange
 70
    16
 71
     2
 72
     2
 73
     3
 90
        0
 40
-0.6
 41
-30.0
 62
     5
 63
     8
 74
     1
 91
        4
 64
     7
 65
   257
 75
     1
175
     1
 42
1.0
 92
        8
 66
     8
 43
1.0
 76
     1
 77
     6
 78
     2
 67
     7
 79
     5
170
     0
171
     0
290
     0
174
     0
 93
        1
 44
0.0
173
     0
291
     1
 45
0.0
1001
ACAD
1000
AcDbSavedByObjectVersion
1070
     0
  0
VISUALSTYLE
  5
21F
102
{ACAD_REACTORS
330
215
102
}
102
{ACAD_XDICTIONARY
360
25D
102
}
330
215
100
AcDbVisualStyle
  2
Conceptual
 70
     9
 71
     3
 72
     2
 73
     0
 90
        0
 40
-0.6
 41
-30.0
 62
     5
 63
     7
 74
     2
 91
        2
 64
     7
 65
   257
 75
     1
175
     1
 42
40.0
 92
        8
 66
     7
 43
1.0
 76
     1
 77
     6
 78
     2
 67
     7
 79
     3
170
     0
171
     0
290
     0
174
     0
 93
        1
 44
0.0
173
     0
291
     0
 45
0.0
1001
ACAD
1000
AcDbSavedByObjectVersion
1070
     0
  0
VISUALSTYLE
  5
220
102
{ACAD_REACTORS
330
215
102
}
102
{ACAD_XDICTIONARY
360
25F
102
}
330
215
100
AcDbVisualStyle
  2
Dim
 70
    11
 71
     2
 72
     2
 73
     0
 90
        0
 40
-0.6
 41
-30.0
 62
     5
 63
     7
 74
     1
 91
        4
 64
     7
 65
   257
 75
     1
175
     1
 42
1.0
 92
        8
 66
     7
 43
1.0
 76
     1
 77
     6
 78
     2
 67
     7
 79
     5
170
     0
171
     0
290
     0
174
     0
 93
        1
 44
-50.0
173
     0
291
     1
 45
0.0
1001
ACAD
1000
AcDbSavedByObjectVersion
1070
     0
  0
VISUALSTYLE
  5
224
102
{ACAD_REACTORS
330
215
102
}
102
{ACAD_XDICTIONARY
360
267
102
}
330
215
100
AcDbVisualStyle
  2
Facepattern
 70
    15
 71
     2
 72
     2
 73
     0
 90
        0
 40
-0.6
 41
-30.0
 62
     5
 63
     7
 74
     1
 91
        4
 64
     7
 65
   257
 75
     1
175
     1
 42
1.0
 92
        8
 66
     7
 43
1.0
 76
     1
 77
     6
 78
     2
 67
     7
 79
     5
170
     0
171
     0
290
     0
174
     0
 93
        1
 44
0.0
173
     0
291
     1
 45
0.0
1001
ACAD
1000
AcDbSavedByObjectVersion
1070
     0
  0
VISUALSTYLE
  5
216
102
{ACAD_REACTORS
330
215
102
}
102
{ACAD_XDICTIONARY
360
24B
102
}
330
215
100
AcDbVisualStyle
  2
Flat
 70
     0
 71
     2
 72
     1
 73
     1
 90
        2
 40
-0.6
 41
30.0
 62
     5
 63
     7
 74
     0
 91
        4
 64
     7
 65
   257
 75
     1
175
     1
 42
1.0
 92
        8
 66
     7
 43
1.0
 76
     1
 77
     6
 78
     2
 67
     7
 79
     5
170
     0
171
     0
290
     0
174
     0
 93
       13
 44
0.0
173
     0
291
     1
 45
0.0
1001
ACAD
1000
AcDbSavedByObjectVersion
1070
     0
  0
VISUALSTYLE
  5
217
102
{ACAD_REACTORS
330
215
102
}
102
{ACAD_XDICTIONARY
360
24D
102
}
330
215
100
AcDbVisualStyle
  2
FlatWithEdges
 70
     1
 71
     2
 72
     1
 73
     1
 90
        2
 40
-0.6
 41
30.0
 62
     5
 63
     7
 74
     1
 91
        4
 64
     7
 65
   257
 75
     1
175
     1
 42
1.0
 92
        0
 66
   257
 43
1.0
 76
     1
 77
     6
 78
     2
 67
     7
 79
     5
170
     0
171
     0
290
     0
174
     0
 93
       13
 44
0.0
173
     0
291
     1
 45
0.0
1001
ACAD
1000
AcDbSavedByObjectVersion
1070
     0
  0
VISUALSTYLE
  5
218
102
{ACAD_REACTORS
330
215
102
}
102
{ACAD_XDICTIONARY
360
24F
102
}
330
215
100
AcDbVisualStyle
  2
Gouraud
 70
     2
 71
     2
 72
     2
 73
     1
 90
        2
 40
-0.6
 41
30.0
 62
     5
 63
     7
 74
     0
 91
        4
 64
     7
 65
   257
 75
     1
175
     1
 42
1.0
 92
        0
 66
     7
 43
1.0
 76
     1
 77
     6
 78
     2
 67
     7
 79
     5
170
     0
171
     0
290
     0
174
     0
 93
       13
 44
0.0
173
     0
291
     1
 45
0.0
1001
ACAD
1000
AcDbSavedByObjectVersion
1070
     0
  0
VISUALSTYLE
  5
219
102
{ACAD_REACTORS
330
215
102
}
102
{ACAD_XDICTIONARY
360
251
102
}
330
215
100
AcDbVisualStyle
  2
GouraudWithEdges
 70
     3
 71
     2
 72
     2
 73
     1
 90
        2
 40
-0.6
 41
30.0
 62
     5
 63
     7
 74
     1
 91
        4
 64
     7
 65
   257
 75
     1
175
     1
 42
1.0
 92
        0
 66
   257
 43
1.0
 76
     1
 77
     6
 78
     2
 67
     7
 79
     5
170
     0
171
     0
290
     0
174
     0
 93
       13
 44
0.0
173
     0
291
     1
 45
0.0
1001
ACAD
1000
AcDbSavedByObjectVersion
1070
     0
  0
VISUALSTYLE
  5
223
102
{ACAD_REACTORS
330
215
102
}
102
{ACAD_XDICTIONARY
360
265
102
}
330
215
100
AcDbVisualStyle
  2
Linepattern
 70
    14
 71
     2
 72
     2
 73
     0
 90
        0
 40
-0.6
 41
-30.0
 62
     5
 63
     7
 74
     1
 91
        4
 64
     7
 65
   257
 75
     7
175
     7
 42
1.0
 92
        8
 66
     7
 43
1.0
 76
     1
 77
     6
 78
     2
 67
     7
 79
     5
170
     0
171
     0
290
     0
174
     0
 93
        1
 44
0.0
173
     0
291
     1
 45
0.0
1001
ACAD
1000
AcDbSavedByObjectVersion
1070
     0
  0
VISUALSTYLE
  5
21E
102
{ACAD_REACTORS
330
215
102
}
102
{ACAD_XDICTIONARY
360
25B
102
}
330
215
100
AcDbVisualStyle
  2
Realistic
 70
     8
 71
     2
 72
     2
 73
     0
 90
        0
 40
-0.6
 41
-30.0
 62
     5
 63
     7
 74
     1
 91
        0
 64
     7
 65
   257
 75
     1
175
     1
 42
1.0
 92
        8
 66
     8
 43
1.0
 76
     1
 77
     6
 78
     2
 67
     7
 79
     5
170
     0
171
     0
290
     0
174
     0
 93
       13
 44
0.0
173
     0
291
     0
 45
0.0
1001
ACAD
1000
AcDbSavedByObjectVersion
1070
     0
  0
VISUALSTYLE
  5
222
102
{ACAD_REACTORS
330
215
102
}
102
{ACAD_XDICTIONARY
360
263
102
}
330
215
100
AcDbVisualStyle
  2
Thicken
 70
    13
 71
     2
 72
     2
 73
     0
 90
        0
 40
-0.6
 41
-30.0
 62
     5
 63
     7
 74
     1
 91
        4
 64
     7
 65
   257
 75
     1
175
     1
 42
1.0
 92
       12
 66
     7
 43
1.0
 76
     1
 77
     6
 78
     2
 67
     7
 79
     5
170
     0
171
     0
290
     0
174
     0
 93
        1
 44
0.0
173
     0
291
     1
 45
0.0
1001
ACAD
1000
AcDbSavedByObjectVersion
1070
     0
  0
DICTIONARYVAR
  5
24A
102
{ACAD_REACTORS
330
23F
102
}
330
23F
100
DictionaryVariables
280
     0
  1
1:1
  0
DICTIONARYVAR
  5
243
102
{ACAD_REACTORS
330
23F
102
}
330
23F
100
DictionaryVariables
280
     0
  1
2
  0
DICTIONARYVAR
  5
244
102
{ACAD_REACTORS
330
23F
102
}
330
23F
100
DictionaryVariables
280
     0
  1
1
  0
DICTIONARYVAR
  5
242
102
{ACAD_REACTORS
330
23F
102
}
330
23F
100
DictionaryVariables
280
     0
  1
0
  0
DICTIONARY
  5
26D
330
228
100
AcDbDictionary
280
     1
281
     1
  3
ACAD_XREC_ROUNDTRIP
360
26E
  0
DICTIONARY
  5
26B
330
227
100
AcDbDictionary
280
     1
281
     1
  3
ACAD_XREC_ROUNDTRIP
360
26C
  0
DICTIONARY
  5
26F
330
229
100
AcDbDictionary
280
     1
281
     1
  3
ACAD_XREC_ROUNDTRIP
360
270
  0
DICTIONARY
  5
253
330
21A
100
AcDbDictionary
280
     1
281
     1
  3
ACAD_XREC_ROUNDTRIP
360
254
  0
DICTIONARY
  5
257
330
21C
100
AcDbDictionary
280
     1
281
     1
  3
ACAD_XREC_ROUNDTRIP
360
258
  0
DICTIONARY
  5
255
330
21B
100
AcDbDictionary
280
     1
281
     1
  3
ACAD_XREC_ROUNDTRIP
360
256
  0
DICTIONARY
  5
259
330
21D
100
AcDbDictionary
280
     1
281
     1
  3
ACAD_XREC_ROUNDTRIP
360
25A
  0
DICTIONARY
  5
261
330
221
100
AcDbDictionary
280
     1
281
     1
  3
ACAD_XREC_ROUNDTRIP
360
262
  0
DICTIONARY
  5
269
330
225
100
AcDbDictionary
280
     1
281
     1
  3
ACAD_XREC_ROUNDTRIP
360
26A
  0
DICTIONARY
  5
25D
330
21F
100
AcDbDictionary
280
     1
281
     1
  3
ACAD_XREC_ROUNDTRIP
360
25E
  0
DICTIONARY
  5
25F
330
220
100
AcDbDictionary
280
     1
281
     1
  3
ACAD_XREC_ROUNDTRIP
360
260
  0
DICTIONARY
  5
267
330
224
100
AcDbDictionary
280
     1
281
     1
  3
ACAD_XREC_ROUNDTRIP
360
268
  0
DICTIONARY
  5
24B
330
216
100
AcDbDictionary
280
     1
281
     1
  3
ACAD_XREC_ROUNDTRIP
360
24C
  0
DICTIONARY
  5
24D
330
217
100
AcDbDictionary
280
     1
281
     1
  3
ACAD_XREC_ROUNDTRIP
360
24E
  0
DICTIONARY
  5
24F
330
218
100
AcDbDictionary
280
     1
281
     1
  3
ACAD_XREC_ROUNDTRIP
360
250
  0
DICTIONARY
  5
251
330
219
100
AcDbDictionary
280
     1
281
     1
  3
ACAD_XREC_ROUNDTRIP
360
252
  0
DICTIONARY
  5
265
330
223
100
AcDbDictionary
280
     1
281
     1
  3
ACAD_XREC_ROUNDTRIP
360
266
  0
DICTIONARY
  5
25B
330
21E
100
AcDbDictionary
280
     1
281
     1
  3
ACAD_XREC_ROUNDTRIP
360
25C
  0
DICTIONARY
  5
263
330
222
100
AcDbDictionary
280
     1
281
     1
  3
ACAD_XREC_ROUNDTRIP
360
264
  0
XRECORD
  5
26E
102
{ACAD_REACTORS
330
26D
102
}
330
26D
100
AcDbXrecord
280
     1
102
MATERIAL
148
0.0
149
0.0
149
0.0
 93
        0
 94
      127
282
     0
 72
     1
 77
     1
171
     1
175
     1
179
     1
273
     0
  0
XRECORD
  5
26C
102
{ACAD_REACTORS
330
26B
102
}
330
26B
100
AcDbXrecord
280
     1
102
MATERIAL
148
0.0
149
0.0
149
0.0
 93
        0
 94
      127
282
     0
 72
     1
 77
     1
171
     1
175
     1
179
     1
273
     0
  0
XRECORD
  5
270
102
{ACAD_REACTORS
330
26F
102
}
330
26F
100
AcDbXrecord
280
     1
102
MATERIAL
148
0.0
149
0.0
149
0.0
 93
        0
 94
      127
282
     0
 72
     1
 77
     1
171
     1
175
     1
179
     1
273
     0
  0
XRECORD
  5
254
102
{ACAD_REACTORS
330
253
102
}
330
253
100
AcDbXrecord
280
     1
102
RTVSPropertyOp0
 70
     1
102
RTVSPropertyOp1
 70
     1
102
RTVSPropertyOp2
 70
     1
102
RTVSPropertyOp3
 70
     1
102
RTVSPropertyOp4
 70
     1
102
RTVSPropertyOp5
 70
     1
102
RTVSPropertyOp6
 70
     1
102
RTVSPropertyOp7
 70
     1
102
RTVSPropertyOp8
 70
     1
102
RTVSPropertyOp9
 70
     1
102
RTVSPropertyOp10
 70
     1
102
RTVSPropertyOp11
 70
     1
102
RTVSPropertyOp12
 70
     1
102
RTVSPropertyOp13
 70
     1
102
RTVSPropertyOp14
 70
     1
102
RTVSPropertyOp15
 70
     1
102
RTVSPropertyOp16
 70
     1
102
RTVSPropertyOp17
 70
     1
102
RTVSPropertyOp18
 70
     1
102
RTVSPropertyOp19
 70
     1
102
RTVSPropertyOp20
 70
     1
102
RTVSPropertyOp21
 70
     1
102
RTVSPropertyOp22
 70
     1
102
RTVSPropertyOp23
 70
     1
102
RTVSPropertyOp24
 70
     1
102
RTVSPropertyOp25
 70
     1
102
RTVSPropertyOp26
 70
     1
102
RTVSPropertyOp27
 70
     1
102
RTVSPropertyOp28
 70
     1
102
RTVSPropertyOp29
 70
     1
102
RTVSPropertyOp30
 70
     1
102
RTVSPropertyOp31
 70
     1
102
RTVSPropertyOp32
 70
     1
  0
XRECORD
  5
258
102
{ACAD_REACTORS
330
257
102
}
330
257
100
AcDbXrecord
280
     1
102
RTVSPropertyOp0
 70
     1
102
RTVSPropertyOp1
 70
     1
102
RTVSPropertyOp2
 70
     1
102
RTVSPropertyOp3
 70
     1
102
RTVSPropertyOp4
 70
     1
102
RTVSPropertyOp5
 70
     1
102
RTVSPropertyOp6
 70
     1
102
RTVSPropertyOp7
 70
     1
102
RTVSPropertyOp8
 70
     1
102
RTVSPropertyOp9
 70
     1
102
RTVSPropertyOp10
 70
     1
102
RTVSPropertyOp11
 70
     1
102
RTVSPropertyOp12
 70
     1
102
RTVSPropertyOp13
 70
     1
102
RTVSPropertyOp14
 70
     1
102
RTVSPropertyOp15
 70
     1
102
RTVSPropertyOp16
 70
     1
102
RTVSPropertyOp17
 70
     1
102
RTVSPropertyOp18
 70
     1
102
RTVSPropertyOp19
 70
     1
102
RTVSPropertyOp20
 70
     1
102
RTVSPropertyOp21
 70
     1
102
RTVSPropertyOp22
 70
     1
102
RTVSPropertyOp23
 70
     1
102
RTVSPropertyOp24
 70
     1
102
RTVSPropertyOp25
 70
     1
102
RTVSPropertyOp26
 70
     1
102
RTVSPropertyOp27
 70
     1
102
RTVSPropertyOp28
 70
     1
102
RTVSPropertyOp29
 70
     1
102
RTVSPropertyOp30
 70
     1
102
RTVSPropertyOp31
 70
     1
102
RTVSPropertyOp32
 70
     1
  0
XRECORD
  5
256
102
{ACAD_REACTORS
330
255
102
}
330
255
100
AcDbXrecord
280
     1
102
RTVSPropertyOp0
 70
     1
102
RTVSPropertyOp1
 70
     1
102
RTVSPropertyOp2
 70
     1
102
RTVSPropertyOp3
 70
     1
102
RTVSPropertyOp4
 70
     1
102
RTVSPropertyOp5
 70
     1
102
RTVSPropertyOp6
 70
     1
102
RTVSPropertyOp7
 70
     1
102
RTVSPropertyOp8
 70
     1
102
RTVSPropertyOp9
 70
     1
102
RTVSPropertyOp10
 70
     1
102
RTVSPropertyOp11
 70
     1
102
RTVSPropertyOp12
 70
     1
102
RTVSPropertyOp13
 70
     1
102
RTVSPropertyOp14
 70
     1
102
RTVSPropertyOp15
 70
     1
102
RTVSPropertyOp16
 70
     1
102
RTVSPropertyOp17
 70
     1
102
RTVSPropertyOp18
 70
     1
102
RTVSPropertyOp19
 70
     1
102
RTVSPropertyOp20
 70
     1
102
RTVSPropertyOp21
 70
     1
102
RTVSPropertyOp22
 70
     1
102
RTVSPropertyOp23
 70
     1
102
RTVSPropertyOp24
 70
     1
102
RTVSPropertyOp25
 70
     1
102
RTVSPropertyOp26
 70
     1
102
RTVSPropertyOp27
 70
     1
102
RTVSPropertyOp28
 70
     1
102
RTVSPropertyOp29
 70
     1
102
RTVSPropertyOp30
 70
     1
102
RTVSPropertyOp31
 70
     1
102
RTVSPropertyOp32
 70
     1
  0
XRECORD
  5
25A
102
{ACAD_REACTORS
330
259
102
}
330
259
100
AcDbXrecord
280
     1
102
RTVSPropertyOp0
 70
     1
102
RTVSPropertyOp1
 70
     1
102
RTVSPropertyOp2
 70
     1
102
RTVSPropertyOp3
 70
     1
102
RTVSPropertyOp4
 70
     1
102
RTVSPropertyOp5
 70
     1
102
RTVSPropertyOp6
 70
     1
102
RTVSPropertyOp7
 70
     1
102
RTVSPropertyOp8
 70
     1
102
RTVSPropertyOp9
 70
     1
102
RTVSPropertyOp10
 70
     1
102
RTVSPropertyOp11
 70
     1
102
RTVSPropertyOp12
 70
     1
102
RTVSPropertyOp13
 70
     1
102
RTVSPropertyOp14
 70
     1
102
RTVSPropertyOp15
 70
     1
102
RTVSPropertyOp16
 70
     1
102
RTVSPropertyOp17
 70
     1
102
RTVSPropertyOp18
 70
     1
102
RTVSPropertyOp19
 70
     1
102
RTVSPropertyOp20
 70
     1
102
RTVSPropertyOp21
 70
     1
102
RTVSPropertyOp22
 70
     1
102
RTVSPropertyOp23
 70
     1
102
RTVSPropertyOp24
 70
     1
102
RTVSPropertyOp25
 70
     1
102
RTVSPropertyOp26
 70
     1
102
RTVSPropertyOp27
 70
     1
102
RTVSPropertyOp28
 70
     1
102
RTVSPropertyOp29
 70
     1
102
RTVSPropertyOp30
 70
     1
102
RTVSPropertyOp31
 70
     1
102
RTVSPropertyOp32
 70
     1
  0
XRECORD
  5
262
102
{ACAD_REACTORS
330
261
102
}
330
261
100
AcDbXrecord
280
     1
102
RTVSPropertyOp0
 70
     1
102
RTVSPropertyOp1
 70
     1
102
RTVSPropertyOp2
 70
     1
102
RTVSPropertyOp3
 70
     1
102
RTVSPropertyOp4
 70
     1
102
RTVSPropertyOp5
 70
     1
102
RTVSPropertyOp6
 70
     1
102
RTVSPropertyOp7
 70
     1
102
RTVSPropertyOp8
 70
     1
102
RTVSPropertyOp9
 70
     1
102
RTVSPropertyOp10
 70
     1
102
RTVSPropertyOp11
 70
     1
102
RTVSPropertyOp12
 70
     1
102
RTVSPropertyOp13
 70
     1
102
RTVSPropertyOp14
 70
     1
102
RTVSPropertyOp15
 70
     1
102
RTVSPropertyOp16
 70
     1
102
RTVSPropertyOp17
 70
     1
102
RTVSPropertyOp18
 70
     1
102
RTVSPropertyOp19
 70
     1
102
RTVSPropertyOp20
 70
     1
102
RTVSPropertyOp21
 70
     1
102
RTVSPropertyOp22
 70
     1
102
RTVSPropertyOp23
 70
     1
102
RTVSPropertyOp24
 70
     1
102
RTVSPropertyOp25
 70
     1
102
RTVSPropertyOp26
 70
     1
102
RTVSPropertyOp27
 70
     1
102
RTVSPropertyOp28
 70
     1
102
RTVSPropertyOp29
 70
     1
102
RTVSPropertyOp30
 70
     1
102
RTVSPropertyOp31
 70
     1
102
RTVSPropertyOp32
 70
     1
  0
XRECORD
  5
26A
102
{ACAD_REACTORS
330
269
102
}
330
269
100
AcDbXrecord
280
     1
102
RTVSPropertyOp0
 70
     1
102
RTVSPropertyOp1
 70
     1
102
RTVSPropertyOp2
 70
     1
102
RTVSPropertyOp3
 70
     1
102
RTVSPropertyOp4
 70
     1
102
RTVSPropertyOp5
 70
     1
102
RTVSPropertyOp6
 70
     1
102
RTVSPropertyOp7
 70
     1
102
RTVSPropertyOp8
 70
     1
102
RTVSPropertyOp9
 70
     1
102
RTVSPropertyOp10
 70
     1
102
RTVSPropertyOp11
 70
     1
102
RTVSPropertyOp12
 70
     1
102
RTVSPropertyOp13
 70
     1
102
RTVSPropertyOp14
 70
     1
102
RTVSPropertyOp15
 70
     1
102
RTVSPropertyOp16
 70
     1
102
RTVSPropertyOp17
 70
     1
102
RTVSPropertyOp18
 70
     1
102
RTVSPropertyOp19
 70
     1
102
RTVSPropertyOp20
 70
     1
102
RTVSPropertyOp21
 70
     1
102
RTVSPropertyOp22
 70
     1
102
RTVSPropertyOp23
 70
     1
102
RTVSPropertyOp24
 70
     1
102
RTVSPropertyOp25
 70
     1
102
RTVSPropertyOp26
 70
     1
102
RTVSPropertyOp27
 70
     1
102
RTVSPropertyOp28
 70
     1
102
RTVSPropertyOp29
 70
     1
102
RTVSPropertyOp30
 70
     1
102
RTVSPropertyOp31
 70
     1
102
RTVSPropertyOp32
 70
     1
  0
XRECORD
  5
25E
102
{ACAD_REACTORS
330
25D
102
}
330
25D
100
AcDbXrecord
280
     1
102
RTVSPropertyOp0
 70
     1
102
RTVSPropertyOp1
 70
     1
102
RTVSPropertyOp2
 70
     1
102
RTVSPropertyOp3
 70
     1
102
RTVSPropertyOp4
 70
     1
102
RTVSPropertyOp5
 70
     1
102
RTVSPropertyOp6
 70
     1
102
RTVSPropertyOp7
 70
     1
102
RTVSPropertyOp8
 70
     1
102
RTVSPropertyOp9
 70
     1
102
RTVSPropertyOp10
 70
     1
102
RTVSPropertyOp11
 70
     1
102
RTVSPropertyOp12
 70
     1
102
RTVSPropertyOp13
 70
     1
102
RTVSPropertyOp14
 70
     1
102
RTVSPropertyOp15
 70
     1
102
RTVSPropertyOp16
 70
     1
102
RTVSPropertyOp17
 70
     1
102
RTVSPropertyOp18
 70
     1
102
RTVSPropertyOp19
 70
     1
102
RTVSPropertyOp20
 70
     1
102
RTVSPropertyOp21
 70
     1
102
RTVSPropertyOp22
 70
     1
102
RTVSPropertyOp23
 70
     1
102
RTVSPropertyOp24
 70
     1
102
RTVSPropertyOp25
 70
     1
102
RTVSPropertyOp26
 70
     1
102
RTVSPropertyOp27
 70
     1
102
RTVSPropertyOp28
 70
     1
102
RTVSPropertyOp29
 70
     1
102
RTVSPropertyOp30
 70
     1
102
RTVSPropertyOp31
 70
     1
102
RTVSPropertyOp32
 70
     1
  0
XRECORD
  5
260
102
{ACAD_REACTORS
330
25F
102
}
330
25F
100
AcDbXrecord
280
     1
102
RTVSPropertyOp0
 70
     1
102
RTVSPropertyOp1
 70
     1
102
RTVSPropertyOp2
 70
     1
102
RTVSPropertyOp3
 70
     1
102
RTVSPropertyOp4
 70
     1
102
RTVSPropertyOp5
 70
     1
102
RTVSPropertyOp6
 70
     1
102
RTVSPropertyOp7
 70
     1
102
RTVSPropertyOp8
 70
     1
102
RTVSPropertyOp9
 70
     1
102
RTVSPropertyOp10
 70
     1
102
RTVSPropertyOp11
 70
     1
102
RTVSPropertyOp12
 70
     1
102
RTVSPropertyOp13
 70
     1
102
RTVSPropertyOp14
 70
     1
102
RTVSPropertyOp15
 70
     1
102
RTVSPropertyOp16
 70
     1
102
RTVSPropertyOp17
 70
     1
102
RTVSPropertyOp18
 70
     1
102
RTVSPropertyOp19
 70
     1
102
RTVSPropertyOp20
 70
     1
102
RTVSPropertyOp21
 70
     1
102
RTVSPropertyOp22
 70
     1
102
RTVSPropertyOp23
 70
     1
102
RTVSPropertyOp24
 70
     1
102
RTVSPropertyOp25
 70
     1
102
RTVSPropertyOp26
 70
     1
102
RTVSPropertyOp27
 70
     1
102
RTVSPropertyOp28
 70
     1
102
RTVSPropertyOp29
 70
     1
102
RTVSPropertyOp30
 70
     1
102
RTVSPropertyOp31
 70
     1
102
RTVSPropertyOp32
 70
     1
  0
XRECORD
  5
268
102
{ACAD_REACTORS
330
267
102
}
330
267
100
AcDbXrecord
280
     1
102
RTVSPropertyOp0
 70
     1
102
RTVSPropertyOp1
 70
     1
102
RTVSPropertyOp2
 70
     1
102
RTVSPropertyOp3
 70
     1
102
RTVSPropertyOp4
 70
     1
102
RTVSPropertyOp5
 70
     1
102
RTVSPropertyOp6
 70
     1
102
RTVSPropertyOp7
 70
     1
102
RTVSPropertyOp8
 70
     1
102
RTVSPropertyOp9
 70
     1
102
RTVSPropertyOp10
 70
     1
102
RTVSPropertyOp11
 70
     1
102
RTVSPropertyOp12
 70
     1
102
RTVSPropertyOp13
 70
     1
102
RTVSPropertyOp14
 70
     1
102
RTVSPropertyOp15
 70
     1
102
RTVSPropertyOp16
 70
     1
102
RTVSPropertyOp17
 70
     1
102
RTVSPropertyOp18
 70
     1
102
RTVSPropertyOp19
 70
     1
102
RTVSPropertyOp20
 70
     1
102
RTVSPropertyOp21
 70
     1
102
RTVSPropertyOp22
 70
     1
102
RTVSPropertyOp23
 70
     1
102
RTVSPropertyOp24
 70
     1
102
RTVSPropertyOp25
 70
     1
102
RTVSPropertyOp26
 70
     1
102
RTVSPropertyOp27
 70
     1
102
RTVSPropertyOp28
 70
     1
102
RTVSPropertyOp29
 70
     1
102
RTVSPropertyOp30
 70
     1
102
RTVSPropertyOp31
 70
     1
102
RTVSPropertyOp32
 70
     1
  0
XRECORD
  5
24C
102
{ACAD_REACTORS
330
24B
102
}
330
24B
100
AcDbXrecord
280
     1
102
RTVSPropertyOp0
 70
     1
102
RTVSPropertyOp1
 70
     1
102
RTVSPropertyOp2
 70
     1
102
RTVSPropertyOp3
 70
     1
102
RTVSPropertyOp4
 70
     1
102
RTVSPropertyOp5
 70
     1
102
RTVSPropertyOp6
 70
     1
102
RTVSPropertyOp7
 70
     1
102
RTVSPropertyOp8
 70
     1
102
RTVSPropertyOp9
 70
     1
102
RTVSPropertyOp10
 70
     1
102
RTVSPropertyOp11
 70
     1
102
RTVSPropertyOp12
 70
     1
102
RTVSPropertyOp13
 70
     1
102
RTVSPropertyOp14
 70
     1
102
RTVSPropertyOp15
 70
     1
102
RTVSPropertyOp16
 70
     1
102
RTVSPropertyOp17
 70
     1
102
RTVSPropertyOp18
 70
     1
102
RTVSPropertyOp19
 70
     1
102
RTVSPropertyOp20
 70
     1
102
RTVSPropertyOp21
 70
     1
102
RTVSPropertyOp22
 70
     1
102
RTVSPropertyOp23
 70
     1
102
RTVSPropertyOp24
 70
     1
102
RTVSPropertyOp25
 70
     1
102
RTVSPropertyOp26
 70
     1
102
RTVSPropertyOp27
 70
     1
102
RTVSPropertyOp28
 70
     1
102
RTVSPropertyOp29
 70
     1
102
RTVSPropertyOp30
 70
     1
102
RTVSPropertyOp31
 70
     1
102
RTVSPropertyOp32
 70
     1
  0
XRECORD
  5
24E
102
{ACAD_REACTORS
330
24D
102
}
330
24D
100
AcDbXrecord
280
     1
102
RTVSPropertyOp0
 70
     1
102
RTVSPropertyOp1
 70
     1
102
RTVSPropertyOp2
 70
     1
102
RTVSPropertyOp3
 70
     1
102
RTVSPropertyOp4
 70
     1
102
RTVSPropertyOp5
 70
     1
102
RTVSPropertyOp6
 70
     1
102
RTVSPropertyOp7
 70
     1
102
RTVSPropertyOp8
 70
     1
102
RTVSPropertyOp9
 70
     1
102
RTVSPropertyOp10
 70
     1
102
RTVSPropertyOp11
 70
     1
102
RTVSPropertyOp12
 70
     1
102
RTVSPropertyOp13
 70
     1
102
RTVSPropertyOp14
 70
     1
102
RTVSPropertyOp15
 70
     1
102
RTVSPropertyOp16
 70
     1
102
RTVSPropertyOp17
 70
     1
102
RTVSPropertyOp18
 70
     1
102
RTVSPropertyOp19
 70
     1
102
RTVSPropertyOp20
 70
     1
102
RTVSPropertyOp21
 70
     1
102
RTVSPropertyOp22
 70
     1
102
RTVSPropertyOp23
 70
     1
102
RTVSPropertyOp24
 70
     1
102
RTVSPropertyOp25
 70
     1
102
RTVSPropertyOp26
 70
     1
102
RTVSPropertyOp27
 70
     1
102
RTVSPropertyOp28
 70
     1
102
RTVSPropertyOp29
 70
     1
102
RTVSPropertyOp30
 70
     1
102
RTVSPropertyOp31
 70
     1
102
RTVSPropertyOp32
 70
     1
  0
XRECORD
  5
250
102
{ACAD_REACTORS
330
24F
102
}
330
24F
100
AcDbXrecord
280
     1
102
RTVSPropertyOp0
 70
     1
102
RTVSPropertyOp1
 70
     1
102
RTVSPropertyOp2
 70
     1
102
RTVSPropertyOp3
 70
     1
102
RTVSPropertyOp4
 70
     1
102
RTVSPropertyOp5
 70
     1
102
RTVSPropertyOp6
 70
     1
102
RTVSPropertyOp7
 70
     1
102
RTVSPropertyOp8
 70
     1
102
RTVSPropertyOp9
 70
     1
102
RTVSPropertyOp10
 70
     1
102
RTVSPropertyOp11
 70
     1
102
RTVSPropertyOp12
 70
     1
102
RTVSPropertyOp13
 70
     1
102
RTVSPropertyOp14
 70
     1
102
RTVSPropertyOp15
 70
     1
102
RTVSPropertyOp16
 70
     1
102
RTVSPropertyOp17
 70
     1
102
RTVSPropertyOp18
 70
     1
102
RTVSPropertyOp19
 70
     1
102
RTVSPropertyOp20
 70
     1
102
RTVSPropertyOp21
 70
     1
102
RTVSPropertyOp22
 70
     1
102
RTVSPropertyOp23
 70
     1
102
RTVSPropertyOp24
 70
     1
102
RTVSPropertyOp25
 70
     1
102
RTVSPropertyOp26
 70
     1
102
RTVSPropertyOp27
 70
     1
102
RTVSPropertyOp28
 70
     1
102
RTVSPropertyOp29
 70
     1
102
RTVSPropertyOp30
 70
     1
102
RTVSPropertyOp31
 70
     1
102
RTVSPropertyOp32
 70
     1
  0
XRECORD
  5
252
102
{ACAD_REACTORS
330
251
102
}
330
251
100
AcDbXrecord
280
     1
102
RTVSPropertyOp0
 70
     1
102
RTVSPropertyOp1
 70
     1
102
RTVSPropertyOp2
 70
     1
102
RTVSPropertyOp3
 70
     1
102
RTVSPropertyOp4
 70
     1
102
RTVSPropertyOp5
 70
     1
102
RTVSPropertyOp6
 70
     1
102
RTVSPropertyOp7
 70
     1
102
RTVSPropertyOp8
 70
     1
102
RTVSPropertyOp9
 70
     1
102
RTVSPropertyOp10
 70
     1
102
RTVSPropertyOp11
 70
     1
102
RTVSPropertyOp12
 70
     1
102
RTVSPropertyOp13
 70
     1
102
RTVSPropertyOp14
 70
     1
102
RTVSPropertyOp15
 70
     1
102
RTVSPropertyOp16
 70
     1
102
RTVSPropertyOp17
 70
     1
102
RTVSPropertyOp18
 70
     1
102
RTVSPropertyOp19
 70
     1
102
RTVSPropertyOp20
 70
     1
102
RTVSPropertyOp21
 70
     1
102
RTVSPropertyOp22
 70
     1
102
RTVSPropertyOp23
 70
     1
102
RTVSPropertyOp24
 70
     1
102
RTVSPropertyOp25
 70
     1
102
RTVSPropertyOp26
 70
     1
102
RTVSPropertyOp27
 70
     1
102
RTVSPropertyOp28
 70
     1
102
RTVSPropertyOp29
 70
     1
102
RTVSPropertyOp30
 70
     1
102
RTVSPropertyOp31
 70
     1
102
RTVSPropertyOp32
 70
     1
  0
XRECORD
  5
266
102
{ACAD_REACTORS
330
265
102
}
330
265
100
AcDbXrecord
280
     1
102
RTVSPropertyOp0
 70
     1
102
RTVSPropertyOp1
 70
     1
102
RTVSPropertyOp2
 70
     1
102
RTVSPropertyOp3
 70
     1
102
RTVSPropertyOp4
 70
     1
102
RTVSPropertyOp5
 70
     1
102
RTVSPropertyOp6
 70
     1
102
RTVSPropertyOp7
 70
     1
102
RTVSPropertyOp8
 70
     1
102
RTVSPropertyOp9
 70
     1
102
RTVSPropertyOp10
 70
     1
102
RTVSPropertyOp11
 70
     1
102
RTVSPropertyOp12
 70
     1
102
RTVSPropertyOp13
 70
     1
102
RTVSPropertyOp14
 70
     1
102
RTVSPropertyOp15
 70
     1
102
RTVSPropertyOp16
 70
     1
102
RTVSPropertyOp17
 70
     1
102
RTVSPropertyOp18
 70
     1
102
RTVSPropertyOp19
 70
     1
102
RTVSPropertyOp20
 70
     1
102
RTVSPropertyOp21
 70
     1
102
RTVSPropertyOp22
 70
     1
102
RTVSPropertyOp23
 70
     1
102
RTVSPropertyOp24
 70
     1
102
RTVSPropertyOp25
 70
     1
102
RTVSPropertyOp26
 70
     1
102
RTVSPropertyOp27
 70
     1
102
RTVSPropertyOp28
 70
     1
102
RTVSPropertyOp29
 70
     1
102
RTVSPropertyOp30
 70
     1
102
RTVSPropertyOp31
 70
     1
102
RTVSPropertyOp32
 70
     1
  0
XRECORD
  5
25C
102
{ACAD_REACTORS
330
25B
102
}
330
25B
100
AcDbXrecord
280
     1
102
RTVSPropertyOp0
 70
     1
102
RTVSPropertyOp1
 70
     1
102
RTVSPropertyOp2
 70
     1
102
RTVSPropertyOp3
 70
     1
102
RTVSPropertyOp4
 70
     1
102
RTVSPropertyOp5
 70
     1
102
RTVSPropertyOp6
 70
     1
102
RTVSPropertyOp7
 70
     1
102
RTVSPropertyOp8
 70
     1
102
RTVSPropertyOp9
 70
     1
102
RTVSPropertyOp10
 70
     1
102
RTVSPropertyOp11
 70
     1
102
RTVSPropertyOp12
 70
     1
102
RTVSPropertyOp13
 70
     1
102
RTVSPropertyOp14
 70
     1
102
RTVSPropertyOp15
 70
     1
102
RTVSPropertyOp16
 70
     1
102
RTVSPropertyOp17
 70
     1
102
RTVSPropertyOp18
 70
     1
102
RTVSPropertyOp19
 70
     1
102
RTVSPropertyOp20
 70
     1
102
RTVSPropertyOp21
 70
     1
102
RTVSPropertyOp22
 70
     1
102
RTVSPropertyOp23
 70
     1
102
RTVSPropertyOp24
 70
     1
102
RTVSPropertyOp25
 70
     1
102
RTVSPropertyOp26
 70
     1
102
RTVSPropertyOp27
 70
     1
102
RTVSPropertyOp28
 70
     1
102
RTVSPropertyOp29
 70
     1
102
RTVSPropertyOp30
 70
     1
102
RTVSPropertyOp31
 70
     1
102
RTVSPropertyOp32
 70
     1
  0
XRECORD
  5
264
102
{ACAD_REACTORS
330
263
102
}
330
263
100
AcDbXrecord
280
     1
102
RTVSPropertyOp0
 70
     1
102
RTVSPropertyOp1
 70
     1
102
RTVSPropertyOp2
 70
     1
102
RTVSPropertyOp3
 70
     1
102
RTVSPropertyOp4
 70
     1
102
RTVSPropertyOp5
 70
     1
102
RTVSPropertyOp6
 70
     1
102
RTVSPropertyOp7
 70
     1
102
RTVSPropertyOp8
 70
     1
102
RTVSPropertyOp9
 70
     1
102
RTVSPropertyOp10
 70
     1
102
RTVSPropertyOp11
 70
     1
102
RTVSPropertyOp12
 70
     1
102
RTVSPropertyOp13
 70
     1
102
RTVSPropertyOp14
 70
     1
102
RTVSPropertyOp15
 70
     1
102
RTVSPropertyOp16
 70
     1
102
RTVSPropertyOp17
 70
     1
102
RTVSPropertyOp18
 70
     1
102
RTVSPropertyOp19
 70
     1
102
RTVSPropertyOp20
 70
     1
102
RTVSPropertyOp21
 70
     1
102
RTVSPropertyOp22
 70
     1
102
RTVSPropertyOp23
 70
     1
102
RTVSPropertyOp24
 70
     1
102
RTVSPropertyOp25
 70
     1
102
RTVSPropertyOp26
 70
     1
102
RTVSPropertyOp27
 70
     1
102
RTVSPropertyOp28
 70
     1
102
RTVSPropertyOp29
 70
     1
102
RTVSPropertyOp30
 70
     1
102
RTVSPropertyOp31
 70
     1
102
RTVSPropertyOp32
 70
     1
  0
ENDSEC
  0
EOF
