  0
SECTION
  2
HEADER
  9
$ACADVER
  1
AC1032
  9
$ACADMAINTVER
 90
       55
  9
$DWGCODEPAGE
  3
ANSI_1252
  9
$LASTSAVEDBY
  1
siragna
  9
$REQUIREDVERSIONS
160
                 0
  9
$INSBASE
 10
0.0
 20
0.0
 30
0.0
  9
$EXTMIN
 10
0.0
 20
0.0
 30
0.0
  9
$EXTMAX
 10
420.0
 20
297.0
 30
0.0
  9
$LIMMIN
 10
0.0
 20
0.0
  9
$LIMMAX
 10
420.0
 20
297.0
  9
$ORTHOMODE
 70
     0
  9
$REGENMODE
 70
     1
  9
$FILLMODE
 70
     1
  9
$QTEXTMODE
 70
     0
  9
$MIRRTEXT
 70
     1
  9
$LTSCALE
 40
1.0
  9
$ATTMODE
 70
     1
  9
$TEXTSIZE
 40
3.5
  9
$TRACEWID
 40
1.0
  9
$TEXTSTYLE
  7
Standard
  9
$CLAYER
  8
0
  9
$CELTYPE
  6
ByLayer
  9
$CECOLOR
 62
   256
  9
$CELTSCALE
 40
1.0
  9
$DISPSILH
 70
     0
  9
$DIMSCALE
 40
1.0
  9
$DIMASZ
 40
3.5
  9
$DIMEXO
 40
0.0
  9
$DIMDLI
 40
3.75
  9
$DIMRND
 40
0.0
  9
$DIMDLE
 40
0.0
  9
$DIMEXE
 40
1.0
  9
$DIMTP
 40
0.0
  9
$DIMTM
 40
0.0
  9
$DIMTXT
 40
3.5
  9
$DIMCEN
 40
2.5
  9
$DIMTSZ
 40
0.0
  9
$DIMTOL
 70
     0
  9
$DIMLIM
 70
     0
  9
$DIMTIH
 70
     1
  9
$DIMTOH
 70
     1
  9
$DIMSE1
 70
     0
  9
$DIMSE2
 70
     0
  9
$DIMTAD
 70
     1
  9
$DIMZIN
 70
     0
  9
$DIMBLK
  1

  9
$DIMASO
 70
     1
  9
$DIMSHO
 70
     1
  9
$DIMPOST
  1

  9
$DIMAPOST
  1

  9
$DIMALT
 70
     0
  9
$DIMALTD
 70
     3
  9
$DIMALTF
 40
0.0393700787
  9
$DIMLFAC
 40
1.0
  9
$DIMTOFL
 70
     1
  9
$DIMTVP
 40
0.0
  9
$DIMTIX
 70
     0
  9
$DIMSOXD
 70
     0
  9
$DIMSAH
 70
     0
  9
$DIMBLK1
  1

  9
$DIMBLK2
  1

  9
$DIMSTYLE
  2
ISO-25
  9
$DIMCLRD
 70
     0
  9
$DIMCLRE
 70
     0
  9
$DIMCLRT
 70
     0
  9
$DIMTFAC
 40
1.0
  9
$DIMGAP
 40
1.5
  9
$DIMJUST
 70
     0
  9
$DIMSD1
 70
     0
  9
$DIMSD2
 70
     0
  9
$DIMTOLJ
 70
     0
  9
$DIMTZIN
 70
     0
  9
$DIMALTZ
 70
     0
  9
$DIMALTTZ
 70
     0
  9
$DIMUPT
 70
     0
  9
$DIMDEC
 70
     2
  9
$DIMTDEC
 70
     3
  9
$DIMALTU
 70
     2
  9
$DIMALTTD
 70
     3
  9
$DIMTXSTY
  7
Standard
  9
$DIMAUNIT
 70
     0
  9
$DIMADEC
 70
     2
  9
$DIMALTRND
 40
0.0
  9
$DIMAZIN
 70
     0
  9
$DIMDSEP
 70
    44
  9
$DIMATFIT
 70
     3
  9
$DIMFRAC
 70
     0
  9
$DIMLDRBLK
  1

  9
$DIMLUNIT
 70
     2
  9
$DIMLWD
 70
    -2
  9
$DIMLWE
 70
    -2
  9
$DIMTMOVE
 70
     0
  9
$DIMFXL
 40
1.0
  9
$DIMFXLON
 70
     0
  9
$DIMJOGANG
 40
0.7853981634
  9
$DIMTFILL
 70
     0
  9
$DIMTFILLCLR
 70
     0
  9
$DIMARCSYM
 70
     0
  9
$DIMLTYPE
  6

  9
$DIMLTEX1
  6

  9
$DIMLTEX2
  6

  9
$DIMTXTDIRECTION
 70
     0
  9
$LUNITS
 70
     2
  9
$LUPREC
 70
     2
  9
$SKETCHINC
 40
1.0
  9
$FILLETRAD
 40
10.0
  9
$AUNITS
 70
     0
  9
$AUPREC
 70
     2
  9
$MENU
  1
.
  9
$ELEVATION
 40
0.0
  9
$PELEVATION
 40
0.0
  9
$THICKNESS
 40
0.0
  9
$LIMCHECK
 70
     0
  9
$CHAMFERA
 40
0.0
  9
$CHAMFERB
 40
0.0
  9
$CHAMFERC
 40
0.0
  9
$CHAMFERD
 40
0.0
  9
$SKPOLY
 70
     0
  9
$TDCREATE
 40
2459354.363948137
  9
$TDUCREATE
 40
2459354.280614803
  9
$TDUPDATE
 40
2459354.363948935
  9
$TDUUPDATE
 40
2459354.280615602
  9
$TDINDWG
 40
0.0000000116
  9
$TDUSRTIMER
 40
0.0000000116
  9
$USRTIMER
 70
     1
  9
$ANGBASE
 50
0.0
  9
$ANGDIR
 70
     0
  9
$PDMODE
 70
     0
  9
$PDSIZE
 40
-1.0
  9
$PLINEWID
 40
0.0
  9
$SPLFRAME
 70
     0
  9
$SPLINETYPE
 70
     6
  9
$SPLINESEGS
 70
     8
  9
$HANDSEED
  5
242
  9
$SURFTAB1
 70
     6
  9
$SURFTAB2
 70
     6
  9
$SURFTYPE
 70
     6
  9
$SURFU
 70
     6
  9
$SURFV
 70
     6
  9
$UCSBASE
  2

  9
$UCSNAME
  2

  9
$UCSORG
 10
0.0
 20
0.0
 30
0.0
  9
$UCSXDIR
 10
1.0
 20
0.0
 30
0.0
  9
$UCSYDIR
 10
0.0
 20
1.0
 30
0.0
  9
$UCSORTHOREF
  2

  9
$UCSORTHOVIEW
 70
     0
  9
$UCSORGTOP
 10
0.0
 20
0.0
 30
0.0
  9
$UCSORGBOTTOM
 10
0.0
 20
0.0
 30
0.0
  9
$UCSORGLEFT
 10
0.0
 20
0.0
 30
0.0
  9
$UCSORGRIGHT
 10
0.0
 20
0.0
 30
0.0
  9
$UCSORGFRONT
 10
0.0
 20
0.0
 30
0.0
  9
$UCSORGBACK
 10
0.0
 20
0.0
 30
0.0
  9
$PUCSBASE
  2

  9
$PUCSNAME
  2

  9
$PUCSORG
 10
0.0
 20
0.0
 30
0.0
  9
$PUCSXDIR
 10
1.0
 20
0.0
 30
0.0
  9
$PUCSYDIR
 10
0.0
 20
1.0
 30
0.0
  9
$PUCSORTHOREF
  2

  9
$PUCSORTHOVIEW
 70
     0
  9
$PUCSORGTOP
 10
0.0
 20
0.0
 30
0.0
  9
$PUCSORGBOTTOM
 10
0.0
 20
0.0
 30
0.0
  9
$PUCSORGLEFT
 10
0.0
 20
0.0
 30
0.0
  9
$PUCSORGRIGHT
 10
0.0
 20
0.0
 30
0.0
  9
$PUCSORGFRONT
 10
0.0
 20
0.0
 30
0.0
  9
$PUCSORGBACK
 10
0.0
 20
0.0
 30
0.0
  9
$USERI1
 70
     0
  9
$USERI2
 70
     0
  9
$USERI3
 70
     0
  9
$USERI4
 70
     0
  9
$USERI5
 70
     0
  9
$USERR1
 40
0.0
  9
$USERR2
 40
0.0
  9
$USERR3
 40
0.0
  9
$USERR4
 40
0.0
  9
$USERR5
 40
0.0
  9
$WORLDVIEW
 70
     1
  9
$SHADEDGE
 70
     3
  9
$SHADEDIF
 70
    70
  9
$TILEMODE
 70
     1
  9
$MAXACTVP
 70
    64
  9
$PINSBASE
 10
0.0
 20
0.0
 30
0.0
  9
$PLIMCHECK
 70
     0
  9
$PEXTMIN
 10
1.0000000000E+20
 20
1.0000000000E+20
 30
1.0000000000E+20
  9
$PEXTMAX
 10
-1.0000000000E+20
 20
-1.0000000000E+20
 30
-1.0000000000E+20
  9
$PLIMMIN
 10
0.0
 20
0.0
  9
$PLIMMAX
 10
420.0
 20
297.0
  9
$UNITMODE
 70
     0
  9
$VISRETAIN
 70
     1
  9
$PLINEGEN
 70
     0
  9
$PSLTSCALE
 70
     1
  9
$TREEDEPTH
 70
  3020
  9
$CMLSTYLE
  2
Standard
  9
$CMLJUST
 70
     0
  9
$CMLSCALE
 40
20.0
  9
$PROXYGRAPHICS
 70
     1
  9
$MEASUREMENT
 70
     1
  9
$CELWEIGHT
370
    -1
  9
$ENDCAPS
280
     0
  9
$JOINSTYLE
280
     0
  9
$LWDISPLAY
290
     1
  9
$INSUNITS
 70
     4
  9
$HYPERLINKBASE
  1

  9
$STYLESHEET
  1

  9
$XEDIT
290
     1
  9
$CEPSNTYPE
380
     0
  9
$PSTYLEMODE
290
     1
  9
$FINGERPRINTGUID
  2
{14e6d02e-4edd-4f8d-9d78-3fc51d019d1d}
  9
$VERSIONGUID
  2
{FAEB1C32-E019-11D5-929B-00C0DF256EC4}
  9
$EXTNAMES
290
     1
  9
$PSVPSCALE
 40
0.0
  9
$OLESTARTUP
290
     0
  9
$SORTENTS
280
   127
  9
$INDEXCTL
280
     0
  9
$HIDETEXT
280
     1
  9
$XCLIPFRAME
280
     2
  9
$HALOGAP
280
     0
  9
$OBSCOLOR
 70
   257
  9
$OBSLTYPE
280
     0
  9
$INTERSECTIONDISPLAY
280
     0
  9
$INTERSECTIONCOLOR
 70
   257
  9
$DIMASSOC
280
     2
  9
$PROJECTNAME
  1

  9
$CAMERADISPLAY
290
     0
  9
$LENSLENGTH
 40
50.0
  9
$CAMERAHEIGHT
 40
0.0
  9
$STEPSPERSEC
 40
2.0
  9
$STEPSIZE
 40
6.0
  9
$3DDWFPREC
 40
2.0
  9
$PSOLWIDTH
 40
5.0
  9
$PSOLHEIGHT
 40
80.0
  9
$LOFTANG1
 40
1.5707963268
  9
$LOFTANG2
 40
1.5707963268
  9
$LOFTMAG1
 40
0.0
  9
$LOFTMAG2
 40
0.0
  9
$LOFTPARAM
 70
     7
  9
$LOFTNORMALS
280
     1
  9
$LATITUDE
 40
37.795
  9
$LONGITUDE
 40
-122.394
  9
$NORTHDIRECTION
 40
0.0
  9
$TIMEZONE
 70
 -8000
  9
$LIGHTGLYPHDISPLAY
280
     1
  9
$TILEMODELIGHTSYNCH
280
     1
  9
$CMATERIAL
347
44
  9
$SOLIDHIST
280
     0
  9
$SHOWHIST
280
     1
  9
$DWFFRAME
280
     2
  9
$DGNFRAME
280
     2
  9
$REALWORLDSCALE
290
     1
  9
$INTERFERECOLOR
 62
   256
  9
$CSHADOW
280
     0
  9
$SHADOWPLANELOCATION
 40
0.0
  0
ENDSEC
  0
SECTION
  2
CLASSES
  0
CLASS
  1
ACDBDICTIONARYWDFLT
  2
AcDbDictionaryWithDefault
  3
ObjectDBX Classes
 90
        0
 91
        3
280
     0
281
     0
  0
CLASS
  1
VISUALSTYLE
  2
AcDbVisualStyle
  3
ObjectDBX Classes
 90
     4095
 91
        3
280
     0
281
     0
  0
CLASS
  1
MATERIAL
  2
AcDbMaterial
  3
ObjectDBX Classes
 90
     1153
 91
        3
280
     0
281
     0
  0
CLASS
  1
SCALE
  2
AcDbScale
  3
ObjectDBX Classes
 90
     1153
 91
        3
280
     0
281
     0
  0
CLASS
  1
TABLESTYLE
  2
AcDbTableStyle
  3
ObjectDBX Classes
 90
     4095
 91
        3
280
     0
281
     0
  0
CLASS
  1
MLEADERSTYLE
  2
AcDbMLeaderStyle
  3
ACDB_MLEADERSTYLE_CLASS
 90
     4095
 91
        3
280
     0
281
     0
  0
CLASS
  1
SUN
  2
AcDbSun
  3
SCENEOE
 90
     1153
 91
        3
280
     0
281
     0
  0
CLASS
  1
DICTIONARYVAR
  2
AcDbDictionaryVar
  3
ObjectDBX Classes
 90
        0
 91
        3
280
     0
281
     0
  0
CLASS
  1
CELLSTYLEMAP
  2
AcDbCellStyleMap
  3
ObjectDBX Classes
 90
     1152
 91
        3
280
     0
281
     0
  0
ENDSEC
  0
SECTION
  2
TABLES
  0
TABLE
  2
VPORT
  5
8
330
0
100
AcDbSymbolTable
 70
     1
  0
VPORT
  5
29
330
8
100
AcDbSymbolTableRecord
100
AcDbViewportTableRecord
  2
*Active
 70
     0
 10
0.0
 20
0.0
 11
1.0
 21
1.0
 12
210.0
 22
148.5
 13
0.0
 23
0.0
 14
10.0
 24
10.0
 15
10.0
 25
10.0
 16
0.0
 26
0.0
 36
1.0
 17
0.0
 27
0.0
 37
0.0
 40
297.0
 41
1.4141414141
 42
50.0
 43
0.0
 44
0.0
 50
0.0
 51
0.0
 71
     0
 72
  2000
 73
     1
 74
     3
 75
     0
 76
     0
 77
     0
 78
     0
281
     0
 65
     1
110
0.0
120
0.0
130
0.0
111
1.0
121
0.0
131
0.0
112
0.0
122
1.0
132
0.0
 79
     0
146
0.0
348
2F
 60
     3
 61
     5
292
     1
282
     1
141
0.0
142
0.0
 63
   250
361
6D
  0
ENDTAB
  0
TABLE
  2
LTYPE
  5
5
330
0
100
AcDbSymbolTable
 70
     6
  0
LTYPE
  5
14
330
5
100
AcDbSymbolTableRecord
100
AcDbLinetypeTableRecord
  2
ByBlock
 70
     0
  3

 72
    65
 73
     0
 40
0.0
  0
LTYPE
  5
15
330
5
100
AcDbSymbolTableRecord
100
AcDbLinetypeTableRecord
  2
ByLayer
 70
     0
  3

 72
    65
 73
     0
 40
0.0
  0
LTYPE
  5
16
330
5
100
AcDbSymbolTableRecord
100
AcDbLinetypeTableRecord
  2
Continuous
 70
     0
  3
Solid line
 72
    65
 73
     0
 40
0.0
  0
LTYPE
  5
6E
330
5
100
AcDbSymbolTableRecord
100
AcDbLinetypeTableRecord
  2
HIDDEN
 70
     0
  3
Hidden __ __ __ __ __ __ __ __ __ __ __ __ __ __
 72
    65
 73
     2
 40
1.905
 49
1.27
 74
     0
 49
-0.635
 74
     0
  0
LTYPE
  5
6F
330
5
100
AcDbSymbolTableRecord
100
AcDbLinetypeTableRecord
  2
PHANTOM
 70
     0
  3
Phantom ______  __  __  ______  __  __  ______
 72
    65
 73
     6
 40
12.7
 49
6.35
 74
     0
 49
-1.27
 74
     0
 49
1.27
 74
     0
 49
-1.27
 74
     0
 49
1.27
 74
     0
 49
-1.27
 74
     0
  0
LTYPE
  5
70
330
5
100
AcDbSymbolTableRecord
100
AcDbLinetypeTableRecord
  2
CENTER
 70
     0
  3
Center ____ _ ____ _ ____ _ ____ _ ____ _ ____
 72
    65
 73
     4
 40
10.16
 49
6.35
 74
     0
 49
-1.27
 74
     0
 49
1.27
 74
     0
 49
-1.27
 74
     0
  0
LTYPE
  5
71
330
5
100
AcDbSymbolTableRecord
100
AcDbLinetypeTableRecord
  2
CENTERX2
 70
     0
  3
Center (2x) ________  __  ________  __  _____
 72
    65
 73
     4
 40
20.32
 49
12.7
 74
     0
 49
-2.54
 74
     0
 49
2.54
 74
     0
 49
-2.54
 74
     0
  0
LTYPE
  5
72
330
5
100
AcDbSymbolTableRecord
100
AcDbLinetypeTableRecord
  2
DOT2
 70
     0
  3
Dot (.5x) ........................................
 72
    65
 73
     2
 40
0.635
 49
0.0
 74
     0
 49
-0.635
 74
     0
  0
ENDTAB
  0
TABLE
  2
LAYER
  5
2
330
0
100
AcDbSymbolTable
 70
    34
  0
LAYER
  5
10
330
2
100
AcDbSymbolTableRecord
100
AcDbLayerTableRecord
  2
0
 70
     0
 62
     7
  6
Continuous
370
    -3
390
F
347
46
348
0
  0
LAYER
  5
73
330
2
100
AcDbSymbolTableRecord
100
AcDbLayerTableRecord
  2
KOPF
 70
     0
 62
     7
  6
Continuous
370
    -3
390
F
347
46
348
0
  0
LAYER
  5
74
330
2
100
AcDbSymbolTableRecord
100
AcDbLayerTableRecord
  2
RAHMEN
 70
     0
 62
     7
  6
Continuous
370
    -3
390
F
347
46
348
0
  0
LAYER
  5
75
330
2
100
AcDbSymbolTableRecord
100
AcDbLayerTableRecord
  2
ROT
 70
     0
 62
     1
  6
Continuous
370
    -3
390
F
347
46
348
0
  0
LAYER
  5
76
330
2
100
AcDbSymbolTableRecord
100
AcDbLayerTableRecord
  2
ZEICHNUNG
 70
     0
 62
     7
  6
Continuous
370
    -3
390
F
347
46
348
0
  0
LAYER
  5
77
330
2
100
AcDbSymbolTableRecord
100
AcDbLayerTableRecord
  2
SLD-0_0
 70
     0
 62
     7
  6
Continuous
370
    -3
390
F
347
46
348
0
  0
LAYER
  5
78
330
2
100
AcDbSymbolTableRecord
100
AcDbLayerTableRecord
  2
AUFNAHME
 70
     0
 62
     7
  6
Continuous
370
    -3
390
F
347
46
348
0
  0
LAYER
  5
79
330
2
100
AcDbSymbolTableRecord
100
AcDbLayerTableRecord
  2
MASS
 70
     0
 62
     4
  6
Continuous
370
    -3
390
F
347
46
348
0
  0
LAYER
  5
7A
330
2
100
AcDbSymbolTableRecord
100
AcDbLayerTableRecord
  2
EW
 70
     0
 62
     1
  6
HIDDEN
370
    -3
390
F
347
46
348
0
  0
LAYER
  5
7B
330
2
100
AcDbSymbolTableRecord
100
AcDbLayerTableRecord
  2
UNSICHT
 70
     0
 62
     4
  6
CENTER
370
    -3
390
F
347
46
348
0
  0
LAYER
  5
7C
330
2
100
AcDbSymbolTableRecord
100
AcDbLayerTableRecord
  2
TEXT
 70
     0
 62
     7
  6
Continuous
370
    -3
390
F
347
46
348
0
  0
LAYER
  5
7D
330
2
100
AcDbSymbolTableRecord
100
AcDbLayerTableRecord
  2
ZAPFEN
 70
     0
 62
     4
  6
Continuous
370
    -3
390
F
347
46
348
0
  0
LAYER
  5
7E
330
2
100
AcDbSymbolTableRecord
100
AcDbLayerTableRecord
  2
VORLAGE_TEXT
 70
     0
 62
   179
  6
Continuous
370
    -3
390
F
347
46
348
0
  0
LAYER
  5
7F
330
2
100
AcDbSymbolTableRecord
100
AcDbLayerTableRecord
  2
LINIEN-DICK
 70
     0
 62
   179
  6
Continuous
370
    35
390
F
347
46
348
0
  0
LAYER
  5
80
330
2
100
AcDbSymbolTableRecord
100
AcDbLayerTableRecord
  2
LINIEN-NORMAL
 70
     0
 62
   179
  6
Continuous
370
    25
390
F
347
46
348
0
  0
LAYER
  5
81
330
2
100
AcDbSymbolTableRecord
100
AcDbLayerTableRecord
  2
LINIEN-DÜNN
 70
     0
 62
   179
  6
Continuous
370
    -3
390
F
347
46
348
0
  0
LAYER
  5
82
330
2
100
AcDbSymbolTableRecord
100
AcDbLayerTableRecord
  2
TEXT-DEUTSCH
 70
     0
 62
   179
  6
Continuous
370
    -3
390
F
347
46
348
0
  0
LAYER
  5
83
330
2
100
AcDbSymbolTableRecord
100
AcDbLayerTableRecord
  2
SLD-0
 70
     0
 62
   179
  6
Continuous
370
    -3
390
F
347
46
348
0
  0
LAYER
  5
84
330
2
100
AcDbSymbolTableRecord
100
AcDbLayerTableRecord
  2
SLD-DEFPOINTS
 70
     0
 62
   179
  6
Continuous
290
     0
370
    -3
390
F
347
46
348
0
  0
LAYER
  5
85
330
2
100
AcDbSymbolTableRecord
100
AcDbLayerTableRecord
  2
245
 70
     0
 62
     2
  6
CENTER
370
    -3
390
F
347
46
348
0
  0
LAYER
  5
86
330
2
100
AcDbSymbolTableRecord
100
AcDbLayerTableRecord
  2
240
 70
     0
 62
     4
  6
Continuous
370
    -3
390
F
347
46
348
0
  0
LAYER
  5
87
330
2
100
AcDbSymbolTableRecord
100
AcDbLayerTableRecord
  2
241
 70
     0
 62
   211
  6
Continuous
370
    -3
390
F
347
46
348
0
  0
LAYER
  5
88
330
2
100
AcDbSymbolTableRecord
100
AcDbLayerTableRecord
  2
243
 70
     0
 62
   211
  6
HIDDEN
370
    -3
390
F
347
46
348
0
  0
LAYER
  5
89
330
2
100
AcDbSymbolTableRecord
100
AcDbLayerTableRecord
  2
250
 70
     0
 62
     3
  6
Continuous
370
    -3
390
F
347
46
348
0
  0
LAYER
  5
8A
330
2
100
AcDbSymbolTableRecord
100
AcDbLayerTableRecord
  2
1
 70
     0
 62
   179
  6
Continuous
370
    -3
390
F
347
46
348
0
  0
LAYER
  5
8B
330
2
100
AcDbSymbolTableRecord
100
AcDbLayerTableRecord
  2
2
 70
     0
 62
     5
  6
Continuous
370
    -3
390
F
347
46
348
0
  0
LAYER
  5
8C
330
2
100
AcDbSymbolTableRecord
100
AcDbLayerTableRecord
  2
3
 70
     0
 62
   179
  6
HIDDEN
370
    -3
390
F
347
46
348
0
  0
LAYER
  5
8D
330
2
100
AcDbSymbolTableRecord
100
AcDbLayerTableRecord
  2
4
 70
     0
 62
   179
  6
CENTER
370
    -3
390
F
347
46
348
0
  0
LAYER
  5
8E
330
2
100
AcDbSymbolTableRecord
100
AcDbLayerTableRecord
  2
6
 70
     0
 62
   179
  6
Continuous
370
    -3
390
F
347
46
348
0
  0
LAYER
  5
8F
330
2
100
AcDbSymbolTableRecord
100
AcDbLayerTableRecord
  2
SK1
 70
     0
 62
   179
  6
PHANTOM
370
    -3
390
F
347
46
348
0
  0
LAYER
  5
90
330
2
100
AcDbSymbolTableRecord
100
AcDbLayerTableRecord
  2
SLD-DEFPOINTS_0
 70
     0
 62
   179
  6
Continuous
290
     0
370
    -3
390
F
347
46
348
0
  0
LAYER
  5
91
330
2
100
AcDbSymbolTableRecord
100
AcDbLayerTableRecord
  2
242
 70
     0
 62
     3
  6
Continuous
370
    -3
390
F
347
46
348
0
  0
LAYER
  5
92
330
2
100
AcDbSymbolTableRecord
100
AcDbLayerTableRecord
  2
246
 70
     0
 62
     3
  6
PHANTOM
370
    -3
390
F
347
46
348
0
  0
LAYER
  5
93
330
2
100
AcDbSymbolTableRecord
100
AcDbLayerTableRecord
  2
247
 70
     0
 62
    60
  6
Continuous
370
    -3
390
F
347
46
348
0
  0
ENDTAB
  0
TABLE
  2
STYLE
  5
3
330
0
100
AcDbSymbolTable
 70
     2
  0
STYLE
  5
11
330
3
100
AcDbSymbolTableRecord
100
AcDbTextStyleTableRecord
  2
Standard
 70
     0
 40
0.0
 41
1.0
 50
0.0
 71
     0
 42
3.5
  3
txt
  4

  0
STYLE
  5
202
330
3
100
AcDbSymbolTableRecord
100
AcDbTextStyleTableRecord
  2
SLDTEXTSTYLE0
 70
     0
 40
0.0
 41
0.605
 50
0.0
 71
     0
 42
3.5
  3
TXT
  4

  0
ENDTAB
  0
TABLE
  2
VIEW
  5
6
330
0
100
AcDbSymbolTable
 70
     0
  0
ENDTAB
  0
TABLE
  2
UCS
  5
7
330
0
100
AcDbSymbolTable
 70
     0
  0
ENDTAB
  0
TABLE
  2
APPID
  5
9
330
0
100
AcDbSymbolTable
 70
     1
  0
APPID
  5
12
330
9
100
AcDbSymbolTableRecord
100
AcDbRegAppTableRecord
  2
ACAD
 70
     0
  0
ENDTAB
  0
TABLE
  2
DIMSTYLE
  5
A
330
0
100
AcDbSymbolTable
 70
     3
100
AcDbDimStyleTable
  0
DIMSTYLE
105
27
330
A
100
AcDbSymbolTableRecord
100
AcDbDimStyleTableRecord
  2
ISO-25
 70
     0
 41
2.5
 42
0.625
 43
3.75
 44
1.25
 73
     0
 74
     0
 77
     1
 78
     8
140
2.5
141
2.5
143
0.0393700787
147
0.625
171
     3
172
     1
178
     0
271
     2
272
     2
274
     3
278
    44
283
     0
284
     8
340
11
  0
DIMSTYLE
105
203
102
{ACAD_REACTORS
330
201
330
20E
330
218
330
222
102
}
330
A
100
AcDbSymbolTableRecord
100
AcDbDimStyleTableRecord
  2
SLDDIMSTYLE0
 70
     0
 41
3.5
 44
0.0
 45
0.000000001
 73
     0
 74
     0
 77
     1
 78
    12
 79
     3
140
3.5
147
0.875
173
     1
178
     0
271
     2
272
     3
276
     2
284
    12
340
202
  0
DIMSTYLE
105
22D
102
{ACAD_REACTORS
330
22C
102
}
330
A
100
AcDbSymbolTableRecord
100
AcDbDimStyleTableRecord
  2
SLDDIMSTYLE1
 70
     0
 41
3.5
 44
0.0
 45
0.000000001
 73
     0
 74
     0
 76
     1
 77
     1
 78
    12
 79
     3
140
3.5
147
0.875
173
     1
178
     0
271
     2
272
     3
276
     2
282
     1
284
    12
340
202
  0
ENDTAB
  0
TABLE
  2
BLOCK_RECORD
  5
1
330
0
100
AcDbSymbolTable
 70
     6
  0
BLOCK_RECORD
  5
1F
330
1
100
AcDbSymbolTableRecord
100
AcDbBlockTableRecord
  2
*Model_Space
340
22
 70
     0
280
     1
281
     0
  0
BLOCK_RECORD
  5
1B
330
1
100
AcDbSymbolTableRecord
100
AcDbBlockTableRecord
  2
*Paper_Space
340
1E
 70
     0
280
     1
281
     0
  0
BLOCK_RECORD
  5
23
330
1
100
AcDbSymbolTableRecord
100
AcDbBlockTableRecord
  2
*Paper_Space0
340
26
 70
     0
280
     1
281
     0
  0
BLOCK_RECORD
  5
204
330
1
100
AcDbSymbolTableRecord
100
AcDbBlockTableRecord
  2
_D
340
0
 70
     0
280
     1
281
     0
  0
BLOCK_RECORD
  5
20F
330
1
100
AcDbSymbolTableRecord
100
AcDbBlockTableRecord
  2
_D_1
340
0
 70
     0
280
     1
281
     0
  0
BLOCK_RECORD
  5
219
330
1
100
AcDbSymbolTableRecord
100
AcDbBlockTableRecord
  2
_D_2
340
0
 70
     0
280
     1
281
     0
  0
BLOCK_RECORD
  5
223
330
1
100
AcDbSymbolTableRecord
100
AcDbBlockTableRecord
  2
_D_3
340
0
 70
     0
280
     1
281
     0
  0
BLOCK_RECORD
  5
22E
330
1
100
AcDbSymbolTableRecord
100
AcDbBlockTableRecord
  2
_D_4
340
0
 70
     0
280
     1
281
     0
  0
ENDTAB
  0
ENDSEC
  0
SECTION
  2
BLOCKS
  0
BLOCK
  5
20
330
1F
100
AcDbEntity
  8
0
100
AcDbBlockBegin
  2
*Model_Space
 70
     0
 10
0.0
 20
0.0
 30
0.0
  3
*Model_Space
  1

  0
ENDBLK
  5
21
330
1F
100
AcDbEntity
  8
0
100
AcDbBlockEnd
  0
BLOCK
  5
1C
330
1B
100
AcDbEntity
 67
     1
  8
0
100
AcDbBlockBegin
  2
*Paper_Space
 70
     0
 10
0.0
 20
0.0
 30
0.0
  3
*Paper_Space
  1

  0
ENDBLK
  5
1D
330
1B
100
AcDbEntity
 67
     1
  8
0
100
AcDbBlockEnd
  0
BLOCK
  5
24
330
23
100
AcDbEntity
  8
0
100
AcDbBlockBegin
  2
*Paper_Space0
 70
     0
 10
0.0
 20
0.0
 30
0.0
  3
*Paper_Space0
  1

  0
ENDBLK
  5
25
330
23
100
AcDbEntity
  8
0
100
AcDbBlockEnd
  0
BLOCK
  5
205
330
204
100
AcDbEntity
  8
0
100
AcDbBlockBegin
  2
_D
 70
     0
 10
0.0
 20
0.0
 30
0.0
  3
_D
  1

  0
SOLID
  5
207
330
204
100
AcDbEntity
  8
2
100
AcDbTrace
 10
-28.3755385885
 20
11.7
 30
0.0
 11
-28.8255385885
 21
8.2
 31
0.0
 12
-27.9255385885
 22
8.2
 32
0.0
 13
-27.9255385885
 23
8.2
 33
0.0
  0
SOLID
  5
208
330
204
100
AcDbEntity
  8
2
100
AcDbTrace
 10
-28.3755385885
 20
-11.7
 30
0.0
 11
-27.9255385885
 21
-8.2
 31
0.0
 12
-28.8255385885
 22
-8.2
 32
0.0
 13
-28.8255385885
 23
-8.2
 33
0.0
  0
LINE
  5
209
330
204
100
AcDbEntity
  8
2
100
AcDbLine
 10
0.2
 20
11.7
 30
0.0
 11
-29.3755385885
 21
11.7
 31
0.0
  0
LINE
  5
20A
330
204
100
AcDbEntity
  8
2
100
AcDbLine
 10
0.2
 20
-11.7
 30
0.0
 11
-29.3755385885
 21
-11.7
 31
0.0
  0
LINE
  5
20B
330
204
100
AcDbEntity
  8
2
100
AcDbLine
 10
-28.3755385885
 20
11.7
 30
0.0
 11
-28.3755385885
 21
-11.7
 31
0.0
  0
MTEXT
  5
20C
330
204
100
AcDbEntity
  8
2
100
AcDbMText
 10
-32.8872759106
 20
-6.4239585772
 30
0.0
 40
3.5
 41
0.0
 46
0.0
 71
     1
 72
     1
  1
%%c
  7
SLDTEXTSTYLE0
 11
-7.044195017643634E-15
 21
1.0
 31
0.0
 73
     1
 44
1.0
  0
MTEXT
  5
20D
330
204
100
AcDbEntity
  8
2
100
AcDbMText
 10
-32.8872759106
 20
-1.2517361902
 30
0.0
 40
3.5
 41
0.0
 46
0.0
 71
     1
 72
     1
  1
23.4
  7
SLDTEXTSTYLE0
 11
-7.044195017643634E-15
 21
1.0
 31
0.0
 73
     1
 44
1.0
  0
ENDBLK
  5
206
330
204
100
AcDbEntity
  8
0
100
AcDbBlockEnd
  0
BLOCK
  5
210
330
20F
100
AcDbEntity
  8
0
100
AcDbBlockBegin
  2
_D_1
 70
     0
 10
0.0
 20
0.0
 30
0.0
  3
_D_1
  1

  0
SOLID
  5
212
330
20F
100
AcDbEntity
  8
2
100
AcDbTrace
 10
-21.3492993252
 20
7.0
 30
0.0
 11
-21.7992993252
 21
3.5
 31
0.0
 12
-20.8992993252
 22
3.5
 32
0.0
 13
-20.8992993252
 23
3.5
 33
0.0
  0
SOLID
  5
213
330
20F
100
AcDbEntity
  8
2
100
AcDbTrace
 10
-21.3492993252
 20
-7.0
 30
0.0
 11
-20.8992993252
 21
-3.5
 31
0.0
 12
-21.7992993252
 22
-3.5
 32
0.0
 13
-21.7992993252
 23
-3.5
 33
0.0
  0
LINE
  5
214
330
20F
100
AcDbEntity
  8
2
100
AcDbLine
 10
-13.75
 20
7.0
 30
0.0
 11
-22.3492993252
 21
7.0
 31
0.0
  0
LINE
  5
215
330
20F
100
AcDbEntity
  8
2
100
AcDbLine
 10
-13.75
 20
-7.0
 30
0.0
 11
-22.3492993252
 21
-7.0
 31
0.0
  0
LINE
  5
216
330
20F
100
AcDbEntity
  8
2
100
AcDbLine
 10
-21.3492993252
 20
7.0
 30
0.0
 11
-21.3492993252
 21
-7.0
 31
0.0
  0
MTEXT
  5
217
330
20F
100
AcDbEntity
  8
2
100
AcDbMText
 10
-25.8610361816
 20
-5.1479167305
 30
0.0
 40
3.5
 41
0.0
 46
0.0
 71
     1
 72
     1
  1
CKB2
  7
SLDTEXTSTYLE0
 11
-7.044195017643634E-15
 21
1.0
 31
0.0
 73
     1
 44
1.0
  0
ENDBLK
  5
211
330
20F
100
AcDbEntity
  8
0
100
AcDbBlockEnd
  0
BLOCK
  5
21A
330
219
100
AcDbEntity
  8
0
100
AcDbBlockBegin
  2
_D_2
 70
     0
 10
0.0
 20
0.0
 30
0.0
  3
_D_2
  1

  0
SOLID
  5
21C
330
219
100
AcDbEntity
  8
2
100
AcDbTrace
 10
35.4493363516
 20
22.4072980241
 30
0.0
 11
31.9493363516
 21
22.8572980241
 31
0.0
 12
31.9493363516
 22
21.9572980241
 32
0.0
 13
31.9493363516
 23
21.9572980241
 33
0.0
  0
SOLID
  5
21D
330
219
100
AcDbEntity
  8
2
100
AcDbTrace
 10
0.0
 20
22.4072980241
 30
0.0
 11
3.5
 21
21.9572980241
 31
0.0
 12
3.5
 22
22.8572980241
 32
0.0
 13
3.5
 23
22.8572980241
 33
0.0
  0
LINE
  5
21E
330
219
100
AcDbEntity
  8
2
100
AcDbLine
 10
35.4493363516
 20
14.1843620803
 30
0.0
 11
35.4493363516
 21
23.4072980241
 31
0.0
  0
LINE
  5
21F
330
219
100
AcDbEntity
  8
2
100
AcDbLine
 10
0.0
 20
11.5
 30
0.0
 11
0.0
 21
23.4072980241
 31
0.0
  0
LINE
  5
220
330
219
100
AcDbEntity
  8
2
100
AcDbLine
 10
35.4493363516
 20
22.4072980241
 30
0.0
 11
0.0
 21
22.4072980241
 31
0.0
  0
MTEXT
  5
221
330
219
100
AcDbEntity
  8
2
100
AcDbMText
 10
13.886821025
 20
26.9190348805
 30
0.0
 40
3.5
 41
0.0
 46
0.0
 71
     1
 72
     1
  1
35.5
  7
SLDTEXTSTYLE0
 73
     1
 44
1.0
  0
ENDBLK
  5
21B
330
219
100
AcDbEntity
  8
0
100
AcDbBlockEnd
  0
BLOCK
  5
224
330
223
100
AcDbEntity
  8
0
100
AcDbBlockBegin
  2
_D_3
 70
     0
 10
0.0
 20
0.0
 30
0.0
  3
_D_3
  1

  0
SOLID
  5
226
330
223
100
AcDbEntity
  8
2
100
AcDbTrace
 10
0.0
 20
-19.5981254946
 30
0.0
 11
3.5
 21
-20.0481254946
 31
0.0
 12
3.5
 22
-19.1481254946
 32
0.0
 13
3.5
 23
-19.1481254946
 33
0.0
  0
SOLID
  5
227
330
223
100
AcDbEntity
  8
2
100
AcDbTrace
 10
32.5
 20
-19.5981254946
 30
0.0
 11
29.0
 21
-19.1481254946
 31
0.0
 12
29.0
 22
-20.0481254946
 32
0.0
 13
29.0
 23
-20.0481254946
 33
0.0
  0
LINE
  5
228
330
223
100
AcDbEntity
  8
2
100
AcDbLine
 10
0.0
 20
-11.5
 30
0.0
 11
0.0
 21
-20.5981254946
 31
0.0
  0
LINE
  5
229
330
223
100
AcDbEntity
  8
2
100
AcDbLine
 10
32.5
 20
-9.0
 30
0.0
 11
32.5
 21
-20.5981254946
 31
0.0
  0
LINE
  5
22A
330
223
100
AcDbEntity
  8
2
100
AcDbLine
 10
0.0
 20
-19.5981254946
 30
0.0
 11
32.5
 21
-19.5981254946
 31
0.0
  0
MTEXT
  5
22B
330
223
100
AcDbEntity
  8
2
100
AcDbMText
 10
12.4121528491
 20
-15.0863886382
 30
0.0
 40
3.5
 41
0.0
 46
0.0
 71
     1
 72
     1
  1
32.5
  7
SLDTEXTSTYLE0
 73
     1
 44
1.0
  0
ENDBLK
  5
225
330
223
100
AcDbEntity
  8
0
100
AcDbBlockEnd
  0
BLOCK
  5
22F
330
22E
100
AcDbEntity
  8
0
100
AcDbBlockBegin
  2
_D_4
 70
     0
 10
0.0
 20
0.0
 30
0.0
  3
_D_4
  1

  0
SOLID
  5
231
330
22E
100
AcDbEntity
  8
2
100
AcDbTrace
 10
42.9381456162
 20
14.2009458639
 30
0.0
 11
42.4881456162
 21
10.7009458639
 31
0.0
 12
43.3881456162
 22
10.7009458639
 32
0.0
 13
43.3881456162
 23
10.7009458639
 33
0.0
  0
LINE
  5
232
330
22E
100
AcDbEntity
  8
2
100
AcDbLine
 10
35.1509113499
 20
14.2009458639
 30
0.0
 11
43.9381456162
 21
14.2009458639
 31
0.0
  0
LINE
  5
233
330
22E
100
AcDbEntity
  8
2
100
AcDbLine
 10
42.9381456162
 20
14.2009458639
 30
0.0
 11
42.9381456162
 21
-5.4403957602
 31
0.0
  0
MTEXT
  5
234
330
22E
100
AcDbEntity
  8
2
100
AcDbMText
 10
38.4264087598
 20
-5.4403957602
 30
0.0
 40
3.5
 41
0.0
 46
0.0
 71
     1
 72
     1
  1
%%c
  7
SLDTEXTSTYLE0
 11
-7.044195017643634E-15
 21
1.0
 31
0.0
 73
     1
 44
1.0
  0
MTEXT
  5
235
330
22E
100
AcDbEntity
  8
2
100
AcDbMText
 10
38.4264087598
 20
-0.2681733732
 30
0.0
 40
3.5
 41
0.0
 46
0.0
 71
     1
 72
     1
  1
25-47
  7
SLDTEXTSTYLE0
 11
-7.044195017643634E-15
 21
1.0
 31
0.0
 73
     1
 44
1.0
  0
ENDBLK
  5
230
330
22E
100
AcDbEntity
  8
0
100
AcDbBlockEnd
  0
ENDSEC
  0
SECTION
  2
ENTITIES
  0
LINE
  5
94
330
1F
100
AcDbEntity
  8
1
  6
Continuous
 62
   250
420
  1644836
370
    25
100
AcDbLine
 10
0.2
 20
-11.7
 30
0.0
 11
15.6452994616
 21
-11.7
 31
0.0
  0
LINE
  5
95
330
1F
100
AcDbEntity
  8
1
  6
Continuous
 62
   250
420
  1644836
370
    25
100
AcDbLine
 10
9.5738264317
 20
11.7
 30
0.0
 11
0.2
 21
11.7
 31
0.0
  0
LINE
  5
96
330
1F
100
AcDbEntity
  8
1
  6
Continuous
 62
   250
420
  1644836
370
    25
100
AcDbLine
 10
0.2
 20
11.7
 30
0.0
 11
0.0
 21
11.5
 31
0.0
  0
LINE
  5
97
330
1F
100
AcDbEntity
  8
1
  6
Continuous
 62
   250
420
  1644836
370
    25
100
AcDbLine
 10
0.0
 20
-11.5
 30
0.0
 11
0.2
 21
-11.7
 31
0.0
  0
LINE
  5
98
330
1F
100
AcDbEntity
  8
1
  6
Continuous
 62
   250
420
  1644836
370
    25
100
AcDbLine
 10
32.0958548116
 20
-9.7
 30
0.0
 11
32.5
 21
-9.0
 31
0.0
  0
LINE
  5
99
330
1F
100
AcDbEntity
  8
1
  6
Continuous
 62
   250
420
  1644836
370
    25
100
AcDbLine
 10
-1.0453216229
 20
-6.9795702368
 30
0.0
 11
-0.4294095226
 21
-6.8145370869
 31
0.0
  0
LINE
  5
9A
330
1F
100
AcDbEntity
  8
1
  6
Continuous
 62
   250
420
  1644836
370
    25
100
AcDbLine
 10
-0.4294095226
 20
6.8145370869
 30
0.0
 11
-1.0453216229
 21
6.9795702368
 31
0.0
  0
LINE
  5
9B
330
1F
100
AcDbEntity
  8
1
  6
Continuous
 62
   250
420
  1644836
370
    25
100
AcDbLine
 10
-6.9656168248
 20
7.0
 30
0.0
 11
-13.75
 21
7.0
 31
0.0
  0
LINE
  5
9C
330
1F
100
AcDbEntity
  8
1
  6
Continuous
 62
   250
420
  1644836
370
    25
100
AcDbLine
 10
-13.75
 20
-7.0
 30
0.0
 11
-6.9634329919
 21
-7.0
 31
0.0
  0
LINE
  5
9D
330
1F
100
AcDbEntity
  8
1
  6
Continuous
 62
   250
420
  1644836
370
    25
100
AcDbLine
 10
-13.75
 20
7.0
 30
0.0
 11
-14.875
 21
6.8016321467
 31
0.0
  0
LINE
  5
9E
330
1F
100
AcDbEntity
  8
1
  6
Continuous
 62
   250
420
  1644836
370
    25
100
AcDbLine
 10
-14.875
 20
-6.8016321467
 30
0.0
 11
-13.75
 21
-7.0
 31
0.0
  0
LINE
  5
9F
330
1F
100
AcDbEntity
  8
1
  6
Continuous
 62
   250
420
  1644836
370
    25
100
AcDbLine
 10
-15.5684697414
 20
-6.9239095724
 30
0.0
 11
-14.875
 21
-6.8016321467
 31
0.0
  0
LINE
  5
A0
330
1F
100
AcDbEntity
  8
1
  6
Continuous
 62
   250
420
  1644836
370
    25
100
AcDbLine
 10
-14.875
 20
6.8016321467
 30
0.0
 11
-15.5684697414
 21
6.9239095724
 31
0.0
  0
LINE
  5
A1
330
1F
100
AcDbEntity
  8
SK1
  6
Continuous
 62
   250
420
  1644836
370
    25
100
AcDbLine
 10
29.0
 20
8.7507847114
 30
0.0
 11
28.7
 21
9.0507847114
 31
0.0
  0
LINE
  5
A2
330
1F
100
AcDbEntity
  8
1
  6
Continuous
 62
   250
420
  1644836
370
    25
100
AcDbLine
 10
29.0
 20
7.9292794416
 30
0.0
 11
29.0
 21
8.7507847114
 31
0.0
  0
LINE
  5
A3
330
1F
100
AcDbEntity
  8
4
100
AcDbLine
 10
-16.0
 20
0.0
 30
0.0
 11
34.6093455418
 21
0.0
 31
0.0
  0
LINE
  5
A4
330
1F
100
AcDbEntity
  8
3
100
AcDbLine
 10
0.3311669606
 20
2.4060801648
 30
0.0
 11
8.6229929375
 21
8.84149262
 31
0.0
  0
LINE
  5
A5
330
1F
100
AcDbEntity
  8
SK1
  6
Continuous
 62
   250
420
  1644836
370
    25
100
AcDbLine
 10
33.0828554572
 20
9.8345614166
 30
0.0
 11
33.1611881262
 21
9.8304561754
 31
0.0
  0
LINE
  5
A6
330
1F
100
AcDbEntity
  8
SK1
  6
Continuous
 62
   250
420
  1644836
370
    25
100
AcDbLine
 10
33.3024952081
 20
12.5267559192
 30
0.0
 11
33.2241625391
 21
12.5308611604
 31
0.0
  0
LINE
  5
A7
330
1F
100
AcDbEntity
  8
3
100
AcDbLine
 10
0.7293212193
 20
1.3121603296
 30
0.0
 11
8.900855017
 21
7.7103826105
 31
0.0
  0
LINE
  5
A8
330
1F
100
AcDbEntity
  8
3
  6
HIDDEN
 62
   250
420
  1644836
370
    18
100
AcDbLine
 10
-15.5669872981
 20
-3.5
 30
0.0
 11
-0.0669872981
 21
-3.5
 31
0.0
  0
LINE
  5
A9
330
1F
100
AcDbEntity
  8
3
  6
HIDDEN
 62
   250
420
  1644836
370
    18
100
AcDbLine
 10
-0.0669872981
 20
3.5
 30
0.0
 11
-15.5669872981
 21
3.5
 31
0.0
  0
LINE
  5
AA
330
1F
100
AcDbEntity
  8
SK1
  6
Continuous
 62
   250
420
  1644836
370
    25
100
AcDbLine
 10
18.325
 20
12.4993814702
 30
0.0
 11
18.325
 21
9.403
 31
0.0
  0
LINE
  5
AB
330
1F
100
AcDbEntity
  8
SK1
  6
Continuous
 62
   250
420
  1644836
370
    25
100
AcDbLine
 10
20.7595738162
 20
13.5007847114
 30
0.0
 11
19.3377469755
 21
13.5007847114
 31
0.0
  0
LINE
  5
AC
330
1F
100
AcDbEntity
  8
SK1
  6
Continuous
 62
   250
420
  1644836
370
    25
100
AcDbLine
 10
27.9705035879
 20
13.5007847114
 30
0.0
 11
26.2437970045
 21
13.5007847114
 31
0.0
  0
LINE
  5
AD
330
1F
100
AcDbEntity
  8
SK1
  6
Continuous
 62
   250
420
  1644836
370
    25
100
AcDbLine
 10
26.0
 20
13.4427344091
 30
0.0
 11
26.0
 21
13.4775196378
 31
0.0
  0
LINE
  5
AE
330
1F
100
AcDbEntity
  8
SK1
  6
Continuous
 62
   250
420
  1644836
370
    25
100
AcDbLine
 10
21.0
 20
13.4775196378
 30
0.0
 11
21.0
 21
13.4427680787
 31
0.0
  0
LINE
  5
AF
330
1F
100
AcDbEntity
  8
SK1
  6
Continuous
 62
   250
420
  1644836
370
    25
100
AcDbLine
 10
25.6710100717
 20
13.9473659482
 30
0.0
 11
24.7
 21
14.3007847114
 31
0.0
  0
LINE
  5
B0
330
1F
100
AcDbEntity
  8
SK1
  6
Continuous
 62
   250
420
  1644836
370
    25
100
AcDbLine
 10
22.3
 20
14.3007847114
 30
0.0
 11
21.3289899283
 21
13.9473659482
 31
0.0
  0
LINE
  5
B1
330
1F
100
AcDbEntity
  8
3
  6
HIDDEN
 62
   250
420
  1644836
370
    18
100
AcDbLine
 10
-0.0669872981
 20
-3.5
 30
0.0
 11
1.0543030906
 21
-0.4192799763
 31
0.0
  0
LINE
  5
B2
330
1F
100
AcDbEntity
  8
3
  6
HIDDEN
 62
   250
420
  1644836
370
    18
100
AcDbLine
 10
0.7293212193
 20
1.3121603296
 30
0.0
 11
-0.0669872981
 21
3.5
 31
0.0
  0
LINE
  5
B3
330
1F
100
AcDbEntity
  8
1
  6
Continuous
 62
   250
420
  1644836
370
    25
100
AcDbLine
 10
-1.5
 20
6.8502270453
 30
0.0
 11
-1.5
 21
6.9392304845
 31
0.0
  0
LINE
  5
B4
330
1F
100
AcDbEntity
  8
1
  6
Continuous
 62
   250
420
  1644836
370
    25
100
AcDbLine
 10
-6.5
 20
6.9392304845
 30
0.0
 11
-6.5
 21
6.8506822458
 31
0.0
  0
LINE
  5
B5
330
1F
100
AcDbEntity
  8
1
  6
Continuous
 62
   250
420
  1644836
370
    25
100
AcDbLine
 10
-1.5
 20
-6.9392304845
 30
0.0
 11
-1.5
 21
-6.8502724313
 31
0.0
  0
LINE
  5
B6
330
1F
100
AcDbEntity
  8
1
  6
Continuous
 62
   250
420
  1644836
370
    25
100
AcDbLine
 10
-6.5
 20
-6.8503323174
 30
0.0
 11
-6.5
 21
-6.9392304845
 31
0.0
  0
LINE
  5
B7
330
1F
100
AcDbEntity
  8
1
  6
Continuous
 62
   250
420
  1644836
370
    25
100
AcDbLine
 10
-1.5803847577
 20
7.2392304845
 30
0.0
 11
-2.1350852961
 21
8.2
 31
0.0
  0
LINE
  5
B8
330
1F
100
AcDbEntity
  8
1
  6
Continuous
 62
   250
420
  1644836
370
    25
100
AcDbLine
 10
-5.8649147039
 20
8.2
 30
0.0
 11
-6.4196152423
 21
7.2392304845
 31
0.0
  0
LINE
  5
B9
330
1F
100
AcDbEntity
  8
1
  6
Continuous
 62
   250
420
  1644836
370
    25
100
AcDbLine
 10
-6.4196152423
 20
-7.2392304845
 30
0.0
 11
-5.8649147039
 21
-8.2
 31
0.0
  0
LINE
  5
BA
330
1F
100
AcDbEntity
  8
1
  6
Continuous
 62
   250
420
  1644836
370
    25
100
AcDbLine
 10
-2.1350852961
 20
-8.2
 30
0.0
 11
-1.5803847577
 21
-7.2392304845
 31
0.0
  0
LINE
  5
BB
330
1F
100
AcDbEntity
  8
1
  6
Continuous
 62
   250
420
  1644836
370
    25
100
AcDbLine
 10
17.1225
 20
-9.7
 30
0.0
 11
17.1308012702
 21
-9.7083012702
 31
0.0
  0
LINE
  5
BC
330
1F
100
AcDbEntity
  8
1
  6
Continuous
 62
   250
420
  1644836
370
    25
100
AcDbLine
 10
29.8691987298
 20
-9.7083012702
 30
0.0
 11
29.8775
 21
-9.7
 31
0.0
  0
LINE
  5
BD
330
1F
100
AcDbEntity
  8
1
  6
Continuous
 62
   250
420
  1644836
370
    25
100
AcDbLine
 10
17.1308012702
 20
-9.7083012702
 30
0.0
 11
21.3543584287
 21
-10.84
 31
0.0
  0
LINE
  5
BE
330
1F
100
AcDbEntity
  8
1
  6
Continuous
 62
   250
420
  1644836
370
    25
100
AcDbLine
 10
25.6456415713
 20
-10.84
 30
0.0
 11
29.8691987298
 21
-9.7083012702
 31
0.0
  0
LINE
  5
BF
330
1F
100
AcDbEntity
  8
1
  6
Continuous
 62
   250
420
  1644836
370
    25
100
AcDbLine
 10
0.2
 20
11.7
 30
0.0
 11
0.2
 21
-11.7
 31
0.0
  0
LINE
  5
C0
330
1F
100
AcDbEntity
  8
1
  6
Continuous
 62
   250
420
  1644836
370
    25
100
AcDbLine
 10
9.5738264317
 20
11.7
 30
0.0
 11
10.8422649731
 21
9.503
 31
0.0
  0
LINE
  5
C1
330
1F
100
AcDbEntity
  8
1
  6
Continuous
 62
   250
420
  1644836
370
    25
100
AcDbLine
 10
11.0154700538
 20
9.403
 30
0.0
 11
23.5
 21
9.403
 31
0.0
  0
LINE
  5
C2
330
1F
100
AcDbEntity
  8
1
  6
Continuous
 62
   250
420
  1644836
370
    25
100
AcDbLine
 10
23.5
 20
9.403
 30
0.0
 11
30.363804004
 21
7.5638492601
 31
0.0
  0
LINE
  5
C3
330
1F
100
AcDbEntity
  8
1
  6
Continuous
 62
   250
420
  1644836
370
    25
100
AcDbLine
 10
30.363804004
 20
-9.7
 30
0.0
 11
16.9154700538
 21
-9.7
 31
0.0
  0
LINE
  5
C4
330
1F
100
AcDbEntity
  8
1
  6
Continuous
 62
   250
420
  1644836
370
    25
100
AcDbLine
 10
16.7422649731
 20
-9.8
 30
0.0
 11
15.6452994616
 21
-11.7
 31
0.0
  0
LINE
  5
C5
330
1F
100
AcDbEntity
  8
1
  6
Continuous
 62
   250
420
  1644836
370
    25
100
AcDbLine
 10
15.6
 20
6.3914004725
 30
0.0
 11
15.6
 21
7.7103826105
 31
0.0
  0
LINE
  5
C6
330
1F
100
AcDbEntity
  8
1
  6
Continuous
 62
   250
420
  1644836
370
    25
100
AcDbLine
 10
15.6
 20
7.7103826105
 30
0.0
 11
4.4
 21
7.7103826105
 31
0.0
  0
LINE
  5
C7
330
1F
100
AcDbEntity
  8
1
  6
Continuous
 62
   250
420
  1644836
370
    25
100
AcDbLine
 10
4.4
 20
7.7103826105
 30
0.0
 11
4.4
 21
6.3914004725
 31
0.0
  0
LINE
  5
C8
330
1F
100
AcDbEntity
  8
1
  6
Continuous
 62
   250
420
  1644836
370
    25
100
AcDbLine
 10
4.4
 20
-6.3914004725
 30
0.0
 11
4.4
 21
-7.7103826105
 31
0.0
  0
LINE
  5
C9
330
1F
100
AcDbEntity
  8
1
  6
Continuous
 62
   250
420
  1644836
370
    25
100
AcDbLine
 10
4.4
 20
-7.7103826105
 30
0.0
 11
15.6
 21
-7.7103826105
 31
0.0
  0
LINE
  5
CA
330
1F
100
AcDbEntity
  8
1
  6
Continuous
 62
   250
420
  1644836
370
    25
100
AcDbLine
 10
15.6
 20
-7.7103826105
 30
0.0
 11
15.6
 21
-6.3914004725
 31
0.0
  0
LINE
  5
CB
330
1F
100
AcDbEntity
  8
1
  6
Continuous
 62
   250
420
  1644836
370
    25
100
AcDbLine
 10
15.6
 20
-6.3914004725
 30
0.0
 11
15.6
 21
6.3914004725
 31
0.0
  0
LINE
  5
CC
330
1F
100
AcDbEntity
  8
1
  6
Continuous
 62
   250
420
  1644836
370
    25
100
AcDbLine
 10
4.4
 20
-6.3914004725
 30
0.0
 11
4.4
 21
6.3914004725
 31
0.0
  0
LINE
  5
CD
330
1F
100
AcDbEntity
  8
1
  6
Continuous
 62
   250
420
  1644836
370
    25
100
AcDbLine
 10
0.0
 20
11.5
 30
0.0
 11
0.0
 21
-11.5
 31
0.0
  0
LINE
  5
CE
330
1F
100
AcDbEntity
  8
1
  6
Continuous
 62
   250
420
  1644836
370
    25
100
AcDbLine
 10
32.5
 20
2.7198059383
 30
0.0
 11
32.5
 21
6.9914572681
 31
0.0
  0
LINE
  5
CF
330
1F
100
AcDbEntity
  8
1
  6
Continuous
 62
   250
420
  1644836
370
    25
100
AcDbLine
 10
32.5
 20
-9.0
 30
0.0
 11
32.5
 21
2.7198059383
 31
0.0
  0
LINE
  5
D0
330
1F
100
AcDbEntity
  8
1
  6
Continuous
 62
   250
420
  1644836
370
    25
100
AcDbLine
 10
8.900855017
 20
8.5800466425
 30
0.0
 11
8.5323816458
 21
9.3626377875
 31
0.0
  0
LINE
  5
D1
330
1F
100
AcDbEntity
  8
1
  6
Continuous
 62
   250
420
  1644836
370
    25
100
AcDbLine
 10
-1.1215665373
 20
6.968060364
 30
0.0
 11
-1.1215665373
 21
-6.968060364
 31
0.0
  0
LINE
  5
D2
330
1F
100
AcDbEntity
  8
1
  6
Continuous
 62
   250
420
  1644836
370
    25
100
AcDbLine
 10
-16.0
 20
6.7
 30
0.0
 11
-16.0
 21
-6.7
 31
0.0
  0
LINE
  5
D3
330
1F
100
AcDbEntity
  8
1
  6
Continuous
 62
   250
420
  1644836
370
    25
100
AcDbLine
 10
29.0
 20
8.7507847114
 30
0.0
 11
25.9341005945
 21
8.7507847114
 31
0.0
  0
LINE
  5
D4
330
1F
100
AcDbEntity
  8
1
  6
Continuous
 62
   250
420
  1644836
370
    25
100
AcDbLine
 10
25.095
 20
9.0507847114
 30
0.0
 11
24.8144853522
 21
9.0507847114
 31
0.0
  0
LINE
  5
D5
330
1F
100
AcDbEntity
  8
SK1
  6
Continuous
 62
   250
420
  1644836
370
    25
100
AcDbLine
 10
25.0965786694
 20
9.0413509549
 30
0.0
 11
25.095
 21
9.0507847114
 31
0.0
  0
LINE
  5
D6
330
1F
100
AcDbEntity
  8
1
  6
Continuous
 62
   250
420
  1644836
370
    25
100
AcDbLine
 10
24.7527587823
 20
10.1007847114
 30
0.0
 11
22.2472412177
 21
10.1007847114
 31
0.0
  0
LINE
  5
D7
330
1F
100
AcDbEntity
  8
1
  6
Continuous
 62
   250
420
  1644836
370
    25
100
AcDbLine
 10
24.9527587823
 20
9.9007847114
 30
0.0
 11
24.7527587823
 21
10.1007847114
 31
0.0
  0
LINE
  5
D8
330
1F
100
AcDbEntity
  8
1
  6
Continuous
 62
   250
420
  1644836
370
    25
100
AcDbLine
 10
25.095
 20
9.0507847114
 30
0.0
 11
24.9527587823
 21
9.9007847114
 31
0.0
  0
LINE
  5
D9
330
1F
100
AcDbEntity
  8
SK1
  6
Continuous
 62
   250
420
  1644836
370
    25
100
AcDbLine
 10
22.0472412177
 20
9.9007847114
 30
0.0
 11
21.9639406253
 21
9.403
 31
0.0
  0
LINE
  5
DA
330
1F
100
AcDbEntity
  8
1
  6
Continuous
 62
   250
420
  1644836
370
    25
100
AcDbLine
 10
22.2472412177
 20
10.1007847114
 30
0.0
 11
22.0472412177
 21
9.9007847114
 31
0.0
  0
LINE
  5
DB
330
1F
100
AcDbEntity
  8
1
  6
Continuous
 62
   250
420
  1644836
370
    25
100
AcDbLine
 10
15.5
 20
6.35
 30
0.0
 11
4.5
 21
6.35
 31
0.0
  0
LINE
  5
DC
330
1F
100
AcDbEntity
  8
1
  6
Continuous
 62
   250
420
  1644836
370
    25
100
AcDbLine
 10
15.5
 20
-6.35
 30
0.0
 11
15.5
 21
6.35
 31
0.0
  0
LINE
  5
DD
330
1F
100
AcDbEntity
  8
1
  6
Continuous
 62
   250
420
  1644836
370
    25
100
AcDbLine
 10
15.5
 20
-6.35
 30
0.0
 11
4.5
 21
-6.35
 31
0.0
  0
LINE
  5
DE
330
1F
100
AcDbEntity
  8
1
  6
Continuous
 62
   250
420
  1644836
370
    25
100
AcDbLine
 10
4.5
 20
6.35
 30
0.0
 11
4.5
 21
-6.35
 31
0.0
  0
LINE
  5
DF
330
1F
100
AcDbEntity
  8
1
  6
Continuous
 62
   250
420
  1644836
370
    25
100
AcDbLine
 10
4.5
 20
-7.25
 30
0.0
 11
5.5
 21
-7.25
 31
0.0
  0
LINE
  5
E0
330
1F
100
AcDbEntity
  8
1
  6
Continuous
 62
   250
420
  1644836
370
    25
100
AcDbLine
 10
4.5
 20
-6.35
 30
0.0
 11
4.5
 21
-7.25
 31
0.0
  0
LINE
  5
E1
330
1F
100
AcDbEntity
  8
1
  6
Continuous
 62
   250
420
  1644836
370
    25
100
AcDbLine
 10
14.5
 20
-7.25
 30
0.0
 11
15.5
 21
-7.25
 31
0.0
  0
LINE
  5
E2
330
1F
100
AcDbEntity
  8
1
  6
Continuous
 62
   250
420
  1644836
370
    25
100
AcDbLine
 10
14.5
 20
-7.25
 30
0.0
 11
14.5
 21
-7.2
 31
0.0
  0
LINE
  5
E3
330
1F
100
AcDbEntity
  8
1
  6
Continuous
 62
   250
420
  1644836
370
    25
100
AcDbLine
 10
5.5632503002
 20
-6.85
 30
0.0
 11
14.4367496998
 21
-6.85
 31
0.0
  0
LINE
  5
E4
330
1F
100
AcDbEntity
  8
1
  6
Continuous
 62
   250
420
  1644836
370
    25
100
AcDbLine
 10
5.5
 20
-7.2
 30
0.0
 11
5.5
 21
-7.25
 31
0.0
  0
LINE
  5
E5
330
1F
100
AcDbEntity
  8
1
  6
Continuous
 62
   250
420
  1644836
370
    25
100
AcDbLine
 10
15.5
 20
-6.35
 30
0.0
 11
15.5
 21
-7.25
 31
0.0
  0
LINE
  5
E6
330
1F
100
AcDbEntity
  8
1
  6
Continuous
 62
   250
420
  1644836
370
    25
100
AcDbLine
 10
4.5
 20
7.25
 30
0.0
 11
4.5
 21
6.35
 31
0.0
  0
LINE
  5
E7
330
1F
100
AcDbEntity
  8
1
  6
Continuous
 62
   250
420
  1644836
370
    25
100
AcDbLine
 10
5.5
 20
7.25
 30
0.0
 11
4.5
 21
7.25
 31
0.0
  0
LINE
  5
E8
330
1F
100
AcDbEntity
  8
1
  6
Continuous
 62
   250
420
  1644836
370
    25
100
AcDbLine
 10
5.5
 20
7.2
 30
0.0
 11
5.5
 21
7.25
 31
0.0
  0
LINE
  5
E9
330
1F
100
AcDbEntity
  8
1
  6
Continuous
 62
   250
420
  1644836
370
    25
100
AcDbLine
 10
14.4367496998
 20
6.85
 30
0.0
 11
5.5632503002
 21
6.85
 31
0.0
  0
LINE
  5
EA
330
1F
100
AcDbEntity
  8
1
  6
Continuous
 62
   250
420
  1644836
370
    25
100
AcDbLine
 10
14.5
 20
7.25
 30
0.0
 11
14.5
 21
7.2
 31
0.0
  0
LINE
  5
EB
330
1F
100
AcDbEntity
  8
1
  6
Continuous
 62
   250
420
  1644836
370
    25
100
AcDbLine
 10
15.5
 20
7.25
 30
0.0
 11
14.5
 21
7.25
 31
0.0
  0
LINE
  5
EC
330
1F
100
AcDbEntity
  8
1
  6
Continuous
 62
   250
420
  1644836
370
    25
100
AcDbLine
 10
15.5
 20
7.25
 30
0.0
 11
15.5
 21
6.35
 31
0.0
  0
LINE
  5
ED
330
1F
100
AcDbEntity
  8
1
  6
Continuous
 62
   250
420
  1644836
370
    25
100
AcDbLine
 10
22.3452994616
 20
1.0
 30
0.0
 11
22.9226497308
 21
0.0
 31
0.0
  0
LINE
  5
EE
330
1F
100
AcDbEntity
  8
1
  6
Continuous
 62
   250
420
  1644836
370
    25
100
AcDbLine
 10
22.9226497308
 20
0.0
 30
0.0
 11
24.0773502692
 21
0.0
 31
0.0
  0
LINE
  5
EF
330
1F
100
AcDbEntity
  8
1
  6
Continuous
 62
   250
420
  1644836
370
    25
100
AcDbLine
 10
24.0773502692
 20
0.0
 30
0.0
 11
24.6547005384
 21
1.0
 31
0.0
  0
LINE
  5
F0
330
1F
100
AcDbEntity
  8
1
  6
Continuous
 62
   250
420
  1644836
370
    25
100
AcDbLine
 10
24.6547005384
 20
1.0
 30
0.0
 11
24.0773502692
 21
2.0
 31
0.0
  0
LINE
  5
F1
330
1F
100
AcDbEntity
  8
1
  6
Continuous
 62
   250
420
  1644836
370
    25
100
AcDbLine
 10
24.0773502692
 20
2.0
 30
0.0
 11
22.9226497308
 21
2.0
 31
0.0
  0
LINE
  5
F2
330
1F
100
AcDbEntity
  8
1
  6
Continuous
 62
   250
420
  1644836
370
    25
100
AcDbLine
 10
22.9226497308
 20
2.0
 30
0.0
 11
22.3452994616
 21
1.0
 31
0.0
  0
LINE
  5
F3
330
1F
100
AcDbEntity
  8
SK1
  6
Continuous
 62
   250
420
  1644836
370
    25
100
AcDbLine
 10
35.0147803228
 20
14.4670301493
 30
0.0
 11
29.480013777
 21
11.6353956034
 31
0.0
  0
LINE
  5
F4
330
1F
100
AcDbEntity
  8
SK1
  6
Continuous
 62
   250
420
  1644836
370
    25
100
AcDbLine
 10
35.1230016246
 20
7.9575245486
 30
0.0
 11
35.4493363516
 21
14.1843620803
 31
0.0
  0
LINE
  5
F5
330
1F
100
AcDbEntity
  8
SK1
  6
Continuous
 62
   250
420
  1644836
370
    25
100
AcDbLine
 10
29.4531595423
 20
11.1162703371
 30
0.0
 11
34.6612791743
 21
7.7218290483
 31
0.0
  0
LINE
  5
F6
330
1F
100
AcDbEntity
  8
SK1
  6
Continuous
 62
   250
420
  1644836
370
    25
100
AcDbLine
 10
28.5556994154
 20
9.0507847114
 30
0.0
 11
25.3447972173
 21
9.0507847114
 31
0.0
  0
LINE
  5
F7
330
1F
100
AcDbEntity
  8
SK1
  6
Continuous
 62
   250
420
  1644836
370
    25
100
AcDbLine
 10
25.3447972173
 20
9.0507847114
 30
0.0
 11
25.0447972173
 21
9.3507847114
 31
0.0
  0
LINE
  5
F8
330
1F
100
AcDbEntity
  8
SK1
  6
Continuous
 62
   250
420
  1644836
370
    25
100
AcDbLine
 10
24.9527587823
 20
9.9007847114
 30
0.0
 11
24.8941888691
 21
10.2507847114
 31
0.0
  0
LINE
  5
F9
330
1F
100
AcDbEntity
  8
SK1
  6
Continuous
 62
   250
420
  1644836
370
    25
100
AcDbLine
 10
24.8941888691
 20
10.2507847114
 30
0.0
 11
22.1058111309
 21
10.2507847114
 31
0.0
  0
LINE
  5
FA
330
1F
100
AcDbEntity
  8
SK1
  6
Continuous
 62
   250
420
  1644836
370
    25
100
AcDbLine
 10
22.1058111309
 20
10.2507847114
 30
0.0
 11
22.0472412177
 21
9.9007847114
 31
0.0
  0
LINE
  5
FB
330
1F
100
AcDbEntity
  8
SK1
  6
Continuous
 62
   250
420
  1644836
370
    25
100
AcDbLine
 10
28.0161588248
 20
13.5005358149
 30
0.0
 11
28.8
 21
13.5005358149
 31
0.0
  0
LINE
  5
FC
330
1F
100
AcDbEntity
  8
SK1
  6
Continuous
 62
   250
420
  1644836
370
    25
100
AcDbLine
 10
27.9705035879
 20
13.5002564038
 30
0.0
 11
28.0161588248
 21
13.5005358149
 31
0.0
  0
LINE
  5
FD
330
1F
100
AcDbEntity
  8
SK1
  6
Continuous
 62
   250
420
  1644836
370
    25
100
AcDbLine
 10
30.0211195358
 20
8.6901961644
 30
0.0
 11
29.9042820323
 21
8.7215026791
 31
0.0
  0
LINE
  5
FE
330
1F
100
AcDbEntity
  8
SK1
  6
Continuous
 62
   250
420
  1644836
370
    25
100
AcDbLine
 10
29.9042820323
 20
8.7215026791
 30
0.0
 11
29.575
 21
9.0507847114
 31
0.0
  0
LINE
  5
FF
330
1F
100
AcDbEntity
  8
SK1
  6
Continuous
 62
   250
420
  1644836
370
    25
100
AcDbLine
 10
29.575
 20
9.0507847114
 30
0.0
 11
28.5556994154
 21
9.0507847114
 31
0.0
  0
LINE
  5
100
330
1F
100
AcDbEntity
  8
SK1
  6
Continuous
 62
   250
420
  1644836
370
    25
100
AcDbLine
 10
29.8350577213
 20
12.3010305464
 30
0.0
 11
30.0986548137
 21
12.2872160082
 31
0.0
  0
LINE
  5
101
330
1F
100
AcDbEntity
  8
SK1
  6
Continuous
 62
   250
420
  1644836
370
    25
100
AcDbLine
 10
30.0986548137
 20
12.2872160082
 30
0.0
 11
30.6933863067
 21
12.2561669625
 31
0.0
  0
LINE
  5
102
330
1F
100
AcDbEntity
  8
SK1
  6
Continuous
 62
   250
420
  1644836
370
    25
100
AcDbLine
 10
30.6934775734
 20
12.2562136553
 30
0.0
 11
30.0211195358
 21
12.2913163631
 31
0.0
  0
LINE
  5
103
330
1F
100
AcDbEntity
  8
SK1
  6
Continuous
 62
   250
420
  1644836
370
    25
100
AcDbLine
 10
34.6583893618
 20
7.4607847114
 30
0.0
 11
34.6093455418
 21
7.4607847114
 31
0.0
  0
LINE
  5
104
330
1F
100
AcDbEntity
  8
SK1
  6
Continuous
 62
   250
420
  1644836
370
    25
100
AcDbLine
 10
34.6717277693
 20
7.7152966886
 30
0.0
 11
34.6583893618
 21
7.4607847114
 31
0.0
  0
LINE
  5
105
330
1F
100
AcDbEntity
  8
SK1
  6
Continuous
 62
   250
420
  1644836
370
    25
100
AcDbLine
 10
34.6093455418
 20
7.4607847114
 30
0.0
 11
30.0211195358
 21
8.6901961644
 31
0.0
  0
LINE
  5
106
330
1F
100
AcDbEntity
  8
SK1
  6
Continuous
 62
   250
420
  1644836
370
    25
100
AcDbLine
 10
30.0211195358
 20
10.0883201194
 30
0.0
 11
31.1182352585
 21
10.0310415112
 31
0.0
  0
LINE
  5
107
330
1F
100
AcDbEntity
  8
SK1
  6
Continuous
 62
   250
420
  1644836
370
    25
100
AcDbLine
 10
34.0996807208
 20
14.0031489932
 30
0.0
 11
34.1014099116
 21
13.999741383
 31
0.0
  0
LINE
  5
108
330
1F
100
AcDbEntity
  8
SK1
  6
Continuous
 62
   250
420
  1644836
370
    25
100
AcDbLine
 10
28.8
 20
13.5005358149
 30
0.0
 11
30.0124355653
 21
14.2005503341
 31
0.0
  0
LINE
  5
109
330
1F
100
AcDbEntity
  8
SK1
  6
Continuous
 62
   250
420
  1644836
370
    25
100
AcDbLine
 10
33.8206507314
 20
14.2005503341
 30
0.0
 11
30.0124355653
 21
14.2005503341
 31
0.0
  0
LINE
  5
10A
330
1F
100
AcDbEntity
  8
SK1
  6
Continuous
 62
   250
420
  1644836
370
    25
100
AcDbLine
 10
24.5392304845
 20
14.3007847114
 30
0.0
 11
22.3
 21
14.3007847114
 31
0.0
  0
LINE
  5
10B
330
1F
100
AcDbEntity
  8
SK1
  6
Continuous
 62
   250
420
  1644836
370
    25
100
AcDbLine
 10
24.7
 20
14.3007847114
 30
0.0
 11
24.5392304845
 21
14.3007847114
 31
0.0
  0
LINE
  5
10C
330
1F
100
AcDbEntity
  8
1
  6
Continuous
 62
   250
420
  1644836
370
    25
100
AcDbLine
 10
-2.6547005384
 20
8.5
 30
0.0
 11
-5.3452994616
 21
8.5
 31
0.0
  0
LINE
  5
10D
330
1F
100
AcDbEntity
  8
1
  6
Continuous
 62
   250
420
  1644836
370
    25
100
AcDbLine
 10
-2.6547005384
 20
-8.5
 30
0.0
 11
-5.3452994616
 21
-8.5
 31
0.0
  0
LINE
  5
10E
330
1F
100
AcDbEntity
  8
1
  6
Continuous
 62
   250
420
  1644836
370
    25
100
AcDbLine
 10
29.8691987298
 20
-9.7083012702
 30
0.0
 11
17.1308012702
 21
-9.7083012702
 31
0.0
  0
LINE
  5
10F
330
1F
100
AcDbEntity
  8
1
  6
Continuous
 62
   250
420
  1644836
370
    25
100
AcDbLine
 10
25.6456415713
 20
-10.84
 30
0.0
 11
21.3543584287
 21
-10.84
 31
0.0
  0
LINE
  5
110
330
1F
100
AcDbEntity
  8
SK1
  6
Continuous
 62
   251
420
  6974058
370
    18
100
AcDbLine
 10
28.5556994154
 20
9.0507847114
 30
0.0
 11
28.5556994154
 21
12.4621490618
 31
0.0
  0
LINE
  5
111
330
1F
100
AcDbEntity
  8
SK1
  6
Continuous
 62
   251
420
  6974058
370
    18
100
AcDbLine
 10
30.0211195358
 20
12.2913163631
 30
0.0
 11
30.0211195358
 21
12.4445328048
 31
0.0
  0
LINE
  5
112
330
1F
100
AcDbEntity
  8
SK1
  6
Continuous
 62
   251
420
  6974058
370
    18
100
AcDbLine
 10
30.0211195358
 20
8.6901961644
 30
0.0
 11
30.0211195358
 21
10.0883201194
 31
0.0
  0
LINE
  5
113
330
1F
100
AcDbEntity
  8
SK1
  6
Continuous
 62
   251
420
  6974058
370
    18
100
AcDbLine
 10
26.0
 20
13.4775196378
 30
0.0
 11
21.0
 21
13.4775196378
 31
0.0
  0
LINE
  5
114
330
1F
100
AcDbEntity
  8
SK1
  6
Continuous
 62
   251
420
  6974058
370
    18
100
AcDbLine
 10
21.3289899283
 20
13.9473659482
 30
0.0
 11
25.6710100717
 21
13.9473659482
 31
0.0
  0
ARC
  5
115
330
1F
100
AcDbEntity
  8
1
  6
Continuous
 62
   250
420
  1644836
370
    25
100
AcDbCircle
 10
-0.3
 20
-7.2975
 30
0.0
 40
0.5000000000000163
100
AcDbArc
 50
53.1301023542
 51
105.0
  0
ARC
  5
116
330
1F
100
AcDbEntity
  8
1
  6
Continuous
 62
   250
420
  1644836
370
    25
100
AcDbCircle
 10
-0.3
 20
7.2975
 30
0.0
 40
0.4999999999999954
100
AcDbArc
 50
255.0
 51
306.8698976458
  0
ARC
  5
117
330
1F
100
AcDbEntity
  8
1
  6
Continuous
 62
   250
420
  1644836
370
    25
100
AcDbCircle
 10
-15.6379290124
 20
6.5299864712
 30
0.0
 40
0.3999999999999732
100
AcDbArc
 50
80.0
 51
154.847195748
  0
ARC
  5
118
330
1F
100
AcDbEntity
  8
1
  6
Continuous
 62
   250
420
  1644836
370
    25
100
AcDbCircle
 10
-15.6379290124
 20
-6.5299864712
 30
0.0
 40
0.3999999999999885
100
AcDbArc
 50
205.152804252
 51
280.0
  0
ARC
  5
119
330
1F
100
AcDbEntity
  8
SK1
  6
Continuous
 62
   250
420
  1644836
370
    25
100
AcDbCircle
 10
21.5
 20
13.4775196378
 30
0.0
 40
0.5000000000000568
100
AcDbArc
 50
110.0
 51
180.0
  0
ARC
  5
11A
330
1F
100
AcDbEntity
  8
SK1
  6
Continuous
 62
   250
420
  1644836
370
    25
100
AcDbCircle
 10
25.5
 20
13.4775196378
 30
0.0
 40
0.4999999999999863
100
AcDbArc
 50
0.0
 51
70.0
  0
ARC
  5
11B
330
1F
100
AcDbEntity
  8
1
  6
Continuous
 62
   250
420
  1644836
370
    25
100
AcDbCircle
 10
-2.1
 20
-6.9392304845
 30
0.0
 40
0.6000000000000449
100
AcDbArc
 50
330.0
 51
0.0
  0
ARC
  5
11C
330
1F
100
AcDbEntity
  8
1
  6
Continuous
 62
   250
420
  1644836
370
    25
100
AcDbCircle
 10
-5.9
 20
-6.9392304845
 30
0.0
 40
0.5999999999999573
100
AcDbArc
 50
180.0
 51
210.0
  0
ARC
  5
11D
330
1F
100
AcDbEntity
  8
1
  6
Continuous
 62
   250
420
  1644836
370
    25
100
AcDbCircle
 10
-2.1
 20
6.9392304845
 30
0.0
 40
0.6000000000000763
100
AcDbArc
 50
0.0
 51
30.0
  0
ARC
  5
11E
330
1F
100
AcDbEntity
  8
1
  6
Continuous
 62
   250
420
  1644836
370
    25
100
AcDbCircle
 10
-5.9
 20
6.9392304845
 30
0.0
 40
0.5999999999999542
100
AcDbArc
 50
150.0
 51
180.0
  0
ARC
  5
11F
330
1F
100
AcDbEntity
  8
1
  6
Continuous
 62
   250
420
  1644836
370
    25
100
AcDbCircle
 10
-2.6547005384
 20
7.9
 30
0.0
 40
0.6000000000000727
100
AcDbArc
 50
30.0
 51
90.0
  0
ARC
  5
120
330
1F
100
AcDbEntity
  8
1
  6
Continuous
 62
   250
420
  1644836
370
    25
100
AcDbCircle
 10
-5.3452994616
 20
7.9
 30
0.0
 40
0.6000000000000068
100
AcDbArc
 50
90.0
 51
150.0
  0
ARC
  5
121
330
1F
100
AcDbEntity
  8
1
  6
Continuous
 62
   250
420
  1644836
370
    25
100
AcDbCircle
 10
-2.6547005384
 20
-7.9
 30
0.0
 40
0.6000000000000165
100
AcDbArc
 50
270.0
 51
330.0
  0
ARC
  5
122
330
1F
100
AcDbEntity
  8
1
  6
Continuous
 62
   250
420
  1644836
370
    25
100
AcDbCircle
 10
-5.3452994616
 20
-7.9
 30
0.0
 40
0.6000000000000165
100
AcDbArc
 50
210.0
 51
270.0
  0
CIRCLE
  5
123
330
1F
100
AcDbEntity
  8
1
  6
Continuous
 62
   250
420
  1644836
370
    25
100
AcDbCircle
 10
23.5
 20
1.0
 30
0.0
 40
1.849999999999959
  0
ARC
  5
124
330
1F
100
AcDbEntity
  8
1
  6
Continuous
 62
   250
420
  1644836
370
    25
100
AcDbCircle
 10
5.2250664897
 20
6.9123684479
 30
0.0
 40
4.036405809406895
100
AcDbArc
 50
13.7849730194
 51
24.4034459118
  0
ARC
  5
125
330
1F
100
AcDbEntity
  8
1
  6
Continuous
 62
   250
420
  1644836
370
    25
100
AcDbCircle
 10
9.7579093394
 20
8.3834585326
 30
0.0
 40
1.223858841739301
100
AcDbArc
 50
158.0217859818
 51
204.263336976
  0
ARC
  5
126
330
1F
100
AcDbEntity
  8
1
  6
Continuous
 62
   250
420
  1644836
370
    25
100
AcDbCircle
 10
7.7198534795
 20
7.7642691405
 30
0.0
 40
1.40572803392668
100
AcDbArc
 50
4.4959421358
 51
50.0236785076
  0
CIRCLE
  5
127
330
1F
100
AcDbEntity
  8
1
  6
Continuous
 62
   250
420
  1644836
370
    25
100
AcDbCircle
 10
-6.35
 20
0.0
 30
0.0
 40
2.000000000000001
  0
ARC
  5
128
330
1F
100
AcDbEntity
  8
1
  6
Continuous
 62
   250
420
  1644836
370
    25
100
AcDbCircle
 10
14.1
 20
4.9
 30
0.0
 40
0.7500000000000151
100
AcDbArc
 50
270.0
 51
330.0
  0
ARC
  5
129
330
1F
100
AcDbEntity
  8
1
  6
Continuous
 62
   250
420
  1644836
370
    25
100
AcDbCircle
 10
14.1
 20
4.9
 30
0.0
 40
0.7500000000000226
100
AcDbArc
 50
330.0
 51
30.0
  0
ARC
  5
12A
330
1F
100
AcDbEntity
  8
1
  6
Continuous
 62
   250
420
  1644836
370
    25
100
AcDbCircle
 10
14.1
 20
4.9
 30
0.0
 40
0.7500000000000226
100
AcDbArc
 50
30.0
 51
90.0
  0
ARC
  5
12B
330
1F
100
AcDbEntity
  8
1
  6
Continuous
 62
   250
420
  1644836
370
    25
100
AcDbCircle
 10
14.1
 20
4.9
 30
0.0
 40
0.7499999999999942
100
AcDbArc
 50
90.0
 51
150.0
  0
ARC
  5
12C
330
1F
100
AcDbEntity
  8
1
  6
Continuous
 62
   250
420
  1644836
370
    25
100
AcDbCircle
 10
14.1
 20
4.9
 30
0.0
 40
0.7499999999999942
100
AcDbArc
 50
150.0
 51
210.0
  0
ARC
  5
12D
330
1F
100
AcDbEntity
  8
1
  6
Continuous
 62
   250
420
  1644836
370
    25
100
AcDbCircle
 10
14.1
 20
4.9
 30
0.0
 40
0.7500000000000071
100
AcDbArc
 50
210.0
 51
270.0
  0
ARC
  5
12E
330
1F
100
AcDbEntity
  8
1
  6
Continuous
 62
   250
420
  1644836
370
    25
100
AcDbCircle
 10
14.5979646072
 20
4.6125
 30
0.0
 40
0.1750000000000706
100
AcDbArc
 50
237.795772496
 51
330.0
  0
ARC
  5
12F
330
1F
100
AcDbEntity
  8
1
  6
Continuous
 62
   250
420
  1644836
370
    25
100
AcDbCircle
 10
14.1
 20
4.325
 30
0.0
 40
0.1750000000000642
100
AcDbArc
 50
270.0
 51
2.204227504
  0
ARC
  5
130
330
1F
100
AcDbEntity
  8
1
  6
Continuous
 62
   250
420
  1644836
370
    25
100
AcDbCircle
 10
14.4247595264
 20
4.3375
 30
0.0
 40
0.1499999999999662
100
AcDbArc
 50
57.795772496
 51
182.204227504
  0
ARC
  5
131
330
1F
100
AcDbEntity
  8
1
  6
Continuous
 62
   250
420
  1644836
370
    25
100
AcDbCircle
 10
14.1
 20
5.475
 30
0.0
 40
0.1750000000000646
100
AcDbArc
 50
357.795772496
 51
90.0
  0
ARC
  5
132
330
1F
100
AcDbEntity
  8
1
  6
Continuous
 62
   250
420
  1644836
370
    25
100
AcDbCircle
 10
14.5979646072
 20
5.1875
 30
0.0
 40
0.1750000000000711
100
AcDbArc
 50
30.0
 51
122.204227504
  0
ARC
  5
133
330
1F
100
AcDbEntity
  8
1
  6
Continuous
 62
   250
420
  1644836
370
    25
100
AcDbCircle
 10
14.4247595264
 20
5.4625
 30
0.0
 40
0.1499999999999661
100
AcDbArc
 50
177.795772496
 51
302.204227504
  0
ARC
  5
134
330
1F
100
AcDbEntity
  8
1
  6
Continuous
 62
   250
420
  1644836
370
    25
100
AcDbCircle
 10
14.5979646072
 20
4.6125
 30
0.0
 40
0.1750000000000706
100
AcDbArc
 50
330.0
 51
62.204227504
  0
ARC
  5
135
330
1F
100
AcDbEntity
  8
1
  6
Continuous
 62
   250
420
  1644836
370
    25
100
AcDbCircle
 10
14.7495190528
 20
4.9
 30
0.0
 40
0.1500000000001064
100
AcDbArc
 50
117.7957724961
 51
242.2042275039
  0
ARC
  5
136
330
1F
100
AcDbEntity
  8
1
  6
Continuous
 62
   250
420
  1644836
370
    25
100
AcDbCircle
 10
14.5979646072
 20
5.1875
 30
0.0
 40
0.1750000000000711
100
AcDbArc
 50
297.795772496
 51
30.0
  0
ARC
  5
137
330
1F
100
AcDbEntity
  8
1
  6
Continuous
 62
   250
420
  1644836
370
    25
100
AcDbCircle
 10
13.6020353928
 20
4.6125
 30
0.0
 40
0.1749999999999997
100
AcDbArc
 50
210.0
 51
302.204227504
  0
ARC
  5
138
330
1F
100
AcDbEntity
  8
1
  6
Continuous
 62
   250
420
  1644836
370
    25
100
AcDbCircle
 10
13.7752404736
 20
4.3375
 30
0.0
 40
0.1500000000000232
100
AcDbArc
 50
357.795772496
 51
122.204227504
  0
ARC
  5
139
330
1F
100
AcDbEntity
  8
1
  6
Continuous
 62
   250
420
  1644836
370
    25
100
AcDbCircle
 10
14.1
 20
4.325
 30
0.0
 40
0.1750000000000149
100
AcDbArc
 50
177.795772496
 51
270.0
  0
ARC
  5
13A
330
1F
100
AcDbEntity
  8
1
  6
Continuous
 62
   250
420
  1644836
370
    25
100
AcDbCircle
 10
13.7752404736
 20
5.4625
 30
0.0
 40
0.150000000000063
100
AcDbArc
 50
237.795772496
 51
2.204227504
  0
ARC
  5
13B
330
1F
100
AcDbEntity
  8
1
  6
Continuous
 62
   250
420
  1644836
370
    25
100
AcDbCircle
 10
13.6020353928
 20
5.1875
 30
0.0
 40
0.1749999999999539
100
AcDbArc
 50
57.795772496
 51
150.0
  0
ARC
  5
13C
330
1F
100
AcDbEntity
  8
1
  6
Continuous
 62
   250
420
  1644836
370
    25
100
AcDbCircle
 10
14.1
 20
5.475
 30
0.0
 40
0.1750000000000072
100
AcDbArc
 50
90.0
 51
182.204227504
  0
ARC
  5
13D
330
1F
100
AcDbEntity
  8
1
  6
Continuous
 62
   250
420
  1644836
370
    25
100
AcDbCircle
 10
13.4504809472
 20
4.9
 30
0.0
 40
0.1499999999999948
100
AcDbArc
 50
297.7957724961
 51
62.204227504
  0
ARC
  5
13E
330
1F
100
AcDbEntity
  8
1
  6
Continuous
 62
   250
420
  1644836
370
    25
100
AcDbCircle
 10
13.6020353928
 20
4.6125
 30
0.0
 40
0.1749999999999921
100
AcDbArc
 50
117.795772496
 51
210.0
  0
ARC
  5
13F
330
1F
100
AcDbEntity
  8
1
  6
Continuous
 62
   250
420
  1644836
370
    25
100
AcDbCircle
 10
13.6020353928
 20
5.1875
 30
0.0
 40
0.1749999999999615
100
AcDbArc
 50
150.0
 51
242.204227504
  0
ARC
  5
140
330
1F
100
AcDbEntity
  8
1
  6
Continuous
 62
   250
420
  1644836
370
    25
100
AcDbCircle
 10
5.9
 20
-4.9
 30
0.0
 40
0.750000000000008
100
AcDbArc
 50
270.0
 51
330.0
  0
ARC
  5
141
330
1F
100
AcDbEntity
  8
1
  6
Continuous
 62
   250
420
  1644836
370
    25
100
AcDbCircle
 10
5.9
 20
-4.9
 30
0.0
 40
0.7499999999999845
100
AcDbArc
 50
330.0
 51
30.0
  0
ARC
  5
142
330
1F
100
AcDbEntity
  8
1
  6
Continuous
 62
   250
420
  1644836
370
    25
100
AcDbCircle
 10
5.9
 20
-4.9
 30
0.0
 40
0.7499999999999902
100
AcDbArc
 50
30.0
 51
90.0
  0
ARC
  5
143
330
1F
100
AcDbEntity
  8
1
  6
Continuous
 62
   250
420
  1644836
370
    25
100
AcDbCircle
 10
5.9
 20
-4.9
 30
0.0
 40
0.7499999999999902
100
AcDbArc
 50
90.0
 51
150.0
  0
ARC
  5
144
330
1F
100
AcDbEntity
  8
1
  6
Continuous
 62
   250
420
  1644836
370
    25
100
AcDbCircle
 10
5.9
 20
-4.9
 30
0.0
 40
0.749999999999988
100
AcDbArc
 50
150.0
 51
210.0
  0
ARC
  5
145
330
1F
100
AcDbEntity
  8
1
  6
Continuous
 62
   250
420
  1644836
370
    25
100
AcDbCircle
 10
5.9
 20
-4.9
 30
0.0
 40
0.750000000000008
100
AcDbArc
 50
210.0
 51
270.0
  0
ARC
  5
146
330
1F
100
AcDbEntity
  8
1
  6
Continuous
 62
   250
420
  1644836
370
    25
100
AcDbCircle
 10
6.3979646072
 20
-5.1875
 30
0.0
 40
0.1750000000000474
100
AcDbArc
 50
330.0
 51
62.204227504
  0
ARC
  5
147
330
1F
100
AcDbEntity
  8
1
  6
Continuous
 62
   250
420
  1644836
370
    25
100
AcDbCircle
 10
6.5495190528
 20
-4.9
 30
0.0
 40
0.1500000000000231
100
AcDbArc
 50
117.7957724961
 51
242.2042275038
  0
ARC
  5
148
330
1F
100
AcDbEntity
  8
1
  6
Continuous
 62
   250
420
  1644836
370
    25
100
AcDbCircle
 10
6.3979646072
 20
-4.6125
 30
0.0
 40
0.1750000000000502
100
AcDbArc
 50
297.795772496
 51
30.0
  0
ARC
  5
149
330
1F
100
AcDbEntity
  8
1
  6
Continuous
 62
   250
420
  1644836
370
    25
100
AcDbCircle
 10
6.3979646072
 20
-5.1875
 30
0.0
 40
0.1750000000000482
100
AcDbArc
 50
237.795772496
 51
330.0
  0
ARC
  5
14A
330
1F
100
AcDbEntity
  8
1
  6
Continuous
 62
   250
420
  1644836
370
    25
100
AcDbCircle
 10
5.9
 20
-5.475
 30
0.0
 40
0.1750000000000359
100
AcDbArc
 50
270.0
 51
2.204227504
  0
ARC
  5
14B
330
1F
100
AcDbEntity
  8
1
  6
Continuous
 62
   250
420
  1644836
370
    25
100
AcDbCircle
 10
6.2247595264
 20
-5.4625
 30
0.0
 40
0.1500000000000219
100
AcDbArc
 50
57.7957724961
 51
182.204227504
  0
ARC
  5
14C
330
1F
100
AcDbEntity
  8
1
  6
Continuous
 62
   250
420
  1644836
370
    25
100
AcDbCircle
 10
5.9
 20
-4.325
 30
0.0
 40
0.1750000000000628
100
AcDbArc
 50
357.795772496
 51
90.0
  0
ARC
  5
14D
330
1F
100
AcDbEntity
  8
1
  6
Continuous
 62
   250
420
  1644836
370
    25
100
AcDbCircle
 10
6.3979646072
 20
-4.6125
 30
0.0
 40
0.1750000000000403
100
AcDbArc
 50
30.0
 51
122.204227504
  0
ARC
  5
14E
330
1F
100
AcDbEntity
  8
1
  6
Continuous
 62
   250
420
  1644836
370
    25
100
AcDbCircle
 10
6.2247595264
 20
-4.3375
 30
0.0
 40
0.1500000000000777
100
AcDbArc
 50
177.795772496
 51
302.2042275039
  0
ARC
  5
14F
330
1F
100
AcDbEntity
  8
1
  6
Continuous
 62
   250
420
  1644836
370
    25
100
AcDbCircle
 10
5.4020353928
 20
-4.6125
 30
0.0
 40
0.1749999999999997
100
AcDbArc
 50
57.795772496
 51
150.0
  0
ARC
  5
150
330
1F
100
AcDbEntity
  8
1
  6
Continuous
 62
   250
420
  1644836
370
    25
100
AcDbCircle
 10
5.9
 20
-4.325
 30
0.0
 40
0.1749999999999847
100
AcDbArc
 50
90.0
 51
182.204227504
  0
ARC
  5
151
330
1F
100
AcDbEntity
  8
1
  6
Continuous
 62
   250
420
  1644836
370
    25
100
AcDbCircle
 10
5.5752404736
 20
-4.3375
 30
0.0
 40
0.150000000000075
100
AcDbArc
 50
237.795772496
 51
2.2042275039
  0
ARC
  5
152
330
1F
100
AcDbEntity
  8
1
  6
Continuous
 62
   250
420
  1644836
370
    25
100
AcDbCircle
 10
5.4020353928
 20
-5.1875
 30
0.0
 40
0.1749999999999945
100
AcDbArc
 50
210.0
 51
302.204227504
  0
ARC
  5
153
330
1F
100
AcDbEntity
  8
1
  6
Continuous
 62
   250
420
  1644836
370
    25
100
AcDbCircle
 10
5.5752404736
 20
-5.4625
 30
0.0
 40
0.150000000000075
100
AcDbArc
 50
357.7957724961
 51
122.204227504
  0
ARC
  5
154
330
1F
100
AcDbEntity
  8
1
  6
Continuous
 62
   250
420
  1644836
370
    25
100
AcDbCircle
 10
5.9
 20
-5.475
 30
0.0
 40
0.175000000000014
100
AcDbArc
 50
177.795772496
 51
270.0
  0
ARC
  5
155
330
1F
100
AcDbEntity
  8
1
  6
Continuous
 62
   250
420
  1644836
370
    25
100
AcDbCircle
 10
5.4020353928
 20
-5.1875
 30
0.0
 40
0.1750000000000061
100
AcDbArc
 50
117.795772496
 51
210.0
  0
ARC
  5
156
330
1F
100
AcDbEntity
  8
1
  6
Continuous
 62
   250
420
  1644836
370
    25
100
AcDbCircle
 10
5.4020353928
 20
-4.6125
 30
0.0
 40
0.1750000000000029
100
AcDbArc
 50
150.0
 51
242.204227504
  0
ARC
  5
157
330
1F
100
AcDbEntity
  8
1
  6
Continuous
 62
   250
420
  1644836
370
    25
100
AcDbCircle
 10
5.2504809472
 20
-4.9
 30
0.0
 40
0.1499999999999966
100
AcDbArc
 50
297.7957724961
 51
62.204227504
  0
ARC
  5
158
330
1F
100
AcDbEntity
  8
1
  6
Continuous
 62
   250
420
  1644836
370
    25
100
AcDbCircle
 10
14.1
 20
-4.9
 30
0.0
 40
0.7500000000000533
100
AcDbArc
 50
270.0
 51
330.0
  0
ARC
  5
159
330
1F
100
AcDbEntity
  8
1
  6
Continuous
 62
   250
420
  1644836
370
    25
100
AcDbCircle
 10
14.1
 20
-4.9
 30
0.0
 40
0.7500000000000852
100
AcDbArc
 50
330.0
 51
30.0
  0
ARC
  5
15A
330
1F
100
AcDbEntity
  8
1
  6
Continuous
 62
   250
420
  1644836
370
    25
100
AcDbCircle
 10
14.1
 20
-4.9
 30
0.0
 40
0.7500000000000852
100
AcDbArc
 50
30.0
 51
90.0
  0
ARC
  5
15B
330
1F
100
AcDbEntity
  8
1
  6
Continuous
 62
   250
420
  1644836
370
    25
100
AcDbCircle
 10
14.1
 20
-4.9
 30
0.0
 40
0.7500000000000524
100
AcDbArc
 50
90.0
 51
150.0
  0
ARC
  5
15C
330
1F
100
AcDbEntity
  8
1
  6
Continuous
 62
   250
420
  1644836
370
    25
100
AcDbCircle
 10
14.1
 20
-4.9
 30
0.0
 40
0.7500000000000444
100
AcDbArc
 50
150.0
 51
210.0
  0
ARC
  5
15D
330
1F
100
AcDbEntity
  8
1
  6
Continuous
 62
   250
420
  1644836
370
    25
100
AcDbCircle
 10
14.1
 20
-4.9
 30
0.0
 40
0.7500000000000533
100
AcDbArc
 50
210.0
 51
270.0
  0
ARC
  5
15E
330
1F
100
AcDbEntity
  8
1
  6
Continuous
 62
   250
420
  1644836
370
    25
100
AcDbCircle
 10
14.5979646072
 20
-5.1875
 30
0.0
 40
0.1750000000000813
100
AcDbArc
 50
237.795772496
 51
330.0
  0
ARC
  5
15F
330
1F
100
AcDbEntity
  8
1
  6
Continuous
 62
   250
420
  1644836
370
    25
100
AcDbCircle
 10
14.1
 20
-5.475
 30
0.0
 40
0.1750000000000639
100
AcDbArc
 50
270.0
 51
2.204227504
  0
ARC
  5
160
330
1F
100
AcDbEntity
  8
1
  6
Continuous
 62
   250
420
  1644836
370
    25
100
AcDbCircle
 10
14.4247595264
 20
-5.4625
 30
0.0
 40
0.1499999999999659
100
AcDbArc
 50
57.795772496
 51
182.204227504
  0
ARC
  5
161
330
1F
100
AcDbEntity
  8
1
  6
Continuous
 62
   250
420
  1644836
370
    25
100
AcDbCircle
 10
14.7495190528
 20
-4.9
 30
0.0
 40
0.1500000000000707
100
AcDbArc
 50
117.795772496
 51
242.2042275039
  0
ARC
  5
162
330
1F
100
AcDbEntity
  8
1
  6
Continuous
 62
   250
420
  1644836
370
    25
100
AcDbCircle
 10
14.5979646072
 20
-5.1875
 30
0.0
 40
0.1750000000000813
100
AcDbArc
 50
330.0
 51
62.204227504
  0
ARC
  5
163
330
1F
100
AcDbEntity
  8
1
  6
Continuous
 62
   250
420
  1644836
370
    25
100
AcDbCircle
 10
14.5979646072
 20
-4.6125
 30
0.0
 40
0.1750000000001341
100
AcDbArc
 50
297.7957724961
 51
30.0
  0
ARC
  5
164
330
1F
100
AcDbEntity
  8
1
  6
Continuous
 62
   250
420
  1644836
370
    25
100
AcDbCircle
 10
14.1
 20
-4.325
 30
0.0
 40
0.1750000000000469
100
AcDbArc
 50
357.795772496
 51
90.0
  0
ARC
  5
165
330
1F
100
AcDbEntity
  8
1
  6
Continuous
 62
   250
420
  1644836
370
    25
100
AcDbCircle
 10
14.4247595264
 20
-4.3375
 30
0.0
 40
0.1500000000000778
100
AcDbArc
 50
177.795772496
 51
302.204227504
  0
ARC
  5
166
330
1F
100
AcDbEntity
  8
1
  6
Continuous
 62
   250
420
  1644836
370
    25
100
AcDbCircle
 10
14.5979646072
 20
-4.6125
 30
0.0
 40
0.1750000000001341
100
AcDbArc
 50
30.0
 51
122.204227504
  0
ARC
  5
167
330
1F
100
AcDbEntity
  8
1
  6
Continuous
 62
   250
420
  1644836
370
    25
100
AcDbCircle
 10
13.6020353928
 20
-5.1875
 30
0.0
 40
0.1749999999999974
100
AcDbArc
 50
210.0
 51
302.204227504
  0
ARC
  5
168
330
1F
100
AcDbEntity
  8
1
  6
Continuous
 62
   250
420
  1644836
370
    25
100
AcDbCircle
 10
13.7752404736
 20
-5.4625
 30
0.0
 40
0.1500000000000229
100
AcDbArc
 50
357.795772496
 51
122.204227504
  0
ARC
  5
169
330
1F
100
AcDbEntity
  8
1
  6
Continuous
 62
   250
420
  1644836
370
    25
100
AcDbCircle
 10
14.1
 20
-5.475
 30
0.0
 40
0.1750000000000611
100
AcDbArc
 50
177.795772496
 51
270.0
  0
ARC
  5
16A
330
1F
100
AcDbEntity
  8
1
  6
Continuous
 62
   250
420
  1644836
370
    25
100
AcDbCircle
 10
13.6020353928
 20
-4.6125
 30
0.0
 40
0.1749999999999885
100
AcDbArc
 50
57.795772496
 51
150.0
  0
ARC
  5
16B
330
1F
100
AcDbEntity
  8
1
  6
Continuous
 62
   250
420
  1644836
370
    25
100
AcDbCircle
 10
13.7752404736
 20
-4.3375
 30
0.0
 40
0.1500000000000863
100
AcDbArc
 50
237.795772496
 51
2.204227504
  0
ARC
  5
16C
330
1F
100
AcDbEntity
  8
1
  6
Continuous
 62
   250
420
  1644836
370
    25
100
AcDbCircle
 10
14.1
 20
-4.325
 30
0.0
 40
0.1750000000000469
100
AcDbArc
 50
90.0
 51
182.204227504
  0
ARC
  5
16D
330
1F
100
AcDbEntity
  8
1
  6
Continuous
 62
   250
420
  1644836
370
    25
100
AcDbCircle
 10
13.4504809472
 20
-4.9
 30
0.0
 40
0.1500000000000105
100
AcDbArc
 50
297.7957724961
 51
62.204227504
  0
ARC
  5
16E
330
1F
100
AcDbEntity
  8
1
  6
Continuous
 62
   250
420
  1644836
370
    25
100
AcDbCircle
 10
13.6020353928
 20
-4.6125
 30
0.0
 40
0.1749999999999654
100
AcDbArc
 50
150.0
 51
242.204227504
  0
ARC
  5
16F
330
1F
100
AcDbEntity
  8
1
  6
Continuous
 62
   250
420
  1644836
370
    25
100
AcDbCircle
 10
13.6020353928
 20
-5.1875
 30
0.0
 40
0.1749999999999974
100
AcDbArc
 50
117.795772496
 51
210.0
  0
CIRCLE
  5
170
330
1F
100
AcDbEntity
  8
1
  6
Continuous
 62
   250
420
  1644836
370
    25
100
AcDbCircle
 10
5.9
 20
4.9
 30
0.0
 40
1.249999999999974
  0
ARC
  5
171
330
1F
100
AcDbEntity
  8
1
  6
Continuous
 62
   250
420
  1644836
370
    25
100
AcDbCircle
 10
5.9
 20
4.9
 30
0.0
 40
0.7500000000000213
100
AcDbArc
 50
270.0
 51
330.0
  0
ARC
  5
172
330
1F
100
AcDbEntity
  8
1
  6
Continuous
 62
   250
420
  1644836
370
    25
100
AcDbCircle
 10
5.9
 20
4.9
 30
0.0
 40
0.7499999999999939
100
AcDbArc
 50
330.0
 51
30.0
  0
ARC
  5
173
330
1F
100
AcDbEntity
  8
1
  6
Continuous
 62
   250
420
  1644836
370
    25
100
AcDbCircle
 10
5.9
 20
4.9
 30
0.0
 40
0.7500000000000115
100
AcDbArc
 50
30.0
 51
90.0
  0
ARC
  5
174
330
1F
100
AcDbEntity
  8
1
  6
Continuous
 62
   250
420
  1644836
370
    25
100
AcDbCircle
 10
5.9
 20
4.9
 30
0.0
 40
0.7500000000000115
100
AcDbArc
 50
90.0
 51
150.0
  0
ARC
  5
175
330
1F
100
AcDbEntity
  8
1
  6
Continuous
 62
   250
420
  1644836
370
    25
100
AcDbCircle
 10
5.9
 20
4.9
 30
0.0
 40
0.7499999999999862
100
AcDbArc
 50
150.0
 51
210.0
  0
ARC
  5
176
330
1F
100
AcDbEntity
  8
1
  6
Continuous
 62
   250
420
  1644836
370
    25
100
AcDbCircle
 10
5.9
 20
4.9
 30
0.0
 40
0.7500000000000213
100
AcDbArc
 50
210.0
 51
270.0
  0
ARC
  5
177
330
1F
100
AcDbEntity
  8
1
  6
Continuous
 62
   250
420
  1644836
370
    25
100
AcDbCircle
 10
5.9
 20
5.475
 30
0.0
 40
0.1750000000000074
100
AcDbArc
 50
357.795772496
 51
90.0
  0
ARC
  5
178
330
1F
100
AcDbEntity
  8
1
  6
Continuous
 62
   250
420
  1644836
370
    25
100
AcDbCircle
 10
6.2247595264
 20
5.4625
 30
0.0
 40
0.1500000000001331
100
AcDbArc
 50
177.795772496
 51
302.2042275039
  0
ARC
  5
179
330
1F
100
AcDbEntity
  8
1
  6
Continuous
 62
   250
420
  1644836
370
    25
100
AcDbCircle
 10
6.3979646072
 20
5.1875
 30
0.0
 40
0.1749999999999954
100
AcDbArc
 50
30.0
 51
122.204227504
  0
ARC
  5
17A
330
1F
100
AcDbEntity
  8
1
  6
Continuous
 62
   250
420
  1644836
370
    25
100
AcDbCircle
 10
6.3979646072
 20
4.6125
 30
0.0
 40
0.1749999999999715
100
AcDbArc
 50
330.0
 51
62.204227504
  0
ARC
  5
17B
330
1F
100
AcDbEntity
  8
1
  6
Continuous
 62
   250
420
  1644836
370
    25
100
AcDbCircle
 10
6.5495190528
 20
4.9
 30
0.0
 40
0.1500000000000402
100
AcDbArc
 50
117.7957724961
 51
242.2042275039
  0
ARC
  5
17C
330
1F
100
AcDbEntity
  8
1
  6
Continuous
 62
   250
420
  1644836
370
    25
100
AcDbCircle
 10
6.3979646072
 20
5.1875
 30
0.0
 40
0.1750000000000059
100
AcDbArc
 50
297.7957724961
 51
30.0
  0
ARC
  5
17D
330
1F
100
AcDbEntity
  8
1
  6
Continuous
 62
   250
420
  1644836
370
    25
100
AcDbCircle
 10
6.3979646072
 20
4.6125
 30
0.0
 40
0.1750000000001021
100
AcDbArc
 50
237.795772496
 51
330.0
  0
ARC
  5
17E
330
1F
100
AcDbEntity
  8
1
  6
Continuous
 62
   250
420
  1644836
370
    25
100
AcDbCircle
 10
5.9
 20
4.325
 30
0.0
 40
0.1750000000000622
100
AcDbArc
 50
270.0
 51
2.204227504
  0
ARC
  5
17F
330
1F
100
AcDbEntity
  8
1
  6
Continuous
 62
   250
420
  1644836
370
    25
100
AcDbCircle
 10
6.2247595264
 20
4.3375
 30
0.0
 40
0.1500000000000778
100
AcDbArc
 50
57.7957724961
 51
182.204227504
  0
ARC
  5
180
330
1F
100
AcDbEntity
  8
1
  6
Continuous
 62
   250
420
  1644836
370
    25
100
AcDbCircle
 10
5.4020353928
 20
5.1875
 30
0.0
 40
0.1750000000000035
100
AcDbArc
 50
57.795772496
 51
150.0
  0
ARC
  5
181
330
1F
100
AcDbEntity
  8
1
  6
Continuous
 62
   250
420
  1644836
370
    25
100
AcDbCircle
 10
5.5752404736
 20
5.4625
 30
0.0
 40
0.150000000000066
100
AcDbArc
 50
237.795772496
 51
2.2042275039
  0
ARC
  5
182
330
1F
100
AcDbEntity
  8
1
  6
Continuous
 62
   250
420
  1644836
370
    25
100
AcDbCircle
 10
5.9
 20
5.475
 30
0.0
 40
0.1750000000000052
100
AcDbArc
 50
90.0
 51
182.204227504
  0
ARC
  5
183
330
1F
100
AcDbEntity
  8
1
  6
Continuous
 62
   250
420
  1644836
370
    25
100
AcDbCircle
 10
5.4020353928
 20
4.6125
 30
0.0
 40
0.1750000000000027
100
AcDbArc
 50
210.0
 51
302.204227504
  0
ARC
  5
184
330
1F
100
AcDbEntity
  8
1
  6
Continuous
 62
   250
420
  1644836
370
    25
100
AcDbCircle
 10
5.9
 20
4.325
 30
0.0
 40
0.1750000000000291
100
AcDbArc
 50
177.795772496
 51
270.0
  0
ARC
  5
185
330
1F
100
AcDbEntity
  8
1
  6
Continuous
 62
   250
420
  1644836
370
    25
100
AcDbCircle
 10
5.5752404736
 20
4.3375
 30
0.0
 40
0.150000000000078
100
AcDbArc
 50
357.7957724961
 51
122.204227504
  0
ARC
  5
186
330
1F
100
AcDbEntity
  8
1
  6
Continuous
 62
   250
420
  1644836
370
    25
100
AcDbCircle
 10
5.4020353928
 20
4.6125
 30
0.0
 40
0.1750000000000092
100
AcDbArc
 50
117.795772496
 51
210.0
  0
ARC
  5
187
330
1F
100
AcDbEntity
  8
1
  6
Continuous
 62
   250
420
  1644836
370
    25
100
AcDbCircle
 10
5.2504809472
 20
4.9
 30
0.0
 40
0.1499999999999903
100
AcDbArc
 50
297.7957724961
 51
62.204227504
  0
ARC
  5
188
330
1F
100
AcDbEntity
  8
1
  6
Continuous
 62
   250
420
  1644836
370
    25
100
AcDbCircle
 10
5.4020353928
 20
5.1875
 30
0.0
 40
0.1750000000000146
100
AcDbArc
 50
150.0
 51
242.204227504
  0
CIRCLE
  5
189
330
1F
100
AcDbEntity
  8
1
  6
Continuous
 62
   250
420
  1644836
370
    25
100
AcDbCircle
 10
5.9
 20
-4.9
 30
0.0
 40
1.299999999999968
  0
CIRCLE
  5
18A
330
1F
100
AcDbEntity
  8
1
  6
Continuous
 62
   250
420
  1644836
370
    25
100
AcDbCircle
 10
14.1
 20
-4.9
 30
0.0
 40
1.299999999999968
  0
CIRCLE
  5
18B
330
1F
100
AcDbEntity
  8
1
  6
Continuous
 62
   250
420
  1644836
370
    25
100
AcDbCircle
 10
14.1
 20
4.9
 30
0.0
 40
1.299999999999969
  0
ARC
  5
18C
330
1F
100
AcDbEntity
  8
1
  6
Continuous
 62
   250
420
  1644836
370
    25
100
AcDbCircle
 10
13.5
 20
-7.2
 30
0.0
 40
0.9999999999999042
100
AcDbArc
 50
0.0
 51
20.4873151147
  0
ARC
  5
18D
330
1F
100
AcDbEntity
  8
1
  6
Continuous
 62
   250
420
  1644836
370
    25
100
AcDbCircle
 10
6.5
 20
-7.2
 30
0.0
 40
1.000000000000008
100
AcDbArc
 50
159.5126848853
 51
180.0
  0
ARC
  5
18E
330
1F
100
AcDbEntity
  8
1
  6
Continuous
 62
   250
420
  1644836
370
    25
100
AcDbCircle
 10
6.5
 20
7.2
 30
0.0
 40
1.000000000000005
100
AcDbArc
 50
180.0
 51
200.4873151147
  0
ARC
  5
18F
330
1F
100
AcDbEntity
  8
1
  6
Continuous
 62
   250
420
  1644836
370
    25
100
AcDbCircle
 10
13.5
 20
7.2
 30
0.0
 40
0.9999999999999014
100
AcDbArc
 50
339.5126848853
 51
0.0
  0
ARC
  5
190
330
1F
100
AcDbEntity
  8
SK1
  6
Continuous
 62
   250
420
  1644836
370
    25
100
AcDbCircle
 10
34.0320144829
 20
11.3420263061
 30
0.0
 40
0.3005047481635116
100
AcDbArc
 50
136.6829829945
 51
243.7186077618
  0
ARC
  5
191
330
1F
100
AcDbEntity
  8
SK1
  6
Continuous
 62
   250
420
  1644836
370
    25
100
AcDbCircle
 10
33.7047846487
 20
11.6512776661
 30
0.0
 40
0.1497355116399074
100
AcDbArc
 50
316.4875394504
 51
123.7933225902
  0
ARC
  5
192
330
1F
100
AcDbEntity
  8
SK1
  6
Continuous
 62
   250
420
  1644836
370
    25
100
AcDbCircle
 10
33.4546671981
 20
12.0231581623
 30
0.0
 40
0.2984322751210075
100
AcDbArc
 50
196.3888696962
 51
303.9892398842
  0
ARC
  5
193
330
1F
100
AcDbEntity
  8
SK1
  6
Continuous
 62
   250
420
  1644836
370
    25
100
AcDbCircle
 10
33.0250803587
 20
11.8965858134
 30
0.0
 40
0.1494131316249077
100
AcDbArc
 50
16.4730218044
 51
184.1234818892
  0
ARC
  5
194
330
1F
100
AcDbEntity
  8
SK1
  6
Continuous
 62
   250
420
  1644836
370
    25
100
AcDbCircle
 10
32.5774376761
 20
11.8647922157
 30
0.0
 40
0.2993573193718934
100
AcDbArc
 50
256.6847466869
 51
4.0321861475
  0
ARC
  5
195
330
1F
100
AcDbEntity
  8
SK1
  6
Continuous
 62
   250
420
  1644836
370
    25
100
AcDbCircle
 10
32.4742308414
 20
11.4274509654
 30
0.0
 40
0.149996871778339
100
AcDbArc
 50
76.7959624529
 51
243.8232887596
  0
ARC
  5
196
330
1F
100
AcDbEntity
  8
SK1
  6
Continuous
 62
   250
420
  1644836
370
    25
100
AcDbCircle
 10
32.2750036451
 20
11.0233964105
 30
0.0
 40
0.3005047481634057
100
AcDbArc
 50
316.6829464168
 51
63.718626554
  0
ARC
  5
197
330
1F
100
AcDbEntity
  8
SK1
  6
Continuous
 62
   250
420
  1644836
370
    25
100
AcDbCircle
 10
32.6022333476
 20
10.714144911
 30
0.0
 40
0.1497355116398764
100
AcDbArc
 50
136.4875394503
 51
303.7933225902
  0
ARC
  5
198
330
1F
100
AcDbEntity
  8
SK1
  6
Continuous
 62
   250
420
  1644836
370
    25
100
AcDbCircle
 10
32.8523507982
 20
10.3422644147
 30
0.0
 40
0.2984322751212503
100
AcDbArc
 50
16.3888696962
 51
123.9892398843
  0
ARC
  5
199
330
1F
100
AcDbEntity
  8
SK1
  6
Continuous
 62
   250
420
  1644836
370
    25
100
AcDbCircle
 10
33.2819376377
 20
10.4688367636
 30
0.0
 40
0.1494131316247407
100
AcDbArc
 50
196.4730218044
 51
4.1234818892
  0
ARC
  5
19A
330
1F
100
AcDbEntity
  8
SK1
  6
Continuous
 62
   250
420
  1644836
370
    25
100
AcDbCircle
 10
33.7295803203
 20
10.5006303613
 30
0.0
 40
0.2993573193720578
100
AcDbArc
 50
76.721871109
 51
184.0321861475
  0
ARC
  5
19B
330
1F
100
AcDbEntity
  8
SK1
  6
Continuous
 62
   250
420
  1644836
370
    25
100
AcDbCircle
 10
33.8327871981
 20
10.9379717948
 30
0.0
 40
0.1499968717782906
100
AcDbArc
 50
256.721871109
 51
63.8232887596
  0
CIRCLE
  5
19C
330
1F
100
AcDbEntity
  8
SK1
  6
Continuous
 62
   250
420
  1644836
370
    25
100
AcDbCircle
 10
33.1556025535
 20
11.1788845743
 30
0.0
 40
1.34668042755909
  0
ARC
  5
19D
330
1F
100
AcDbEntity
  8
SK1
  6
Continuous
 62
   250
420
  1644836
370
    25
100
AcDbCircle
 10
35.1509113499
 20
14.2009458639
 30
0.0
 40
0.2988854354621847
100
AcDbArc
 50
356.8192862127
 51
117.0946789058
  0
ARC
  5
19E
330
1F
100
AcDbEntity
  8
SK1
  6
Continuous
 62
   250
420
  1644836
370
    25
100
AcDbCircle
 10
34.8244779747
 20
7.9722260433
 30
0.0
 40
0.2988854354623617
100
AcDbArc
 50
236.9052909303
 51
357.1806132817
  0
ARC
  5
19F
330
1F
100
AcDbEntity
  8
SK1
  6
Continuous
 62
   250
420
  1644836
370
    25
100
AcDbCircle
 10
29.6172522015
 20
11.3680390752
 30
0.0
 40
0.3005227084739449
100
AcDbArc
 50
117.1721620769
 51
236.9053210942
  0
CIRCLE
  5
1A0
330
1F
100
AcDbEntity
  8
SK1
  6
Continuous
 62
   250
420
  1644836
370
    25
100
AcDbCircle
 10
33.1928799947
 20
11.1836571735
 30
0.0
 40
1.547808211335656
  0
ARC
  5
1A1
330
1F
100
AcDbEntity
  8
SK1
  6
Continuous
 62
   251
420
  6974058
370
    18
100
AcDbCircle
 10
27.5471403123
 20
12.4502644215
 30
0.0
 40
1.008629123691565
100
AcDbArc
 50
0.6751297057
 51
88.2039471044
  0
SPLINE
  5
1A2
330
1F
100
AcDbEntity
  8
SK1
  6
Continuous
 62
   250
420
  1644836
370
    25
100
AcDbSpline
210
0.0
220
0.0
230
1.0
 70
     8
 71
     3
 72
    18
 73
    14
 74
     0
 42
0.00000001
 43
0.00000001
 40
0.0
 40
0.0
 40
0.0
 40
0.0
 40
0.0082664509991433
 40
0.1097558623445574
 40
0.2052668672804061
 40
0.3032816403833724
 40
0.4068043096495875
 40
0.5132351090888727
 40
0.621262887585785
 40
0.7300861524388765
 40
0.8458128627738596
 40
0.9544325653630868
 40
1.0
 40
1.0
 40
1.0
 40
1.0
 10
19.33766799856818
 20
13.49961056243451
 30
0.0
 10
19.33332512111663
 20
13.49997231547064
 30
0.0
 10
19.27566358537325
 20
13.50477540647568
 30
0.0
 10
19.16690373445174
 20
13.49060164853249
 30
0.0
 10
19.0151562572124
 20
13.45592013873475
 30
0.0
 10
18.86958423898011
 20
13.39552217923934
 30
0.0
 10
18.73043238069005
 20
13.31037545635231
 30
0.0
 10
18.60325015077013
 20
13.19964980429926
 30
0.0
 10
18.49494521438766
 20
13.06686907522215
 30
0.0
 10
18.40807453996307
 20
12.91319896582712
 30
0.0
 10
18.35135817423028
 20
12.74622108908538
 30
0.0
 10
18.32501062992709
 20
12.60483321151581
 30
0.0
 10
18.32757878081881
 20
12.52341712261751
 30
0.0
 10
18.32833775494591
 20
12.49935595658245
 30
0.0
  0
SPLINE
  5
1A3
330
1F
100
AcDbEntity
  8
1
  6
Continuous
 62
   250
420
  1644836
370
    25
100
AcDbSpline
210
0.0
220
0.0
230
1.0
 70
    24
 71
     3
 72
    12
 73
     8
 74
     0
 42
0.00000001
 43
0.00000001
 40
0.0
 40
0.0
 40
0.0
 40
0.0
 40
0.2500000000000014
 40
0.2500000000000014
 40
0.5000000000000029
 40
0.5000000000000029
 40
1.0
 40
1.0
 40
1.0
 40
1.0
 10
30.36380400399834
 20
7.563849260123176
 30
0.0
 10
30.45019430954626
 20
7.540701047517532
 30
0.0
 10
30.53782668918641
 20
7.51722002216213
 30
0.0
 10
30.71310845740498
 20
7.47025341392005
 30
0.0
 10
30.79697489011639
 20
7.447781471002946
 30
0.0
 10
31.03047466799529
 20
7.385215394087461
 30
0.0
 10
31.15046756286881
 20
7.353063394808631
 30
0.0
 10
31.22982940778278
 20
7.331798452554257
 30
0.0
  0
SPLINE
  5
1A4
330
1F
100
AcDbEntity
  8
1
  6
Continuous
 62
   250
420
  1644836
370
    25
100
AcDbSpline
210
0.0
220
0.0
230
1.0
 70
    24
 71
     3
 72
    12
 73
     8
 74
     0
 42
0.00000001
 43
0.00000001
 40
0.0
 40
0.0
 40
0.0
 40
0.0
 40
0.5000000000000022
 40
0.5000000000000022
 40
0.7500000000000011
 40
0.7500000000000011
 40
1.0
 40
1.0
 40
1.0
 40
1.0
 10
31.22982940778296
 20
-9.70000000000018
 30
0.0
 10
31.16661693212885
 20
-9.700000000000166
 30
0.0
 10
31.07795904911181
 20
-9.700000000000149
 30
0.0
 10
30.86762615440286
 20
-9.700000000000102
 30
0.0
 10
30.78449815692474
 20
-9.700000000000085
 30
0.0
 10
30.59109234575585
 20
-9.700000000000037
 30
0.0
 10
30.47853159064073
 20
-9.700000000000005
 30
0.0
 10
30.36380400399852
 20
-9.699999999999982
 30
0.0
  0
SPLINE
  5
1A5
330
1F
100
AcDbEntity
  8
1
  6
Continuous
 62
   250
420
  1644836
370
    25
100
AcDbSpline
210
0.0
220
0.0
230
1.0
 70
     8
 71
     3
 72
    10
 73
     6
 74
     0
 42
0.00000001
 43
0.00000001
 40
0.0
 40
0.0
 40
0.0
 40
0.0
 40
0.5
 40
0.5
 40
1.0
 40
1.0
 40
1.0
 40
1.0
 10
10.842264973081
 20
9.502999999999972
 30
0.0
 10
10.85605246896555
 20
9.479119356618938
 30
0.0
 10
10.8755103182638
 20
9.456092067108626
 30
0.0
 10
10.93230503958217
 20
9.417920966254346
 30
0.0
 10
10.97184004507842
 20
9.403000000000011
 30
0.0
 10
11.01547005383793
 20
9.403000000000024
 30
0.0
  0
SPLINE
  5
1A6
330
1F
100
AcDbEntity
  8
1
  6
Continuous
 62
   250
420
  1644836
370
    25
100
AcDbSpline
210
0.0
220
0.0
230
1.0
 70
     8
 71
     3
 72
    10
 73
     6
 74
     0
 42
0.00000001
 43
0.00000001
 40
0.0
 40
0.0
 40
0.0
 40
0.0
 40
0.5
 40
0.5
 40
1.0
 40
1.0
 40
1.0
 40
1.0
 10
16.91547005383807
 20
-9.699999999999983
 30
0.0
 10
16.8703067023792
 20
-9.699999999999989
 30
0.0
 10
16.83040988535048
 20
-9.715860182753069
 30
0.0
 10
16.77461721659426
 20
-9.754043901123474
 30
0.0
 10
16.75569344446727
 20
-9.776741205292119
 30
0.0
 10
16.74226497308108
 20
-9.800000000000006
 30
0.0
  0
SPLINE
  5
1A7
330
1F
100
AcDbEntity
  8
1
  6
Continuous
 62
   250
420
  1644836
370
    25
100
AcDbSpline
210
0.0
220
0.0
230
1.0
 70
     8
 71
     3
 72
    34
 73
    30
 74
     0
 42
0.00000001
 43
0.00000001
 40
0.0
 40
0.0
 40
0.0
 40
0.0
 40
0.1250000000000005
 40
0.1250000000000005
 40
0.250000000000001
 40
0.250000000000001
 40
0.3750000000000015
 40
0.3750000000000015
 40
0.4375000000000016
 40
0.4375000000000016
 40
0.4687500000000016
 40
0.4687500000000016
 40
0.5000000000000016
 40
0.5000000000000016
 40
0.5312500000000014
 40
0.5312500000000014
 40
0.5625000000000017
 40
0.5625000000000017
 40
0.5937500000000019
 40
0.5937500000000019
 40
0.6250000000000021
 40
0.6250000000000021
 40
0.6875000000000019
 40
0.6875000000000019
 40
0.7500000000000016
 40
0.7500000000000016
 40
0.8750000000000008
 40
0.8750000000000008
 40
1.0
 40
1.0
 40
1.0
 40
1.0
 10
11.37709369763953
 20
7.845798318310558
 30
0.0
 10
11.6870563667111
 20
7.841852968351347
 30
0.0
 10
11.99537918665941
 20
7.849316219728898
 30
0.0
 10
12.60882559929578
 20
7.886344783514765
 30
0.0
 10
12.91397200149969
 20
7.915766496161068
 30
0.0
 10
13.52012922100064
 20
8.002461912326666
 30
0.0
 10
13.82310469311873
 20
8.059297260537042
 30
0.0
 10
14.25294576833018
 20
8.180157979415783
 30
0.0
 10
14.39274547927086
 20
8.226220890224058
 30
0.0
 10
14.59061753697567
 20
8.31452766738756
 30
0.0
 10
14.65499099471457
 20
8.347548005951946
 30
0.0
 10
14.77008189930782
 20
8.422835356699608
 30
0.0
 10
14.82122539299832
 20
8.46500408137238
 30
0.0
 10
14.89009994394802
 20
8.563216126571751
 30
0.0
 10
14.90358229832982
 20
8.618310133834749
 30
0.0
 10
14.87396044097135
 20
8.722620424660203
 30
0.0
 10
14.83355266973374
 20
8.769818520952791
 30
0.0
 10
14.73403607821908
 20
8.849661045650999
 30
0.0
 10
14.67407780206217
 20
8.883833839881778
 30
0.0
 10
14.5479630449254
 20
8.943937302196131
 30
0.0
 10
14.48155774884347
 20
8.969953894505608
 30
0.0
 10
14.27633319887548
 20
9.040833888270122
 30
0.0
 10
14.13066729497228
 20
9.07877639420281
 30
0.0
 10
13.83714919293267
 20
9.143358978157037
 30
0.0
 10
13.68853038166596
 20
9.17000739350826
 30
0.0
 10
13.23897654068783
 20
9.23900797458595
 30
0.0
 10
12.93439692090868
 20
9.270581104493443
 30
0.0
 10
12.31854730120304
 20
9.314794557904333
 30
0.0
 10
12.00752909618238
 20
9.327071439943989
 30
0.0
 10
11.69654874403133
 20
9.330262681075538
 30
0.0
  0
SPLINE
  5
1A8
330
1F
100
AcDbEntity
  8
1
  6
Continuous
 62
   250
420
  1644836
370
    25
100
AcDbSpline
210
0.0
220
0.0
230
1.0
 70
    24
 71
     3
 72
    12
 73
     8
 74
     0
 42
0.00000001
 43
0.00000001
 40
0.0
 40
0.0
 40
0.0
 40
0.0
 40
0.1636861593681083
 40
0.3670602455413242
 40
0.5779346300349069
 40
0.7890174747566541
 40
1.0
 40
1.0
 40
1.0
 40
1.0
 10
32.08869724873986
 20
-9.699999999999998
 30
0.0
 10
32.08615773793655
 20
-9.699999999999998
 30
0.0
 10
32.08046297753275
 20
-9.7
 30
0.0
 10
31.97818204908987
 20
-9.700000000000005
 30
0.0
 10
31.79767422473112
 20
-9.70000000000006
 30
0.0
 10
31.54859833957746
 20
-9.700000000000111
 30
0.0
 10
31.33606887988016
 20
-9.700000000000157
 30
0.0
 10
31.22982940778296
 20
-9.70000000000018
 30
0.0
  0
SPLINE
  5
1A9
330
1F
100
AcDbEntity
  8
1
  6
Continuous
 62
   250
420
  1644836
370
    25
100
AcDbSpline
210
0.0
220
0.0
230
1.0
 70
    24
 71
     3
 72
     8
 73
     4
 74
     0
 42
0.00000001
 43
0.00000001
 40
0.0
 40
0.0
 40
0.0
 40
0.0
 40
1.0
 40
1.0
 40
1.0
 40
1.0
 10
31.22982940778278
 20
7.331798452554257
 30
0.0
 10
31.67728367474258
 20
7.211903443072528
 30
0.0
 10
32.108096582162
 20
7.096467472440597
 30
0.0
 10
32.50000000000001
 20
6.991457268119897
 30
0.0
  0
SPLINE
  5
1AA
330
1F
100
AcDbEntity
  8
1
  6
Continuous
 62
   250
420
  1644836
370
    25
100
AcDbSpline
210
0.0
220
0.0
230
1.0
 70
     8
 71
     3
 72
     8
 73
     4
 74
     0
 42
0.00000001
 43
0.00000001
 40
0.0
 40
0.0
 40
0.0
 40
0.0
 40
0.5911343697139468
 40
0.5911343697139468
 40
0.5911343697139468
 40
0.5911343697139468
 10
-1.121566537326313
 20
6.968060363971681
 30
0.0
 10
-1.093076459887321
 20
6.971467269217591
 30
0.0
 10
-1.064586382448385
 20
6.974874174463557
 30
0.0
 10
-1.053208068344358
 20
6.97624666576465
 30
0.0
  0
SPLINE
  5
1AB
330
1F
100
AcDbEntity
  8
1
  6
Continuous
 62
   250
420
  1644836
370
    25
100
AcDbSpline
210
0.0
220
0.0
230
1.0
 70
     8
 71
     3
 72
     8
 73
     4
 74
     0
 42
0.00000001
 43
0.00000001
 40
0.1952570812970097
 40
0.1952570812970097
 40
0.1952570812970097
 40
0.1952570812970097
 40
0.9999999999999999
 40
0.9999999999999999
 40
0.9999999999999999
 40
0.9999999999999999
 10
-1.042515462486349
 20
-6.977578379203313
 30
0.0
 10
-1.043840609860069
 20
-6.977434648852629
 30
0.0
 10
-1.082703573593191
 20
-6.972747506412212
 30
0.0
 10
-1.121566537326313
 20
-6.96806036397181
 30
0.0
  0
SPLINE
  5
1AC
330
1F
100
AcDbEntity
  8
1
  6
Continuous
 62
   250
420
  1644836
370
    25
100
AcDbSpline
210
0.0
220
0.0
230
1.0
 70
     8
 71
     3
 72
    25
 73
    21
 74
     0
 42
0.00000001
 43
0.00000001
 40
0.0
 40
0.0
 40
0.0
 40
0.0
 40
0.0357373904417706
 40
0.0720083202661645
 40
0.1209684139568108
 40
0.1710438435441822
 40
0.2264865856359577
 40
0.283248813620866
 40
0.3443884586667349
 40
0.4072308102604674
 40
0.4694651592938813
 40
0.5335492298322916
 40
0.5951033747952694
 40
0.6583959634903077
 40
0.7207346133894709
 40
0.7849992328742369
 40
0.8449603714461769
 40
0.9072026561678482
 40
0.9592900982899867
 40
1.0
 40
1.0
 40
1.0
 40
1.0
 10
-1.121566537326313
 20
6.968060363971681
 30
0.0
 10
-1.15201815593835
 20
6.958016272756148
 30
0.0
 10
-1.213376018908807
 20
6.937778137623988
 30
0.0
 10
-1.36196353714324
 20
6.890666901748363
 30
0.0
 10
-1.567723008255806
 20
6.82893045355781
 30
0.0
 10
-1.851977539961136
 20
6.751104601648388
 30
0.0
 10
-2.195833997482466
 20
6.66864194706019
 30
0.0
 10
-2.604967116098922
 20
6.588052983661798
 30
0.0
 10
-3.066994352183827
 20
6.520730569979698
 30
0.0
 10
-3.568929809206089
 20
6.477626056541036
 30
0.0
 10
-4.091117024438096
 20
6.46630576152377
 30
0.0
 10
-4.607342622766852
 20
6.489116022904484
 30
0.0
 10
-5.108716971265803
 20
6.543051959433215
 30
0.0
 10
-5.574866276115698
 20
6.620469239336707
 30
0.0
 10
-6.003377911665053
 20
6.714000167809899
 30
0.0
 10
-6.367385016322169
 20
6.809747694559828
 30
0.0
 10
-6.661758547491958
 20
6.897464158720865
 30
0.0
 10
-6.855498731447862
 20
6.960123230229921
 30
0.0
 10
-6.960719839375074
 20
6.995672753140142
 30
0.0
 10
-6.964123604021211
 20
6.996850892031787
 30
0.0
 10
-6.965616824823107
 20
6.997367737843308
 30
0.0
  0
SPLINE
  5
1AD
330
1F
100
AcDbEntity
  8
1
  6
Continuous
 62
   250
420
  1644836
370
    25
100
AcDbSpline
210
0.0
220
0.0
230
1.0
 70
     8
 71
     3
 72
     8
 73
     4
 74
     0
 42
0.00000001
 43
0.00000001
 40
0.0274988887541049
 40
0.0274988887541049
 40
0.0274988887541049
 40
0.0274988887541049
 40
0.0734268709567103
 40
0.0734268709567103
 40
0.0734268709567103
 40
0.0734268709567103
 10
-6.962541486950913
 20
-6.996317436719019
 30
0.0
 10
-6.954979739482726
 20
-6.99374767935452
 30
0.0
 10
-6.929717240135192
 20
-6.985162945660645
 30
0.0
 10
-6.897034208946662
 20
-6.974249891987619
 30
0.0
  0
SPLINE
  5
1AE
330
1F
100
AcDbEntity
  8
1
  6
Continuous
 62
   250
420
  1644836
370
    25
100
AcDbSpline
210
0.0
220
0.0
230
1.0
 70
     8
 71
     3
 72
     8
 73
     4
 74
     0
 42
0.00000001
 43
0.00000001
 40
0.0734268709567103
 40
0.0734268709567103
 40
0.0734268709567103
 40
0.0734268709567103
 40
0.1206272381809438
 40
0.1206272381809438
 40
0.1206272381809438
 40
0.1206272381809438
 10
-6.897034208946662
 20
-6.974249891987619
 30
0.0
 10
-6.86344572976444
 20
-6.963034503977917
 30
0.0
 10
-6.822019867829876
 20
-6.949360001818681
 30
0.0
 10
-6.771010096954299
 20
-6.93298328705152
 30
0.0
  0
SPLINE
  5
1AF
330
1F
100
AcDbEntity
  8
1
  6
Continuous
 62
   250
420
  1644836
370
    25
100
AcDbSpline
210
0.0
220
0.0
230
1.0
 70
     8
 71
     3
 72
     8
 73
     4
 74
     0
 42
0.00000001
 43
0.00000001
 40
0.1206272381809438
 40
0.1206272381809438
 40
0.1206272381809438
 40
0.1206272381809438
 40
0.1679044709042414
 40
0.1679044709042414
 40
0.1679044709042414
 40
0.1679044709042414
 10
-6.771010096954299
 20
-6.93298328705152
 30
0.0
 10
-6.719917256990005
 20
-6.916579902908096
 30
0.0
 10
-6.659209267998289
 20
-6.897465497918276
 30
0.0
 10
-6.59075434755102
 20
-6.876725387134673
 30
0.0
  0
SPLINE
  5
1B0
330
1F
100
AcDbEntity
  8
1
  6
Continuous
 62
   250
420
  1644836
370
    25
100
AcDbSpline
210
0.0
220
0.0
230
1.0
 70
     8
 71
     3
 72
     8
 73
     4
 74
     0
 42
0.00000001
 43
0.00000001
 40
0.1679044709042414
 40
0.1679044709042414
 40
0.1679044709042414
 40
0.1679044709042414
 40
0.2162848332225765
 40
0.2162848332225765
 40
0.2162848332225765
 40
0.2162848332225765
 10
-6.59075434755102
 20
-6.876725387134673
 30
0.0
 10
-6.520702154075353
 20
-6.855501342993796
 30
0.0
 10
-6.442537289859162
 20
-6.832574842093096
 30
0.0
 10
-6.35725380465757
 20
-6.808819041356287
 30
0.0
  0
SPLINE
  5
1B1
330
1F
100
AcDbEntity
  8
1
  6
Continuous
 62
   250
420
  1644836
370
    25
100
AcDbSpline
210
0.0
220
0.0
230
1.0
 70
     8
 71
     3
 72
     8
 73
     4
 74
     0
 42
0.00000001
 43
0.00000001
 40
0.2162848332225765
 40
0.2162848332225765
 40
0.2162848332225765
 40
0.2162848332225765
 40
0.26924268277069
 40
0.26924268277069
 40
0.26924268277069
 40
0.26924268277069
 10
-6.35725380465757
 20
-6.808819041356287
 30
0.0
 10
-6.26390125908316
 20
-6.782815595720345
 30
0.0
 10
-6.162019316675704
 20
-6.755818498728153
 30
0.0
 10
-6.053141415830798
 20
-6.729063931298532
 30
0.0
  0
SPLINE
  5
1B2
330
1F
100
AcDbEntity
  8
1
  6
Continuous
 62
   250
420
  1644836
370
    25
100
AcDbSpline
210
0.0
220
0.0
230
1.0
 70
     8
 71
     3
 72
     8
 73
     4
 74
     0
 42
0.00000001
 43
0.00000001
 40
0.26924268277069
 40
0.26924268277069
 40
0.26924268277069
 40
0.26924268277069
 40
0.3234183944531978
 40
0.3234183944531978
 40
0.3234183944531978
 40
0.3234183944531978
 10
-6.053141415830798
 20
-6.729063931298532
 30
0.0
 10
-5.941759669496727
 20
-6.701694093897176
 30
0.0
 10
-5.823056495292578
 20
-6.674578069138453
 30
0.0
 10
-5.698410861539771
 20
-6.648915023335339
 30
0.0
  0
SPLINE
  5
1B3
330
1F
100
AcDbEntity
  8
1
  6
Continuous
 62
   250
420
  1644836
370
    25
100
AcDbSpline
210
0.0
220
0.0
230
1.0
 70
     8
 71
     3
 72
     8
 73
     4
 74
     0
 42
0.00000001
 43
0.00000001
 40
0.3234183944531978
 40
0.3234183944531978
 40
0.3234183944531978
 40
0.3234183944531978
 40
0.3829331355559288
 40
0.3829331355559288
 40
0.3829331355559288
 40
0.3829331355559288
 10
-5.698410861539771
 20
-6.648915023335339
 30
0.0
 10
-5.561481370592758
 20
-6.620722878194166
 30
0.0
 10
-5.417380444402764
 20
-6.594284206409354
 30
0.0
 10
-5.267945002750296
 20
-6.571022296554312
 30
0.0
  0
SPLINE
  5
1B4
330
1F
100
AcDbEntity
  8
1
  6
Continuous
 62
   250
420
  1644836
370
    25
100
AcDbSpline
210
0.0
220
0.0
230
1.0
 70
     8
 71
     3
 72
     8
 73
     4
 74
     0
 42
0.00000001
 43
0.00000001
 40
0.3829331355559288
 40
0.3829331355559288
 40
0.3829331355559288
 40
0.3829331355559288
 40
0.4440112865362378
 40
0.4440112865362378
 40
0.4440112865362378
 40
0.4440112865362378
 10
-5.267945002750296
 20
-6.571022296554312
 30
0.0
 10
-5.114583998435118
 20
-6.547149312888558
 30
0.0
 10
-4.955604529592317
 20
-6.526622185906578
 30
0.0
 10
-4.79304941428238
 20
-6.510638290426391
 30
0.0
  0
SPLINE
  5
1B5
330
1F
100
AcDbEntity
  8
1
  6
Continuous
 62
   250
420
  1644836
370
    25
100
AcDbSpline
210
0.0
220
0.0
230
1.0
 70
     8
 71
     3
 72
     8
 73
     4
 74
     0
 42
0.00000001
 43
0.00000001
 40
0.4440112865362378
 40
0.4440112865362378
 40
0.4440112865362378
 40
0.4440112865362378
 40
0.5063636420564229
 40
0.5063636420564229
 40
0.5063636420564229
 40
0.5063636420564229
 10
-4.79304941428238
 20
-6.510638290426391
 30
0.0
 10
-4.627103095037832
 20
-6.494320940971942
 30
0.0
 10
-4.457430383786987
 20
-6.482738360937939
 30
0.0
 10
-4.286377848675138
 20
-6.476632560408115
 30
0.0
  0
SPLINE
  5
1B6
330
1F
100
AcDbEntity
  8
1
  6
Continuous
 62
   250
420
  1644836
370
    25
100
AcDbSpline
210
0.0
220
0.0
230
1.0
 70
     8
 71
     3
 72
     8
 73
     4
 74
     0
 42
0.00000001
 43
0.00000001
 40
0.5063636420564229
 40
0.5063636420564229
 40
0.5063636420564229
 40
0.5063636420564229
 40
0.570566737224952
 40
0.570566737224952
 40
0.570566737224952
 40
0.570566737224952
 10
-4.286377848675138
 20
-6.476632560408115
 30
0.0
 10
-4.110248140358874
 20
-6.470345527797617
 30
0.0
 10
-3.93265548079913
 20
-6.469865222851288
 30
0.0
 10
-3.75631848395197
 20
-6.475221244241245
 30
0.0
  0
SPLINE
  5
1B7
330
1F
100
AcDbEntity
  8
1
  6
Continuous
 62
   250
420
  1644836
370
    25
100
AcDbSpline
210
0.0
220
0.0
230
1.0
 70
     8
 71
     3
 72
     8
 73
     4
 74
     0
 42
0.00000001
 43
0.00000001
 40
0.570566737224952
 40
0.570566737224952
 40
0.570566737224952
 40
0.570566737224952
 40
0.6322023553422369
 40
0.6322023553422369
 40
0.6322023553422369
 40
0.6322023553422369
 10
-3.75631848395197
 20
-6.475221244241245
 30
0.0
 10
-3.587033190632472
 20
-6.480363078729953
 30
0.0
 10
-3.418905140355033
 20
-6.490883784452821
 30
0.0
 10
-3.254183736798866
 20
-6.506129925288578
 30
0.0
  0
SPLINE
  5
1B8
330
1F
100
AcDbEntity
  8
1
  6
Continuous
 62
   250
420
  1644836
370
    25
100
AcDbSpline
210
0.0
220
0.0
230
1.0
 70
     8
 71
     3
 72
     8
 73
     4
 74
     0
 42
0.00000001
 43
0.00000001
 40
0.6322023553422369
 40
0.6322023553422369
 40
0.6322023553422369
 40
0.6322023553422369
 40
0.6956054178107797
 40
0.6956054178107797
 40
0.6956054178107797
 40
0.6956054178107797
 10
-3.254183736798866
 20
-6.506129925288578
 30
0.0
 10
-3.084738832073275
 20
-6.521813259849699
 30
0.0
 10
-2.918898751282817
 20
-6.542496925525738
 30
0.0
 10
-2.759027896978794
 20
-6.566866475758135
 30
0.0
  0
SPLINE
  5
1B9
330
1F
100
AcDbEntity
  8
1
  6
Continuous
 62
   250
420
  1644836
370
    25
100
AcDbSpline
210
0.0
220
0.0
230
1.0
 70
     8
 71
     3
 72
     8
 73
     4
 74
     0
 42
0.00000001
 43
0.00000001
 40
0.6956054178107797
 40
0.6956054178107797
 40
0.6956054178107797
 40
0.6956054178107797
 40
0.757655161366195
 40
0.757655161366195
 40
0.757655161366195
 40
0.757655161366195
 10
-2.759027896978794
 20
-6.566866475758135
 30
0.0
 10
-2.602569437003432
 20
-6.59071586541864
 30
0.0
 10
-2.451828100454523
 20
-6.618095470759786
 30
0.0
 10
-2.308724565898257
 20
-6.647448722139852
 30
0.0
  0
SPLINE
  5
1BA
330
1F
100
AcDbEntity
  8
1
  6
Continuous
 62
   250
420
  1644836
370
    25
100
AcDbSpline
210
0.0
220
0.0
230
1.0
 70
     8
 71
     3
 72
     8
 73
     4
 74
     0
 42
0.00000001
 43
0.00000001
 40
0.757655161366195
 40
0.757655161366195
 40
0.757655161366195
 40
0.757655161366195
 40
0.8215140782254758
 40
0.8215140782254758
 40
0.8215140782254758
 40
0.8215140782254758
 10
-2.308724565898257
 20
-6.647448722139852
 30
0.0
 10
-2.16144858711298
 20
-6.677657821034122
 30
0.0
 10
-2.022262291430876
 20
-6.709957334294702
 30
0.0
 10
-1.893938554390906
 20
-6.742221519264489
 30
0.0
  0
SPLINE
  5
1BB
330
1F
100
AcDbEntity
  8
1
  6
Continuous
 62
   250
420
  1644836
370
    25
100
AcDbSpline
210
0.0
220
0.0
230
1.0
 70
     8
 71
     3
 72
     8
 73
     4
 74
     0
 42
0.00000001
 43
0.00000001
 40
0.8215140782254758
 40
0.8215140782254758
 40
0.8215140782254758
 40
0.8215140782254758
 40
0.883085326679648
 40
0.883085326679648
 40
0.883085326679648
 40
0.883085326679648
 10
-1.893938554390906
 20
-6.742221519264489
 30
0.0
 10
-1.770211859914328
 20
-6.773329878858566
 30
0.0
 10
-1.656583388446486
 20
-6.804405396009992
 30
0.0
 10
-1.553949952653899
 20
-6.83397171975153
 30
0.0
  0
SPLINE
  5
1BC
330
1F
100
AcDbEntity
  8
1
  6
Continuous
 62
   250
420
  1644836
370
    25
100
AcDbSpline
210
0.0
220
0.0
230
1.0
 70
     8
 71
     3
 72
     8
 73
     4
 74
     0
 42
0.00000001
 43
0.00000001
 40
0.883085326679648
 40
0.883085326679648
 40
0.883085326679648
 40
0.883085326679648
 40
0.9468493922243642
 40
0.9468493922243642
 40
0.9468493922243642
 40
0.9468493922243642
 10
-1.553949952653899
 20
-6.83397171975153
 30
0.0
 10
-1.447661298594527
 20
-6.864591027501567
 30
0.0
 10
-1.353164787139538
 20
-6.893591729870738
 30
0.0
 10
-1.278953722881671
 20
-6.917060471609705
 30
0.0
  0
SPLINE
  5
1BD
330
1F
100
AcDbEntity
  8
1
  6
Continuous
 62
   250
420
  1644836
370
    25
100
AcDbSpline
210
0.0
220
0.0
230
1.0
 70
     8
 71
     3
 72
     8
 73
     4
 74
     0
 42
0.00000001
 43
0.00000001
 40
0.9468493922243642
 40
0.9468493922243642
 40
0.9468493922243642
 40
0.9468493922243642
 40
1.0
 40
1.0
 40
1.0
 40
1.0
 10
-1.278953722881671
 20
-6.917060471609705
 30
0.0
 10
-1.217095007705837
 20
-6.936622867396396
 30
0.0
 10
-1.169330772515853
 20
-6.952341615684114
 30
0.0
 10
-1.121566537326313
 20
-6.96806036397181
 30
0.0
  0
SPLINE
  5
1BE
330
1F
100
AcDbEntity
  8
SK1
  6
Continuous
 62
   250
420
  1644836
370
    25
100
AcDbSpline
210
0.0
220
0.0
230
1.0
 70
     8
 71
     3
 72
     8
 73
     4
 74
     0
 42
0.00000001
 43
0.00000001
 40
0.0
 40
0.0
 40
0.0
 40
0.0
 40
0.1036749827498516
 40
0.1036749827498516
 40
0.1036749827498516
 40
0.1036749827498516
 10
23.50000000000324
 20
13.16105386869528
 30
0.0
 10
23.35015314914907
 20
13.16284882736393
 30
0.0
 10
23.20030629829511
 20
13.16464378603257
 30
0.0
 10
23.0525674142103
 20
13.17018286805326
 30
0.0
  0
SPLINE
  5
1BF
330
1F
100
AcDbEntity
  8
SK1
  6
Continuous
 62
   250
420
  1644836
370
    25
100
AcDbSpline
210
0.0
220
0.0
230
1.0
 70
     8
 71
     3
 72
     8
 73
     4
 74
     0
 42
0.00000001
 43
0.00000001
 40
0.1036749827498516
 40
0.1036749827498516
 40
0.1036749827498516
 40
0.1036749827498516
 40
0.2104147025215806
 40
0.2104147025215806
 40
0.2104147025215806
 40
0.2104147025215806
 10
23.0525674142103
 20
13.17018286805326
 30
0.0
 10
22.90046121975203
 20
13.17588569092335
 30
0.0
 10
22.75058946136283
 20
13.18555726908243
 30
0.0
 10
22.60513482841736
 20
13.19752439530981
 30
0.0
  0
SPLINE
  5
1C0
330
1F
100
AcDbEntity
  8
SK1
  6
Continuous
 62
   250
420
  1644836
370
    25
100
AcDbSpline
210
0.0
220
0.0
230
1.0
 70
     8
 71
     3
 72
     8
 73
     4
 74
     0
 42
0.00000001
 43
0.00000001
 40
0.2104147025215806
 40
0.2104147025215806
 40
0.2104147025215806
 40
0.2104147025215806
 40
0.314073720297712
 40
0.314073720297712
 40
0.314073720297712
 40
0.314073720297712
 10
22.60513482841736
 20
13.19752439530981
 30
0.0
 10
22.46387828011087
 20
13.20914612855938
 30
0.0
 10
22.32678756422268
 20
13.22293281471353
 30
0.0
 10
22.19560374058727
 20
13.23839992492918
 30
0.0
  0
SPLINE
  5
1C1
330
1F
100
AcDbEntity
  8
SK1
  6
Continuous
 62
   250
420
  1644836
370
    25
100
AcDbSpline
210
0.0
220
0.0
230
1.0
 70
     8
 71
     3
 72
     8
 73
     4
 74
     0
 42
0.00000001
 43
0.00000001
 40
0.314073720297712
 40
0.314073720297712
 40
0.314073720297712
 40
0.314073720297712
 40
0.4206349258530354
 40
0.4206349258530354
 40
0.4206349258530354
 40
0.4206349258530354
 10
22.19560374058727
 20
13.23839992492918
 30
0.0
 10
22.06074710490002
 20
13.25430007473195
 30
0.0
 10
21.93213274742134
 20
13.27197606097304
 30
0.0
 10
21.81142782281542
 20
13.29036432461923
 30
0.0
  0
SPLINE
  5
1C2
330
1F
100
AcDbEntity
  8
SK1
  6
Continuous
 62
   250
420
  1644836
370
    25
100
AcDbSpline
210
0.0
220
0.0
230
1.0
 70
     8
 71
     3
 72
     8
 73
     4
 74
     0
 42
0.00000001
 43
0.00000001
 40
0.4206349258530354
 40
0.4206349258530354
 40
0.4206349258530354
 40
0.4206349258530354
 40
0.5262370505300491
 40
0.5262370505300491
 40
0.5262370505300491
 40
0.5262370505300491
 10
21.81142782281542
 20
13.29036432461923
 30
0.0
 10
21.6918092765448
 20
13.30858708871088
 30
0.0
 10
21.57995842960159
 20
13.32750936651094
 30
0.0
 10
21.47735444731069
 20
13.34612432184629
 30
0.0
  0
SPLINE
  5
1C3
330
1F
100
AcDbEntity
  8
SK1
  6
Continuous
 62
   250
420
  1644836
370
    25
100
AcDbSpline
210
0.0
220
0.0
230
1.0
 70
     8
 71
     3
 72
     8
 73
     4
 74
     0
 42
0.00000001
 43
0.00000001
 40
0.5262370505300491
 40
0.5262370505300491
 40
0.5262370505300491
 40
0.5262370505300491
 40
0.6348191741721428
 40
0.6348191741721428
 40
0.6348191741721428
 40
0.6348191741721428
 10
21.47735444731069
 20
13.34612432184629
 30
0.0
 10
21.37185507099287
 20
13.36526457482939
 30
0.0
 10
21.27613179953369
 20
13.38407991588244
 30
0.0
 10
21.19126391239162
 20
13.40157764416289
 30
0.0
  0
SPLINE
  5
1C4
330
1F
100
AcDbEntity
  8
SK1
  6
Continuous
 62
   250
420
  1644836
370
    25
100
AcDbSpline
210
0.0
220
0.0
230
1.0
 70
     8
 71
     3
 72
     8
 73
     4
 74
     0
 42
0.00000001
 43
0.00000001
 40
0.6348191741721428
 40
0.6348191741721428
 40
0.6348191741721428
 40
0.6348191741721428
 40
0.7417116964026945
 40
0.7417116964026945
 40
0.7417116964026945
 40
0.7417116964026945
 10
21.19126391239162
 20
13.40157764416289
 30
0.0
 10
21.10771661925809
 20
13.41880309754712
 30
0.0
 10
21.03468950660553
 20
13.43475162477509
 30
0.0
 10
20.97428615273395
 20
13.44830579111708
 30
0.0
  0
SPLINE
  5
1C5
330
1F
100
AcDbEntity
  8
SK1
  6
Continuous
 62
   250
420
  1644836
370
    25
100
AcDbSpline
210
0.0
220
0.0
230
1.0
 70
     8
 71
     3
 72
     8
 73
     4
 74
     0
 42
0.00000001
 43
0.00000001
 40
0.7417116964026945
 40
0.7417116964026945
 40
0.7417116964026945
 40
0.7417116964026945
 40
0.8518200632674334
 40
0.8518200632674334
 40
0.8518200632674334
 40
0.8518200632674334
 10
20.97428615273395
 20
13.44830579111708
 30
0.0
 10
20.91206557350927
 20
13.46226773240925
 30
0.0
 10
20.86323974637466
 20
13.47368907774774
 30
0.0
 10
20.82462829306803
 20
13.48285516724136
 30
0.0
  0
SPLINE
  5
1C6
330
1F
100
AcDbEntity
  8
SK1
  6
Continuous
 62
   250
420
  1644836
370
    25
100
AcDbSpline
210
0.0
220
0.0
230
1.0
 70
     8
 71
     3
 72
     8
 73
     4
 74
     0
 42
0.00000001
 43
0.00000001
 40
0.8518200632674334
 40
0.8518200632674334
 40
0.8518200632674334
 40
0.8518200632674334
 40
0.9566319364159829
 40
0.9566319364159829
 40
0.9566319364159829
 40
0.9566319364159829
 10
20.82462829306803
 20
13.48285516724136
 30
0.0
 10
20.78787414929756
 20
13.49158034441669
 30
0.0
 10
20.76037533899428
 20
13.49826201454452
 30
0.0
 10
20.75642079538148
 20
13.4992238448526
 30
0.0
  0
SPLINE
  5
1C7
330
1F
100
AcDbEntity
  8
SK1
  6
Continuous
 62
   250
420
  1644836
370
    25
100
AcDbSpline
210
0.0
220
0.0
230
1.0
 70
     8
 71
     3
 72
    17
 73
    13
 74
     0
 42
0.00000001
 43
0.00000001
 40
0.0
 40
0.0
 40
0.0
 40
0.0
 40
0.0807907036874943
 40
0.1870993653134294
 40
0.2899616248786255
 40
0.3956796696294612
 40
0.5009024567470773
 40
0.6090728038757348
 40
0.7160050081529471
 40
0.8261303123395367
 40
0.9122039950241397
 40
1.0
 40
1.0
 40
1.0
 40
1.0
 10
26.24379700449569
 20
13.49927973919176
 30
0.0
 10
26.24195689631076
 20
13.4988267947443
 30
0.0
 10
26.23769547689231
 20
13.49777784214486
 30
0.0
 10
26.14318054189163
 20
13.47501979183437
 30
0.0
 10
25.97796977770411
 20
13.43714066768526
 30
0.0
 10
25.74504272994999
 20
13.38761782029146
 30
0.0
 10
25.44767319750302
 20
13.33122255746865
 30
0.0
 10
25.09470599205405
 20
13.27435177140977
 30
0.0
 10
24.69039861721262
 20
13.22276361097301
 30
0.0
 10
24.28013141274216
 20
13.18642210030416
 30
0.0
 10
23.87809975886873
 20
13.16487251631693
 30
0.0
 10
23.62686282247067
 20
13.16233512953698
 30
0.0
 10
23.50000000000324
 20
13.16105386869528
 30
0.0
  0
SPLINE
  5
1C8
330
1F
100
AcDbEntity
  8
SK1
  6
Continuous
 62
   250
420
  1644836
370
    25
100
AcDbSpline
210
0.0
220
0.0
230
1.0
 70
     8
 71
     3
 72
    24
 73
    20
 74
     0
 42
0.00000001
 43
0.00000001
 40
0.0
 40
0.0
 40
0.0
 40
0.0
 40
0.0824803878390305
 40
0.1644781737798684
 40
0.2268255386196771
 40
0.2892631737836668
 40
0.3702544318658978
 40
0.4511034958384643
 40
0.4813216813416412
 40
0.5022099233243803
 40
0.5186342884612926
 40
0.5350180455378801
 40
0.5762394377833708
 40
0.6479781563888063
 40
0.7198335427115584
 40
0.7918229090479926
 40
0.8636635619082913
 40
0.9521304003293262
 40
1.0
 40
1.0
 40
1.0
 40
1.0
 10
29.83505772130554
 20
12.30103054640268
 30
0.0
 10
29.71977578947985
 20
12.29645672172568
 30
0.0
 10
29.48988645319776
 20
12.28733583432726
 30
0.0
 10
29.21860228628015
 20
12.17243044745824
 30
0.0
 10
29.01405290870754
 20
12.03687478623441
 30
0.0
 10
28.84630704319247
 20
11.87618686636187
 30
0.0
 10
28.70619261515689
 20
11.6844093149596
 30
0.0
 10
28.62556006698123
 20
11.49650199379019
 30
0.0
 10
28.59041277060861
 20
11.34883825665055
 30
0.0
 10
28.57966391245352
 20
11.26054128415697
 30
0.0
 10
28.57844094566169
 20
11.1832282603475
 30
0.0
 10
28.5866658836413
 20
11.08170285072775
 30
0.0
 10
28.62020268009735
 20
10.93437506099414
 30
0.0
 10
28.69555247966519
 20
10.75225016540744
 30
0.0
 10
28.82275283683263
 20
10.56295373953505
 30
0.0
 10
28.99042091628169
 20
10.38910186075591
 30
0.0
 10
29.21713393127999
 20
10.23299067545838
 30
0.0
 10
29.46868817128307
 20
10.13028484244166
 30
0.0
 10
29.65494901310147
 20
10.11084799492337
 30
0.0
 10
29.72034775797828
 20
10.10402345027057
 30
0.0
  0
SPLINE
  5
1C9
330
1F
100
AcDbEntity
  8
SK1
  6
Continuous
 62
   250
420
  1644836
370
    25
100
AcDbSpline
210
0.0
220
0.0
230
1.0
 70
     8
 71
     3
 72
    15
 73
    11
 74
     0
 42
0.00000001
 43
0.00000001
 40
0.0
 40
0.0
 40
0.0
 40
0.0
 40
0.0009795104116019
 40
0.1242621595989462
 40
0.2477177766610937
 40
0.4346225718605601
 40
0.6220856642150018
 40
0.809236629825455
 40
0.9966519729337405
 40
1.0
 40
1.0
 40
1.0
 40
1.0
 10
28.01615882484004
 20
13.50053581487085
 30
0.0
 10
28.01691421743541
 20
13.50053544085353
 30
0.0
 10
28.11274445479556
 20
13.50048799245731
 30
0.0
 10
28.30405579752998
 20
13.48169537571799
 30
0.0
 10
28.62846894454724
 20
13.39594470535459
 30
0.0
 10
28.97883179813299
 20
13.23337244851909
 30
0.0
 10
29.34158900053674
 20
12.99532616456195
 30
0.0
 10
29.6816970466719
 20
12.72626950926461
 30
0.0
 10
29.90517672568754
 20
12.53922621418324
 30
0.0
 10
30.01911975796745
 20
12.44616607361653
 30
0.0
 10
30.02111953578524
 20
12.44453280477083
 30
0.0
  0
SPLINE
  5
1CA
330
1F
100
AcDbEntity
  8
SK1
  6
Continuous
 62
   251
420
  6974058
370
    18
100
AcDbSpline
210
0.0
220
0.0
230
1.0
 70
     8
 71
     3
 72
     8
 73
     4
 74
     0
 42
0.00000001
 43
0.00000001
 40
0.0
 40
0.0
 40
0.0
 40
0.0
 40
0.0279953911949534
 40
0.0279953911949534
 40
0.0279953911949534
 40
0.0279953911949534
 10
28.55569941538405
 20
12.46214906175527
 30
0.0
 10
28.52203624145086
 20
12.45152201739752
 30
0.0
 10
28.488373067519
 20
12.44089497303963
 30
0.0
 10
28.44767268667545
 20
12.42823089082012
 30
0.0
  0
SPLINE
  5
1CB
330
1F
100
AcDbEntity
  8
SK1
  6
Continuous
 62
   251
420
  6974058
370
    18
100
AcDbSpline
210
0.0
220
0.0
230
1.0
 70
     8
 71
     3
 72
     8
 73
     4
 74
     0
 42
0.00000001
 43
0.00000001
 40
0.0279953911949534
 40
0.0279953911949534
 40
0.0279953911949534
 40
0.0279953911949534
 40
0.0559915298546944
 40
0.0559915298546944
 40
0.0559915298546944
 40
0.0559915298546944
 10
28.44767268667545
 20
12.42823089082012
 30
0.0
 10
28.40705054081447
 20
12.41531394413593
 30
0.0
 10
28.35940357982322
 20
12.40031618459936
 30
0.0
 10
28.30680369933916
 20
12.38400092617551
 30
0.0
  0
SPLINE
  5
1CC
330
1F
100
AcDbEntity
  8
SK1
  6
Continuous
 62
   251
420
  6974058
370
    18
100
AcDbSpline
210
0.0
220
0.0
230
1.0
 70
     8
 71
     3
 72
     8
 73
     4
 74
     0
 42
0.00000001
 43
0.00000001
 40
0.0559915298546944
 40
0.0559915298546944
 40
0.0559915298546944
 40
0.0559915298546944
 40
0.0848202464417415
 40
0.0848202464417415
 40
0.0848202464417415
 40
0.0848202464417415
 10
28.30680369933916
 20
12.38400092617551
 30
0.0
 10
28.2525942703509
 20
12.3673464466603
 30
0.0
 10
28.19312918629426
 20
12.34930909524621
 30
0.0
 10
28.12818355389514
 20
12.32999525965281
 30
0.0
  0
SPLINE
  5
1CD
330
1F
100
AcDbEntity
  8
SK1
  6
Continuous
 62
   251
420
  6974058
370
    18
100
AcDbSpline
210
0.0
220
0.0
230
1.0
 70
     8
 71
     3
 72
     8
 73
     4
 74
     0
 42
0.00000001
 43
0.00000001
 40
0.0848202464417415
 40
0.0848202464417415
 40
0.0848202464417415
 40
0.0848202464417415
 40
0.1136498465258359
 40
0.1136498465258359
 40
0.1136498465258359
 40
0.1136498465258359
 10
28.12818355389573
 20
12.32999525965298
 30
0.0
 10
28.06323593114562
 20
12.31068083215983
 30
0.0
 10
27.9928074241293
 20
12.29008984224686
 30
0.0
 10
27.91722549680786
 20
12.26850612549107
 30
0.0
  0
SPLINE
  5
1CE
330
1F
100
AcDbEntity
  8
SK1
  6
Continuous
 62
   251
420
  6974058
370
    18
100
AcDbSpline
210
0.0
220
0.0
230
1.0
 70
     8
 71
     3
 72
     8
 73
     4
 74
     0
 42
0.00000001
 43
0.00000001
 40
0.1136498465258359
 40
0.1136498465258359
 40
0.1136498465258359
 40
0.1136498465258359
 40
0.1693314992041711
 40
0.1693314992041711
 40
0.1693314992041711
 40
0.1693314992041711
 10
27.91722549680727
 20
12.2685061254909
 30
0.0
 10
27.77124613484657
 20
12.22681921285893
 30
0.0
 10
27.60604282580455
 20
12.18142910367726
 30
0.0
 10
27.42377491163746
 20
12.13457198126849
 30
0.0
  0
SPLINE
  5
1CF
330
1F
100
AcDbEntity
  8
SK1
  6
Continuous
 62
   251
420
  6974058
370
    18
100
AcDbSpline
210
0.0
220
0.0
230
1.0
 70
     8
 71
     3
 72
     8
 73
     4
 74
     0
 42
0.00000001
 43
0.00000001
 40
0.1693314992041711
 40
0.1693314992041711
 40
0.1693314992041711
 40
0.1693314992041711
 40
0.2265139782829706
 40
0.2265139782829706
 40
0.2265139782829706
 40
0.2265139782829706
 10
27.42377491163746
 20
12.13457198126849
 30
0.0
 10
27.23659420332071
 20
12.08645188617498
 30
0.0
 10
27.03141658401671
 20
12.03678462920626
 30
0.0
 10
26.81100132382614
 20
11.98825905435265
 30
0.0
  0
SPLINE
  5
1D0
330
1F
100
AcDbEntity
  8
SK1
  6
Continuous
 62
   251
420
  6974058
370
    18
100
AcDbSpline
210
0.0
220
0.0
230
1.0
 70
     8
 71
     3
 72
     8
 73
     4
 74
     0
 42
0.00000001
 43
0.00000001
 40
0.2265139782829706
 40
0.2265139782829706
 40
0.2265139782829706
 40
0.2265139782829706
 40
0.2555863344062181
 40
0.2555863344062181
 40
0.2555863344062181
 40
0.2555863344062181
 10
26.81100132382614
 20
11.98825905435265
 30
0.0
 10
26.6989391844697
 20
11.96358798699167
 30
0.0
 10
26.58293835117703
 20
11.93921202675764
 30
0.0
 10
26.46331821750542
 20
11.915461634652
 30
0.0
  0
SPLINE
  5
1D1
330
1F
100
AcDbEntity
  8
SK1
  6
Continuous
 62
   251
420
  6974058
370
    18
100
AcDbSpline
210
0.0
220
0.0
230
1.0
 70
     8
 71
     3
 72
     8
 73
     4
 74
     0
 42
0.00000001
 43
0.00000001
 40
0.2555863344062181
 40
0.2555863344062181
 40
0.2555863344062181
 40
0.2555863344062181
 40
0.284658104739507
 40
0.284658104739507
 40
0.284658104739507
 40
0.284658104739507
 10
26.46331821750542
 20
11.915461634652
 30
0.0
 10
26.34370049410535
 20
11.89171172110203
 30
0.0
 10
26.22046361617819
 20
11.86858735047104
 30
0.0
 10
26.09397652502305
 20
11.846450734053
 30
0.0
  0
SPLINE
  5
1D2
330
1F
100
AcDbEntity
  8
SK1
  6
Continuous
 62
   251
420
  6974058
370
    18
100
AcDbSpline
210
0.0
220
0.0
230
1.0
 70
     8
 71
     3
 72
     8
 73
     4
 74
     0
 42
0.00000001
 43
0.00000001
 40
0.284658104739507
 40
0.284658104739507
 40
0.284658104739507
 40
0.284658104739507
 40
0.3146082237724618
 40
0.3146082237724618
 40
0.3146082237724618
 40
0.3146082237724618
 10
26.09397652502305
 20
11.846450734053
 30
0.0
 10
25.96366786501364
 20
11.82364530152841
 30
0.0
 10
25.82990962675362
 20
11.80188821113113
 30
0.0
 10
25.69319221596037
 20
11.78151671331453
 30
0.0
  0
SPLINE
  5
1D3
330
1F
100
AcDbEntity
  8
SK1
  6
Continuous
 62
   251
420
  6974058
370
    18
100
AcDbSpline
210
0.0
220
0.0
230
1.0
 70
     8
 71
     3
 72
     8
 73
     4
 74
     0
 42
0.00000001
 43
0.00000001
 40
0.3146082237724618
 40
0.3146082237724618
 40
0.3146082237724618
 40
0.3146082237724618
 40
0.3445571424866274
 40
0.3445571424866274
 40
0.3445571424866274
 40
0.3445571424866274
 10
25.69319221596037
 20
11.78151671331453
 30
0.0
 10
25.55648028442651
 20
11.76114603193169
 30
0.0
 10
25.41680941754569
 20
11.74216083207022
 30
0.0
 10
25.27466149476315
 20
11.72492408291182
 30
0.0
  0
SPLINE
  5
1D4
330
1F
100
AcDbEntity
  8
SK1
  6
Continuous
 62
   251
420
  6974058
370
    18
100
AcDbSpline
210
0.0
220
0.0
230
1.0
 70
     8
 71
     3
 72
     8
 73
     4
 74
     0
 42
0.00000001
 43
0.00000001
 40
0.3445571424866274
 40
0.3445571424866274
 40
0.3445571424866274
 40
0.3445571424866274
 40
0.3731324394135284
 40
0.3731324394135284
 40
0.3731324394135284
 40
0.3731324394135284
 10
25.27466149476314
 20
11.72492408291181
 30
0.0
 10
25.13903325590016
 20
11.70847790567401
 30
0.0
 10
25.00114997305235
 20
11.69362347016414
 30
0.0
 10
24.86151925099394
 20
11.68056959360508
 30
0.0
  0
SPLINE
  5
1D5
330
1F
100
AcDbEntity
  8
SK1
  6
Continuous
 62
   251
420
  6974058
370
    18
100
AcDbSpline
210
0.0
220
0.0
230
1.0
 70
     8
 71
     3
 72
     8
 73
     4
 74
     0
 42
0.00000001
 43
0.00000001
 40
0.3731324394135284
 40
0.3731324394135284
 40
0.3731324394135284
 40
0.3731324394135284
 40
0.4017067328711716
 40
0.4017067328711716
 40
0.4017067328711716
 40
0.4017067328711716
 10
24.86151925099394
 20
11.68056959360508
 30
0.0
 10
24.7218934323014
 20
11.66751617545471
 30
0.0
 10
24.5805202971247
 20
11.65626318979812
 30
0.0
 10
24.43789804583279
 20
11.64704915515749
 30
0.0
  0
SPLINE
  5
1D6
330
1F
100
AcDbEntity
  8
SK1
  6
Continuous
 62
   251
420
  6974058
370
    18
100
AcDbSpline
210
0.0
220
0.0
230
1.0
 70
     8
 71
     3
 72
     8
 73
     4
 74
     0
 42
0.00000001
 43
0.00000001
 40
0.4017067328711716
 40
0.4017067328711716
 40
0.4017067328711716
 40
0.4017067328711716
 40
0.4312165406882212
 40
0.4312165406882212
 40
0.4312165406882212
 40
0.4312165406882212
 10
24.43789804583279
 20
11.64704915515749
 30
0.0
 10
24.29060638200568
 20
11.63753345560517
 30
0.0
 10
24.14198247172631
 20
11.63019240196813
 30
0.0
 10
23.99268323471441
 20
11.62511240330474
 30
0.0
  0
SPLINE
  5
1D7
330
1F
100
AcDbEntity
  8
SK1
  6
Continuous
 62
   251
420
  6974058
370
    18
100
AcDbSpline
210
0.0
220
0.0
230
1.0
 70
     8
 71
     3
 72
     8
 73
     4
 74
     0
 42
0.00000001
 43
0.00000001
 40
0.4312165406882212
 40
0.4312165406882212
 40
0.4312165406882212
 40
0.4312165406882212
 40
0.4607258265349539
 40
0.4607258265349539
 40
0.4607258265349539
 40
0.4607258265349539
 10
23.99268323471441
 20
11.62511240330474
 30
0.0
 10
23.84338663851164
 20
11.62003249449635
 30
0.0
 10
23.69341473946622
 20
11.61721356067513
 30
0.0
 10
23.54330951018617
 20
11.61676027638811
 30
0.0
  0
SPLINE
  5
1D8
330
1F
100
AcDbEntity
  8
SK1
  6
Continuous
 62
   251
420
  6974058
370
    18
100
AcDbSpline
210
0.0
220
0.0
230
1.0
 70
     8
 71
     3
 72
     8
 73
     4
 74
     0
 42
0.00000001
 43
0.00000001
 40
0.4607258265349539
 40
0.4607258265349539
 40
0.4607258265349539
 40
0.4607258265349539
 40
0.513412989060405
 40
0.513412989060405
 40
0.513412989060405
 40
0.513412989060405
 10
23.54330951018617
 20
11.61676027638811
 30
0.0
 10
23.27530510465496
 20
11.61595096290552
 30
0.0
 10
23.00687566787045
 20
11.62268288707367
 30
0.0
 10
22.74192828949399
 20
11.63653643065032
 30
0.0
  0
SPLINE
  5
1D9
330
1F
100
AcDbEntity
  8
SK1
  6
Continuous
 62
   251
420
  6974058
370
    18
100
AcDbSpline
210
0.0
220
0.0
230
1.0
 70
     8
 71
     3
 72
     8
 73
     4
 74
     0
 42
0.00000001
 43
0.00000001
 40
0.513412989060405
 40
0.513412989060405
 40
0.513412989060405
 40
0.513412989060405
 40
0.5675816402385294
 40
0.5675816402385294
 40
0.5675816402385294
 40
0.5675816402385294
 10
22.74192828949399
 20
11.63653643065032
 30
0.0
 10
22.46953096475849
 20
11.65077951632079
 30
0.0
 10
22.20081427267421
 20
11.67255035191792
 30
0.0
 10
21.93933118062301
 20
11.70050488584915
 30
0.0
  0
SPLINE
  5
1DA
330
1F
100
AcDbEntity
  8
SK1
  6
Continuous
 62
   251
420
  6974058
370
    18
100
AcDbSpline
210
0.0
220
0.0
230
1.0
 70
     8
 71
     3
 72
     8
 73
     4
 74
     0
 42
0.00000001
 43
0.00000001
 40
0.5675816402385294
 40
0.5675816402385294
 40
0.5675816402385294
 40
0.5675816402385294
 40
0.6196732501748032
 40
0.6196732501748032
 40
0.6196732501748032
 40
0.6196732501748032
 10
21.93933118062301
 20
11.70050488584915
 30
0.0
 10
21.68787438892127
 20
11.72738753191518
 30
0.0
 10
21.44310710261298
 20
11.75998875284968
 30
0.0
 10
21.20771782620528
 20
11.7965855173961
 30
0.0
  0
SPLINE
  5
1DB
330
1F
100
AcDbEntity
  8
SK1
  6
Continuous
 62
   251
420
  6974058
370
    18
100
AcDbSpline
210
0.0
220
0.0
230
1.0
 70
     8
 71
     3
 72
     8
 73
     4
 74
     0
 42
0.00000001
 43
0.00000001
 40
0.6196732501748032
 40
0.6196732501748032
 40
0.6196732501748032
 40
0.6196732501748032
 40
0.6730592270407373
 40
0.6730592270407373
 40
0.6730592270407373
 40
0.6730592270407373
 10
21.20771782620528
 20
11.7965855173961
 30
0.0
 10
20.96647962143166
 20
11.8340916345584
 30
0.0
 10
20.73509126434818
 20
11.87579432396084
 30
0.0
 10
20.51602555519377
 20
11.91956869436459
 30
0.0
  0
SPLINE
  5
1DC
330
1F
100
AcDbEntity
  8
SK1
  6
Continuous
 62
   251
420
  6974058
370
    18
100
AcDbSpline
210
0.0
220
0.0
230
1.0
 70
     8
 71
     3
 72
     8
 73
     4
 74
     0
 42
0.00000001
 43
0.00000001
 40
0.6730592270407373
 40
0.6730592270407373
 40
0.6730592270407373
 40
0.6730592270407373
 40
0.7289035736368875
 40
0.7289035736368875
 40
0.7289035736368875
 40
0.7289035736368875
 10
20.51602555519377
 20
11.91956869436459
 30
0.0
 10
20.28687209378802
 20
11.96535882983385
 30
0.0
 10
20.07120230130334
 20
12.0134158369116
 30
0.0
 10
19.87142237418371
 20
12.06126464531488
 30
0.0
  0
SPLINE
  5
1DD
330
1F
100
AcDbEntity
  8
SK1
  6
Continuous
 62
   251
420
  6974058
370
    18
100
AcDbSpline
210
0.0
220
0.0
230
1.0
 70
     8
 71
     3
 72
     8
 73
     4
 74
     0
 42
0.00000001
 43
0.00000001
 40
0.7289035736368875
 40
0.7289035736368875
 40
0.7289035736368875
 40
0.7289035736368875
 40
0.7862475927806838
 40
0.7862475927806838
 40
0.7862475927806838
 40
0.7862475927806838
 10
19.87142237418371
 20
12.06126464531488
 30
0.0
 10
19.66627745507234
 20
12.11039841000798
 30
0.0
 10
19.47788728962323
 20
12.1593126437344
 30
0.0
 10
19.30893243033146
 20
12.20537788929523
 30
0.0
  0
SPLINE
  5
1DE
330
1F
100
AcDbEntity
  8
SK1
  6
Continuous
 62
   251
420
  6974058
370
    18
100
AcDbSpline
210
0.0
220
0.0
230
1.0
 70
     8
 71
     3
 72
     8
 73
     4
 74
     0
 42
0.00000001
 43
0.00000001
 40
0.7862475927806838
 40
0.7862475927806838
 40
0.7862475927806838
 40
0.7862475927806838
 40
0.8154908453253009
 40
0.8154908453253009
 40
0.8154908453253009
 40
0.8154908453253009
 10
19.30893243033146
 20
12.20537788929523
 30
0.0
 10
19.22277192584151
 20
12.22886939947475
 30
0.0
 10
19.14166578492584
 20
12.25161999917457
 30
0.0
 10
19.06582372665724
 20
12.27335136830913
 30
0.0
  0
SPLINE
  5
1DF
330
1F
100
AcDbEntity
  8
SK1
  6
Continuous
 62
   251
420
  6974058
370
    18
100
AcDbSpline
210
0.0
220
0.0
230
1.0
 70
     8
 71
     3
 72
     8
 73
     4
 74
     0
 42
0.00000001
 43
0.00000001
 40
0.8154908453253009
 40
0.8154908453253009
 40
0.8154908453253009
 40
0.8154908453253009
 40
0.8447332714372677
 40
0.8447332714372677
 40
0.8447332714372677
 40
0.8447332714372677
 10
19.06582372665724
 20
12.27335136830913
 30
0.0
 10
18.98998381173292
 20
12.29508212330179
 30
0.0
 10
18.91940768192726
 20
12.31579370533658
 30
0.0
 10
18.85443805531365
 20
12.33517643744228
 30
0.0
  0
SPLINE
  5
1E0
330
1F
100
AcDbEntity
  8
SK1
  6
Continuous
 62
   251
420
  6974058
370
    18
100
AcDbSpline
210
0.0
220
0.0
230
1.0
 70
     8
 71
     3
 72
     8
 73
     4
 74
     0
 42
0.00000001
 43
0.00000001
 40
0.8447332714372677
 40
0.8447332714372677
 40
0.8447332714372677
 40
0.8447332714372677
 40
0.8748962416688563
 40
0.8748962416688563
 40
0.8748962416688563
 40
0.8748962416688563
 10
18.85443805531364
 20
12.33517643744228
 30
0.0
 10
18.787423201416
 20
12.35516933301391
 30
0.0
 10
18.72637338919374
 20
12.37374839808618
 30
0.0
 10
18.67154163093419
 20
12.39065936089397
 30
0.0
  0
SPLINE
  5
1E1
330
1F
100
AcDbEntity
  8
SK1
  6
Continuous
 62
   251
420
  6974058
370
    18
100
AcDbSpline
210
0.0
220
0.0
230
1.0
 70
     8
 71
     3
 72
     8
 73
     4
 74
     0
 42
0.00000001
 43
0.00000001
 40
0.8748962416688563
 40
0.8748962416688563
 40
0.8748962416688563
 40
0.8748962416688563
 40
0.9050581303051121
 40
0.9050581303051121
 40
0.9050581303051121
 40
0.9050581303051121
 10
18.67154163093419
 20
12.39065936089397
 30
0.0
 10
18.61671183885271
 20
12.4075697173018
 30
0.0
 10
18.5680996548032
 20
12.42281209107391
 30
0.0
 10
18.52586914263908
 20
12.43616999033144
 30
0.0
  0
SPLINE
  5
1E2
330
1F
100
AcDbEntity
  8
SK1
  6
Continuous
 62
   251
420
  6974058
370
    18
100
AcDbSpline
210
0.0
220
0.0
230
1.0
 70
     8
 71
     3
 72
     8
 73
     4
 74
     0
 42
0.00000001
 43
0.00000001
 40
0.9050581303051121
 40
0.9050581303051121
 40
0.9050581303051121
 40
0.9050581303051121
 40
0.9330837840575006
 40
0.9330837840575006
 40
0.9330837840575006
 40
0.9330837840575006
 10
18.52586914263908
 20
12.43616999033144
 30
0.0
 10
18.48662963327367
 20
12.44858180790173
 30
0.0
 10
18.45289983607156
 20
12.45936663612857
 30
0.0
 10
18.4252757465234
 20
12.46825221971771
 30
0.0
  0
SPLINE
  5
1E3
330
1F
100
AcDbEntity
  8
SK1
  6
Continuous
 62
   251
420
  6974058
370
    18
100
AcDbSpline
210
0.0
220
0.0
230
1.0
 70
     8
 71
     3
 72
     8
 73
     4
 74
     0
 42
0.00000001
 43
0.00000001
 40
0.9330837840575006
 40
0.9330837840575006
 40
0.9330837840575006
 40
0.9330837840575006
 40
0.9611088642280643
 40
0.9611088642280643
 40
0.9611088642280643
 40
0.9611088642280643
 10
18.42527574652341
 20
12.46825221971771
 30
0.0
 10
18.39765222233646
 20
12.47713762145456
 30
0.0
 10
18.37613415588335
 20
12.48412385629335
 30
0.0
 10
18.35896421376059
 20
12.48970845471954
 30
0.0
  0
SPLINE
  5
1E4
330
1F
100
AcDbEntity
  8
SK1
  6
Continuous
 62
   251
420
  6974058
370
    18
100
AcDbSpline
210
0.0
220
0.0
230
1.0
 70
     8
 71
     3
 72
     8
 73
     4
 74
     0
 42
0.00000001
 43
0.00000001
 40
0.9611088642280643
 40
0.9611088642280643
 40
0.9611088642280643
 40
0.9611088642280643
 40
0.9900161906962367
 40
0.9900161906962367
 40
0.9900161906962367
 40
0.9900161906962367
 10
18.35896421376059
 20
12.48970845471954
 30
0.0
 10
18.34125375158313
 20
12.49546885964671
 30
0.0
 10
18.32816948596194
 20
12.49973799039383
 30
0.0
 10
18.32728307832321
 20
12.50002899559606
 30
0.0
  0
SPLINE
  5
1E5
330
1F
100
AcDbEntity
  8
SK1
  6
Continuous
 62
   251
420
  6974058
370
    18
100
AcDbSpline
210
0.0
220
0.0
230
1.0
 70
     8
 71
     3
 72
     8
 73
     4
 74
     0
 42
0.00000001
 43
0.00000001
 40
0.0400036339505423
 40
0.0400036339505423
 40
0.0400036339505423
 40
0.0400036339505423
 40
0.1000830744462174
 40
0.1000830744462174
 40
0.1000830744462174
 40
0.1000830744462174
 10
19.35000868069837
 20
13.48969138486485
 30
0.0
 10
19.36986149023374
 20
13.48091347787247
 30
0.0
 10
19.42014094371817
 20
13.4586987529052
 30
0.0
 10
19.48705384937439
 20
13.42989671643896
 30
0.0
  0
SPLINE
  5
1E6
330
1F
100
AcDbEntity
  8
SK1
  6
Continuous
 62
   251
420
  6974058
370
    18
100
AcDbSpline
210
0.0
220
0.0
230
1.0
 70
     8
 71
     3
 72
     8
 73
     4
 74
     0
 42
0.00000001
 43
0.00000001
 40
0.1000830744462174
 40
0.1000830744462174
 40
0.1000830744462174
 40
0.1000830744462174
 40
0.1603631417756256
 40
0.1603631417756256
 40
0.1603631417756256
 40
0.1603631417756256
 10
19.48705384937439
 20
13.42989671643896
 30
0.0
 10
19.55419020125954
 20
13.40099849962727
 30
0.0
 10
19.63807128094527
 20
13.36546890306073
 30
0.0
 10
19.74126375622165
 20
13.323512628518
 30
0.0
  0
SPLINE
  5
1E7
330
1F
100
AcDbEntity
  8
SK1
  6
Continuous
 62
   251
420
  6974058
370
    18
100
AcDbSpline
210
0.0
220
0.0
230
1.0
 70
     8
 71
     3
 72
     8
 73
     4
 74
     0
 42
0.00000001
 43
0.00000001
 40
0.1603631417756256
 40
0.1603631417756256
 40
0.1603631417756256
 40
0.1603631417756256
 40
0.222387877586962
 40
0.222387877586962
 40
0.222387877586962
 40
0.222387877586962
 10
19.74126375622165
 20
13.323512628518
 30
0.0
 10
19.84744290134044
 20
13.28034202570589
 30
0.0
 10
19.97406746705633
 20
13.23036735046667
 30
0.0
 10
20.11880055973559
 20
13.176697615303
 30
0.0
  0
SPLINE
  5
1E8
330
1F
100
AcDbEntity
  8
SK1
  6
Continuous
 62
   251
420
  6974058
370
    18
100
AcDbSpline
210
0.0
220
0.0
230
1.0
 70
     8
 71
     3
 72
     8
 73
     4
 74
     0
 42
0.00000001
 43
0.00000001
 40
0.222387877586962
 40
0.222387877586962
 40
0.222387877586962
 40
0.222387877586962
 40
0.2786197310316306
 40
0.2786197310316306
 40
0.2786197310316306
 40
0.2786197310316306
 10
20.11880055973559
 20
13.176697615303
 30
0.0
 10
20.25001611349276
 20
13.12804043615245
 30
0.0
 10
20.39611561287358
 20
13.07634617557039
 30
0.0
 10
20.55635440985893
 20
13.02389641188056
 30
0.0
  0
SPLINE
  5
1E9
330
1F
100
AcDbEntity
  8
SK1
  6
Continuous
 62
   251
420
  6974058
370
    18
100
AcDbSpline
210
0.0
220
0.0
230
1.0
 70
     8
 71
     3
 72
     8
 73
     4
 74
     0
 42
0.00000001
 43
0.00000001
 40
0.2786197310316306
 40
0.2786197310316306
 40
0.2786197310316306
 40
0.2786197310316306
 40
0.3363078271236816
 40
0.3363078271236816
 40
0.3363078271236816
 40
0.3363078271236816
 10
20.55635440985893
 20
13.02389641188056
 30
0.0
 10
20.72074292903281
 20
12.97008835074809
 30
0.0
 10
20.90001256244678
 20
12.91548514912347
 30
0.0
 10
21.09263897447944
 20
12.86313995484504
 30
0.0
  0
SPLINE
  5
1EA
330
1F
100
AcDbEntity
  8
SK1
  6
Continuous
 62
   251
420
  6974058
370
    18
100
AcDbSpline
210
0.0
220
0.0
230
1.0
 70
     8
 71
     3
 72
     8
 73
     4
 74
     0
 42
0.00000001
 43
0.00000001
 40
0.3363078271236816
 40
0.3363078271236816
 40
0.3363078271236816
 40
0.3363078271236816
 40
0.3871455744935148
 40
0.3871455744935148
 40
0.3871455744935148
 40
0.3871455744935148
 10
21.09263897447945
 20
12.86313995484504
 30
0.0
 10
21.26239137636266
 20
12.81701065013534
 30
0.0
 10
21.44251671937737
 20
12.77263492523292
 30
0.0
 10
21.63172844522788
 20
12.73224147985353
 30
0.0
  0
SPLINE
  5
1EB
330
1F
100
AcDbEntity
  8
SK1
  6
Continuous
 62
   251
420
  6974058
370
    18
100
AcDbSpline
210
0.0
220
0.0
230
1.0
 70
     8
 71
     3
 72
     8
 73
     4
 74
     0
 42
0.00000001
 43
0.00000001
 40
0.3871455744935148
 40
0.3871455744935148
 40
0.3871455744935148
 40
0.3871455744935148
 40
0.43934266148316
 40
0.43934266148316
 40
0.43934266148316
 40
0.43934266148316
 10
21.63172844522787
 20
12.73224147985353
 30
0.0
 10
21.82599946282105
 20
12.69076796280448
 30
0.0
 10
22.02984927735641
 20
12.65349253509515
 30
0.0
 10
22.24090969644411
 20
12.62280781540569
 30
0.0
  0
SPLINE
  5
1EC
330
1F
100
AcDbEntity
  8
SK1
  6
Continuous
 62
   251
420
  6974058
370
    18
100
AcDbSpline
210
0.0
220
0.0
230
1.0
 70
     8
 71
     3
 72
     8
 73
     4
 74
     0
 42
0.00000001
 43
0.00000001
 40
0.43934266148316
 40
0.43934266148316
 40
0.43934266148316
 40
0.43934266148316
 40
0.4894777042305079
 40
0.4894777042305079
 40
0.4894777042305079
 40
0.4894777042305079
 10
22.24090969644411
 20
12.62280781540569
 30
0.0
 10
22.44363218046575
 20
12.59333529458042
 30
0.0
 10
22.6530068128138
 20
12.56994303609734
 30
0.0
 10
22.86603801201582
 20
12.55424904862477
 30
0.0
  0
SPLINE
  5
1ED
330
1F
100
AcDbEntity
  8
SK1
  6
Continuous
 62
   251
420
  6974058
370
    18
100
AcDbSpline
210
0.0
220
0.0
230
1.0
 70
     8
 71
     3
 72
     8
 73
     4
 74
     0
 42
0.00000001
 43
0.00000001
 40
0.4894777042305079
 40
0.4894777042305079
 40
0.4894777042305079
 40
0.4894777042305079
 40
0.5413474818613615
 40
0.5413474818613615
 40
0.5413474818613615
 40
0.5413474818613615
 10
22.86603801201582
 20
12.55424904862477
 30
0.0
 10
23.08644035587582
 20
12.53801202965091
 30
0.0
 10
23.3107566879296
 20
12.53001523793118
 30
0.0
 10
23.53494052271
 20
12.53093266133671
 30
0.0
  0
SPLINE
  5
1EE
330
1F
100
AcDbEntity
  8
SK1
  6
Continuous
 62
   251
420
  6974058
370
    18
100
AcDbSpline
210
0.0
220
0.0
230
1.0
 70
     8
 71
     3
 72
     8
 73
     4
 74
     0
 42
0.00000001
 43
0.00000001
 40
0.5413474818613615
 40
0.5413474818613615
 40
0.5413474818613615
 40
0.5413474818613615
 40
0.5956926603401317
 40
0.5956926603401317
 40
0.5956926603401317
 40
0.5956926603401317
 10
23.53494052271
 20
12.53093266133671
 30
0.0
 10
23.76982316670152
 20
12.53189386728344
 30
0.0
 10
24.00456036522026
 20
12.5426404235254
 30
0.0
 10
24.23407103453768
 20
12.56220642307035
 30
0.0
  0
SPLINE
  5
1EF
330
1F
100
AcDbEntity
  8
SK1
  6
Continuous
 62
   251
420
  6974058
370
    18
100
AcDbSpline
210
0.0
220
0.0
230
1.0
 70
     8
 71
     3
 72
     8
 73
     4
 74
     0
 42
0.00000001
 43
0.00000001
 40
0.5956926603401317
 40
0.5956926603401317
 40
0.5956926603401317
 40
0.5956926603401317
 40
0.6240314701970485
 40
0.6240314701970485
 40
0.6240314701970485
 40
0.6240314701970485
 10
24.23407103453768
 20
12.56220642307035
 30
0.0
 10
24.3537515545026
 20
12.57240929950365
 30
0.0
 10
24.47201087656781
 20
12.58501035909334
 30
0.0
 10
24.5884245839394
 20
12.59967832472291
 30
0.0
  0
SPLINE
  5
1F0
330
1F
100
AcDbEntity
  8
SK1
  6
Continuous
 62
   251
420
  6974058
370
    18
100
AcDbSpline
210
0.0
220
0.0
230
1.0
 70
     8
 71
     3
 72
     8
 73
     4
 74
     0
 42
0.00000001
 43
0.00000001
 40
0.6240314701970485
 40
0.6240314701970485
 40
0.6240314701970485
 40
0.6240314701970485
 40
0.6523736223961875
 40
0.6523736223961875
 40
0.6523736223961875
 40
0.6523736223961875
 10
24.5884245839394
 20
12.59967832472291
 30
0.0
 10
24.7048520214025
 20
12.61434802032497
 30
0.0
 10
24.81943340879423
 20
12.63108510954666
 30
0.0
 10
24.93173173732045
 20
12.64959780829952
 30
0.0
  0
SPLINE
  5
1F1
330
1F
100
AcDbEntity
  8
SK1
  6
Continuous
 62
   251
420
  6974058
370
    18
100
AcDbSpline
210
0.0
220
0.0
230
1.0
 70
     8
 71
     3
 72
     8
 73
     4
 74
     0
 42
0.00000001
 43
0.00000001
 40
0.6523736223961875
 40
0.6523736223961875
 40
0.6523736223961875
 40
0.6523736223961875
 40
0.7093521392709112
 40
0.7093521392709112
 40
0.7093521392709112
 40
0.7093521392709112
 10
24.93173173732045
 20
12.64959780829952
 30
0.0
 10
25.15749413397862
 20
12.68681538129382
 30
0.0
 10
25.37402924980248
 20
12.73120931230642
 30
0.0
 10
25.57833436086677
 20
12.77950906369974
 30
0.0
  0
SPLINE
  5
1F2
330
1F
100
AcDbEntity
  8
SK1
  6
Continuous
 62
   251
420
  6974058
370
    18
100
AcDbSpline
210
0.0
220
0.0
230
1.0
 70
     8
 71
     3
 72
     8
 73
     4
 74
     0
 42
0.00000001
 43
0.00000001
 40
0.7093521392709112
 40
0.7093521392709112
 40
0.7093521392709112
 40
0.7093521392709112
 40
0.7682575220400297
 40
0.7682575220400297
 40
0.7682575220400297
 40
0.7682575220400297
 10
25.57833436086677
 20
12.77950906369974
 30
0.0
 10
25.78954854173777
 20
12.8294421876126
 30
0.0
 10
25.98769155722226
 20
12.88354976813202
 30
0.0
 10
26.17119430472859
 20
12.93849928182191
 30
0.0
  0
SPLINE
  5
1F3
330
1F
100
AcDbEntity
  8
SK1
  6
Continuous
 62
   251
420
  6974058
370
    18
100
AcDbSpline
210
0.0
220
0.0
230
1.0
 70
     8
 71
     3
 72
     8
 73
     4
 74
     0
 42
0.00000001
 43
0.00000001
 40
0.7682575220400297
 40
0.7682575220400297
 40
0.7682575220400297
 40
0.7682575220400297
 40
0.8246985362672274
 40
0.8246985362672274
 40
0.8246985362672274
 40
0.8246985362672274
 10
26.17119430472859
 20
12.93849928182191
 30
0.0
 10
26.34702002210538
 20
12.99114992490682
 30
0.0
 10
26.50940482926868
 20
13.0445735284435
 30
0.0
 10
26.65679444818298
 20
13.09595754584546
 30
0.0
  0
SPLINE
  5
1F4
330
1F
100
AcDbEntity
  8
SK1
  6
Continuous
 62
   251
420
  6974058
370
    18
100
AcDbSpline
210
0.0
220
0.0
230
1.0
 70
     8
 71
     3
 72
     8
 73
     4
 74
     0
 42
0.00000001
 43
0.00000001
 40
0.8246985362672274
 40
0.8246985362672274
 40
0.8246985362672274
 40
0.8246985362672274
 40
0.882599180168355
 40
0.882599180168355
 40
0.882599180168355
 40
0.882599180168355
 10
26.65679444818298
 20
13.09595754584546
 30
0.0
 10
26.80799573250331
 20
13.14867041315531
 30
0.0
 10
26.94341621410595
 20
13.19923683816085
 30
0.0
 10
27.06365535249627
 20
13.24595480646822
 30
0.0
  0
SPLINE
  5
1F5
330
1F
100
AcDbEntity
  8
SK1
  6
Continuous
 62
   251
420
  6974058
370
    18
100
AcDbSpline
210
0.0
220
0.0
230
1.0
 70
     8
 71
     3
 72
     8
 73
     4
 74
     0
 42
0.00000001
 43
0.00000001
 40
0.882599180168355
 40
0.882599180168355
 40
0.882599180168355
 40
0.882599180168355
 40
0.9405273591864383
 40
0.9405273591864383
 40
0.9405273591864383
 40
0.9405273591864383
 10
27.06365535249627
 20
13.24595480646822
 30
0.0
 10
27.18395167157628
 20
13.29269499188029
 30
0.0
 10
27.28905220479122
 20
13.33558305939488
 30
0.0
 10
27.37167262554691
 20
13.37004073681317
 30
0.0
  0
SPLINE
  5
1F6
330
1F
100
AcDbEntity
  8
SK1
  6
Continuous
 62
   251
420
  6974058
370
    18
100
AcDbSpline
210
0.0
220
0.0
230
1.0
 70
     8
 71
     3
 72
     8
 73
     4
 74
     0
 42
0.00000001
 43
0.00000001
 40
0.9405273591864383
 40
0.9405273591864383
 40
0.9405273591864383
 40
0.9405273591864383
 40
1.0
 40
1.0
 40
1.0
 40
1.0
 10
27.37167262554691
 20
13.37004073681317
 30
0.0
 10
27.45649584441451
 20
13.4054171133391
 30
0.0
 10
27.51762425643284
 20
13.43190757057237
 30
0.0
 10
27.57875266845106
 20
13.45839802780565
 30
0.0
  0
SPLINE
  5
1F7
330
1F
100
AcDbEntity
  8
SK1
  6
Continuous
 62
   251
420
  6974058
370
    18
100
AcDbSpline
210
0.0
220
0.0
230
1.0
 70
     8
 71
     3
 72
    10
 73
     6
 74
     0
 42
0.00000001
 43
0.00000001
 40
0.0
 40
0.0
 40
0.0
 40
0.0
 40
0.4071891363385591
 40
0.8241874536394135
 40
1.0
 40
1.0
 40
1.0
 40
1.0
 10
27.57875266845106
 20
13.45839802780565
 30
0.0
 10
27.61299888683172
 20
13.46892389373823
 30
0.0
 10
27.68231631454615
 20
13.49022919357588
 30
0.0
 10
27.82589177331884
 20
13.50013232130114
 30
0.0
 10
27.93742552780676
 20
13.50022802155146
 30
0.0
 10
27.97050358791659
 20
13.50025640379903
 30
0.0
  0
SPLINE
  5
1F8
330
1F
100
AcDbEntity
  8
SK1
  6
Continuous
 62
   251
420
  6974058
370
    18
100
AcDbSpline
210
0.0
220
0.0
230
1.0
 70
     8
 71
     3
 72
    16
 73
    12
 74
     0
 42
0.00000001
 43
0.00000001
 40
0.0
 40
0.0
 40
0.0
 40
0.0
 40
0.0174560764392287
 40
0.1412442805718306
 40
0.2650413201285463
 40
0.3889772688761893
 40
0.5129128155389635
 40
0.6373440920270346
 40
0.7617481572130131
 40
0.8808787708174369
 40
1.0
 40
1.0
 40
1.0
 40
1.0
 10
30.02111953578535
 20
12.44453280477083
 30
0.0
 10
30.00928456105706
 20
12.44454799635986
 30
0.0
 10
29.91352292201105
 20
12.44467091774317
 30
0.0
 10
29.73394718725236
 20
12.44832943016172
 30
0.0
 10
29.49057044042214
 20
12.45936693222416
 30
0.0
 10
29.26247230317586
 20
12.47457684777076
 30
0.0
 10
29.05499394729438
 20
12.4896754081982
 30
0.0
 10
28.87474870432821
 20
12.50038742934509
 30
0.0
 10
28.72888341394214
 20
12.50183141611597
 30
0.0
 10
28.61828374600472
 20
12.49133002994981
 30
0.0
 10
28.57656031111422
 20
12.47187579572802
 30
0.0
 10
28.55569941538416
 20
12.46214906175526
 30
0.0
  0
ELLIPSE
  5
1F9
330
1F
100
AcDbEntity
  8
1
  6
Continuous
 62
   250
420
  1644836
370
    25
100
AcDbEllipse
 10
9.9419673619
 20
0.0
 30
0.0
 11
0.0
 21
11.7
 31
0.0
210
0.0
220
0.0
230
1.0
 40
0.5773502692
 41
4.134480161793949
 42
5.290297798975475
  0
ELLIPSE
  5
1FA
330
1F
100
AcDbEntity
  8
1
  6
Continuous
 62
   250
420
  1644836
370
    25
100
AcDbEllipse
 10
10.0580326381
 20
0.0
 30
0.0
 11
0.0
 21
11.7
 31
0.0
210
0.0
220
0.0
230
1.0
 40
0.5773502692
 41
0.9928875082041267
 42
2.148705145385667
  0
ELLIPSE
  5
1FB
330
1F
100
AcDbEntity
  8
1
  6
Continuous
 62
   250
420
  1644836
370
    25
100
AcDbEllipse
 10
-85.2259454096
 20
0.0
 30
0.0
 11
688.7042369642995
 21
-7.494438073159366
 31
0.0
210
0.0
220
0.0
230
1.0
 40
0.0130456872
 41
1.430206391020021
 42
1.434382097485666
  0
ELLIPSE
  5
1FC
330
1F
100
AcDbEntity
  8
1
  6
Continuous
 62
   250
420
  1644836
370
    25
100
AcDbEllipse
 10
44.2926838073
 20
0.0
 30
0.0
 11
688.7042369643158
 21
-7.494438073159366
 31
0.0
210
0.0
220
0.0
230
1.0
 40
0.0130456872
 41
1.618285633677386
 42
1.622885683038182
  0
ELLIPSE
  5
1FD
330
1F
100
AcDbEntity
  8
1
  6
Continuous
 62
   250
420
  1644836
370
    25
100
AcDbEllipse
 10
12.7701332697
 20
0.0
 30
0.0
 11
-3.319542539420461
 21
11.6753944957937
 31
0.0
210
0.0
220
0.0
230
1.0
 40
0.2284637865
 41
0.5782596759728426
 42
0.7667632615253444
  0
ELLIPSE
  5
1FE
330
1F
100
AcDbEntity
  8
SK1
  6
Continuous
 62
   250
420
  1644836
370
    25
100
AcDbEllipse
 10
30.0211195358
 20
12.2913424982
 30
0.0
 11
1.499997336464108
 21
-0.07831239500685426
 31
0.0
210
0.0
220
0.0
230
1.0
 40
0.000017376
 41
4.588028180325113
 42
4.712389887558369
  0
ELLIPSE
  5
1FF
330
1F
100
AcDbEntity
  8
SK1
  6
Continuous
 62
   250
420
  1644836
370
    25
100
AcDbEllipse
 10
30.0211195358
 20
10.0883462545
 30
0.0
 11
1.499981422459939
 21
-0.07831156415930351
 31
0.0
210
0.0
220
0.0
230
1.0
 40
0.0000173762
 41
4.510504275433678
 42
4.712389887568873
  0
ELLIPSE
  5
200
330
1F
100
AcDbEntity
  8
SK1
  6
Continuous
 62
   250
420
  1644836
370
    25
100
AcDbEllipse
 10
39.9534578848
 20
2.2007847114
 30
0.0
 11
-6.170941086384944
 21
11.99280967184191
 31
0.0
210
0.0
220
0.0
230
1.0
 40
0.0673075078
 41
6.066823981610382
 42
6.24231579619722
  0
DIMENSION
  5
201
330
1F
100
AcDbEntity
  8
2
100
AcDbDimension
280
     0
  2
_D
 10
-28.3755385885
 20
-11.7
 30
0.0
 11
-28.3755385885
 21
0.0
 31
0.0
 70
   160
  1
%%c<>
 71
     2
 42
-1.0
 73
     0
 74
     0
 75
     0
  3
SLDDIMSTYLE0
100
AcDbAlignedDimension
 13
0.2
 23
11.7
 33
0.0
 14
0.2
 24
-11.7
 34
0.0
 50
90.0
100
AcDbRotatedDimension
  0
DIMENSION
  5
20E
330
1F
100
AcDbEntity
  8
2
100
AcDbDimension
280
     0
  2
_D_1
 10
-21.3492993252
 20
-7.0
 30
0.0
 11
-21.3492993252
 21
0.0
 31
0.0
 70
   160
  1
CKB2
 71
     2
 42
-1.0
 73
     0
 74
     0
 75
     0
  3
SLDDIMSTYLE0
100
AcDbAlignedDimension
 13
-13.75
 23
7.0
 33
0.0
 14
-13.75
 24
-7.0
 34
0.0
 50
90.0
100
AcDbRotatedDimension
  0
DIMENSION
  5
218
330
1F
100
AcDbEntity
  8
2
100
AcDbDimension
280
     0
  2
_D_2
 10
0.0
 20
22.4072980241
 30
0.0
 11
17.7246681758
 21
22.4072980241
 31
0.0
 70
   160
  1
<>
 71
     2
 42
-1.0
 73
     0
 74
     0
 75
     0
  3
SLDDIMSTYLE0
100
AcDbAlignedDimension
 13
35.4493363516
 23
14.1843620803
 33
0.0
 14
0.0
 24
11.5
 34
0.0
 50
0.0
100
AcDbRotatedDimension
  0
DIMENSION
  5
222
330
1F
100
AcDbEntity
  8
2
100
AcDbDimension
280
     0
  2
_D_3
 10
32.5
 20
-19.5981254946
 30
0.0
 11
16.25
 21
-19.5981254946
 31
0.0
 70
   160
  1
<>
 71
     2
 42
-1.0
 73
     0
 74
     0
 75
     0
  3
SLDDIMSTYLE0
100
AcDbAlignedDimension
 13
0.0
 23
-11.5
 33
0.0
 14
32.5
 24
-9.0
 34
0.0
 50
0.0
100
AcDbRotatedDimension
  0
DIMENSION
  5
22C
330
1F
100
AcDbEntity
  8
2
100
AcDbDimension
280
     0
  2
_D_4
 10
42.9381456162
 20
0.0
 30
0.0
 11
42.9381456162
 21
2.186687694
 31
0.0
 70
   160
  1
%%c25-47
 71
     2
 42
-1.0
 73
     0
 74
     0
 75
     0
  3
SLDDIMSTYLE1
100
AcDbAlignedDimension
 13
35.1509113499
 23
14.2009458639
 33
0.0
 14
34.6093455418
 24
0.0
 34
0.0
 50
90.0
100
AcDbRotatedDimension
  0
MTEXT
  5
236
330
1F
100
AcDbEntity
  8
6
100
AcDbMText
 10
1.0847045702
 20
-8.6171988173
 30
0.0
 40
2.5
 41
0.0
 46
0.0
 71
     1
 72
     1
  1
310.820
  7
SLDTEXTSTYLE0
 73
     1
 44
1.0
  0
ENDSEC
  0
SECTION
  2
OBJECTS
  0
DICTIONARY
  5
C
330
0
100
AcDbDictionary
281
     1
  3
ACAD_DETAILVIEWSTYLE
350
23E
  3
ACAD_GROUP
350
D
  3
ACAD_LAYOUT
350
1A
  3
ACAD_MATERIAL
350
43
  3
ACAD_MLEADERSTYLE
350
6B
  3
ACAD_MLINESTYLE
350
17
  3
ACAD_PLOTSETTINGS
350
19
  3
ACAD_PLOTSTYLENAME
350
E
  3
ACAD_SCALELIST
350
47
  3
ACAD_SECTIONVIEWSTYLE
350
23F
  3
ACAD_TABLESTYLE
350
69
  3
ACAD_VISUALSTYLE
350
2A
  3
ACDB_RECOMPOSE_DATA
350
23B
  3
AcDbVariableDictionary
350
237
  0
SUN
  5
6D
330
29
100
AcDbSun
 90
        1
290
     0
 63
     7
421
 16777215
 40
1.0
291
     1
 91
  2455826
 92
 54000000
292
     0
 70
     2
 71
   256
280
     1
  0
DICTIONARY
  5
23E
102
{ACAD_REACTORS
330
C
102
}
330
C
100
AcDbDictionary
281
     1
  0
DICTIONARY
  5
D
102
{ACAD_REACTORS
330
C
102
}
330
C
100
AcDbDictionary
281
     1
  0
DICTIONARY
  5
1A
102
{ACAD_REACTORS
330
C
102
}
330
C
100
AcDbDictionary
281
     1
  3
Layout1
350
1E
  3
Layout2
350
26
  3
Model
350
22
  0
DICTIONARY
  5
43
102
{ACAD_REACTORS
330
C
102
}
330
C
100
AcDbDictionary
281
     1
  3
ByBlock
350
45
  3
ByLayer
350
44
  3
Global
350
46
  0
DICTIONARY
  5
6B
102
{ACAD_REACTORS
330
C
102
}
330
C
100
AcDbDictionary
281
     1
  3
Standard
350
6C
  0
DICTIONARY
  5
17
102
{ACAD_REACTORS
330
C
102
}
330
C
100
AcDbDictionary
281
     1
  3
Standard
350
18
  0
DICTIONARY
  5
19
102
{ACAD_REACTORS
330
C
102
}
330
C
100
AcDbDictionary
281
     1
  0
ACDBDICTIONARYWDFLT
  5
E
102
{ACAD_REACTORS
330
C
102
}
330
C
100
AcDbDictionary
281
     1
  3
Normal
350
F
100
AcDbDictionaryWithDefault
340
F
  0
DICTIONARY
  5
47
102
{ACAD_REACTORS
330
C
102
}
330
C
100
AcDbDictionary
281
     1
  3
A0
350
48
  3
A1
350
49
  3
A2
350
4A
  3
A3
350
4B
  3
A4
350
4C
  3
A5
350
4D
  3
A6
350
4E
  3
A7
350
4F
  3
A8
350
50
  3
A9
350
51
  3
B0
350
52
  3
B1
350
53
  3
B2
350
54
  3
B3
350
55
  3
B4
350
56
  3
B5
350
57
  3
B6
350
58
  3
B7
350
59
  3
B8
350
5A
  3
B9
350
5B
  3
C0
350
5C
  3
C1
350
5D
  3
C2
350
5E
  3
C3
350
5F
  3
C4
350
60
  3
C5
350
61
  3
C6
350
62
  3
C7
350
63
  3
C8
350
64
  3
C9
350
65
  3
D0
350
66
  3
D1
350
67
  3
D2
350
68
  0
DICTIONARY
  5
23F
102
{ACAD_REACTORS
330
C
102
}
330
C
100
AcDbDictionary
281
     1
  0
DICTIONARY
  5
69
102
{ACAD_REACTORS
330
C
102
}
330
C
100
AcDbDictionary
281
     1
  3
Standard
350
6A
  0
DICTIONARY
  5
2A
102
{ACAD_REACTORS
330
C
102
}
330
C
100
AcDbDictionary
281
     1
  3
2dWireframe
350
2F
  3
Basic
350
32
  3
Brighten
350
36
  3
ColorChange
350
3A
  3
Conceptual
350
34
  3
Dim
350
35
  3
EdgeColorOff
350
3D
  3
Facepattern
350
39
  3
Flat
350
2B
  3
FlatWithEdges
350
2C
  3
Gouraud
350
2D
  3
GouraudWithEdges
350
2E
  3
Hidden
350
31
  3
JitterOff
350
3B
  3
Linepattern
350
38
  3
OverhangOff
350
3C
  3
Realistic
350
33
  3
Shaded
350
42
  3
Shaded with edges
350
41
  3
Shades of Gray
350
3E
  3
Sketchy
350
3F
  3
Thicken
350
37
  3
Wireframe
350
30
  3
X-Ray
350
40
  0
XRECORD
  5
23B
102
{ACAD_REACTORS
330
C
102
}
330
C
100
AcDbXrecord
280
     1
 90
        1
330
6A
  0
DICTIONARY
  5
237
102
{ACAD_REACTORS
330
C
102
}
330
C
100
AcDbDictionary
281
     1
  3
CANNOSCALE
350
238
  3
CENTEREXE
350
240
  3
CENTERLTYPEFILE
350
241
  3
CMLEADERSTYLE
350
23D
  3
CTABLESTYLE
350
23C
  0
LAYOUT
  5
1E
102
{ACAD_REACTORS
330
1A
102
}
330
1A
100
AcDbPlotSettings
  1

  2
none_device
  4

  6

 40
0.0
 41
0.0
 42
0.0
 43
0.0
 44
0.0
 45
0.0
 46
0.0
 47
0.0
 48
0.0
 49
0.0
140
0.0
141
0.0
142
1.0
143
1.0
 70
   688
 72
     1
 73
     0
 74
     5
  7

 75
    16
 76
     0
 77
     2
 78
   300
147
1.0
148
0.0
149
0.0
100
AcDbLayout
  1
Layout1
 70
     1
 71
     1
 10
0.0
 20
0.0
 11
420.0
 21
297.0
 12
0.0
 22
0.0
 32
0.0
 14
1.0000000000E+20
 24
1.0000000000E+20
 34
1.0000000000E+20
 15
-1.0000000000E+20
 25
-1.0000000000E+20
 35
-1.0000000000E+20
146
0.0
 13
0.0
 23
0.0
 33
0.0
 16
1.0
 26
0.0
 36
0.0
 17
0.0
 27
1.0
 37
0.0
 76
     0
330
1B
  0
LAYOUT
  5
26
102
{ACAD_REACTORS
330
1A
102
}
330
1A
100
AcDbPlotSettings
  1

  2
none_device
  4

  6

 40
0.0
 41
0.0
 42
0.0
 43
0.0
 44
0.0
 45
0.0
 46
0.0
 47
0.0
 48
0.0
 49
0.0
140
0.0
141
0.0
142
1.0
143
1.0
 70
   688
 72
     1
 73
     0
 74
     5
  7

 75
    16
 76
     0
 77
     2
 78
   300
147
1.0
148
0.0
149
0.0
100
AcDbLayout
  1
Layout2
 70
     1
 71
     2
 10
0.0
 20
0.0
 11
0.0
 21
0.0
 12
0.0
 22
0.0
 32
0.0
 14
0.0
 24
0.0
 34
0.0
 15
0.0
 25
0.0
 35
0.0
146
0.0
 13
0.0
 23
0.0
 33
0.0
 16
1.0
 26
0.0
 36
0.0
 17
0.0
 27
1.0
 37
0.0
 76
     0
330
23
  0
LAYOUT
  5
22
102
{ACAD_REACTORS
330
1A
102
}
330
1A
100
AcDbPlotSettings
  1

  2
none_device
  4
Letter_(8.50_x_11.00_Inches)
  6

 40
6.35
 41
6.35
 42
6.35000508
 43
6.35000508
 44
215.9
 45
279.4
 46
0.0
 47
0.0
 48
0.0
 49
0.0
140
0.0
141
0.0
142
1.0
143
1.0
 70
  1712
 72
     1
 73
     0
 74
     0
  7

 75
     0
 76
     0
 77
     2
 78
   300
147
1.0
148
0.0
149
0.0
100
AcDbLayout
  1
Model
 70
     1
 71
     0
 10
0.0
 20
0.0
 11
420.0
 21
297.0
 12
0.0
 22
0.0
 32
0.0
 14
0.0
 24
0.0
 34
0.0
 15
420.0
 25
297.0
 35
0.0
146
0.0
 13
0.0
 23
0.0
 33
0.0
 16
1.0
 26
0.0
 36
0.0
 17
0.0
 27
1.0
 37
0.0
 76
     0
330
1F
331
29
  0
MATERIAL
  5
45
102
{ACAD_REACTORS
330
43
102
}
330
43
100
AcDbMaterial
  1
ByBlock
 72
     1
 94
      127
  0
MATERIAL
  5
44
102
{ACAD_REACTORS
330
43
102
}
330
43
100
AcDbMaterial
  1
ByLayer
 72
     1
 94
      127
  0
MATERIAL
  5
46
102
{ACAD_REACTORS
330
43
102
}
330
43
100
AcDbMaterial
  1
Global
 72
     1
 94
      127
  0
MLEADERSTYLE
  5
6C
102
{ACAD_REACTORS
330
6B
102
}
330
6B
100
AcDbMLeaderStyle
179
     2
170
     2
171
     1
172
     0
 90
        2
 40
0.0
 41
0.0
173
     1
 91
-1056964608
340
14
 92
       -2
290
     1
 42
2.0
291
     1
 43
8.0
  3
Standard
341
0
 44
4.0
300

342
11
174
     1
178
     6
175
     1
176
     0
 93
-1056964608
 45
4.0
292
     0
297
     0
 46
4.0
343
0
 94
-1056964608
 47
1.0
 49
1.0
140
1.0
293
     1
141
0.0
294
     1
177
     0
142
1.0
295
     0
296
     0
143
3.75
271
     0
272
     9
273
     9
298
     0
  0
MLINESTYLE
  5
18
102
{ACAD_REACTORS
330
17
102
}
330
17
100
AcDbMlineStyle
  2
Standard
 70
     0
  3

 62
   256
 51
90.0
 52
90.0
 71
     2
 49
0.5
 62
   256
  6
BYLAYER
 49
-0.5
 62
   256
  6
BYLAYER
  0
ACDBPLACEHOLDER
  5
F
102
{ACAD_REACTORS
330
E
102
}
330
E
  0
SCALE
  5
48
102
{ACAD_REACTORS
330
47
102
}
330
47
100
AcDbScale
 70
     0
300
1:1
140
1.0
141
1.0
290
     1
  0
SCALE
  5
49
102
{ACAD_REACTORS
330
47
102
}
330
47
100
AcDbScale
 70
     0
300
1:2
140
1.0
141
2.0
290
     0
  0
SCALE
  5
4A
102
{ACAD_REACTORS
330
47
102
}
330
47
100
AcDbScale
 70
     0
300
1:4
140
1.0
141
4.0
290
     0
  0
SCALE
  5
4B
102
{ACAD_REACTORS
330
47
102
}
330
47
100
AcDbScale
 70
     0
300
1:5
140
1.0
141
5.0
290
     0
  0
SCALE
  5
4C
102
{ACAD_REACTORS
330
47
102
}
330
47
100
AcDbScale
 70
     0
300
1:8
140
1.0
141
8.0
290
     0
  0
SCALE
  5
4D
102
{ACAD_REACTORS
330
47
102
}
330
47
100
AcDbScale
 70
     0
300
1:10
140
1.0
141
10.0
290
     0
  0
SCALE
  5
4E
102
{ACAD_REACTORS
330
47
102
}
330
47
100
AcDbScale
 70
     0
300
1:16
140
1.0
141
16.0
290
     0
  0
SCALE
  5
4F
102
{ACAD_REACTORS
330
47
102
}
330
47
100
AcDbScale
 70
     0
300
1:20
140
1.0
141
20.0
290
     0
  0
SCALE
  5
50
102
{ACAD_REACTORS
330
47
102
}
330
47
100
AcDbScale
 70
     0
300
1:30
140
1.0
141
30.0
290
     0
  0
SCALE
  5
51
102
{ACAD_REACTORS
330
47
102
}
330
47
100
AcDbScale
 70
     0
300
1:40
140
1.0
141
40.0
290
     0
  0
SCALE
  5
52
102
{ACAD_REACTORS
330
47
102
}
330
47
100
AcDbScale
 70
     0
300
1:50
140
1.0
141
50.0
290
     0
  0
SCALE
  5
53
102
{ACAD_REACTORS
330
47
102
}
330
47
100
AcDbScale
 70
     0
300
1:100
140
1.0
141
100.0
290
     0
  0
SCALE
  5
54
102
{ACAD_REACTORS
330
47
102
}
330
47
100
AcDbScale
 70
     0
300
2:1
140
2.0
141
1.0
290
     0
  0
SCALE
  5
55
102
{ACAD_REACTORS
330
47
102
}
330
47
100
AcDbScale
 70
     0
300
4:1
140
4.0
141
1.0
290
     0
  0
SCALE
  5
56
102
{ACAD_REACTORS
330
47
102
}
330
47
100
AcDbScale
 70
     0
300
8:1
140
8.0
141
1.0
290
     0
  0
SCALE
  5
57
102
{ACAD_REACTORS
330
47
102
}
330
47
100
AcDbScale
 70
     0
300
10:1
140
10.0
141
1.0
290
     0
  0
SCALE
  5
58
102
{ACAD_REACTORS
330
47
102
}
330
47
100
AcDbScale
 70
     0
300
100:1
140
100.0
141
1.0
290
     0
  0
SCALE
  5
59
102
{ACAD_REACTORS
330
47
102
}
330
47
100
AcDbScale
 70
     0
300
1/128" = 1'-0"
140
0.0078125
141
12.0
290
     0
  0
SCALE
  5
5A
102
{ACAD_REACTORS
330
47
102
}
330
47
100
AcDbScale
 70
     0
300
1/64" = 1'-0"
140
0.015625
141
12.0
290
     0
  0
SCALE
  5
5B
102
{ACAD_REACTORS
330
47
102
}
330
47
100
AcDbScale
 70
     0
300
1/32" = 1'-0"
140
0.03125
141
12.0
290
     0
  0
SCALE
  5
5C
102
{ACAD_REACTORS
330
47
102
}
330
47
100
AcDbScale
 70
     0
300
1/16" = 1'-0"
140
0.0625
141
12.0
290
     0
  0
SCALE
  5
5D
102
{ACAD_REACTORS
330
47
102
}
330
47
100
AcDbScale
 70
     0
300
3/32" = 1'-0"
140
0.09375
141
12.0
290
     0
  0
SCALE
  5
5E
102
{ACAD_REACTORS
330
47
102
}
330
47
100
AcDbScale
 70
     0
300
1/8" = 1'-0"
140
0.125
141
12.0
290
     0
  0
SCALE
  5
5F
102
{ACAD_REACTORS
330
47
102
}
330
47
100
AcDbScale
 70
     0
300
3/16" = 1'-0"
140
0.1875
141
12.0
290
     0
  0
SCALE
  5
60
102
{ACAD_REACTORS
330
47
102
}
330
47
100
AcDbScale
 70
     0
300
1/4" = 1'-0"
140
0.25
141
12.0
290
     0
  0
SCALE
  5
61
102
{ACAD_REACTORS
330
47
102
}
330
47
100
AcDbScale
 70
     0
300
3/8" = 1'-0"
140
0.375
141
12.0
290
     0
  0
SCALE
  5
62
102
{ACAD_REACTORS
330
47
102
}
330
47
100
AcDbScale
 70
     0
300
1/2" = 1'-0"
140
0.5
141
12.0
290
     0
  0
SCALE
  5
63
102
{ACAD_REACTORS
330
47
102
}
330
47
100
AcDbScale
 70
     0
300
3/4" = 1'-0"
140
0.75
141
12.0
290
     0
  0
SCALE
  5
64
102
{ACAD_REACTORS
330
47
102
}
330
47
100
AcDbScale
 70
     0
300
1" = 1'-0"
140
1.0
141
12.0
290
     0
  0
SCALE
  5
65
102
{ACAD_REACTORS
330
47
102
}
330
47
100
AcDbScale
 70
     0
300
1-1/2" = 1'-0"
140
1.5
141
12.0
290
     0
  0
SCALE
  5
66
102
{ACAD_REACTORS
330
47
102
}
330
47
100
AcDbScale
 70
     0
300
3" = 1'-0"
140
3.0
141
12.0
290
     0
  0
SCALE
  5
67
102
{ACAD_REACTORS
330
47
102
}
330
47
100
AcDbScale
 70
     0
300
6" = 1'-0"
140
6.0
141
12.0
290
     0
  0
SCALE
  5
68
102
{ACAD_REACTORS
330
47
102
}
330
47
100
AcDbScale
 70
     0
300
1'-0" = 1'-0"
140
12.0
141
12.0
290
     0
  0
TABLESTYLE
  5
6A
102
{ACAD_REACTORS
330
69
102
}
102
{ACAD_XDICTIONARY
360
239
102
}
330
69
100
AcDbTableStyle
  3
Standard
 70
     0
 71
     0
 40
0.06
 41
0.06
280
     0
281
     0
  7
Standard
140
4.5
170
     2
 62
     0
 63
   257
283
     0
 90
        4
 91
        0
  1

274
    -2
284
     1
 64
     0
275
    -2
285
     1
 65
     0
276
    -2
286
     1
 66
     0
277
    -2
287
     1
 67
     0
278
    -2
288
     1
 68
     0
279
    -2
289
     1
 69
     0
  7
Standard
140
6.0
170
     5
 62
     0
 63
   257
283
     0
 90
        4
 91
        0
  1

274
    -2
284
     1
 64
     0
275
    -2
285
     1
 65
     0
276
    -2
286
     1
 66
     0
277
    -2
287
     1
 67
     0
278
    -2
288
     1
 68
     0
279
    -2
289
     1
 69
     0
  7
Standard
140
4.5
170
     5
 62
     0
 63
   257
283
     0
 90
        4
 91
        0
  1

274
    -2
284
     1
 64
     0
275
    -2
285
     1
 65
     0
276
    -2
286
     1
 66
     0
277
    -2
287
     1
 67
     0
278
    -2
288
     1
 68
     0
279
    -2
289
     1
 69
     0
  0
VISUALSTYLE
  5
2F
102
{ACAD_REACTORS
330
2A
102
}
330
2A
100
AcDbVisualStyle
  2
2dWireframe
 70
     4
177
     3
291
     0
 70
    58
 90
        0
176
     1
 90
        2
176
     1
 90
        0
176
     1
 90
        0
176
     1
 40
0.6
176
     1
 40
30.0
176
     1
 62
     7
420
 16777215
176
     1
 90
        1
176
     1
 90
        4
176
     1
 62
     7
176
     1
 62
   257
176
     1
 90
        1
176
     1
 90
        1
176
     1
 40
1.0
176
     1
 90
        0
176
     1
 62
   257
176
     1
 40
1.0
176
     1
 90
        1
176
     1
 90
        6
176
     1
 90
        2
176
     1
 62
     7
176
     1
 90
        5
176
     1
 90
        0
176
     1
 90
        0
176
     1
290
     0
176
     1
 90
        1
176
     1
 40
0.0
176
     1
 90
        0
176
     1
290
     1
176
     1
290
     1
176
     1
290
     0
176
     1
290
     0
176
     1
290
     0
176
     1
290
     0
176
     1
290
     0
176
     1
290
     0
176
     1
290
     0
176
     1
 90
       50
176
     1
 40
0.0
176
     1
 40
1.0
176
     1
 90
        0
176
     1
 62
    18
420
        0
176
     1
 90
       50
176
     1
 90
        3
176
     1
 62
     5
420
      255
176
     1
290
     0
176
     1
 90
       50
176
     1
 90
       50
176
     1
 90
       50
176
     1
290
     0
176
     1
 90
       50
176
     1
 62
   256
176
     0
 40
1.0
176
     0
 90
        2
176
     1
  1
strokes_ogs.tif
176
     1
290
     0
176
     1
 40
1.0
176
     1
 40
1.0
176
     1
  0
VISUALSTYLE
  5
32
102
{ACAD_REACTORS
330
2A
102
}
330
2A
100
AcDbVisualStyle
  2
Basic
 70
     7
177
     3
291
     1
 70
    58
 90
        1
176
     1
 90
        0
176
     1
 90
        1
176
     1
 90
        0
176
     1
 40
0.6
176
     1
 40
30.0
176
     1
 62
     7
420
 16777215
176
     1
 90
        0
176
     1
 90
        4
176
     1
 62
     7
176
     1
 62
   257
176
     1
 90
        1
176
     1
 90
        1
176
     1
 40
1.0
176
     1
 90
        8
176
     1
 62
     7
176
     1
 40
1.0
176
     1
 90
        1
176
     1
 90
        6
176
     1
 90
        2
176
     1
 62
     7
176
     1
 90
        5
176
     1
 90
        0
176
     1
 90
        0
176
     1
290
     0
176
     1
 90
        1
176
     1
 40
0.0
176
     1
 90
        0
176
     1
290
     0
176
     1
290
     1
176
     1
290
     1
176
     1
290
     0
176
     1
290
     0
176
     1
290
     0
176
     1
290
     0
176
     1
290
     0
176
     1
290
     0
176
     1
 90
       50
176
     1
 40
0.0
176
     1
 40
1.0
176
     1
 90
        0
176
     1
 62
    18
420
        0
176
     1
 90
       50
176
     1
 90
        3
176
     1
 62
     5
420
      255
176
     1
290
     0
176
     1
 90
       50
176
     1
 90
       50
176
     1
 90
       50
176
     1
290
     0
176
     1
 90
       50
176
     1
 62
   256
176
     0
 40
1.0
176
     0
 90
        2
176
     1
  1
strokes_ogs.tif
176
     1
290
     0
176
     1
 40
1.0
176
     1
 40
1.0
176
     1
  0
VISUALSTYLE
  5
36
102
{ACAD_REACTORS
330
2A
102
}
330
2A
100
AcDbVisualStyle
  2
Brighten
 70
    12
177
     3
291
     1
 70
    58
 90
        2
176
     1
 90
        2
176
     1
 90
        0
176
     1
 90
        0
176
     1
 40
0.6
176
     1
 40
30.0
176
     1
 62
     7
420
 16777215
176
     1
 90
        1
176
     1
 90
        4
176
     1
 62
     7
176
     1
 62
   257
176
     1
 90
        1
176
     1
 90
        1
176
     1
 40
1.0
176
     1
 90
        8
176
     1
 62
     7
176
     1
 40
1.0
176
     1
 90
        1
176
     1
 90
        6
176
     1
 90
        2
176
     1
 62
     7
176
     1
 90
        5
176
     1
 90
        0
176
     1
 90
        0
176
     1
290
     0
176
     1
 90
        1
176
     1
 40
50.0
176
     1
 90
        0
176
     1
290
     0
176
     1
290
     1
176
     1
290
     1
176
     1
290
     0
176
     1
290
     0
176
     1
290
     0
176
     1
290
     0
176
     1
290
     0
176
     1
290
     0
176
     1
 90
       50
176
     1
 40
0.0
176
     1
 40
1.0
176
     1
 90
        0
176
     1
 62
    18
420
        0
176
     1
 90
       50
176
     1
 90
        3
176
     1
 62
     5
420
      255
176
     1
290
     0
176
     1
 90
       50
176
     1
 90
       50
176
     1
 90
       50
176
     1
290
     0
176
     1
 90
       50
176
     1
 62
   256
176
     0
 40
1.0
176
     0
 90
        2
176
     1
  1
strokes_ogs.tif
176
     1
290
     0
176
     1
 40
1.0
176
     1
 40
1.0
176
     1
  0
VISUALSTYLE
  5
3A
102
{ACAD_REACTORS
330
2A
102
}
330
2A
100
AcDbVisualStyle
  2
ColorChange
 70
    16
177
     3
291
     1
 70
    58
 90
        2
176
     1
 90
        2
176
     1
 90
        3
176
     1
 90
        0
176
     1
 40
0.6
176
     1
 40
30.0
176
     1
 62
     8
420
  8421504
176
     1
 90
        1
176
     1
 90
        4
176
     1
 62
     7
176
     1
 62
   257
176
     1
 90
        1
176
     1
 90
        1
176
     1
 40
1.0
176
     1
 90
        8
176
     1
 62
     8
420
  8421504
176
     1
 40
1.0
176
     1
 90
        1
176
     1
 90
        6
176
     1
 90
        2
176
     1
 62
     7
176
     1
 90
        5
176
     1
 90
        0
176
     1
 90
        0
176
     1
290
     0
176
     1
 90
        1
176
     1
 40
0.0
176
     1
 90
        0
176
     1
290
     0
176
     1
290
     1
176
     1
290
     1
176
     1
290
     0
176
     1
290
     0
176
     1
290
     0
176
     1
290
     0
176
     1
290
     0
176
     1
290
     0
176
     1
 90
       50
176
     1
 40
0.0
176
     1
 40
1.0
176
     1
 90
        0
176
     1
 62
    18
420
        0
176
     1
 90
       50
176
     1
 90
        3
176
     1
 62
     5
420
      255
176
     1
290
     0
176
     1
 90
       50
176
     1
 90
       50
176
     1
 90
       50
176
     1
290
     0
176
     1
 90
       50
176
     1
 62
   256
176
     0
 40
1.0
176
     0
 90
        2
176
     1
  1
strokes_ogs.tif
176
     1
290
     0
176
     1
 40
1.0
176
     1
 40
1.0
176
     1
  0
VISUALSTYLE
  5
34
102
{ACAD_REACTORS
330
2A
102
}
330
2A
100
AcDbVisualStyle
  2
Conceptual
 70
     9
177
     3
291
     0
 70
    58
 90
        3
176
     1
 90
        2
176
     1
 90
        0
176
     1
 90
        0
176
     1
 40
0.6
176
     1
 40
30.0
176
     1
 62
     7
420
 16777215
176
     1
 90
        2
176
     1
 90
        2
176
     1
 62
     7
176
     1
 62
   257
176
     1
 90
        1
176
     1
 90
        1
176
     1
 40
179.0
176
     1
 90
        8
176
     1
 62
     7
176
     1
 40
1.0
176
     1
 90
        1
176
     1
 90
        6
176
     1
 90
        2
176
     1
 62
     7
176
     1
 90
        3
176
     1
 90
        0
176
     1
 90
        0
176
     1
290
     0
176
     1
 90
        1
176
     1
 40
0.0
176
     1
 90
        0
176
     1
290
     0
176
     1
290
     1
176
     1
290
     1
176
     1
290
     0
176
     1
290
     0
176
     1
290
     0
176
     1
290
     0
176
     1
290
     0
176
     1
290
     0
176
     1
 90
       50
176
     1
 40
0.0
176
     1
 40
1.0
176
     1
 90
        0
176
     1
 62
    18
420
        0
176
     1
 90
       50
176
     1
 90
        3
176
     1
 62
     5
420
      255
176
     1
290
     0
176
     1
 90
       50
176
     1
 90
       50
176
     1
 90
       50
176
     1
290
     0
176
     1
 90
       50
176
     1
 62
   256
176
     0
 40
1.0
176
     0
 90
        2
176
     1
  1
strokes_ogs.tif
176
     1
290
     0
176
     1
 40
1.0
176
     1
 40
1.0
176
     1
  0
VISUALSTYLE
  5
35
102
{ACAD_REACTORS
330
2A
102
}
330
2A
100
AcDbVisualStyle
  2
Dim
 70
    11
177
     3
291
     1
 70
    58
 90
        2
176
     1
 90
        2
176
     1
 90
        0
176
     1
 90
        0
176
     1
 40
0.6
176
     1
 40
30.0
176
     1
 62
     7
420
 16777215
176
     1
 90
        1
176
     1
 90
        4
176
     1
 62
     7
176
     1
 62
   257
176
     1
 90
        1
176
     1
 90
        1
176
     1
 40
1.0
176
     1
 90
        8
176
     1
 62
     7
176
     1
 40
1.0
176
     1
 90
        1
176
     1
 90
        6
176
     1
 90
        2
176
     1
 62
     7
176
     1
 90
        5
176
     1
 90
        0
176
     1
 90
        0
176
     1
290
     0
176
     1
 90
        1
176
     1
 40
-50.0
176
     1
 90
        0
176
     1
290
     0
176
     1
290
     1
176
     1
290
     1
176
     1
290
     0
176
     1
290
     0
176
     1
290
     0
176
     1
290
     0
176
     1
290
     0
176
     1
290
     0
176
     1
 90
       50
176
     1
 40
0.0
176
     1
 40
1.0
176
     1
 90
        0
176
     1
 62
    18
420
        0
176
     1
 90
       50
176
     1
 90
        3
176
     1
 62
     5
420
      255
176
     1
290
     0
176
     1
 90
       50
176
     1
 90
       50
176
     1
 90
       50
176
     1
290
     0
176
     1
 90
       50
176
     1
 62
   256
176
     0
 40
1.0
176
     0
 90
        2
176
     1
  1
strokes_ogs.tif
176
     1
290
     0
176
     1
 40
1.0
176
     1
 40
1.0
176
     1
  0
VISUALSTYLE
  5
3D
102
{ACAD_REACTORS
330
2A
102
}
330
2A
100
AcDbVisualStyle
  2
EdgeColorOff
 70
    22
177
     3
291
     1
 70
    58
 90
        2
176
     0
 90
        2
176
     0
 90
        0
176
     0
 90
        0
176
     0
 40
0.6
176
     0
 40
30.0
176
     0
 62
     7
420
 16777215
176
     0
 90
        1
176
     0
 90
        4
176
     0
 62
     7
176
     0
 62
   257
176
     0
 90
        1
176
     0
 90
        1
176
     0
 40
1.0
176
     0
 90
        8
176
     2
 62
     7
176
     0
 40
1.0
176
     0
 90
        1
176
     0
 90
        6
176
     0
 90
        2
176
     0
 62
     7
176
     0
 90
        5
176
     0
 90
        0
176
     0
 90
        0
176
     0
290
     0
176
     0
 90
        1
176
     0
 40
0.0
176
     0
 90
        0
176
     0
290
     0
176
     0
290
     1
176
     0
290
     1
176
     0
290
     0
176
     0
290
     0
176
     0
290
     0
176
     0
290
     0
176
     0
290
     0
176
     0
290
     0
176
     0
 90
       50
176
     0
 40
0.0
176
     0
 40
1.0
176
     0
 90
        0
176
     0
 62
    18
420
        0
176
     0
 90
       50
176
     0
 90
        3
176
     0
 62
     5
420
      255
176
     0
290
     0
176
     0
 90
       50
176
     0
 90
       50
176
     0
 90
       50
176
     0
290
     0
176
     0
 90
       50
176
     0
 62
   256
176
     0
 40
1.0
176
     0
 90
        2
176
     0
  1
strokes_ogs.tif
176
     0
290
     0
176
     0
 40
1.0
176
     0
 40
1.0
176
     0
  0
VISUALSTYLE
  5
39
102
{ACAD_REACTORS
330
2A
102
}
330
2A
100
AcDbVisualStyle
  2
Facepattern
 70
    15
177
     3
291
     1
 70
    58
 90
        2
176
     1
 90
        2
176
     1
 90
        0
176
     1
 90
        0
176
     1
 40
0.6
176
     1
 40
30.0
176
     1
 62
     7
420
 16777215
176
     1
 90
        1
176
     1
 90
        4
176
     1
 62
     7
176
     1
 62
   257
176
     1
 90
        1
176
     1
 90
        1
176
     1
 40
1.0
176
     1
 90
        8
176
     1
 62
     7
176
     1
 40
1.0
176
     1
 90
        1
176
     1
 90
        6
176
     1
 90
        2
176
     1
 62
     7
176
     1
 90
        5
176
     1
 90
        0
176
     1
 90
        0
176
     1
290
     0
176
     1
 90
        1
176
     1
 40
0.0
176
     1
 90
        0
176
     1
290
     0
176
     1
290
     1
176
     1
290
     1
176
     1
290
     0
176
     1
290
     0
176
     1
290
     0
176
     1
290
     0
176
     1
290
     0
176
     1
290
     0
176
     1
 90
       50
176
     1
 40
0.0
176
     1
 40
1.0
176
     1
 90
        0
176
     1
 62
    18
420
        0
176
     1
 90
       50
176
     1
 90
        3
176
     1
 62
     5
420
      255
176
     1
290
     0
176
     1
 90
       50
176
     1
 90
       50
176
     1
 90
       50
176
     1
290
     0
176
     1
 90
       50
176
     1
 62
   256
176
     0
 40
1.0
176
     0
 90
        2
176
     1
  1
strokes_ogs.tif
176
     1
290
     0
176
     1
 40
1.0
176
     1
 40
1.0
176
     1
  0
VISUALSTYLE
  5
2B
102
{ACAD_REACTORS
330
2A
102
}
330
2A
100
AcDbVisualStyle
  2
Flat
 70
     0
177
     3
291
     1
 70
    58
 90
        2
176
     1
 90
        1
176
     1
 90
        1
176
     1
 90
        2
176
     1
 40
0.6
176
     1
 40
30.0
176
     1
 62
     7
420
 16777215
176
     1
 90
        0
176
     1
 90
        0
176
     1
 62
     7
176
     1
 62
   257
176
     1
 90
        1
176
     1
 90
        1
176
     1
 40
1.0
176
     1
 90
        8
176
     1
 62
     7
176
     1
 40
1.0
176
     1
 90
        1
176
     1
 90
        6
176
     1
 90
        2
176
     1
 62
     7
176
     1
 90
        5
176
     1
 90
        0
176
     1
 90
        0
176
     1
290
     0
176
     1
 90
       13
176
     1
 40
0.0
176
     1
 90
        0
176
     1
290
     0
176
     1
290
     1
176
     1
290
     1
176
     1
290
     0
176
     1
290
     0
176
     1
290
     0
176
     1
290
     0
176
     1
290
     0
176
     1
290
     0
176
     1
 90
       50
176
     1
 40
0.0
176
     1
 40
1.0
176
     1
 90
        0
176
     1
 62
    18
420
        0
176
     1
 90
       50
176
     1
 90
        3
176
     1
 62
     5
420
      255
176
     1
290
     0
176
     1
 90
       50
176
     1
 90
       50
176
     1
 90
       50
176
     1
290
     0
176
     1
 90
       50
176
     1
 62
   256
176
     0
 40
1.0
176
     0
 90
        2
176
     1
  1
strokes_ogs.tif
176
     1
290
     0
176
     1
 40
1.0
176
     1
 40
1.0
176
     1
  0
VISUALSTYLE
  5
2C
102
{ACAD_REACTORS
330
2A
102
}
330
2A
100
AcDbVisualStyle
  2
FlatWithEdges
 70
     1
177
     3
291
     1
 70
    58
 90
        2
176
     1
 90
        1
176
     1
 90
        1
176
     1
 90
        2
176
     1
 40
0.6
176
     1
 40
30.0
176
     1
 62
     7
420
 16777215
176
     1
 90
        1
176
     1
 90
        0
176
     1
 62
     7
176
     1
 62
   257
176
     1
 90
        1
176
     1
 90
        1
176
     1
 40
1.0
176
     1
 90
        0
176
     1
 62
   257
176
     1
 40
1.0
176
     1
 90
        1
176
     1
 90
        6
176
     1
 90
        2
176
     1
 62
     7
176
     1
 90
        5
176
     1
 90
        0
176
     1
 90
        0
176
     1
290
     0
176
     1
 90
       13
176
     1
 40
0.0
176
     1
 90
        0
176
     1
290
     0
176
     1
290
     1
176
     1
290
     1
176
     1
290
     0
176
     1
290
     0
176
     1
290
     0
176
     1
290
     0
176
     1
290
     0
176
     1
290
     0
176
     1
 90
       50
176
     1
 40
0.0
176
     1
 40
1.0
176
     1
 90
        0
176
     1
 62
    18
420
        0
176
     1
 90
       50
176
     1
 90
        3
176
     1
 62
     5
420
      255
176
     1
290
     0
176
     1
 90
       50
176
     1
 90
       50
176
     1
 90
       50
176
     1
290
     0
176
     1
 90
       50
176
     1
 62
   256
176
     0
 40
1.0
176
     0
 90
        2
176
     1
  1
strokes_ogs.tif
176
     1
290
     0
176
     1
 40
1.0
176
     1
 40
1.0
176
     1
  0
VISUALSTYLE
  5
2D
102
{ACAD_REACTORS
330
2A
102
}
330
2A
100
AcDbVisualStyle
  2
Gouraud
 70
     2
177
     3
291
     1
 70
    58
 90
        2
176
     1
 90
        2
176
     1
 90
        1
176
     1
 90
        2
176
     1
 40
0.6
176
     1
 40
30.0
176
     1
 62
     7
420
 16777215
176
     1
 90
        0
176
     1
 90
        0
176
     1
 62
     7
176
     1
 62
   257
176
     1
 90
        1
176
     1
 90
        1
176
     1
 40
1.0
176
     1
 90
        0
176
     1
 62
     7
176
     1
 40
1.0
176
     1
 90
        1
176
     1
 90
        6
176
     1
 90
        2
176
     1
 62
     7
176
     1
 90
        5
176
     1
 90
        0
176
     1
 90
        0
176
     1
290
     0
176
     1
 90
       13
176
     1
 40
0.0
176
     1
 90
        0
176
     1
290
     0
176
     1
290
     1
176
     1
290
     1
176
     1
290
     0
176
     1
290
     0
176
     1
290
     0
176
     1
290
     0
176
     1
290
     0
176
     1
290
     0
176
     1
 90
       50
176
     1
 40
0.0
176
     1
 40
1.0
176
     1
 90
        0
176
     1
 62
    18
420
        0
176
     1
 90
       50
176
     1
 90
        3
176
     1
 62
     5
420
      255
176
     1
290
     0
176
     1
 90
       50
176
     1
 90
       50
176
     1
 90
       50
176
     1
290
     0
176
     1
 90
       50
176
     1
 62
   256
176
     0
 40
1.0
176
     0
 90
        2
176
     1
  1
strokes_ogs.tif
176
     1
290
     0
176
     1
 40
1.0
176
     1
 40
1.0
176
     1
  0
VISUALSTYLE
  5
2E
102
{ACAD_REACTORS
330
2A
102
}
330
2A
100
AcDbVisualStyle
  2
GouraudWithEdges
 70
     3
177
     3
291
     1
 70
    58
 90
        2
176
     1
 90
        2
176
     1
 90
        1
176
     1
 90
        2
176
     1
 40
0.6
176
     1
 40
30.0
176
     1
 62
     7
420
 16777215
176
     1
 90
        1
176
     1
 90
        0
176
     1
 62
     7
176
     1
 62
   257
176
     1
 90
        1
176
     1
 90
        1
176
     1
 40
1.0
176
     1
 90
        0
176
     1
 62
   257
176
     1
 40
1.0
176
     1
 90
        1
176
     1
 90
        6
176
     1
 90
        2
176
     1
 62
     7
176
     1
 90
        5
176
     1
 90
        0
176
     1
 90
        0
176
     1
290
     0
176
     1
 90
       13
176
     1
 40
0.0
176
     1
 90
        0
176
     1
290
     0
176
     1
290
     1
176
     1
290
     1
176
     1
290
     0
176
     1
290
     0
176
     1
290
     0
176
     1
290
     0
176
     1
290
     0
176
     1
290
     0
176
     1
 90
       50
176
     1
 40
0.0
176
     1
 40
1.0
176
     1
 90
        0
176
     1
 62
    18
420
        0
176
     1
 90
       50
176
     1
 90
        3
176
     1
 62
     5
420
      255
176
     1
290
     0
176
     1
 90
       50
176
     1
 90
       50
176
     1
 90
       50
176
     1
290
     0
176
     1
 90
       50
176
     1
 62
   256
176
     0
 40
1.0
176
     0
 90
        2
176
     1
  1
strokes_ogs.tif
176
     1
290
     0
176
     1
 40
1.0
176
     1
 40
1.0
176
     1
  0
VISUALSTYLE
  5
31
102
{ACAD_REACTORS
330
2A
102
}
330
2A
100
AcDbVisualStyle
  2
Hidden
 70
     6
177
     3
291
     0
 70
    58
 90
        1
176
     1
 90
        2
176
     1
 90
        2
176
     1
 90
        0
176
     1
 40
0.6
176
     1
 40
30.0
176
     1
 62
     7
420
 16777215
176
     1
 90
        2
176
     1
 90
        2
176
     1
 62
     7
176
     1
 62
   257
176
     1
 90
        2
176
     1
 90
        1
176
     1
 40
40.0
176
     1
 90
        0
176
     1
 62
   257
176
     1
 40
1.0
176
     1
 90
        1
176
     1
 90
        6
176
     1
 90
        2
176
     1
 62
     7
176
     1
 90
        3
176
     1
 90
        0
176
     1
 90
        0
176
     1
290
     0
176
     1
 90
        1
176
     1
 40
0.0
176
     1
 90
        0
176
     1
290
     0
176
     1
290
     1
176
     1
290
     1
176
     1
290
     0
176
     1
290
     0
176
     1
290
     0
176
     1
290
     0
176
     1
290
     0
176
     1
290
     0
176
     1
 90
       50
176
     1
 40
0.0
176
     1
 40
1.0
176
     1
 90
        0
176
     1
 62
    18
420
        0
176
     1
 90
       50
176
     1
 90
        3
176
     1
 62
     5
420
      255
176
     1
290
     0
176
     1
 90
       50
176
     1
 90
       50
176
     1
 90
       50
176
     1
290
     0
176
     1
 90
       50
176
     1
 62
   256
176
     0
 40
1.0
176
     0
 90
        2
176
     1
  1
strokes_ogs.tif
176
     1
290
     0
176
     1
 40
1.0
176
     1
 40
1.0
176
     1
  0
VISUALSTYLE
  5
3B
102
{ACAD_REACTORS
330
2A
102
}
330
2A
100
AcDbVisualStyle
  2
JitterOff
 70
    20
177
     3
291
     1
 70
    58
 90
        2
176
     0
 90
        2
176
     0
 90
        0
176
     0
 90
        0
176
     0
 40
0.6
176
     0
 40
30.0
176
     0
 62
     7
420
 16777215
176
     0
 90
        1
176
     0
 90
        4
176
     0
 62
     7
176
     0
 62
   257
176
     0
 90
        1
176
     0
 90
        1
176
     0
 40
1.0
176
     0
 90
       10
176
     2
 62
     7
176
     0
 40
1.0
176
     0
 90
        1
176
     0
 90
        6
176
     0
 90
        2
176
     0
 62
     7
176
     0
 90
        5
176
     0
 90
        0
176
     0
 90
        0
176
     0
290
     0
176
     0
 90
        1
176
     0
 40
0.0
176
     0
 90
        0
176
     0
290
     0
176
     0
290
     1
176
     0
290
     1
176
     0
290
     0
176
     0
290
     0
176
     0
290
     0
176
     0
290
     0
176
     0
290
     0
176
     0
290
     0
176
     0
 90
       50
176
     0
 40
0.0
176
     0
 40
1.0
176
     0
 90
        0
176
     0
 62
    18
420
        0
176
     0
 90
       50
176
     0
 90
        3
176
     0
 62
     5
420
      255
176
     0
290
     0
176
     0
 90
       50
176
     0
 90
       50
176
     0
 90
       50
176
     0
290
     0
176
     0
 90
       50
176
     0
 62
   256
176
     0
 40
1.0
176
     0
 90
        2
176
     0
  1
strokes_ogs.tif
176
     0
290
     0
176
     0
 40
1.0
176
     0
 40
1.0
176
     0
  0
VISUALSTYLE
  5
38
102
{ACAD_REACTORS
330
2A
102
}
330
2A
100
AcDbVisualStyle
  2
Linepattern
 70
    14
177
     3
291
     1
 70
    58
 90
        2
176
     1
 90
        2
176
     1
 90
        0
176
     1
 90
        0
176
     1
 40
0.6
176
     1
 40
30.0
176
     1
 62
     7
420
 16777215
176
     1
 90
        1
176
     1
 90
        4
176
     1
 62
     7
176
     1
 62
   257
176
     1
 90
        7
176
     1
 90
        7
176
     1
 40
1.0
176
     1
 90
        8
176
     1
 62
     7
176
     1
 40
1.0
176
     1
 90
        1
176
     1
 90
        6
176
     1
 90
        2
176
     1
 62
     7
176
     1
 90
        5
176
     1
 90
        0
176
     1
 90
        0
176
     1
290
     0
176
     1
 90
        1
176
     1
 40
0.0
176
     1
 90
        0
176
     1
290
     0
176
     1
290
     1
176
     1
290
     1
176
     1
290
     0
176
     1
290
     0
176
     1
290
     0
176
     1
290
     0
176
     1
290
     0
176
     1
290
     0
176
     1
 90
       50
176
     1
 40
0.0
176
     1
 40
1.0
176
     1
 90
        0
176
     1
 62
    18
420
        0
176
     1
 90
       50
176
     1
 90
        3
176
     1
 62
     5
420
      255
176
     1
290
     0
176
     1
 90
       50
176
     1
 90
       50
176
     1
 90
       50
176
     1
290
     0
176
     1
 90
       50
176
     1
 62
   256
176
     0
 40
1.0
176
     0
 90
        2
176
     1
  1
strokes_ogs.tif
176
     1
290
     0
176
     1
 40
1.0
176
     1
 40
1.0
176
     1
  0
VISUALSTYLE
  5
3C
102
{ACAD_REACTORS
330
2A
102
}
330
2A
100
AcDbVisualStyle
  2
OverhangOff
 70
    21
177
     3
291
     1
 70
    58
 90
        2
176
     0
 90
        2
176
     0
 90
        0
176
     0
 90
        0
176
     0
 40
0.6
176
     0
 40
30.0
176
     0
 62
     7
420
 16777215
176
     0
 90
        1
176
     0
 90
        4
176
     0
 62
     7
176
     0
 62
   257
176
     0
 90
        1
176
     0
 90
        1
176
     0
 40
1.0
176
     0
 90
        9
176
     2
 62
     7
176
     0
 40
1.0
176
     0
 90
        1
176
     0
 90
        6
176
     0
 90
        2
176
     0
 62
     7
176
     0
 90
        5
176
     0
 90
        0
176
     0
 90
        0
176
     0
290
     0
176
     0
 90
        1
176
     0
 40
0.0
176
     0
 90
        0
176
     0
290
     0
176
     0
290
     1
176
     0
290
     1
176
     0
290
     0
176
     0
290
     0
176
     0
290
     0
176
     0
290
     0
176
     0
290
     0
176
     0
290
     0
176
     0
 90
       50
176
     0
 40
0.0
176
     0
 40
1.0
176
     0
 90
        0
176
     0
 62
    18
420
        0
176
     0
 90
       50
176
     0
 90
        3
176
     0
 62
     5
420
      255
176
     0
290
     0
176
     0
 90
       50
176
     0
 90
       50
176
     0
 90
       50
176
     0
290
     0
176
     0
 90
       50
176
     0
 62
   256
176
     0
 40
1.0
176
     0
 90
        2
176
     0
  1
strokes_ogs.tif
176
     0
290
     0
176
     0
 40
1.0
176
     0
 40
1.0
176
     0
  0
VISUALSTYLE
  5
33
102
{ACAD_REACTORS
330
2A
102
}
330
2A
100
AcDbVisualStyle
  2
Realistic
 70
     8
177
     3
291
     0
 70
    58
 90
        2
176
     1
 90
        3
176
     1
 90
        0
176
     1
 90
        2
176
     1
 40
0.6
176
     1
 40
30.0
176
     1
 62
     7
420
 16777215
176
     1
 90
        0
176
     1
 90
        0
176
     1
 62
     7
176
     1
 62
   257
176
     1
 90
        1
176
     1
 90
        1
176
     1
 40
1.0
176
     1
 90
        8
176
     1
 62
   257
176
     1
 40
1.0
176
     1
 90
        1
176
     1
 90
        6
176
     1
 90
        2
176
     1
 62
     7
176
     1
 90
        3
176
     1
 90
        0
176
     1
 90
        0
176
     1
290
     0
176
     1
 90
       13
176
     1
 40
0.0
176
     1
 90
        0
176
     1
290
     0
176
     1
290
     1
176
     1
290
     1
176
     1
290
     0
176
     1
290
     0
176
     1
290
     0
176
     1
290
     0
176
     1
290
     0
176
     1
290
     0
176
     1
 90
       50
176
     1
 40
0.0
176
     1
 40
1.0
176
     1
 90
        0
176
     1
 62
    18
420
        0
176
     1
 90
       50
176
     1
 90
        3
176
     1
 62
     5
420
      255
176
     1
290
     0
176
     1
 90
       50
176
     1
 90
       50
176
     1
 90
       50
176
     1
290
     0
176
     1
 90
       50
176
     1
 62
   256
176
     0
 40
1.0
176
     0
 90
        2
176
     1
  1
strokes_ogs.tif
176
     1
290
     0
176
     1
 40
1.0
176
     1
 40
1.0
176
     1
  0
VISUALSTYLE
  5
42
102
{ACAD_REACTORS
330
2A
102
}
330
2A
100
AcDbVisualStyle
  2
Shaded
 70
    27
177
     3
291
     0
 70
    58
 90
        2
176
     1
 90
        2
176
     1
 90
        1
176
     1
 90
        2
176
     1
 40
0.6
176
     1
 40
30.0
176
     1
 62
     7
420
 16777215
176
     1
 90
        0
176
     1
 90
        4
176
     1
 62
     7
176
     1
 62
   257
176
     1
 90
        1
176
     1
 90
        1
176
     1
 40
1.0
176
     1
 90
        8
176
     1
 62
   257
176
     1
 40
1.0
176
     1
 90
        1
176
     1
 90
        6
176
     1
 90
        2
176
     1
 62
     8
420
  7895160
176
     1
 90
        3
176
     1
 90
        0
176
     1
 90
        0
176
     1
290
     0
176
     1
 90
        5
176
     1
 40
0.0
176
     1
 90
        0
176
     1
290
     0
176
     1
290
     1
176
     1
290
     1
176
     1
290
     0
176
     1
290
     0
176
     1
290
     0
176
     1
290
     0
176
     1
290
     0
176
     1
290
     0
176
     1
 90
       50
176
     1
 40
0.0
176
     1
 40
1.0
176
     1
 90
        0
176
     1
 62
    18
420
        0
176
     1
 90
       50
176
     1
 90
        3
176
     1
 62
     5
420
      255
176
     1
290
     0
176
     1
 90
       50
176
     1
 90
       50
176
     1
 90
       50
176
     1
290
     0
176
     1
 90
       50
176
     1
 62
   256
176
     0
 40
1.0
176
     0
 90
        2
176
     1
  1
strokes_ogs.tif
176
     1
290
     0
176
     1
 40
1.0
176
     1
 40
1.0
176
     1
  0
VISUALSTYLE
  5
41
102
{ACAD_REACTORS
330
2A
102
}
330
2A
100
AcDbVisualStyle
  2
Shaded with edges
 70
    26
177
     3
291
     0
 70
    58
 90
        2
176
     1
 90
        2
176
     1
 90
        1
176
     1
 90
        2
176
     1
 40
0.6
176
     1
 40
30.0
176
     1
 62
     7
420
 16777215
176
     1
 90
        1
176
     1
 90
       10
176
     1
 62
     7
176
     1
 62
   257
176
     1
 90
        2
176
     1
 90
        1
176
     1
 40
1.0
176
     1
 90
        8
176
     1
 62
   257
176
     1
 40
1.0
176
     1
 90
        1
176
     1
 90
        6
176
     1
 90
        2
176
     1
 62
     7
176
     1
 90
        3
176
     1
 90
        0
176
     1
 90
        0
176
     1
290
     0
176
     1
 90
        5
176
     1
 40
0.0
176
     1
 90
        0
176
     1
290
     0
176
     1
290
     1
176
     1
290
     1
176
     1
290
     0
176
     1
290
     0
176
     1
290
     0
176
     1
290
     0
176
     1
290
     0
176
     1
290
     0
176
     1
 90
       50
176
     1
 40
0.0
176
     1
 40
1.0
176
     1
 90
        0
176
     1
 62
    18
420
        0
176
     1
 90
       50
176
     1
 90
        3
176
     1
 62
     5
420
      255
176
     1
290
     0
176
     1
 90
       50
176
     1
 90
       50
176
     1
 90
       50
176
     1
290
     0
176
     1
 90
       50
176
     1
 62
   256
176
     0
 40
1.0
176
     0
 90
        2
176
     1
  1
strokes_ogs.tif
176
     1
290
     0
176
     1
 40
1.0
176
     1
 40
1.0
176
     1
  0
VISUALSTYLE
  5
3E
102
{ACAD_REACTORS
330
2A
102
}
330
2A
100
AcDbVisualStyle
  2
Shades of Gray
 70
    23
177
     3
291
     0
 70
    58
 90
        2
176
     1
 90
        2
176
     1
 90
        3
176
     1
 90
        0
176
     1
 40
0.6
176
     1
 40
30.0
176
     1
 62
     7
420
 16777215
176
     1
 90
        2
176
     1
 90
        2
176
     1
 62
     7
176
     1
 62
     7
176
     1
 90
        1
176
     1
 90
        1
176
     1
 40
40.0
176
     1
 90
        8
176
     1
 62
     7
176
     1
 40
1.0
176
     1
 90
        1
176
     1
 90
        6
176
     1
 90
        2
176
     1
 62
     7
176
     1
 90
        3
176
     1
 90
        0
176
     1
 90
        0
176
     1
290
     0
176
     1
 90
        1
176
     1
 40
0.0
176
     1
 90
        0
176
     1
290
     0
176
     1
290
     1
176
     1
290
     1
176
     1
290
     0
176
     1
290
     0
176
     1
290
     0
176
     1
290
     0
176
     1
290
     0
176
     1
290
     0
176
     1
 90
       50
176
     1
 40
0.0
176
     1
 40
1.0
176
     1
 90
        0
176
     1
 62
    18
420
        0
176
     1
 90
       50
176
     1
 90
        3
176
     1
 62
     5
420
      255
176
     1
290
     0
176
     1
 90
       50
176
     1
 90
       50
176
     1
 90
       50
176
     1
290
     0
176
     1
 90
       50
176
     1
 62
   256
176
     0
 40
1.0
176
     0
 90
        2
176
     1
  1
strokes_ogs.tif
176
     1
290
     0
176
     1
 40
1.0
176
     1
 40
1.0
176
     1
  0
VISUALSTYLE
  5
3F
102
{ACAD_REACTORS
330
2A
102
}
330
2A
100
AcDbVisualStyle
  2
Sketchy
 70
    24
177
     3
291
     0
 70
    58
 90
        1
176
     1
 90
        2
176
     1
 90
        2
176
     1
 90
        0
176
     1
 40
0.6
176
     1
 40
30.0
176
     1
 62
     7
420
 16777215
176
     1
 90
        2
176
     1
 90
        2
176
     1
 62
     7
176
     1
 62
     7
176
     1
 90
        1
176
     1
 90
        1
176
     1
 40
40.0
176
     1
 90
       11
176
     1
 62
     7
176
     1
 40
1.0
176
     1
 90
        1
176
     1
 90
        6
176
     1
 90
        2
176
     1
 62
     7
176
     1
 90
        6
176
     1
 90
        0
176
     1
 90
        0
176
     1
290
     0
176
     1
 90
        1
176
     1
 40
0.0
176
     1
 90
        0
176
     1
290
     0
176
     1
290
     1
176
     1
290
     1
176
     1
290
     0
176
     1
290
     0
176
     1
290
     0
176
     1
290
     0
176
     1
290
     0
176
     1
290
     0
176
     1
 90
       50
176
     1
 40
0.0
176
     1
 40
1.0
176
     1
 90
        0
176
     1
 62
    18
420
        0
176
     1
 90
       50
176
     1
 90
        3
176
     1
 62
     5
420
      255
176
     1
290
     0
176
     1
 90
       50
176
     1
 90
       50
176
     1
 90
       50
176
     1
290
     0
176
     1
 90
       50
176
     1
 62
   256
176
     0
 40
1.0
176
     0
 90
        2
176
     1
  1
strokes_ogs.tif
176
     1
290
     0
176
     1
 40
1.0
176
     1
 40
1.0
176
     1
  0
VISUALSTYLE
  5
37
102
{ACAD_REACTORS
330
2A
102
}
330
2A
100
AcDbVisualStyle
  2
Thicken
 70
    13
177
     3
291
     1
 70
    58
 90
        2
176
     1
 90
        2
176
     1
 90
        0
176
     1
 90
        0
176
     1
 40
0.6
176
     1
 40
30.0
176
     1
 62
     7
420
 16777215
176
     1
 90
        1
176
     1
 90
        4
176
     1
 62
     7
176
     1
 62
   257
176
     1
 90
        1
176
     1
 90
        1
176
     1
 40
1.0
176
     1
 90
       12
176
     1
 62
     7
176
     1
 40
1.0
176
     1
 90
        1
176
     1
 90
        6
176
     1
 90
        2
176
     1
 62
     7
176
     1
 90
        5
176
     1
 90
        0
176
     1
 90
        0
176
     1
290
     0
176
     1
 90
        1
176
     1
 40
0.0
176
     1
 90
        0
176
     1
290
     0
176
     1
290
     1
176
     1
290
     1
176
     1
290
     0
176
     1
290
     0
176
     1
290
     0
176
     1
290
     0
176
     1
290
     0
176
     1
290
     0
176
     1
 90
       50
176
     1
 40
0.0
176
     1
 40
1.0
176
     1
 90
        0
176
     1
 62
    18
420
        0
176
     1
 90
       50
176
     1
 90
        3
176
     1
 62
     5
420
      255
176
     1
290
     0
176
     1
 90
       50
176
     1
 90
       50
176
     1
 90
       50
176
     1
290
     0
176
     1
 90
       50
176
     1
 62
   256
176
     0
 40
1.0
176
     0
 90
        2
176
     1
  1
strokes_ogs.tif
176
     1
290
     0
176
     1
 40
1.0
176
     1
 40
1.0
176
     1
  0
VISUALSTYLE
  5
30
102
{ACAD_REACTORS
330
2A
102
}
330
2A
100
AcDbVisualStyle
  2
Wireframe
 70
     5
177
     3
291
     0
 70
    58
 90
        0
176
     1
 90
        2
176
     1
 90
        0
176
     1
 90
        0
176
     1
 40
0.6
176
     1
 40
30.0
176
     1
 62
     7
420
 16777215
176
     1
 90
        1
176
     1
 90
        4
176
     1
 62
     7
176
     1
 62
   257
176
     1
 90
        1
176
     1
 90
        1
176
     1
 40
1.0
176
     1
 90
        0
176
     1
 62
   257
176
     1
 40
1.0
176
     1
 90
        1
176
     1
 90
        6
176
     1
 90
        2
176
     1
 62
     7
176
     1
 90
        3
176
     1
 90
        0
176
     1
 90
        0
176
     1
290
     0
176
     1
 90
        1
176
     1
 40
0.0
176
     1
 90
        0
176
     1
290
     0
176
     1
290
     1
176
     1
290
     1
176
     1
290
     0
176
     1
290
     0
176
     1
290
     0
176
     1
290
     0
176
     1
290
     0
176
     1
290
     0
176
     1
 90
       50
176
     1
 40
0.0
176
     1
 40
1.0
176
     1
 90
        0
176
     1
 62
    18
420
        0
176
     1
 90
       50
176
     1
 90
        3
176
     1
 62
     5
420
      255
176
     1
290
     0
176
     1
 90
       50
176
     1
 90
       50
176
     1
 90
       50
176
     1
290
     0
176
     1
 90
       50
176
     1
 62
   256
176
     0
 40
1.0
176
     0
 90
        2
176
     1
  1
strokes_ogs.tif
176
     1
290
     0
176
     1
 40
1.0
176
     1
 40
1.0
176
     1
  0
VISUALSTYLE
  5
40
102
{ACAD_REACTORS
330
2A
102
}
330
2A
100
AcDbVisualStyle
  2
X-Ray
 70
    25
177
     3
291
     0
 70
    58
 90
        2
176
     1
 90
        2
176
     1
 90
        1
176
     1
 90
        1
176
     1
 40
0.5
176
     1
 40
30.0
176
     1
 62
     7
420
 16777215
176
     1
 90
        1
176
     1
 90
        0
176
     1
 62
     7
176
     1
 62
   257
176
     1
 90
        1
176
     1
 90
        1
176
     1
 40
1.0
176
     1
 90
        8
176
     1
 62
     7
176
     1
 40
1.0
176
     1
 90
        1
176
     1
 90
        6
176
     1
 90
        2
176
     1
 62
     7
176
     1
 90
        3
176
     1
 90
        0
176
     1
 90
        0
176
     1
290
     0
176
     1
 90
       13
176
     1
 40
0.0
176
     1
 90
        0
176
     1
290
     0
176
     1
290
     1
176
     1
290
     1
176
     1
290
     0
176
     1
290
     0
176
     1
290
     0
176
     1
290
     0
176
     1
290
     0
176
     1
290
     0
176
     1
 90
       50
176
     1
 40
0.0
176
     1
 40
1.0
176
     1
 90
        0
176
     1
 62
    18
420
        0
176
     1
 90
       50
176
     1
 90
        3
176
     1
 62
     5
420
      255
176
     1
290
     0
176
     1
 90
       50
176
     1
 90
       50
176
     1
 90
       50
176
     1
290
     0
176
     1
 90
       50
176
     1
 62
   256
176
     0
 40
1.0
176
     0
 90
        2
176
     1
  1
strokes_ogs.tif
176
     1
290
     0
176
     1
 40
1.0
176
     1
 40
1.0
176
     1
  0
DICTIONARYVAR
  5
238
102
{ACAD_REACTORS
330
237
102
}
330
237
100
DictionaryVariables
280
     0
  1
1:1
  0
DICTIONARYVAR
  5
240
102
{ACAD_REACTORS
330
237
102
}
330
237
100
DictionaryVariables
280
     0
  1
3.500000
  0
DICTIONARYVAR
  5
241
102
{ACAD_REACTORS
330
237
102
}
330
237
100
DictionaryVariables
280
     0
  1
acadiso.lin
  0
DICTIONARYVAR
  5
23D
102
{ACAD_REACTORS
330
237
102
}
330
237
100
DictionaryVariables
280
     0
  1
Standard
  0
DICTIONARYVAR
  5
23C
102
{ACAD_REACTORS
330
237
102
}
330
237
100
DictionaryVariables
280
     0
  1
Standard
  0
DICTIONARY
  5
239
330
6A
100
AcDbDictionary
280
     1
281
     1
  3
ACAD_ROUNDTRIP_2008_TABLESTYLE_CELLSTYLEMAP
360
23A
  0
CELLSTYLEMAP
  5
23A
102
{ACAD_REACTORS
330
239
102
}
330
239
100
AcDbCellStyleMap
 90
        3
300
CELLSTYLE
  1
TABLEFORMAT_BEGIN
 90
        5
170
     1
 91
        0
 92
    32768
 62
   257
 93
        1
300
CONTENTFORMAT
  1
CONTENTFORMAT_BEGIN
 90
        0
 91
        0
 92
        4
 93
        0
300

 40
0.0
140
1.0
 94
        5
 62
     0
340
11
144
6.0
309
CONTENTFORMAT_END
171
     1
301
MARGIN
  1
CELLMARGIN_BEGIN
 40
1.5
 40
1.5
 40
1.5
 40
1.5
 40
1.5
 40
1.5
309
CELLMARGIN_END
 94
        6
 95
        1
302
GRIDFORMAT
  1
GRIDFORMAT_BEGIN
 90
        0
 91
        1
 62
     0
 92
       -2
340
14
 93
        0
 40
0.045
309
GRIDFORMAT_END
 95
        2
302
GRIDFORMAT
  1
GRIDFORMAT_BEGIN
 90
        0
 91
        1
 62
     0
 92
       -2
340
14
 93
        0
 40
0.045
309
GRIDFORMAT_END
 95
        4
302
GRIDFORMAT
  1
GRIDFORMAT_BEGIN
 90
        0
 91
        1
 62
     0
 92
       -2
340
14
 93
        0
 40
0.045
309
GRIDFORMAT_END
 95
        8
302
GRIDFORMAT
  1
GRIDFORMAT_BEGIN
 90
        0
 91
        1
 62
     0
 92
       -2
340
14
 93
        0
 40
0.045
309
GRIDFORMAT_END
 95
       16
302
GRIDFORMAT
  1
GRIDFORMAT_BEGIN
 90
        0
 91
        1
 62
     0
 92
       -2
340
14
 93
        0
 40
0.045
309
GRIDFORMAT_END
 95
       32
302
GRIDFORMAT
  1
GRIDFORMAT_BEGIN
 90
        0
 91
        1
 62
     0
 92
       -2
340
14
 93
        0
 40
0.045
309
GRIDFORMAT_END
309
TABLEFORMAT_END
  1
CELLSTYLE_BEGIN
 90
        1
 91
        1
300
_TITLE
309
CELLSTYLE_END
300
CELLSTYLE
  1
TABLEFORMAT_BEGIN
 90
        5
170
     1
 91
        0
 92
        0
 62
   257
 93
        1
300
CONTENTFORMAT
  1
CONTENTFORMAT_BEGIN
 90
        0
 91
        0
 92
        4
 93
        0
300

 40
0.0
140
1.0
 94
        5
 62
     0
340
11
144
4.5
309
CONTENTFORMAT_END
171
     1
301
MARGIN
  1
CELLMARGIN_BEGIN
 40
1.5
 40
1.5
 40
1.5
 40
1.5
 40
1.5
 40
1.5
309
CELLMARGIN_END
 94
        6
 95
        1
302
GRIDFORMAT
  1
GRIDFORMAT_BEGIN
 90
        0
 91
        1
 62
     0
 92
       -2
340
14
 93
        0
 40
0.045
309
GRIDFORMAT_END
 95
        2
302
GRIDFORMAT
  1
GRIDFORMAT_BEGIN
 90
        0
 91
        1
 62
     0
 92
       -2
340
14
 93
        0
 40
0.045
309
GRIDFORMAT_END
 95
        4
302
GRIDFORMAT
  1
GRIDFORMAT_BEGIN
 90
        0
 91
        1
 62
     0
 92
       -2
340
14
 93
        0
 40
0.045
309
GRIDFORMAT_END
 95
        8
302
GRIDFORMAT
  1
GRIDFORMAT_BEGIN
 90
        0
 91
        1
 62
     0
 92
       -2
340
14
 93
        0
 40
0.045
309
GRIDFORMAT_END
 95
       16
302
GRIDFORMAT
  1
GRIDFORMAT_BEGIN
 90
        0
 91
        1
 62
     0
 92
       -2
340
14
 93
        0
 40
0.045
309
GRIDFORMAT_END
 95
       32
302
GRIDFORMAT
  1
GRIDFORMAT_BEGIN
 90
        0
 91
        1
 62
     0
 92
       -2
340
14
 93
        0
 40
0.045
309
GRIDFORMAT_END
309
TABLEFORMAT_END
  1
CELLSTYLE_BEGIN
 90
        2
 91
        1
300
_HEADER
309
CELLSTYLE_END
300
CELLSTYLE
  1
TABLEFORMAT_BEGIN
 90
        5
170
     1
 91
        0
 92
        0
 62
   257
 93
        1
300
CONTENTFORMAT
  1
CONTENTFORMAT_BEGIN
 90
        0
 91
        0
 92
        4
 93
        0
300

 40
0.0
140
1.0
 94
        2
 62
     0
340
11
144
4.5
309
CONTENTFORMAT_END
171
     1
301
MARGIN
  1
CELLMARGIN_BEGIN
 40
1.5
 40
1.5
 40
1.5
 40
1.5
 40
1.5
 40
1.5
309
CELLMARGIN_END
 94
        6
 95
        1
302
GRIDFORMAT
  1
GRIDFORMAT_BEGIN
 90
        0
 91
        1
 62
     0
 92
       -2
340
14
 93
        0
 40
0.045
309
GRIDFORMAT_END
 95
        2
302
GRIDFORMAT
  1
GRIDFORMAT_BEGIN
 90
        0
 91
        1
 62
     0
 92
       -2
340
14
 93
        0
 40
0.045
309
GRIDFORMAT_END
 95
        4
302
GRIDFORMAT
  1
GRIDFORMAT_BEGIN
 90
        0
 91
        1
 62
     0
 92
       -2
340
14
 93
        0
 40
0.045
309
GRIDFORMAT_END
 95
        8
302
GRIDFORMAT
  1
GRIDFORMAT_BEGIN
 90
        0
 91
        1
 62
     0
 92
       -2
340
14
 93
        0
 40
0.045
309
GRIDFORMAT_END
 95
       16
302
GRIDFORMAT
  1
GRIDFORMAT_BEGIN
 90
        0
 91
        1
 62
     0
 92
       -2
340
14
 93
        0
 40
0.045
309
GRIDFORMAT_END
 95
       32
302
GRIDFORMAT
  1
GRIDFORMAT_BEGIN
 90
        0
 91
        1
 62
     0
 92
       -2
340
14
 93
        0
 40
0.045
309
GRIDFORMAT_END
309
TABLEFORMAT_END
  1
CELLSTYLE_BEGIN
 90
        3
 91
        2
300
_DATA
309
CELLSTYLE_END
  0
ENDSEC
  0
EOF
